osu file format v14

[General]
AudioFilename: Lv20,24 banana man.mp3
AudioLeadIn: 0
PreviewTime: -1
Countdown: 0
SampleSet: None
StackLeniency: 0.7
Mode: 3
LetterboxInBreaks: 1
SpecialStyle: 0
WidescreenStoryboard: 1

[Editor]
Bookmarks: 58888
DistanceSpacing: 1.3
BeatDivisor: 16
GridSize: 8
TimelineZoom: 1.1

[Metadata]
Title:Gems Pack 2 - Disaster
TitleUnicode:Gems Pack 2 - Disaster
Artist:gems
ArtistUnicode:gems
Creator:gemboyong
Version:16 - sa10, banana man
Source:BMS
Tags:
BeatmapID:749368
BeatmapSetID:338726

[Difficulty]
HPDrainRate:7
CircleSize:4
OverallDifficulty:7
ApproachRate:5
SliderMultiplier:1.4
SliderTickRate:1

[Events]
//Background and Video events
0,0,"title.png",0,0
//Break Periods
//Storyboard Layer 0 (Background)
//Storyboard Layer 1 (Fail)
//Storyboard Layer 2 (Pass)
//Storyboard Layer 3 (Foreground)
//Storyboard Sound Samples
Sample,1777,0,"elevate.ogg",70
Sample,3555,0,"rev_stab.ogg",70
Sample,10666,0,"rev_stab.ogg",70
Sample,17777,0,"rev_stab.ogg",70
Sample,23111,0,"voxa01.ogg",70
Sample,23111,0,"perc01.ogg",70
Sample,23333,0,"perc03.ogg",70
Sample,23444,0,"perc04.ogg",70
Sample,23444,0,"voxa03.ogg",70
Sample,23777,0,"tt03.ogg",70
Sample,23777,0,"perc07.ogg",70
Sample,24222,0,"perc09.ogg",70
Sample,24444,0,"perc11.ogg",70
Sample,24666,0,"perc12.ogg",70
Sample,24888,0,"tt02.ogg",70
Sample,24888,0,"rev_stab.ogg",70
Sample,24888,0,"perc13.ogg",70
Sample,24888,0,"voxa01.ogg",70
Sample,25111,0,"voxa02.ogg",70
Sample,25111,0,"perc15.ogg",70
Sample,25222,0,"perc16.ogg",70
Sample,25777,0,"perc20.ogg",70
Sample,26037,0,"perc22.ogg",70
Sample,26222,0,"perc24.ogg",70
Sample,26444,0,"perc26.ogg",70
Sample,26666,0,"voxa01.ogg",70
Sample,26666,0,"perc01.ogg",70
Sample,26888,0,"perc03.ogg",70
Sample,27000,0,"perc04.ogg",70
Sample,27111,0,"perc05.ogg",70
Sample,27333,0,"perc07.ogg",70
Sample,28000,0,"perc11.ogg",70
Sample,28444,0,"voxa01.ogg",70
Sample,28444,0,"perc13.ogg",70
Sample,28666,0,"perc15.ogg",70
Sample,28666,0,"voxa02.ogg",70
Sample,29111,0,"voxb11.ogg",70
Sample,29111,0,"perc19.ogg",70
Sample,30222,0,"perc01.ogg",70
Sample,30222,0,"voxa01.ogg",70
Sample,30444,0,"perc03.ogg",70
Sample,30555,0,"voxa03.ogg",70
Sample,30555,0,"perc04.ogg",70
Sample,30666,0,"perc05.ogg",70
Sample,30888,0,"perc07.ogg",70
Sample,31333,0,"perc09.ogg",70
Sample,32000,0,"perc13.ogg",70
Sample,32000,0,"voxa01.ogg",70
Sample,32222,0,"voxa02.ogg",70
Sample,32222,0,"perc15.ogg",70
Sample,32333,0,"perc16.ogg",70
Sample,32444,0,"perc17.ogg",70
Sample,32666,0,"perc19.ogg",70
Sample,33333,0,"perc24.ogg",70
Sample,33555,0,"perc26.ogg",70
Sample,33777,0,"voxa01.ogg",70
Sample,33777,0,"perc01.ogg",70
Sample,33777,0,"rev_stab.ogg",70
Sample,34000,0,"voxa02.ogg",70
Sample,34000,0,"perc03.ogg",70
Sample,34111,0,"perc04.ogg",70
Sample,34444,0,"perc07.ogg",70
Sample,35555,0,"voxa01.ogg",70
Sample,35777,0,"voxa02.ogg",70
Sample,35777,0,"perc15.ogg",70
Sample,36000,0,"perc17.ogg",70
Sample,37333,0,"monya.ogg",70
Sample,37333,0,"sita.ogg",70
Sample,37333,0,"noise.ogg",70
Sample,44444,0,"sita2.ogg",70
Sample,51555,0,"noise.ogg",70
Sample,51555,0,"sita3.ogg",70
Sample,51555,0,"wah.ogg",70
Sample,58666,0,"wah.ogg",70
Sample,62222,0,"sita5.ogg",70
Sample,65777,0,"noise.ogg",70
Sample,65777,0,"upfilt.ogg",70
Sample,67555,0,"waha16.ogg",70
Sample,67777,0,"waha17.ogg",70
Sample,68000,0,"waha18.ogg",70
Sample,68222,0,"waha19.ogg",70
Sample,72888,0,"ben01.ogg",70
Sample,73111,0,"ben02.ogg",70
Sample,73333,0,"ben03.ogg",70
Sample,73555,0,"ben04.ogg",70
Sample,73555,0,"perc07.ogg",70
Sample,74000,0,"ben05.ogg",70
Sample,74222,0,"ben06.ogg",70
Sample,74444,0,"perc12.ogg",70
Sample,74666,0,"rev_stab.ogg",70
Sample,74666,0,"perc13.ogg",70
Sample,74666,0,"voxa01.ogg",70
Sample,74888,0,"ben09.ogg",70
Sample,75111,0,"ben10.ogg",70
Sample,75333,0,"ben11.ogg",70
Sample,75777,0,"ben12.ogg",70
Sample,76000,0,"ben13.ogg",70
Sample,76444,0,"voxa01.ogg",70
Sample,76444,0,"ben01.ogg",70
Sample,76666,0,"ben02.ogg",70
Sample,76777,0,"perc04.ogg",70
Sample,76888,0,"ben03.ogg",70
Sample,77111,0,"ben04.ogg",70
Sample,78222,0,"perc13.ogg",70
Sample,78444,0,"ben09.ogg",70
Sample,78444,0,"voxa02.ogg",70
Sample,78666,0,"ben10.ogg",70
Sample,79555,0,"ben13.ogg",70
Sample,80000,0,"voxa01.ogg",70
Sample,81777,0,"perc13.ogg",70
Sample,81777,0,"ben08.ogg",70
Sample,82000,0,"ben09.ogg",70
Sample,82222,0,"ben10.ogg",70
Sample,82222,0,"perc17.ogg",70
Sample,82444,0,"ben11.ogg",70
Sample,82888,0,"ben12.ogg",70
Sample,83111,0,"ben13.ogg",70
Sample,83555,0,"voxa01.ogg",70
Sample,83555,0,"ben01.ogg",70
Sample,83777,0,"ben02.ogg",70
Sample,83888,0,"perc04.ogg",70
Sample,84000,0,"ben03.ogg",70
Sample,84222,0,"ben04.ogg",70
Sample,84666,0,"perc09.ogg",70
Sample,84666,0,"ben05.ogg",70
Sample,85333,0,"ben08.ogg",70
Sample,85555,0,"perc15.ogg",70
Sample,85555,0,"ben09.ogg",70
Sample,85777,0,"ben10.ogg",70
Sample,86000,0,"ben11.ogg",70
Sample,86222,0,"scr_rev.ogg",70
Sample,86666,0,"perc24.ogg",70
Sample,86666,0,"ben13.ogg",70
Sample,86777,0,"perc25.ogg",70
Sample,86888,0,"perc26.ogg",70
Sample,87111,0,"perc01.ogg",70
Sample,87111,0,"ston20.ogg",70
Sample,87333,0,"ston21.ogg",70
Sample,87555,0,"ston22.ogg",70
Sample,87777,0,"ston23.ogg",70
Sample,87777,0,"perc07.ogg",70
Sample,88666,0,"ston24.ogg",70
Sample,88888,0,"perc13.ogg",70
Sample,88888,0,"ston25.ogg",70
Sample,88888,0,"rev_stab.ogg",70
Sample,89111,0,"ston26.ogg",70
Sample,89111,0,"perc15.ogg",70
Sample,89333,0,"perc17.ogg",70
Sample,89333,0,"ston27.ogg",70
Sample,89555,0,"ston28.ogg",70
Sample,90000,0,"ston29.ogg",70
Sample,90222,0,"perc24.ogg",70
Sample,90444,0,"ston30.ogg",70
Sample,90666,0,"perc01.ogg",70
Sample,90666,0,"ston20.ogg",70
Sample,90888,0,"ston21.ogg",70
Sample,91111,0,"ston22.ogg",70
Sample,91111,0,"perc05.ogg",70
Sample,91333,0,"ston23.ogg",70
Sample,92222,0,"ston24.ogg",70
Sample,92444,0,"perc13.ogg",70
Sample,92444,0,"ston25.ogg",70
Sample,92666,0,"ston26.ogg",70
Sample,92888,0,"ston27.ogg",70
Sample,92888,0,"perc17.ogg",70
Sample,93111,0,"ston39.ogg",70
Sample,94222,0,"cym.ogg",70
Sample,94222,0,"ston20.ogg",70
Sample,94444,0,"ston21.ogg",70
Sample,94444,0,"perc03.ogg",70
Sample,94666,0,"ston22.ogg",70
Sample,94888,0,"perc07.ogg",70
Sample,94888,0,"ston23.ogg",70
Sample,96000,0,"ston25.ogg",70
Sample,96000,0,"perc13.ogg",70
Sample,96222,0,"ston26.ogg",70
Sample,96444,0,"ston27.ogg",70
Sample,96666,0,"ston28.ogg",70
Sample,96666,0,"perc19.ogg",70
Sample,97111,0,"ston29.ogg",70
Sample,97333,0,"perc24.ogg",70
Sample,97555,0,"ston30.ogg",70
Sample,97777,0,"perc01.ogg",70
Sample,97777,0,"ston20.ogg",70
Sample,98000,0,"ston21.ogg",70
Sample,98000,0,"perc03.ogg",70
Sample,98222,0,"ston22.ogg",70
Sample,98444,0,"ston23.ogg",70
Sample,99333,0,"ston24.ogg",70
Sample,99555,0,"voxa01.ogg",70
Sample,99555,0,"siren01.ogg",70
Sample,100222,0,"f_b65.ogg",70
Sample,100222,0,"perc19.ogg",70
Sample,100555,0,"voxb13.ogg",70
Sample,100703,0,"voxa05.ogg",70
Sample,100888,0,"ston44.ogg",70
Sample,100888,0,"perc24.ogg",70
Sample,100888,0,"f_b70.ogg",70
Sample,101333,0,"cym.ogg",70
Sample,101333,0,"falla.ogg",70
Sample,101333,0,"f_breaks00.ogg",70
Sample,101333,0,"noise.ogg",70
Sample,101546,0,"f_breaks01.ogg",70
Sample,101768,0,"f_breaks02.ogg",70
Sample,101990,0,"f_breaks03.ogg",70
Sample,102101,0,"f_breaks04.ogg",70
Sample,102212,0,"f_breaks05.ogg",70
Sample,102222,0,"upfilt.ogg",70
Sample,102324,0,"f_breaks06.ogg",70
Sample,102435,0,"f_breaks07.ogg",70
Sample,102657,0,"f_breaks08.ogg",70
Sample,102879,0,"f_breaks09.ogg",70
Sample,103101,0,"f_breaks10.ogg",70
Sample,103324,0,"f_breaks11.ogg",70
Sample,103546,0,"f_breaks12.ogg",70
Sample,103768,0,"f_breaks13.ogg",70
Sample,103990,0,"f_breaks14.ogg",70
Sample,104101,0,"f_breaks15.ogg",70
Sample,104212,0,"f_breaks16.ogg",70
Sample,104324,0,"f_breaks17.ogg",70
Sample,104435,0,"f_breaks18.ogg",70
Sample,104657,0,"f_breaks19.ogg",70
Sample,105657,0,"f_breaks24.ogg",70
Sample,105879,0,"f_breaks26.ogg",70
Sample,106657,0,"f_breaks30.ogg",70
Sample,106666,0,"yeah.ogg",70
Sample,106879,0,"f_breaks31.ogg",70
Sample,107101,0,"f_breaks32.ogg",70
Sample,107314,0,"f_breaks33.ogg",70
Sample,108444,0,"tt02.ogg",70
Sample,108444,0,"perc01.ogg",70
Sample,108444,0,"ben01.ogg",70
Sample,108666,0,"ben02.ogg",70
Sample,108666,0,"perc03.ogg",70
Sample,108777,0,"perc04.ogg",70
Sample,108888,0,"ben03.ogg",70
Sample,108888,0,"perc05.ogg",70
Sample,109111,0,"ben04.ogg",70
Sample,109111,0,"perc07.ogg",70
Sample,109555,0,"perc09.ogg",70
Sample,109555,0,"ben05.ogg",70
Sample,109777,0,"ben06.ogg",70
Sample,110222,0,"perc13.ogg",70
Sample,110222,0,"rev_stab.ogg",70
Sample,110222,0,"voxa01.ogg",70
Sample,110222,0,"ben08.ogg",70
Sample,110444,0,"voxa02.ogg",70
Sample,110444,0,"ben09.ogg",70
Sample,110444,0,"perc15.ogg",70
Sample,110555,0,"perc16.ogg",70
Sample,110666,0,"perc17.ogg",70
Sample,110666,0,"ben10.ogg",70
Sample,110888,0,"perc19.ogg",70
Sample,110888,0,"ben11.ogg",70
Sample,111333,0,"ben12.ogg",70
Sample,111555,0,"ben13.ogg",70
Sample,111555,0,"perc24.ogg",70
Sample,111777,0,"perc26.ogg",70
Sample,112000,0,"perc01.ogg",70
Sample,112000,0,"ten01.ogg",70
Sample,112000,0,"voxa01.ogg",70
Sample,112000,0,"ben01.ogg",70
Sample,112222,0,"ben02.ogg",70
Sample,112222,0,"perc03.ogg",70
Sample,112333,0,"voxa03.ogg",70
Sample,112333,0,"perc04.ogg",70
Sample,112444,0,"perc05.ogg",70
Sample,112444,0,"ben03.ogg",70
Sample,112666,0,"perc07.ogg",70
Sample,112666,0,"ben04.ogg",70
Sample,113111,0,"ben05.ogg",70
Sample,113111,0,"perc09.ogg",70
Sample,113333,0,"ben06.ogg",70
Sample,113555,0,"perc12.ogg",70
Sample,113777,0,"voxa01.ogg",70
Sample,113777,0,"ben08.ogg",70
Sample,113777,0,"perc13.ogg",70
Sample,114000,0,"perc15.ogg",70
Sample,114000,0,"voxa02.ogg",70
Sample,114000,0,"ben09.ogg",70
Sample,114111,0,"perc16.ogg",70
Sample,114222,0,"perc17.ogg",70
Sample,114222,0,"ben10.ogg",70
Sample,114444,0,"perc19.ogg",70
Sample,114444,0,"ben11.ogg",70
Sample,114888,0,"ben12.ogg",70
Sample,115111,0,"perc24.ogg",70
Sample,115111,0,"ben13.ogg",70
Sample,115333,0,"perc26.ogg",70
Sample,115370,0,"ben08.ogg",70
Sample,115555,0,"voxa01.ogg",70
Sample,115555,0,"ben01.ogg",70
Sample,115666,0,"perc02.ogg",70
Sample,115777,0,"voxa02.ogg",70
Sample,115777,0,"ben02.ogg",70
Sample,115888,0,"voxa03.ogg",70
Sample,116000,0,"ben03.ogg",70
Sample,116111,0,"perc06.ogg",70
Sample,116222,0,"perc07.ogg",70
Sample,116222,0,"ben04.ogg",70
Sample,116666,0,"ben05.ogg",70
Sample,117111,0,"perc12.ogg",70
Sample,117333,0,"voxa01.ogg",70
Sample,117333,0,"ben08.ogg",70
Sample,117333,0,"perc13.ogg",70
Sample,117555,0,"voxa02.ogg",70
Sample,117555,0,"perc15.ogg",70
Sample,117555,0,"ben09.ogg",70
Sample,117666,0,"perc16.ogg",70
Sample,117777,0,"perc17.ogg",70
Sample,117777,0,"ben10.ogg",70
Sample,118000,0,"ben07.ogg",70
Sample,118000,0,"perc19.ogg",70
Sample,118333,0,"perc21.ogg",70
Sample,118444,0,"ben07.ogg",70
Sample,118666,0,"ben07.ogg",70
Sample,118666,0,"perc24.ogg",70
Sample,118888,0,"perc26.ogg",70
Sample,119111,0,"ben01.ogg",70
Sample,119111,0,"voxa01.ogg",70
Sample,119111,0,"perc01.ogg",70
Sample,119333,0,"voxa02.ogg",70
Sample,119333,0,"ben02.ogg",70
Sample,119444,0,"voxa03.ogg",70
Sample,119444,0,"perc04.ogg",70
Sample,119555,0,"ben03.ogg",70
Sample,119555,0,"perc05.ogg",70
Sample,119777,0,"perc07.ogg",70
Sample,119777,0,"ben04.ogg",70
Sample,120000,0,"perc08.ogg",70
Sample,120222,0,"ben05.ogg",70
Sample,120222,0,"perc09.ogg",70
Sample,120333,0,"perc10.ogg",70
Sample,120444,0,"perc11.ogg",70
Sample,120444,0,"ben06.ogg",70
Sample,120703,0,"ben07.ogg",70
Sample,120888,0,"ben08.ogg",70
Sample,120888,0,"perc13.ogg",70
Sample,120888,0,"voxa01.ogg",70
Sample,121111,0,"perc15.ogg",70
Sample,121111,0,"ben09.ogg",70
Sample,121111,0,"voxa02.ogg",70
Sample,121222,0,"perc16.ogg",70
Sample,121333,0,"ben10.ogg",70
Sample,121333,0,"perc17.ogg",70
Sample,121555,0,"ben11.ogg",70
Sample,121555,0,"perc19.ogg",70
Sample,122000,0,"ben12.ogg",70
Sample,122222,0,"perc24.ogg",70
Sample,122222,0,"ben13.ogg",70
Sample,122666,0,"ben01.ogg",70
Sample,122666,0,"noise.ogg",70
Sample,122666,0,"voxa01.ogg",70
Sample,122666,0,"percb00.ogg",70
Sample,122888,0,"percb01.ogg",70
Sample,122888,0,"ben02.ogg",70
Sample,122888,0,"voxa02.ogg",70
Sample,123000,0,"percb02.ogg",70
Sample,123111,0,"ben03.ogg",70
Sample,123333,0,"percb03.ogg",70
Sample,123333,0,"ben04.ogg",70
Sample,123555,0,"percb04.ogg",70
Sample,123777,0,"ben05.ogg",70
Sample,124000,0,"percb05.ogg",70
Sample,124222,0,"percb06.ogg",70
Sample,124444,0,"rev_stab.ogg",70
Sample,124444,0,"ben08.ogg",70
Sample,124444,0,"percb00.ogg",70
Sample,124666,0,"voxa02.ogg",70
Sample,124666,0,"percb01.ogg",70
Sample,124777,0,"percb02.ogg",70
Sample,124888,0,"ben10.ogg",70
Sample,125111,0,"percb03.ogg",70
Sample,125333,0,"percb04.ogg",70
Sample,125555,0,"ben12.ogg",70
Sample,125777,0,"percb05.ogg",70
Sample,126000,0,"percb06.ogg",70
Sample,126222,0,"ben01.ogg",70
Sample,126222,0,"voxa01.ogg",70
Sample,126444,0,"ben02.ogg",70
Sample,126555,0,"voxa03.ogg",70
Sample,126666,0,"ben03.ogg",70
Sample,128000,0,"rev_stab.ogg",70
Sample,128000,0,"voxa01.ogg",70
Sample,129333,0,"ben13.ogg",70

[TimingPoints]
0,444.444444444444,4,2,0,0,1,0
129777,888.888888888889,4,2,0,0,1,0
129777,-100,3,2,0,0,0,0
132444,-100,4,2,0,0,0,0

[HitObjects]
64,192,1777,5,0,0:0:0:0:
320,192,1777,1,0,0:0:0:0:
448,192,1851,1,0,0:0:0:0:
320,192,1999,1,0,0:0:0:0:
192,192,2055,1,0,0:0:0:0:
64,192,2083,1,0,0:0:0:0:
448,192,2111,1,0,0:0:0:0:
320,192,2138,1,0,0:0:0:0:
192,192,2148,1,0,0:0:0:0:
64,192,2277,1,0,0:0:0:0:
192,192,2416,1,0,0:0:0:0:
64,192,2444,1,0,0:0:0:0:
448,192,2499,1,0,0:0:0:0:
192,192,2666,1,0,0:0:0:0:
448,192,2740,1,0,0:0:0:0:
64,192,2888,1,0,0:0:0:0:
448,192,2925,1,0,0:0:0:0:
320,192,2944,1,0,0:0:0:0:
64,192,3138,1,0,0:0:0:0:
192,192,3148,1,0,0:0:0:0:
320,192,3166,1,0,0:0:0:0:
448,192,3259,1,0,0:0:0:0:
192,192,3277,1,0,0:0:0:0:
64,192,3333,1,0,0:0:0:0:
320,192,3333,1,0,0:0:0:0:
192,192,3555,1,0,0:0:0:0:
64,192,3555,1,0,0:0:0:0:
192,192,3722,1,0,0:0:0:0:
448,192,3749,1,0,0:0:0:0:
320,192,3777,1,0,0:0:0:0:
448,192,3888,1,0,0:0:0:0:
192,192,3944,1,0,0:0:0:0:
320,192,3999,1,0,0:0:0:0:
64,192,4055,1,0,0:0:0:0:
320,192,4222,1,0,0:0:0:0:
192,192,4259,1,0,0:0:0:0:
448,192,4277,1,0,0:0:0:0:
64,192,4305,1,0,0:0:0:0:
448,192,4583,1,0,0:0:0:0:
320,192,4611,1,0,0:0:0:0:
64,192,4666,1,0,0:0:0:0:
192,192,4703,1,0,0:0:0:0:
192,192,4833,1,0,0:0:0:0:
320,192,4888,1,0,0:0:0:0:
448,192,4925,1,0,0:0:0:0:
64,192,4944,1,0,0:0:0:0:
192,192,4972,1,0,0:0:0:0:
448,192,5055,1,0,0:0:0:0:
320,192,5083,1,0,0:0:0:0:
192,192,5111,1,0,0:0:0:0:
320,192,5185,1,0,0:0:0:0:
64,192,5333,1,0,0:0:0:0:
320,192,5333,1,0,0:0:0:0:
192,192,5407,1,0,0:0:0:0:
320,192,5555,1,0,0:0:0:0:
64,192,5611,1,0,0:0:0:0:
448,192,5666,1,0,0:0:0:0:
192,192,5703,1,0,0:0:0:0:
64,192,5833,1,0,0:0:0:0:
192,192,5999,1,0,0:0:0:0:
448,192,6037,1,0,0:0:0:0:
192,192,6222,1,0,0:0:0:0:
448,192,6222,1,0,0:0:0:0:
320,192,6305,1,0,0:0:0:0:
64,192,6444,1,0,0:0:0:0:
448,192,6481,1,0,0:0:0:0:
192,192,6499,1,0,0:0:0:0:
320,192,6703,1,0,0:0:0:0:
64,192,6722,1,0,0:0:0:0:
192,192,6805,1,0,0:0:0:0:
320,192,6833,1,0,0:0:0:0:
448,192,6888,1,0,0:0:0:0:
64,192,7111,1,0,0:0:0:0:
192,192,7111,1,0,0:0:0:0:
320,192,7111,1,0,0:0:0:0:
448,192,7259,1,0,0:0:0:0:
192,192,7305,1,0,0:0:0:0:
64,192,7333,1,0,0:0:0:0:
448,192,7444,1,0,0:0:0:0:
192,192,7481,1,0,0:0:0:0:
64,192,7555,1,0,0:0:0:0:
320,192,7555,1,0,0:0:0:0:
64,192,7777,1,0,0:0:0:0:
320,192,7805,1,0,0:0:0:0:
192,192,7833,1,0,0:0:0:0:
448,192,7916,1,0,0:0:0:0:
64,192,7999,1,0,0:0:0:0:
64,192,8444,1,0,0:0:0:0:
64,192,8888,1,0,0:0:0:0:
320,192,8888,1,0,0:0:0:0:
192,192,8944,1,0,0:0:0:0:
448,192,8972,1,0,0:0:0:0:
192,192,9111,1,0,0:0:0:0:
448,192,9111,1,0,0:0:0:0:
320,192,9194,1,0,0:0:0:0:
64,192,9222,1,0,0:0:0:0:
448,192,9249,1,0,0:0:0:0:
192,192,9277,1,0,0:0:0:0:
64,192,9333,1,0,0:0:0:0:
320,192,9333,1,0,0:0:0:0:
320,192,9527,1,0,0:0:0:0:
192,192,9555,1,0,0:0:0:0:
448,192,9555,1,0,0:0:0:0:
64,192,9583,1,0,0:0:0:0:
64,192,9777,1,0,0:0:0:0:
320,192,9777,1,0,0:0:0:0:
448,192,9833,1,0,0:0:0:0:
192,192,9861,1,0,0:0:0:0:
320,192,9944,1,0,0:0:0:0:
448,192,9999,1,0,0:0:0:0:
192,192,10055,1,0,0:0:0:0:
64,192,10222,1,0,0:0:0:0:
448,192,10222,1,0,0:0:0:0:
192,192,10259,1,0,0:0:0:0:
320,192,10277,1,0,0:0:0:0:
448,192,10333,1,0,0:0:0:0:
320,192,10407,1,0,0:0:0:0:
192,192,10444,1,0,0:0:0:0:
64,192,10499,1,0,0:0:0:0:
64,192,10629,1,0,0:0:0:0:
320,192,10638,1,0,0:0:0:0:
192,192,10666,1,0,0:0:0:0:
448,192,10666,1,0,0:0:0:0:
64,192,10814,1,0,0:0:0:0:
320,192,10851,1,0,0:0:0:0:
448,192,10888,1,0,0:0:0:0:
192,192,10916,1,0,0:0:0:0:
320,192,10999,1,0,0:0:0:0:
192,192,11037,1,0,0:0:0:0:
64,192,11111,1,0,0:0:0:0:
448,192,11111,1,0,0:0:0:0:
192,192,11166,1,0,0:0:0:0:
64,192,11333,1,0,0:0:0:0:
192,192,11333,1,0,0:0:0:0:
320,192,11370,1,0,0:0:0:0:
448,192,11416,1,0,0:0:0:0:
64,192,11555,1,0,0:0:0:0:
192,192,11666,1,0,0:0:0:0:
448,192,11740,1,0,0:0:0:0:
192,192,11777,1,0,0:0:0:0:
448,192,11851,1,0,0:0:0:0:
320,192,11925,1,0,0:0:0:0:
192,192,11972,1,0,0:0:0:0:
64,192,11999,1,0,0:0:0:0:
320,192,12027,1,0,0:0:0:0:
448,192,12055,1,0,0:0:0:0:
192,192,12083,1,0,0:0:0:0:
320,192,12148,1,0,0:0:0:0:
192,192,12194,1,0,0:0:0:0:
64,192,12222,1,0,0:0:0:0:
320,192,12222,1,0,0:0:0:0:
448,192,12249,1,0,0:0:0:0:
64,192,12444,1,0,0:0:0:0:
320,192,12444,1,0,0:0:0:0:
192,192,12499,1,0,0:0:0:0:
448,192,12518,1,0,0:0:0:0:
448,192,12666,1,0,0:0:0:0:
64,192,12666,1,0,0:0:0:0:
320,192,12740,1,0,0:0:0:0:
64,192,12777,1,0,0:0:0:0:
192,192,12814,1,0,0:0:0:0:
448,192,12888,1,0,0:0:0:0:
320,192,12916,1,0,0:0:0:0:
64,192,13083,1,0,0:0:0:0:
192,192,13111,1,0,0:0:0:0:
448,192,13148,1,0,0:0:0:0:
192,192,13333,1,0,0:0:0:0:
448,192,13333,1,0,0:0:0:0:
320,192,13388,1,0,0:0:0:0:
64,192,13407,1,0,0:0:0:0:
192,192,13499,1,0,0:0:0:0:
64,192,13555,1,0,0:0:0:0:
448,192,13555,1,0,0:0:0:0:
320,192,13592,1,0,0:0:0:0:
448,192,13722,1,0,0:0:0:0:
320,192,13777,1,0,0:0:0:0:
64,192,13814,1,0,0:0:0:0:
192,192,13833,1,0,0:0:0:0:
320,192,13925,1,0,0:0:0:0:
448,192,13962,1,0,0:0:0:0:
64,192,13999,1,0,0:0:0:0:
192,192,14027,1,0,0:0:0:0:
448,192,14185,1,0,0:0:0:0:
192,192,14194,1,0,0:0:0:0:
320,192,14222,1,0,0:0:0:0:
64,192,14222,1,0,0:0:0:0:
448,192,14370,1,0,0:0:0:0:
192,192,14407,1,0,0:0:0:0:
320,192,14444,1,0,0:0:0:0:
64,192,14444,1,0,0:0:0:0:
192,192,14555,1,0,0:0:0:0:
448,192,14592,1,0,0:0:0:0:
320,192,14638,1,0,0:0:0:0:
192,192,14666,1,0,0:0:0:0:
64,192,14722,1,0,0:0:0:0:
192,192,14888,1,0,0:0:0:0:
448,192,14888,1,0,0:0:0:0:
320,192,14925,1,0,0:0:0:0:
192,192,14999,1,0,0:0:0:0:
64,192,15111,1,0,0:0:0:0:
192,192,15222,1,0,0:0:0:0:
448,192,15259,1,0,0:0:0:0:
64,192,15277,1,0,0:0:0:0:
320,192,15333,1,0,0:0:0:0:
448,192,15370,1,0,0:0:0:0:
64,192,15481,1,0,0:0:0:0:
448,192,15555,1,0,0:0:0:0:
320,192,15592,1,0,0:0:0:0:
192,192,15611,1,0,0:0:0:0:
64,192,15629,1,0,0:0:0:0:
320,192,15740,1,0,0:0:0:0:
192,192,15777,1,0,0:0:0:0:
448,192,15777,1,0,0:0:0:0:
64,192,15944,1,0,0:0:0:0:
320,192,15999,1,0,0:0:0:0:
192,192,16027,1,0,0:0:0:0:
448,192,16074,1,0,0:0:0:0:
448,192,16222,1,0,0:0:0:0:
192,192,16249,1,0,0:0:0:0:
320,192,16296,1,0,0:0:0:0:
64,192,16333,1,0,0:0:0:0:
192,192,16388,1,0,0:0:0:0:
320,192,16416,1,0,0:0:0:0:
64,192,16444,1,0,0:0:0:0:
448,192,16444,1,0,0:0:0:0:
448,192,16638,1,0,0:0:0:0:
320,192,16666,1,0,0:0:0:0:
64,192,16666,1,0,0:0:0:0:
192,192,16703,1,0,0:0:0:0:
64,192,16888,1,0,0:0:0:0:
320,192,16888,1,0,0:0:0:0:
448,192,16962,1,0,0:0:0:0:
320,192,17055,1,0,0:0:0:0:
192,192,17083,1,0,0:0:0:0:
448,192,17111,1,0,0:0:0:0:
64,192,17148,1,0,0:0:0:0:
448,192,17333,1,0,0:0:0:0:
192,192,17333,1,0,0:0:0:0:
320,192,17370,1,0,0:0:0:0:
64,192,17481,1,0,0:0:0:0:
448,192,17481,1,0,0:0:0:0:
320,192,17518,1,0,0:0:0:0:
192,192,17555,1,0,0:0:0:0:
64,192,17740,1,0,0:0:0:0:
320,192,17749,1,0,0:0:0:0:
192,192,17777,1,0,0:0:0:0:
448,192,17777,1,0,0:0:0:0:
192,192,17925,1,0,0:0:0:0:
448,192,17962,1,0,0:0:0:0:
320,192,17999,1,0,0:0:0:0:
192,192,18111,1,0,0:0:0:0:
448,192,18148,1,0,0:0:0:0:
320,192,18194,1,0,0:0:0:0:
64,192,18222,1,0,0:0:0:0:
192,192,18222,1,0,0:0:0:0:
64,192,18416,1,0,0:0:0:0:
320,192,18416,1,0,0:0:0:0:
192,192,18444,1,0,0:0:0:0:
448,192,18481,1,0,0:0:0:0:
64,192,18527,1,0,0:0:0:0:
448,192,18666,1,0,0:0:0:0:
320,192,18777,1,0,0:0:0:0:
448,192,18814,1,0,0:0:0:0:
192,192,18833,1,0,0:0:0:0:
64,192,18888,1,0,0:0:0:0:
320,192,18925,1,0,0:0:0:0:
192,192,19037,1,0,0:0:0:0:
64,192,19083,1,0,0:0:0:0:
320,192,19111,1,0,0:0:0:0:
448,192,19148,1,0,0:0:0:0:
192,192,19194,1,0,0:0:0:0:
320,192,19259,1,0,0:0:0:0:
192,192,19296,1,0,0:0:0:0:
64,192,19333,1,0,0:0:0:0:
448,192,19333,1,0,0:0:0:0:
64,192,19518,1,0,0:0:0:0:
192,192,19527,1,0,0:0:0:0:
448,192,19555,1,0,0:0:0:0:
320,192,19629,1,0,0:0:0:0:
64,192,19777,1,0,0:0:0:0:
192,192,19777,1,0,0:0:0:0:
448,192,19851,1,0,0:0:0:0:
320,192,19888,1,0,0:0:0:0:
192,192,19944,1,0,0:0:0:0:
320,192,19972,1,0,0:0:0:0:
64,192,19999,1,0,0:0:0:0:
448,192,19999,1,0,0:0:0:0:
448,192,20222,1,0,0:0:0:0:
192,192,20222,1,0,0:0:0:0:
320,192,20259,1,0,0:0:0:0:
64,192,20444,1,0,0:0:0:0:
320,192,20444,1,0,0:0:0:0:
192,192,20518,1,0,0:0:0:0:
64,192,20611,1,0,0:0:0:0:
192,192,20666,1,0,0:0:0:0:
448,192,20666,1,0,0:0:0:0:
320,192,20703,1,0,0:0:0:0:
192,192,20861,1,0,0:0:0:0:
64,192,20888,1,0,0:0:0:0:
320,192,20916,1,0,0:0:0:0:
192,192,21037,1,0,0:0:0:0:
320,192,21074,1,0,0:0:0:0:
448,192,21111,1,0,0:0:0:0:
64,192,21111,1,0,0:0:0:0:
192,192,21333,1,0,0:0:0:0:
448,192,21333,1,0,0:0:0:0:
192,192,21481,1,0,0:0:0:0:
64,192,21527,1,0,0:0:0:0:
320,192,21555,1,0,0:0:0:0:
448,192,21583,1,0,0:0:0:0:
192,192,21666,1,0,0:0:0:0:
448,192,21740,1,0,0:0:0:0:
320,192,21777,1,0,0:0:0:0:
448,192,21999,1,0,0:0:0:0:
320,192,22027,1,0,0:0:0:0:
192,192,22037,1,0,0:0:0:0:
64,192,22083,1,0,0:0:0:0:
320,192,22222,1,0,0:0:0:0:
192,192,22333,1,0,0:0:0:0:
64,192,22370,1,0,0:0:0:0:
320,192,22388,1,0,0:0:0:0:
448,192,22444,1,0,0:0:0:0:
192,192,22481,1,0,0:0:0:0:
448,192,22592,1,0,0:0:0:0:
64,192,22666,1,0,0:0:0:0:
320,192,22703,1,0,0:0:0:0:
192,192,22740,1,0,0:0:0:0:
320,192,22814,1,0,0:0:0:0:
448,192,22851,1,0,0:0:0:0:
192,192,22888,1,0,0:0:0:0:
64,192,22916,1,0,0:0:0:0:
320,192,23111,1,0,0:0:0:0:
64,192,23111,1,0,0:0:0:0:
448,192,23138,1,0,0:0:0:0:
192,192,23222,1,0,0:0:0:0:
448,192,23296,1,0,0:0:0:0:
320,192,23305,1,0,0:0:0:0:
192,192,23333,1,0,0:0:0:0:
64,192,23444,1,0,0:0:0:0:
320,192,23444,1,0,0:0:0:0:
192,192,23481,1,0,0:0:0:0:
320,192,23555,1,0,0:0:0:0:
448,192,23555,1,0,0:0:0:0:
320,192,23666,1,0,0:0:0:0:
192,192,23740,1,0,0:0:0:0:
64,192,23749,1,0,0:0:0:0:
320,192,23777,1,0,0:0:0:0:
448,192,23814,1,0,0:0:0:0:
64,192,23888,1,0,0:0:0:0:
192,192,23888,1,0,0:0:0:0:
320,192,23999,1,0,0:0:0:0:
448,192,23999,1,0,0:0:0:0:
64,192,24074,1,0,0:0:0:0:
192,192,24083,1,0,0:0:0:0:
448,192,24166,1,0,0:0:0:0:
192,192,24222,1,0,0:0:0:0:
320,192,24259,1,0,0:0:0:0:
64,192,24277,1,0,0:0:0:0:
192,192,24333,1,0,0:0:0:0:
448,192,24333,1,0,0:0:0:0:
64,192,24444,1,0,0:0:0:0:
192,192,24444,1,0,0:0:0:0:
320,192,24472,1,0,0:0:0:0:
448,192,24499,1,0,0:0:0:0:
320,192,24583,1,0,0:0:0:0:
448,192,24629,1,0,0:0:0:0:
64,192,24638,1,0,0:0:0:0:
320,192,24777,1,0,0:0:0:0:
448,192,24851,1,0,0:0:0:0:
192,192,24861,1,0,0:0:0:0:
320,192,24888,1,0,0:0:0:0:
64,192,24888,1,0,0:0:0:0:
192,192,24999,1,0,0:0:0:0:
448,192,24999,1,0,0:0:0:0:
64,192,25111,1,0,0:0:0:0:
320,192,25138,1,0,0:0:0:0:
448,192,25185,1,0,0:0:0:0:
192,192,25222,1,0,0:0:0:0:
64,192,25249,1,0,0:0:0:0:
320,192,25333,1,0,0:0:0:0:
64,192,25444,1,0,0:0:0:0:
448,192,25444,1,0,0:0:0:0:
320,192,25555,1,0,0:0:0:0:
448,192,25583,1,0,0:0:0:0:
64,192,25583,1,0,0:0:0:0:
192,192,25611,1,0,0:0:0:0:
320,192,25666,1,0,0:0:0:0:
192,192,25749,1,0,0:0:0:0:
64,192,25777,1,0,0:0:0:0:
64,192,25888,1,0,0:0:0:0:
448,192,25888,1,0,0:0:0:0:
192,192,25925,1,0,0:0:0:0:
320,192,25944,1,0,0:0:0:0:
448,192,25999,1,0,0:0:0:0:
64,192,26055,1,0,0:0:0:0:
448,192,26111,1,0,0:0:0:0:
192,192,26111,1,0,0:0:0:0:
320,192,26148,1,0,0:0:0:0:
64,192,26222,1,0,0:0:0:0:
192,192,26259,1,0,0:0:0:0:
320,192,26296,1,0,0:0:0:0:
448,192,26333,1,0,0:0:0:0:
64,192,26370,1,0,0:0:0:0:
192,192,26407,1,0,0:0:0:0:
320,192,26444,1,0,0:0:0:0:
448,192,26481,1,0,0:0:0:0:
64,192,26518,1,0,0:0:0:0:
320,192,26666,1,0,0:0:0:0:
64,192,26666,1,0,0:0:0:0:
192,192,26722,1,0,0:0:0:0:
448,192,26740,1,0,0:0:0:0:
64,192,26888,1,0,0:0:0:0:
448,192,26888,1,0,0:0:0:0:
320,192,26962,1,0,0:0:0:0:
64,192,26999,1,0,0:0:0:0:
192,192,27037,1,0,0:0:0:0:
448,192,27111,1,0,0:0:0:0:
320,192,27138,1,0,0:0:0:0:
64,192,27305,1,0,0:0:0:0:
192,192,27333,1,0,0:0:0:0:
448,192,27370,1,0,0:0:0:0:
192,192,27555,1,0,0:0:0:0:
448,192,27555,1,0,0:0:0:0:
320,192,27611,1,0,0:0:0:0:
64,192,27629,1,0,0:0:0:0:
192,192,27722,1,0,0:0:0:0:
64,192,27777,1,0,0:0:0:0:
448,192,27777,1,0,0:0:0:0:
320,192,27814,1,0,0:0:0:0:
448,192,27944,1,0,0:0:0:0:
320,192,27999,1,0,0:0:0:0:
64,192,28037,1,0,0:0:0:0:
192,192,28055,1,0,0:0:0:0:
320,192,28148,1,0,0:0:0:0:
448,192,28185,1,0,0:0:0:0:
64,192,28222,1,0,0:0:0:0:
192,192,28249,1,0,0:0:0:0:
448,192,28407,1,0,0:0:0:0:
192,192,28416,1,0,0:0:0:0:
64,192,28444,1,0,0:0:0:0:
320,192,28444,1,0,0:0:0:0:
448,192,28555,1,0,0:0:0:0:
192,192,28629,1,0,0:0:0:0:
320,192,28666,1,0,0:0:0:0:
64,192,28666,1,0,0:0:0:0:
192,192,28777,1,0,0:0:0:0:
64,192,28777,1,0,0:0:0:0:
448,192,28814,1,0,0:0:0:0:
320,192,28861,1,0,0:0:0:0:
192,192,28888,1,0,0:0:0:0:
64,192,28944,1,0,0:0:0:0:
320,192,28999,1,0,0:0:0:0:
448,192,29111,1,0,0:0:0:0:
192,192,29111,1,0,0:0:0:0:
320,192,29148,1,0,0:0:0:0:
192,192,29222,1,0,0:0:0:0:
64,192,29333,1,0,0:0:0:0:
320,192,29333,1,0,0:0:0:0:
448,192,29333,1,0,0:0:0:0:
64,192,29499,1,0,0:0:0:0:
320,192,29555,1,0,0:0:0:0:
448,192,29611,1,0,0:0:0:0:
192,192,29666,1,0,0:0:0:0:
64,192,29666,1,0,0:0:0:0:
448,192,29777,1,0,0:0:0:0:
320,192,29814,1,0,0:0:0:0:
192,192,29833,1,0,0:0:0:0:
64,192,29851,1,0,0:0:0:0:
320,192,29962,1,0,0:0:0:0:
192,192,29999,1,0,0:0:0:0:
448,192,29999,1,0,0:0:0:0:
448,192,30166,1,0,0:0:0:0:
320,192,30222,1,0,0:0:0:0:
64,192,30222,1,0,0:0:0:0:
192,192,30277,1,0,0:0:0:0:
448,192,30305,1,0,0:0:0:0:
448,192,30444,1,0,0:0:0:0:
192,192,30444,1,0,0:0:0:0:
320,192,30527,1,0,0:0:0:0:
64,192,30555,1,0,0:0:0:0:
448,192,30583,1,0,0:0:0:0:
192,192,30611,1,0,0:0:0:0:
320,192,30666,1,0,0:0:0:0:
64,192,30666,1,0,0:0:0:0:
320,192,30861,1,0,0:0:0:0:
448,192,30888,1,0,0:0:0:0:
192,192,30888,1,0,0:0:0:0:
64,192,30916,1,0,0:0:0:0:
64,192,31111,1,0,0:0:0:0:
320,192,31111,1,0,0:0:0:0:
448,192,31166,1,0,0:0:0:0:
192,192,31194,1,0,0:0:0:0:
320,192,31277,1,0,0:0:0:0:
448,192,31333,1,0,0:0:0:0:
192,192,31388,1,0,0:0:0:0:
448,192,31555,1,0,0:0:0:0:
64,192,31555,1,0,0:0:0:0:
192,192,31592,1,0,0:0:0:0:
320,192,31611,1,0,0:0:0:0:
448,192,31666,1,0,0:0:0:0:
320,192,31740,1,0,0:0:0:0:
192,192,31777,1,0,0:0:0:0:
64,192,31833,1,0,0:0:0:0:
64,192,31962,1,0,0:0:0:0:
320,192,31972,1,0,0:0:0:0:
192,192,31999,1,0,0:0:0:0:
448,192,31999,1,0,0:0:0:0:
64,192,32148,1,0,0:0:0:0:
320,192,32185,1,0,0:0:0:0:
448,192,32222,1,0,0:0:0:0:
192,192,32249,1,0,0:0:0:0:
320,192,32333,1,0,0:0:0:0:
192,192,32370,1,0,0:0:0:0:
448,192,32444,1,0,0:0:0:0:
64,192,32444,1,0,0:0:0:0:
192,192,32499,1,0,0:0:0:0:
192,192,32666,1,0,0:0:0:0:
64,192,32666,1,0,0:0:0:0:
320,192,32703,1,0,0:0:0:0:
448,192,32749,1,0,0:0:0:0:
64,192,32888,1,0,0:0:0:0:
192,192,32999,1,0,0:0:0:0:
448,192,33074,1,0,0:0:0:0:
192,192,33111,1,0,0:0:0:0:
448,192,33185,1,0,0:0:0:0:
320,192,33259,1,0,0:0:0:0:
192,192,33305,1,0,0:0:0:0:
64,192,33333,1,0,0:0:0:0:
320,192,33361,1,0,0:0:0:0:
448,192,33388,1,0,0:0:0:0:
192,192,33527,1,0,0:0:0:0:
320,192,33555,1,0,0:0:0:0:
64,192,33555,1,0,0:0:0:0:
448,192,33583,1,0,0:0:0:0:
320,192,33777,1,0,0:0:0:0:
64,192,33777,1,0,0:0:0:0:
192,192,33833,1,0,0:0:0:0:
448,192,33851,1,0,0:0:0:0:
64,192,33999,1,0,0:0:0:0:
448,192,33999,1,0,0:0:0:0:
320,192,34074,1,0,0:0:0:0:
64,192,34111,1,0,0:0:0:0:
192,192,34148,1,0,0:0:0:0:
448,192,34222,1,0,0:0:0:0:
320,192,34249,1,0,0:0:0:0:
64,192,34416,1,0,0:0:0:0:
192,192,34444,1,0,0:0:0:0:
448,192,34481,1,0,0:0:0:0:
448,192,34666,1,0,0:0:0:0:
192,192,34666,1,0,0:0:0:0:
320,192,34722,1,0,0:0:0:0:
64,192,34740,1,0,0:0:0:0:
448,192,34833,1,0,0:0:0:0:
192,192,34888,1,0,0:0:0:0:
448,192,34962,1,0,0:0:0:0:
320,192,35037,1,0,0:0:0:0:
192,192,35083,1,0,0:0:0:0:
64,192,35111,1,0,0:0:0:0:
320,192,35138,1,0,0:0:0:0:
448,192,35166,1,0,0:0:0:0:
192,192,35194,1,0,0:0:0:0:
320,192,35259,1,0,0:0:0:0:
192,192,35305,1,0,0:0:0:0:
320,192,35333,1,0,0:0:0:0:
64,192,35333,1,0,0:0:0:0:
448,192,35361,1,0,0:0:0:0:
448,192,35518,1,0,0:0:0:0:
192,192,35527,1,0,0:0:0:0:
320,192,35555,1,0,0:0:0:0:
64,192,35555,1,0,0:0:0:0:
448,192,35703,1,0,0:0:0:0:
192,192,35740,1,0,0:0:0:0:
64,192,35777,1,0,0:0:0:0:
320,192,35777,1,0,0:0:0:0:
192,192,35888,1,0,0:0:0:0:
448,192,35925,1,0,0:0:0:0:
320,192,35972,1,0,0:0:0:0:
192,192,35999,1,0,0:0:0:0:
64,192,36055,1,0,0:0:0:0:
192,192,36222,1,0,0:0:0:0:
448,192,36222,1,0,0:0:0:0:
320,192,36259,1,0,0:0:0:0:
192,192,36333,1,0,0:0:0:0:
64,192,36444,1,0,0:0:0:0:
192,192,36555,1,0,0:0:0:0:
448,192,36592,1,0,0:0:0:0:
64,192,36611,1,0,0:0:0:0:
320,192,36666,1,0,0:0:0:0:
448,192,36703,1,0,0:0:0:0:
64,192,36814,1,0,0:0:0:0:
448,192,36888,1,0,0:0:0:0:
192,192,36888,1,0,0:0:0:0:
320,192,36925,1,0,0:0:0:0:
64,192,36999,1,0,0:0:0:0:
192,192,37055,1,0,0:0:0:0:
320,192,37111,1,0,0:0:0:0:
448,192,37111,1,0,0:0:0:0:
64,192,37222,1,0,0:0:0:0:
192,192,37333,1,0,0:0:0:0:
320,192,37333,1,0,0:0:0:0:
448,192,37333,1,0,0:0:0:0:
64,192,37555,1,0,0:0:0:0:
192,192,37666,1,0,0:0:0:0:
320,192,37777,1,0,0:0:0:0:
320,192,37999,1,0,0:0:0:0:
448,192,37999,1,0,0:0:0:0:
192,192,38111,1,0,0:0:0:0:
320,192,38194,1,0,0:0:0:0:
64,192,38222,1,0,0:0:0:0:
448,192,38222,1,0,0:0:0:0:
192,192,38333,1,0,0:0:0:0:
448,192,38416,1,0,0:0:0:0:
64,192,38444,1,0,0:0:0:0:
320,192,38444,1,0,0:0:0:0:
64,192,38666,1,0,0:0:0:0:
192,192,38666,1,0,0:0:0:0:
320,192,38666,1,0,0:0:0:0:
448,192,38694,1,0,0:0:0:0:
448,192,38888,1,0,0:0:0:0:
320,192,38888,1,0,0:0:0:0:
320,192,39111,1,0,0:0:0:0:
64,192,39111,1,0,0:0:0:0:
192,192,39111,1,0,0:0:0:0:
320,192,39333,1,0,0:0:0:0:
448,192,39333,1,0,0:0:0:0:
192,192,39444,1,0,0:0:0:0:
64,192,39555,1,0,0:0:0:0:
448,192,39555,1,0,0:0:0:0:
192,192,39777,1,0,0:0:0:0:
448,192,39777,1,0,0:0:0:0:
320,192,39833,1,0,0:0:0:0:
448,192,39972,1,0,0:0:0:0:
192,192,39999,1,0,0:0:0:0:
64,192,39999,1,0,0:0:0:0:
320,192,40111,1,0,0:0:0:0:
64,192,40222,1,0,0:0:0:0:
448,192,40222,1,0,0:0:0:0:
320,192,40333,1,0,0:0:0:0:
192,192,40416,1,0,0:0:0:0:
64,192,40444,1,0,0:0:0:0:
448,192,40444,1,0,0:0:0:0:
192,192,40666,1,0,0:0:0:0:
320,192,40666,1,0,0:0:0:0:
192,192,40888,1,0,0:0:0:0:
320,192,40888,1,0,0:0:0:0:
64,192,40916,1,0,0:0:0:0:
320,192,41111,1,0,0:0:0:0:
448,192,41222,1,0,0:0:0:0:
192,192,41277,1,0,0:0:0:0:
64,192,41333,1,0,0:0:0:0:
320,192,41333,1,0,0:0:0:0:
320,192,41555,1,0,0:0:0:0:
448,192,41555,1,0,0:0:0:0:
64,192,41611,1,0,0:0:0:0:
192,192,41666,1,0,0:0:0:0:
64,192,41749,1,0,0:0:0:0:
448,192,41777,1,0,0:0:0:0:
448,192,41999,1,0,0:0:0:0:
64,192,41999,1,0,0:0:0:0:
320,192,42027,1,0,0:0:0:0:
64,192,42222,1,0,0:0:0:0:
320,192,42222,1,0,0:0:0:0:
448,192,42249,1,0,0:0:0:0:
192,192,42444,1,0,0:0:0:0:
448,192,42444,1,0,0:0:0:0:
64,192,42666,1,0,0:0:0:0:
192,192,42666,1,0,0:0:0:0:
448,192,42888,1,0,0:0:0:0:
320,192,42999,1,0,0:0:0:0:
192,192,43055,1,0,0:0:0:0:
64,192,43111,1,0,0:0:0:0:
448,192,43333,1,0,0:0:0:0:
192,192,43388,1,0,0:0:0:0:
64,192,43555,1,0,0:0:0:0:
320,192,43555,1,0,0:0:0:0:
192,192,43666,1,0,0:0:0:0:
64,192,43777,1,0,0:0:0:0:
320,192,43777,1,0,0:0:0:0:
448,192,43805,1,0,0:0:0:0:
192,192,43888,1,0,0:0:0:0:
448,192,43972,1,0,0:0:0:0:
64,192,43999,1,0,0:0:0:0:
320,192,43999,1,0,0:0:0:0:
192,192,44111,1,0,0:0:0:0:
448,192,44222,1,0,0:0:0:0:
320,192,44222,1,0,0:0:0:0:
64,192,44333,1,0,0:0:0:0:
192,192,44444,1,0,0:0:0:0:
320,192,44444,1,0,0:0:0:0:
64,192,44666,1,0,0:0:0:0:
192,192,44777,1,0,0:0:0:0:
320,192,44833,1,0,0:0:0:0:
448,192,44888,1,0,0:0:0:0:
64,192,44888,1,0,0:0:0:0:
448,192,45111,1,0,0:0:0:0:
64,192,45111,1,0,0:0:0:0:
192,192,45166,1,0,0:0:0:0:
320,192,45222,1,0,0:0:0:0:
448,192,45333,1,0,0:0:0:0:
64,192,45333,1,0,0:0:0:0:
192,192,45333,1,0,0:0:0:0:
320,192,45444,1,0,0:0:0:0:
192,192,45527,1,0,0:0:0:0:
64,192,45555,1,0,0:0:0:0:
448,192,45555,1,0,0:0:0:0:
64,192,45777,1,0,0:0:0:0:
320,192,45777,1,0,0:0:0:0:
448,192,45805,1,0,0:0:0:0:
192,192,45999,1,0,0:0:0:0:
320,192,45999,1,0,0:0:0:0:
64,192,46222,1,0,0:0:0:0:
192,192,46222,1,0,0:0:0:0:
448,192,46222,1,0,0:0:0:0:
192,192,46444,1,0,0:0:0:0:
448,192,46444,1,0,0:0:0:0:
64,192,46555,1,0,0:0:0:0:
192,192,46611,1,0,0:0:0:0:
320,192,46638,1,0,0:0:0:0:
448,192,46666,1,0,0:0:0:0:
448,192,46888,1,0,0:0:0:0:
320,192,46944,1,0,0:0:0:0:
64,192,47111,1,0,0:0:0:0:
448,192,47111,1,0,0:0:0:0:
192,192,47222,1,0,0:0:0:0:
448,192,47305,1,0,0:0:0:0:
320,192,47333,1,0,0:0:0:0:
64,192,47333,1,0,0:0:0:0:
192,192,47444,1,0,0:0:0:0:
64,192,47555,1,0,0:0:0:0:
320,192,47555,1,0,0:0:0:0:
448,192,47583,1,0,0:0:0:0:
192,192,47749,1,0,0:0:0:0:
448,192,47749,1,0,0:0:0:0:
64,192,47777,1,0,0:0:0:0:
320,192,47972,1,0,0:0:0:0:
64,192,47999,1,0,0:0:0:0:
448,192,47999,1,0,0:0:0:0:
192,192,47999,1,0,0:0:0:0:
320,192,48222,1,0,0:0:0:0:
192,192,48333,1,0,0:0:0:0:
320,192,48388,1,0,0:0:0:0:
448,192,48444,1,0,0:0:0:0:
64,192,48444,1,0,0:0:0:0:
448,192,48666,1,0,0:0:0:0:
320,192,48722,1,0,0:0:0:0:
192,192,48777,1,0,0:0:0:0:
64,192,48888,1,0,0:0:0:0:
448,192,48888,1,0,0:0:0:0:
192,192,48999,1,0,0:0:0:0:
448,192,49083,1,0,0:0:0:0:
64,192,49111,1,0,0:0:0:0:
320,192,49111,1,0,0:0:0:0:
320,192,49305,1,0,0:0:0:0:
64,192,49333,1,0,0:0:0:0:
448,192,49333,1,0,0:0:0:0:
192,192,49555,1,0,0:0:0:0:
448,192,49555,1,0,0:0:0:0:
192,192,49777,1,0,0:0:0:0:
64,192,49777,1,0,0:0:0:0:
448,192,49777,1,0,0:0:0:0:
448,192,49962,1,0,0:0:0:0:
320,192,49999,1,0,0:0:0:0:
64,192,50111,1,0,0:0:0:0:
192,192,50166,1,0,0:0:0:0:
320,192,50194,1,0,0:0:0:0:
448,192,50222,1,0,0:0:0:0:
64,192,50444,1,0,0:0:0:0:
320,192,50444,1,0,0:0:0:0:
192,192,50499,1,0,0:0:0:0:
64,192,50666,1,0,0:0:0:0:
448,192,50666,1,0,0:0:0:0:
320,192,50694,1,0,0:0:0:0:
192,192,50777,1,0,0:0:0:0:
320,192,50861,1,0,0:0:0:0:
448,192,50888,1,0,0:0:0:0:
64,192,50888,1,0,0:0:0:0:
192,192,50999,1,0,0:0:0:0:
320,192,51111,1,0,0:0:0:0:
448,192,51138,1,0,0:0:0:0:
64,192,51222,1,0,0:0:0:0:
192,192,51333,1,0,0:0:0:0:
320,192,51333,1,0,0:0:0:0:
448,192,51444,1,0,0:0:0:0:
192,192,51527,1,0,0:0:0:0:
64,192,51555,1,0,0:0:0:0:
320,192,51555,1,0,0:0:0:0:
448,192,51749,1,0,0:0:0:0:
320,192,51777,1,0,0:0:0:0:
192,192,51888,1,0,0:0:0:0:
320,192,51944,1,0,0:0:0:0:
64,192,51999,1,0,0:0:0:0:
448,192,51999,1,0,0:0:0:0:
448,192,52222,1,0,0:0:0:0:
320,192,52277,1,0,0:0:0:0:
192,192,52333,1,0,0:0:0:0:
64,192,52444,1,0,0:0:0:0:
320,192,52444,1,0,0:0:0:0:
448,192,52444,1,0,0:0:0:0:
192,192,52555,1,0,0:0:0:0:
64,192,52666,1,0,0:0:0:0:
448,192,52666,1,0,0:0:0:0:
64,192,52888,1,0,0:0:0:0:
192,192,52888,1,0,0:0:0:0:
448,192,52888,1,0,0:0:0:0:
64,192,53111,1,0,0:0:0:0:
320,192,53111,1,0,0:0:0:0:
448,192,53305,1,0,0:0:0:0:
64,192,53333,1,0,0:0:0:0:
192,192,53333,1,0,0:0:0:0:
320,192,53361,1,0,0:0:0:0:
448,192,53555,1,0,0:0:0:0:
320,192,53666,1,0,0:0:0:0:
192,192,53722,1,0,0:0:0:0:
64,192,53777,1,0,0:0:0:0:
448,192,53777,1,0,0:0:0:0:
448,192,53999,1,0,0:0:0:0:
320,192,54055,1,0,0:0:0:0:
64,192,54222,1,0,0:0:0:0:
192,192,54222,1,0,0:0:0:0:
448,192,54222,1,0,0:0:0:0:
320,192,54333,1,0,0:0:0:0:
64,192,54444,1,0,0:0:0:0:
448,192,54444,1,0,0:0:0:0:
192,192,54555,1,0,0:0:0:0:
320,192,54666,1,0,0:0:0:0:
64,192,54666,1,0,0:0:0:0:
448,192,54666,1,0,0:0:0:0:
64,192,54888,1,0,0:0:0:0:
192,192,54888,1,0,0:0:0:0:
320,192,54888,1,0,0:0:0:0:
64,192,55111,1,0,0:0:0:0:
192,192,55111,1,0,0:0:0:0:
320,192,55111,1,0,0:0:0:0:
448,192,55111,1,0,0:0:0:0:
448,192,55370,1,0,0:0:0:0:
64,192,55481,1,0,0:0:0:0:
192,192,55499,1,0,0:0:0:0:
320,192,55555,1,0,0:0:0:0:
448,192,55583,1,0,0:0:0:0:
64,192,55583,1,0,0:0:0:0:
64,192,55777,1,0,0:0:0:0:
448,192,55833,1,0,0:0:0:0:
192,192,55833,1,0,0:0:0:0:
320,192,55861,1,0,0:0:0:0:
320,192,55999,1,0,0:0:0:0:
448,192,55999,1,0,0:0:0:0:
64,192,55999,1,0,0:0:0:0:
192,192,56111,1,0,0:0:0:0:
448,192,56194,1,0,0:0:0:0:
64,192,56222,1,0,0:0:0:0:
320,192,56222,1,0,0:0:0:0:
64,192,56444,1,0,0:0:0:0:
320,192,56444,1,0,0:0:0:0:
448,192,56444,1,0,0:0:0:0:
192,192,56472,1,0,0:0:0:0:
64,192,56666,1,0,0:0:0:0:
192,192,56666,1,0,0:0:0:0:
320,192,56666,1,0,0:0:0:0:
320,192,56861,1,0,0:0:0:0:
64,192,56888,1,0,0:0:0:0:
448,192,56888,1,0,0:0:0:0:
192,192,56888,1,0,0:0:0:0:
192,192,57111,1,0,0:0:0:0:
320,192,57222,1,0,0:0:0:0:
448,192,57277,1,0,0:0:0:0:
192,192,57277,1,0,0:0:0:0:
64,192,57333,1,0,0:0:0:0:
448,192,57527,1,0,0:0:0:0:
320,192,57555,1,0,0:0:0:0:
192,192,57611,1,0,0:0:0:0:
320,192,57749,1,0,0:0:0:0:
64,192,57777,1,0,0:0:0:0:
192,192,57777,1,0,0:0:0:0:
448,192,57777,1,0,0:0:0:0:
320,192,57888,1,0,0:0:0:0:
64,192,57999,1,0,0:0:0:0:
448,192,57999,1,0,0:0:0:0:
192,192,58027,1,0,0:0:0:0:
320,192,58111,1,0,0:0:0:0:
64,192,58222,1,0,0:0:0:0:
448,192,58222,1,0,0:0:0:0:
192,192,58333,1,0,0:0:0:0:
64,192,58416,1,0,0:0:0:0:
448,192,58444,1,0,0:0:0:0:
320,192,58472,1,0,0:0:0:0:
192,192,58555,1,0,0:0:0:0:
64,192,58666,1,0,0:0:0:0:
320,192,58666,1,0,0:0:0:0:
448,192,58666,1,0,0:0:0:0:
448,192,58925,1,0,0:0:0:0:
64,192,59037,1,0,0:0:0:0:
192,192,59055,1,0,0:0:0:0:
320,192,59111,1,0,0:0:0:0:
448,192,59138,1,0,0:0:0:0:
64,192,59138,1,0,0:0:0:0:
64,192,59333,1,0,0:0:0:0:
448,192,59388,1,0,0:0:0:0:
192,192,59388,1,0,0:0:0:0:
320,192,59416,1,0,0:0:0:0:
448,192,59555,1,0,0:0:0:0:
320,192,59555,1,0,0:0:0:0:
64,192,59555,1,0,0:0:0:0:
192,192,59666,1,0,0:0:0:0:
448,192,59749,1,0,0:0:0:0:
64,192,59777,1,0,0:0:0:0:
320,192,59777,1,0,0:0:0:0:
320,192,59999,1,0,0:0:0:0:
64,192,59999,1,0,0:0:0:0:
448,192,59999,1,0,0:0:0:0:
192,192,60027,1,0,0:0:0:0:
320,192,60222,1,0,0:0:0:0:
64,192,60222,1,0,0:0:0:0:
192,192,60222,1,0,0:0:0:0:
320,192,60416,1,0,0:0:0:0:
448,192,60444,1,0,0:0:0:0:
192,192,60444,1,0,0:0:0:0:
64,192,60444,1,0,0:0:0:0:
192,192,60666,1,0,0:0:0:0:
320,192,60777,1,0,0:0:0:0:
192,192,60833,1,0,0:0:0:0:
448,192,60833,1,0,0:0:0:0:
64,192,60888,1,0,0:0:0:0:
448,192,61083,1,0,0:0:0:0:
320,192,61111,1,0,0:0:0:0:
192,192,61166,1,0,0:0:0:0:
320,192,61305,1,0,0:0:0:0:
64,192,61333,1,0,0:0:0:0:
448,192,61333,1,0,0:0:0:0:
192,192,61333,1,0,0:0:0:0:
320,192,61444,1,0,0:0:0:0:
64,192,61555,1,0,0:0:0:0:
448,192,61555,1,0,0:0:0:0:
192,192,61583,1,0,0:0:0:0:
320,192,61666,1,0,0:0:0:0:
448,192,61777,1,0,0:0:0:0:
64,192,61777,1,0,0:0:0:0:
192,192,61777,1,0,0:0:0:0:
64,192,61972,1,0,0:0:0:0:
448,192,61999,1,0,0:0:0:0:
192,192,61999,1,0,0:0:0:0:
320,192,61999,1,0,0:0:0:0:
64,192,62222,1,0,0:0:0:0:
320,192,62222,1,0,0:0:0:0:
448,192,62222,1,0,0:0:0:0:
64,192,62555,1,0,0:0:0:0:
320,192,62555,1,0,0:0:0:0:
448,192,62611,1,0,0:0:0:0:
64,192,62666,1,0,0:0:0:0:
192,192,62666,1,0,0:0:0:0:
64,192,62888,1,0,0:0:0:0:
192,192,62888,1,0,0:0:0:0:
320,192,62944,1,0,0:0:0:0:
448,192,62999,1,0,0:0:0:0:
64,192,63111,1,0,0:0:0:0:
320,192,63111,1,0,0:0:0:0:
192,192,63222,1,0,0:0:0:0:
64,192,63333,1,0,0:0:0:0:
320,192,63333,1,0,0:0:0:0:
448,192,63333,1,0,0:0:0:0:
320,192,63527,1,0,0:0:0:0:
64,192,63555,1,0,0:0:0:0:
192,192,63555,1,0,0:0:0:0:
448,192,63583,1,0,0:0:0:0:
64,192,63777,1,0,0:0:0:0:
320,192,63777,1,0,0:0:0:0:
448,192,63972,1,0,0:0:0:0:
192,192,63999,1,0,0:0:0:0:
320,192,63999,1,0,0:0:0:0:
448,192,64222,1,0,0:0:0:0:
320,192,64333,1,0,0:0:0:0:
192,192,64388,1,0,0:0:0:0:
64,192,64444,1,0,0:0:0:0:
448,192,64444,1,0,0:0:0:0:
64,192,64638,1,0,0:0:0:0:
192,192,64666,1,0,0:0:0:0:
320,192,64740,1,0,0:0:0:0:
64,192,64888,1,0,0:0:0:0:
192,192,64888,1,0,0:0:0:0:
448,192,64888,1,0,0:0:0:0:
320,192,64999,1,0,0:0:0:0:
64,192,65111,1,0,0:0:0:0:
448,192,65111,1,0,0:0:0:0:
192,192,65222,1,0,0:0:0:0:
448,192,65305,1,0,0:0:0:0:
320,192,65333,1,0,0:0:0:0:
64,192,65333,1,0,0:0:0:0:
192,192,65444,1,0,0:0:0:0:
320,192,65527,1,0,0:0:0:0:
64,192,65555,1,0,0:0:0:0:
448,192,65555,1,0,0:0:0:0:
192,192,65666,1,0,0:0:0:0:
64,192,65777,1,0,0:0:0:0:
320,192,65777,1,0,0:0:0:0:
448,192,65777,1,0,0:0:0:0:
320,192,65999,1,0,0:0:0:0:
448,192,65999,1,0,0:0:0:0:
64,192,65999,1,0,0:0:0:0:
320,192,66222,1,0,0:0:0:0:
448,192,66222,1,0,0:0:0:0:
64,192,66222,1,0,0:0:0:0:
320,192,66444,1,0,0:0:0:0:
448,192,66444,1,0,0:0:0:0:
64,192,66444,1,0,0:0:0:0:
320,192,66666,1,0,0:0:0:0:
448,192,66666,1,0,0:0:0:0:
64,192,66666,1,0,0:0:0:0:
320,192,66888,1,0,0:0:0:0:
448,192,66888,1,0,0:0:0:0:
64,192,66888,1,0,0:0:0:0:
64,192,67111,1,0,0:0:0:0:
448,192,67111,1,0,0:0:0:0:
320,192,67111,1,0,0:0:0:0:
320,192,67333,1,0,0:0:0:0:
448,192,67333,1,0,0:0:0:0:
64,192,67333,1,0,0:0:0:0:
64,192,67555,1,0,0:0:0:0:
448,192,67555,1,0,0:0:0:0:
448,192,67666,1,0,0:0:0:0:
64,192,67666,1,0,0:0:0:0:
64,192,67777,1,0,0:0:0:0:
448,192,67777,1,0,0:0:0:0:
448,192,67888,1,0,0:0:0:0:
64,192,67888,1,0,0:0:0:0:
448,192,67999,1,0,0:0:0:0:
64,192,67999,1,0,0:0:0:0:
64,192,68111,1,0,0:0:0:0:
448,192,68111,1,0,0:0:0:0:
64,192,68222,1,0,0:0:0:0:
448,192,68222,1,0,0:0:0:0:
448,192,68333,1,0,0:0:0:0:
64,192,68333,1,0,0:0:0:0:
448,192,68444,1,0,0:0:0:0:
64,192,68444,1,0,0:0:0:0:
64,192,68611,1,0,0:0:0:0:
448,192,68611,1,0,0:0:0:0:
64,192,68777,1,0,0:0:0:0:
448,192,68777,1,0,0:0:0:0:
448,192,68944,1,0,0:0:0:0:
64,192,68944,1,0,0:0:0:0:
448,192,69111,1,0,0:0:0:0:
64,192,69111,1,0,0:0:0:0:
64,192,69277,1,0,0:0:0:0:
448,192,69277,1,0,0:0:0:0:
448,192,69444,1,0,0:0:0:0:
64,192,69444,1,0,0:0:0:0:
64,192,69611,1,0,0:0:0:0:
448,192,69611,1,0,0:0:0:0:
64,192,69777,1,0,0:0:0:0:
448,192,69777,1,0,0:0:0:0:
64,192,69999,1,0,0:0:0:0:
448,192,69999,1,0,0:0:0:0:
448,192,70277,1,0,0:0:0:0:
64,192,70277,1,0,0:0:0:0:
448,192,70555,1,0,0:0:0:0:
64,192,70555,1,0,0:0:0:0:
64,192,70833,1,0,0:0:0:0:
448,192,70833,1,0,0:0:0:0:
192,192,71111,1,0,0:0:0:0:
64,192,71111,1,0,0:0:0:0:
320,192,71111,1,0,0:0:0:0:
448,192,71111,1,0,0:0:0:0:
64,192,71999,1,0,0:0:0:0:
448,192,71999,1,0,0:0:0:0:
448,192,72444,1,0,0:0:0:0:
64,192,72444,1,0,0:0:0:0:
320,192,72888,1,0,0:0:0:0:
64,192,72888,1,0,0:0:0:0:
192,192,72944,1,0,0:0:0:0:
448,192,72972,1,0,0:0:0:0:
448,192,73111,1,0,0:0:0:0:
192,192,73111,1,0,0:0:0:0:
320,192,73194,1,0,0:0:0:0:
64,192,73222,1,0,0:0:0:0:
448,192,73249,1,0,0:0:0:0:
192,192,73277,1,0,0:0:0:0:
64,192,73333,1,0,0:0:0:0:
320,192,73333,1,0,0:0:0:0:
320,192,73527,1,0,0:0:0:0:
448,192,73555,1,0,0:0:0:0:
192,192,73555,1,0,0:0:0:0:
64,192,73583,1,0,0:0:0:0:
320,192,73777,1,0,0:0:0:0:
64,192,73777,1,0,0:0:0:0:
448,192,73833,1,0,0:0:0:0:
192,192,73861,1,0,0:0:0:0:
320,192,73944,1,0,0:0:0:0:
448,192,73999,1,0,0:0:0:0:
192,192,74055,1,0,0:0:0:0:
448,192,74222,1,0,0:0:0:0:
64,192,74222,1,0,0:0:0:0:
192,192,74259,1,0,0:0:0:0:
320,192,74277,1,0,0:0:0:0:
448,192,74333,1,0,0:0:0:0:
320,192,74407,1,0,0:0:0:0:
192,192,74444,1,0,0:0:0:0:
64,192,74499,1,0,0:0:0:0:
64,192,74629,1,0,0:0:0:0:
320,192,74638,1,0,0:0:0:0:
448,192,74666,1,0,0:0:0:0:
192,192,74666,1,0,0:0:0:0:
64,192,74814,1,0,0:0:0:0:
320,192,74851,1,0,0:0:0:0:
448,192,74888,1,0,0:0:0:0:
192,192,74916,1,0,0:0:0:0:
320,192,74999,1,0,0:0:0:0:
192,192,75037,1,0,0:0:0:0:
64,192,75111,1,0,0:0:0:0:
448,192,75111,1,0,0:0:0:0:
192,192,75166,1,0,0:0:0:0:
64,192,75333,1,0,0:0:0:0:
192,192,75333,1,0,0:0:0:0:
320,192,75370,1,0,0:0:0:0:
448,192,75416,1,0,0:0:0:0:
64,192,75555,1,0,0:0:0:0:
192,192,75666,1,0,0:0:0:0:
448,192,75740,1,0,0:0:0:0:
192,192,75777,1,0,0:0:0:0:
448,192,75851,1,0,0:0:0:0:
320,192,75925,1,0,0:0:0:0:
192,192,75972,1,0,0:0:0:0:
64,192,75999,1,0,0:0:0:0:
320,192,76027,1,0,0:0:0:0:
448,192,76055,1,0,0:0:0:0:
192,192,76083,1,0,0:0:0:0:
320,192,76148,1,0,0:0:0:0:
192,192,76194,1,0,0:0:0:0:
64,192,76222,1,0,0:0:0:0:
320,192,76222,1,0,0:0:0:0:
448,192,76249,1,0,0:0:0:0:
320,192,76444,1,0,0:0:0:0:
64,192,76444,1,0,0:0:0:0:
192,192,76499,1,0,0:0:0:0:
448,192,76518,1,0,0:0:0:0:
448,192,76666,1,0,0:0:0:0:
64,192,76666,1,0,0:0:0:0:
320,192,76740,1,0,0:0:0:0:
64,192,76777,1,0,0:0:0:0:
192,192,76814,1,0,0:0:0:0:
448,192,76888,1,0,0:0:0:0:
320,192,76916,1,0,0:0:0:0:
64,192,77083,1,0,0:0:0:0:
192,192,77111,1,0,0:0:0:0:
448,192,77148,1,0,0:0:0:0:
448,192,77333,1,0,0:0:0:0:
192,192,77333,1,0,0:0:0:0:
320,192,77388,1,0,0:0:0:0:
64,192,77407,1,0,0:0:0:0:
192,192,77499,1,0,0:0:0:0:
64,192,77555,1,0,0:0:0:0:
448,192,77555,1,0,0:0:0:0:
320,192,77592,1,0,0:0:0:0:
448,192,77722,1,0,0:0:0:0:
320,192,77777,1,0,0:0:0:0:
64,192,77814,1,0,0:0:0:0:
192,192,77833,1,0,0:0:0:0:
320,192,77925,1,0,0:0:0:0:
448,192,77962,1,0,0:0:0:0:
64,192,77999,1,0,0:0:0:0:
192,192,78027,1,0,0:0:0:0:
448,192,78185,1,0,0:0:0:0:
192,192,78194,1,0,0:0:0:0:
64,192,78222,1,0,0:0:0:0:
320,192,78222,1,0,0:0:0:0:
448,192,78370,1,0,0:0:0:0:
192,192,78407,1,0,0:0:0:0:
320,192,78444,1,0,0:0:0:0:
64,192,78444,1,0,0:0:0:0:
192,192,78555,1,0,0:0:0:0:
448,192,78592,1,0,0:0:0:0:
320,192,78638,1,0,0:0:0:0:
192,192,78666,1,0,0:0:0:0:
64,192,78722,1,0,0:0:0:0:
448,192,78888,1,0,0:0:0:0:
192,192,78888,1,0,0:0:0:0:
320,192,78925,1,0,0:0:0:0:
192,192,78999,1,0,0:0:0:0:
64,192,79111,1,0,0:0:0:0:
192,192,79222,1,0,0:0:0:0:
448,192,79259,1,0,0:0:0:0:
64,192,79277,1,0,0:0:0:0:
320,192,79333,1,0,0:0:0:0:
448,192,79370,1,0,0:0:0:0:
64,192,79481,1,0,0:0:0:0:
448,192,79555,1,0,0:0:0:0:
320,192,79592,1,0,0:0:0:0:
192,192,79611,1,0,0:0:0:0:
64,192,79629,1,0,0:0:0:0:
320,192,79740,1,0,0:0:0:0:
192,192,79777,1,0,0:0:0:0:
448,192,79777,1,0,0:0:0:0:
64,192,79944,1,0,0:0:0:0:
320,192,79999,1,0,0:0:0:0:
192,192,80027,1,0,0:0:0:0:
448,192,80074,1,0,0:0:0:0:
64,192,80111,1,0,0:0:0:0:
192,192,80166,1,0,0:0:0:0:
448,192,80222,1,0,0:0:0:0:
320,192,80222,1,0,0:0:0:0:
192,192,80333,1,0,0:0:0:0:
320,192,80388,1,0,0:0:0:0:
448,192,80444,1,0,0:0:0:0:
64,192,80444,1,0,0:0:0:0:
192,192,80555,1,0,0:0:0:0:
448,192,80638,1,0,0:0:0:0:
64,192,80666,1,0,0:0:0:0:
320,192,80666,1,0,0:0:0:0:
192,192,80703,1,0,0:0:0:0:
64,192,80888,1,0,0:0:0:0:
320,192,80888,1,0,0:0:0:0:
448,192,80962,1,0,0:0:0:0:
192,192,81111,1,0,0:0:0:0:
64,192,81111,1,0,0:0:0:0:
320,192,81148,1,0,0:0:0:0:
448,192,81222,1,0,0:0:0:0:
192,192,81333,1,0,0:0:0:0:
320,192,81333,1,0,0:0:0:0:
64,192,81370,1,0,0:0:0:0:
448,192,81407,1,0,0:0:0:0:
448,192,81555,1,0,0:0:0:0:
192,192,81555,1,0,0:0:0:0:
320,192,81583,1,0,0:0:0:0:
64,192,81777,1,0,0:0:0:0:
448,192,81777,1,0,0:0:0:0:
192,192,81777,1,0,0:0:0:0:
320,192,81805,1,0,0:0:0:0:
192,192,81925,1,0,0:0:0:0:
448,192,81962,1,0,0:0:0:0:
320,192,81999,1,0,0:0:0:0:
192,192,82111,1,0,0:0:0:0:
448,192,82148,1,0,0:0:0:0:
320,192,82194,1,0,0:0:0:0:
192,192,82222,1,0,0:0:0:0:
64,192,82222,1,0,0:0:0:0:
64,192,82416,1,0,0:0:0:0:
320,192,82416,1,0,0:0:0:0:
192,192,82444,1,0,0:0:0:0:
448,192,82481,1,0,0:0:0:0:
64,192,82527,1,0,0:0:0:0:
448,192,82666,1,0,0:0:0:0:
320,192,82777,1,0,0:0:0:0:
448,192,82814,1,0,0:0:0:0:
192,192,82833,1,0,0:0:0:0:
64,192,82888,1,0,0:0:0:0:
320,192,82925,1,0,0:0:0:0:
192,192,83037,1,0,0:0:0:0:
64,192,83083,1,0,0:0:0:0:
320,192,83111,1,0,0:0:0:0:
448,192,83148,1,0,0:0:0:0:
192,192,83194,1,0,0:0:0:0:
320,192,83259,1,0,0:0:0:0:
192,192,83296,1,0,0:0:0:0:
448,192,83333,1,0,0:0:0:0:
64,192,83333,1,0,0:0:0:0:
64,192,83518,1,0,0:0:0:0:
192,192,83527,1,0,0:0:0:0:
448,192,83555,1,0,0:0:0:0:
320,192,83629,1,0,0:0:0:0:
64,192,83777,1,0,0:0:0:0:
192,192,83777,1,0,0:0:0:0:
448,192,83851,1,0,0:0:0:0:
320,192,83888,1,0,0:0:0:0:
192,192,83944,1,0,0:0:0:0:
320,192,83972,1,0,0:0:0:0:
448,192,83999,1,0,0:0:0:0:
64,192,83999,1,0,0:0:0:0:
192,192,84111,1,0,0:0:0:0:
448,192,84222,1,0,0:0:0:0:
64,192,84222,1,0,0:0:0:0:
320,192,84259,1,0,0:0:0:0:
64,192,84444,1,0,0:0:0:0:
320,192,84444,1,0,0:0:0:0:
192,192,84518,1,0,0:0:0:0:
64,192,84611,1,0,0:0:0:0:
192,192,84666,1,0,0:0:0:0:
448,192,84666,1,0,0:0:0:0:
320,192,84703,1,0,0:0:0:0:
448,192,84777,1,0,0:0:0:0:
192,192,84861,1,0,0:0:0:0:
64,192,84888,1,0,0:0:0:0:
320,192,84916,1,0,0:0:0:0:
192,192,85037,1,0,0:0:0:0:
320,192,85074,1,0,0:0:0:0:
448,192,85111,1,0,0:0:0:0:
64,192,85111,1,0,0:0:0:0:
448,192,85333,1,0,0:0:0:0:
192,192,85333,1,0,0:0:0:0:
192,192,85481,1,0,0:0:0:0:
64,192,85527,1,0,0:0:0:0:
320,192,85555,1,0,0:0:0:0:
448,192,85583,1,0,0:0:0:0:
192,192,85666,1,0,0:0:0:0:
64,192,85703,1,0,0:0:0:0:
448,192,85740,1,0,0:0:0:0:
320,192,85777,1,0,0:0:0:0:
192,192,85888,1,0,0:0:0:0:
448,192,85999,1,0,0:0:0:0:
320,192,86027,1,0,0:0:0:0:
192,192,86037,1,0,0:0:0:0:
64,192,86083,1,0,0:0:0:0:
320,192,86222,1,0,0:0:0:0:
192,192,86333,1,0,0:0:0:0:
64,192,86370,1,0,0:0:0:0:
320,192,86388,1,0,0:0:0:0:
448,192,86444,1,0,0:0:0:0:
320,192,86481,1,0,0:0:0:0:
192,192,86555,1,0,0:0:0:0:
448,192,86592,1,0,0:0:0:0:
64,192,86666,1,0,0:0:0:0:
320,192,86666,1,0,0:0:0:0:
192,192,86703,1,0,0:0:0:0:
320,192,86851,1,0,0:0:0:0:
192,192,86888,1,0,0:0:0:0:
448,192,86888,1,0,0:0:0:0:
64,192,87111,1,0,0:0:0:0:
320,192,87111,1,0,0:0:0:0:
448,192,87111,1,0,0:0:0:0:
192,192,87222,1,0,0:0:0:0:
320,192,87296,1,0,0:0:0:0:
64,192,87333,1,0,0:0:0:0:
448,192,87333,1,0,0:0:0:0:
192,192,87407,1,0,0:0:0:0:
320,192,87444,1,0,0:0:0:0:
448,192,87481,1,0,0:0:0:0:
64,192,87555,1,0,0:0:0:0:
192,192,87555,1,0,0:0:0:0:
320,192,87666,1,0,0:0:0:0:
192,192,87740,1,0,0:0:0:0:
448,192,87777,1,0,0:0:0:0:
64,192,87777,1,0,0:0:0:0:
320,192,87833,1,0,0:0:0:0:
192,192,87888,1,0,0:0:0:0:
64,192,87999,1,0,0:0:0:0:
448,192,87999,1,0,0:0:0:0:
192,192,88111,1,0,0:0:0:0:
448,192,88148,1,0,0:0:0:0:
320,192,88222,1,0,0:0:0:0:
64,192,88222,1,0,0:0:0:0:
448,192,88277,1,0,0:0:0:0:
192,192,88333,1,0,0:0:0:0:
64,192,88444,1,0,0:0:0:0:
448,192,88444,1,0,0:0:0:0:
320,192,88444,1,0,0:0:0:0:
192,192,88518,1,0,0:0:0:0:
320,192,88592,1,0,0:0:0:0:
192,192,88666,1,0,0:0:0:0:
64,192,88666,1,0,0:0:0:0:
448,192,88666,1,0,0:0:0:0:
320,192,88814,1,0,0:0:0:0:
192,192,88888,1,0,0:0:0:0:
64,192,88888,1,0,0:0:0:0:
448,192,88888,1,0,0:0:0:0:
320,192,88999,1,0,0:0:0:0:
448,192,89037,1,0,0:0:0:0:
192,192,89055,1,0,0:0:0:0:
64,192,89111,1,0,0:0:0:0:
320,192,89111,1,0,0:0:0:0:
192,192,89222,1,0,0:0:0:0:
448,192,89222,1,0,0:0:0:0:
320,192,89259,1,0,0:0:0:0:
64,192,89333,1,0,0:0:0:0:
448,192,89333,1,0,0:0:0:0:
192,192,89444,1,0,0:0:0:0:
320,192,89555,1,0,0:0:0:0:
448,192,89555,1,0,0:0:0:0:
64,192,89611,1,0,0:0:0:0:
192,192,89666,1,0,0:0:0:0:
448,192,89777,1,0,0:0:0:0:
64,192,89777,1,0,0:0:0:0:
320,192,89888,1,0,0:0:0:0:
64,192,89999,1,0,0:0:0:0:
448,192,89999,1,0,0:0:0:0:
192,192,90037,1,0,0:0:0:0:
320,192,90111,1,0,0:0:0:0:
192,192,90148,1,0,0:0:0:0:
448,192,90222,1,0,0:0:0:0:
64,192,90222,1,0,0:0:0:0:
320,192,90259,1,0,0:0:0:0:
192,192,90333,1,0,0:0:0:0:
320,192,90370,1,0,0:0:0:0:
448,192,90388,1,0,0:0:0:0:
64,192,90444,1,0,0:0:0:0:
64,192,90666,1,0,0:0:0:0:
448,192,90666,1,0,0:0:0:0:
320,192,90666,1,0,0:0:0:0:
192,192,90777,1,0,0:0:0:0:
448,192,90861,1,0,0:0:0:0:
64,192,90888,1,0,0:0:0:0:
320,192,90888,1,0,0:0:0:0:
192,192,90962,1,0,0:0:0:0:
448,192,90999,1,0,0:0:0:0:
320,192,91027,1,0,0:0:0:0:
64,192,91111,1,0,0:0:0:0:
192,192,91111,1,0,0:0:0:0:
448,192,91222,1,0,0:0:0:0:
192,192,91296,1,0,0:0:0:0:
64,192,91333,1,0,0:0:0:0:
320,192,91333,1,0,0:0:0:0:
448,192,91388,1,0,0:0:0:0:
64,192,91555,1,0,0:0:0:0:
320,192,91555,1,0,0:0:0:0:
448,192,91555,1,0,0:0:0:0:
192,192,91666,1,0,0:0:0:0:
320,192,91694,1,0,0:0:0:0:
64,192,91777,1,0,0:0:0:0:
448,192,91777,1,0,0:0:0:0:
320,192,91805,1,0,0:0:0:0:
192,192,91888,1,0,0:0:0:0:
64,192,91999,1,0,0:0:0:0:
320,192,91999,1,0,0:0:0:0:
448,192,91999,1,0,0:0:0:0:
192,192,92074,1,0,0:0:0:0:
448,192,92138,1,0,0:0:0:0:
192,192,92222,1,0,0:0:0:0:
64,192,92222,1,0,0:0:0:0:
320,192,92222,1,0,0:0:0:0:
448,192,92416,1,0,0:0:0:0:
64,192,92444,1,0,0:0:0:0:
192,192,92444,1,0,0:0:0:0:
320,192,92444,1,0,0:0:0:0:
448,192,92555,1,0,0:0:0:0:
320,192,92583,1,0,0:0:0:0:
192,192,92611,1,0,0:0:0:0:
64,192,92666,1,0,0:0:0:0:
448,192,92666,1,0,0:0:0:0:
192,192,92777,1,0,0:0:0:0:
320,192,92777,1,0,0:0:0:0:
448,192,92805,1,0,0:0:0:0:
64,192,92888,1,0,0:0:0:0:
320,192,92888,1,0,0:0:0:0:
192,192,92999,1,0,0:0:0:0:
320,192,93111,1,0,0:0:0:0:
64,192,93111,1,0,0:0:0:0:
192,192,93166,1,0,0:0:0:0:
448,192,93194,1,0,0:0:0:0:
64,192,93333,1,0,0:0:0:0:
320,192,93333,1,0,0:0:0:0:
448,192,93444,1,0,0:0:0:0:
64,192,93555,1,0,0:0:0:0:
320,192,93555,1,0,0:0:0:0:
192,192,93592,1,0,0:0:0:0:
448,192,93611,1,0,0:0:0:0:
192,192,93703,1,0,0:0:0:0:
64,192,93777,1,0,0:0:0:0:
320,192,93777,1,0,0:0:0:0:
448,192,93777,1,0,0:0:0:0:
448,192,93861,1,0,0:0:0:0:
192,192,93888,1,0,0:0:0:0:
320,192,93944,1,0,0:0:0:0:
64,192,93999,1,0,0:0:0:0:
320,192,94194,1,0,0:0:0:0:
64,192,94222,1,0,0:0:0:0:
448,192,94222,1,0,0:0:0:0:
192,192,94333,1,0,0:0:0:0:
448,192,94370,1,0,0:0:0:0:
320,192,94407,1,0,0:0:0:0:
192,192,94444,1,0,0:0:0:0:
64,192,94555,1,0,0:0:0:0:
192,192,94592,1,0,0:0:0:0:
320,192,94666,1,0,0:0:0:0:
448,192,94666,1,0,0:0:0:0:
192,192,94777,1,0,0:0:0:0:
448,192,94814,1,0,0:0:0:0:
64,192,94814,1,0,0:0:0:0:
320,192,94888,1,0,0:0:0:0:
192,192,94925,1,0,0:0:0:0:
320,192,94999,1,0,0:0:0:0:
448,192,95037,1,0,0:0:0:0:
64,192,95111,1,0,0:0:0:0:
192,192,95111,1,0,0:0:0:0:
320,192,95222,1,0,0:0:0:0:
64,192,95333,1,0,0:0:0:0:
448,192,95388,1,0,0:0:0:0:
192,192,95444,1,0,0:0:0:0:
320,192,95555,1,0,0:0:0:0:
192,192,95583,1,0,0:0:0:0:
448,192,95629,1,0,0:0:0:0:
192,192,95740,1,0,0:0:0:0:
64,192,95777,1,0,0:0:0:0:
320,192,95777,1,0,0:0:0:0:
448,192,95777,1,0,0:0:0:0:
320,192,95999,1,0,0:0:0:0:
448,192,95999,1,0,0:0:0:0:
64,192,95999,1,0,0:0:0:0:
192,192,96111,1,0,0:0:0:0:
64,192,96148,1,0,0:0:0:0:
320,192,96185,1,0,0:0:0:0:
448,192,96222,1,0,0:0:0:0:
320,192,96333,1,0,0:0:0:0:
64,192,96370,1,0,0:0:0:0:
192,192,96444,1,0,0:0:0:0:
320,192,96444,1,0,0:0:0:0:
448,192,96444,1,0,0:0:0:0:
64,192,96555,1,0,0:0:0:0:
448,192,96638,1,0,0:0:0:0:
320,192,96666,1,0,0:0:0:0:
192,192,96703,1,0,0:0:0:0:
64,192,96749,1,0,0:0:0:0:
448,192,96777,1,0,0:0:0:0:
320,192,96888,1,0,0:0:0:0:
64,192,96999,1,0,0:0:0:0:
192,192,97037,1,0,0:0:0:0:
320,192,97111,1,0,0:0:0:0:
448,192,97111,1,0,0:0:0:0:
64,192,97148,1,0,0:0:0:0:
192,192,97222,1,0,0:0:0:0:
320,192,97259,1,0,0:0:0:0:
64,192,97333,1,0,0:0:0:0:
448,192,97333,1,0,0:0:0:0:
192,192,97370,1,0,0:0:0:0:
320,192,97407,1,0,0:0:0:0:
448,192,97444,1,0,0:0:0:0:
64,192,97481,1,0,0:0:0:0:
192,192,97518,1,0,0:0:0:0:
320,192,97555,1,0,0:0:0:0:
448,192,97555,1,0,0:0:0:0:
320,192,97777,1,0,0:0:0:0:
64,192,97777,1,0,0:0:0:0:
448,192,97777,1,0,0:0:0:0:
192,192,97888,1,0,0:0:0:0:
320,192,97962,1,0,0:0:0:0:
448,192,97999,1,0,0:0:0:0:
64,192,97999,1,0,0:0:0:0:
192,192,98074,1,0,0:0:0:0:
320,192,98111,1,0,0:0:0:0:
448,192,98148,1,0,0:0:0:0:
192,192,98222,1,0,0:0:0:0:
64,192,98222,1,0,0:0:0:0:
320,192,98333,1,0,0:0:0:0:
192,192,98407,1,0,0:0:0:0:
64,192,98444,1,0,0:0:0:0:
448,192,98444,1,0,0:0:0:0:
320,192,98499,1,0,0:0:0:0:
192,192,98555,1,0,0:0:0:0:
448,192,98666,1,0,0:0:0:0:
64,192,98666,1,0,0:0:0:0:
192,192,98777,1,0,0:0:0:0:
448,192,98814,1,0,0:0:0:0:
320,192,98888,1,0,0:0:0:0:
64,192,98888,1,0,0:0:0:0:
448,192,98944,1,0,0:0:0:0:
192,192,98999,1,0,0:0:0:0:
64,192,99111,1,0,0:0:0:0:
320,192,99111,1,0,0:0:0:0:
448,192,99111,1,0,0:0:0:0:
192,192,99185,1,0,0:0:0:0:
320,192,99259,1,0,0:0:0:0:
448,192,99333,1,0,0:0:0:0:
192,192,99333,1,0,0:0:0:0:
64,192,99333,1,0,0:0:0:0:
320,192,99481,1,0,0:0:0:0:
192,192,99555,1,0,0:0:0:0:
64,192,99555,1,0,0:0:0:0:
448,192,99555,1,0,0:0:0:0:
320,192,99666,1,0,0:0:0:0:
448,192,99703,1,0,0:0:0:0:
192,192,99722,1,0,0:0:0:0:
64,192,99777,1,0,0:0:0:0:
320,192,99777,1,0,0:0:0:0:
192,192,99888,1,0,0:0:0:0:
448,192,99888,1,0,0:0:0:0:
64,192,99999,1,0,0:0:0:0:
448,192,99999,1,0,0:0:0:0:
192,192,100111,1,0,0:0:0:0:
320,192,100222,1,0,0:0:0:0:
448,192,100222,1,0,0:0:0:0:
64,192,100222,1,0,0:0:0:0:
192,192,100305,1,0,0:0:0:0:
320,192,100333,1,0,0:0:0:0:
64,192,100444,1,0,0:0:0:0:
448,192,100444,1,0,0:0:0:0:
192,192,100499,1,0,0:0:0:0:
320,192,100555,1,0,0:0:0:0:
64,192,100555,1,0,0:0:0:0:
448,192,100611,1,0,0:0:0:0:
320,192,100666,1,0,0:0:0:0:
64,192,100666,1,0,0:0:0:0:
192,192,100722,1,0,0:0:0:0:
448,192,100777,1,0,0:0:0:0:
320,192,100833,1,0,0:0:0:0:
192,192,100861,1,0,0:0:0:0:
64,192,100888,1,0,0:0:0:0:
448,192,100916,1,0,0:0:0:0:
320,192,100944,1,0,0:0:0:0:
192,192,100972,1,0,0:0:0:0:
64,192,100999,1,0,0:0:0:0:
320,192,101055,1,0,0:0:0:0:
192,192,101111,1,0,0:0:0:0:
448,192,101166,1,0,0:0:0:0:
192,192,101277,1,0,0:0:0:0:
320,192,101333,1,0,0:0:0:0:
320,192,101555,1,0,0:0:0:0:
320,192,101777,1,0,0:0:0:0:
320,192,101999,1,0,0:0:0:0:
320,192,102222,1,0,0:0:0:0:
320,192,102444,1,0,0:0:0:0:
320,192,102666,1,0,0:0:0:0:
320,192,102888,1,0,0:0:0:0:
320,192,103111,1,0,0:0:0:0:
320,192,103333,1,0,0:0:0:0:
320,192,103555,1,0,0:0:0:0:
320,192,103777,1,0,0:0:0:0:
320,192,103999,1,0,0:0:0:0:
320,192,104222,1,0,0:0:0:0:
320,192,104444,1,0,0:0:0:0:
320,192,104666,1,0,0:0:0:0:
448,192,104888,1,0,0:0:0:0:
64,192,104888,1,0,0:0:0:0:
448,192,105111,1,0,0:0:0:0:
64,192,105111,1,0,0:0:0:0:
448,192,105333,1,0,0:0:0:0:
64,192,105333,1,0,0:0:0:0:
448,192,105555,1,0,0:0:0:0:
64,192,105555,1,0,0:0:0:0:
448,192,105777,1,0,0:0:0:0:
64,192,105777,1,0,0:0:0:0:
448,192,105999,1,0,0:0:0:0:
64,192,105999,1,0,0:0:0:0:
448,192,106222,1,0,0:0:0:0:
64,192,106222,1,0,0:0:0:0:
448,192,106444,1,0,0:0:0:0:
64,192,106444,1,0,0:0:0:0:
448,192,106666,1,0,0:0:0:0:
64,192,106666,1,0,0:0:0:0:
320,192,106666,1,0,0:0:0:0:
320,192,106814,1,0,0:0:0:0:
448,192,106814,1,0,0:0:0:0:
64,192,106814,1,0,0:0:0:0:
64,192,106962,1,0,0:0:0:0:
448,192,106962,1,0,0:0:0:0:
320,192,106962,1,0,0:0:0:0:
448,192,107111,1,0,0:0:0:0:
64,192,107111,1,0,0:0:0:0:
320,192,107111,1,0,0:0:0:0:
320,192,107259,1,0,0:0:0:0:
448,192,107259,1,0,0:0:0:0:
64,192,107259,1,0,0:0:0:0:
64,192,107407,1,0,0:0:0:0:
448,192,107407,1,0,0:0:0:0:
320,192,107407,1,0,0:0:0:0:
448,192,107555,1,0,0:0:0:0:
64,192,107555,1,0,0:0:0:0:
320,192,107555,1,0,0:0:0:0:
192,192,107666,1,0,0:0:0:0:
320,192,107777,1,0,0:0:0:0:
448,192,107888,1,0,0:0:0:0:
320,192,107999,1,0,0:0:0:0:
192,192,107999,1,0,0:0:0:0:
64,192,107999,1,0,0:0:0:0:
448,192,108111,1,0,0:0:0:0:
320,192,108222,1,0,0:0:0:0:
192,192,108333,1,0,0:0:0:0:
320,192,108444,1,0,0:0:0:0:
64,192,108444,1,0,0:0:0:0:
448,192,108444,1,0,0:0:0:0:
192,192,108555,1,0,0:0:0:0:
192,192,108666,1,0,0:0:0:0:
320,192,108722,1,0,0:0:0:0:
64,192,108777,1,0,0:0:0:0:
448,192,108805,1,0,0:0:0:0:
192,192,108833,1,0,0:0:0:0:
64,192,108888,1,0,0:0:0:0:
320,192,108888,1,0,0:0:0:0:
448,192,108944,1,0,0:0:0:0:
192,192,109111,1,0,0:0:0:0:
64,192,109138,1,0,0:0:0:0:
448,192,109166,1,0,0:0:0:0:
320,192,109166,1,0,0:0:0:0:
64,192,109333,1,0,0:0:0:0:
448,192,109388,1,0,0:0:0:0:
192,192,109416,1,0,0:0:0:0:
320,192,109444,1,0,0:0:0:0:
448,192,109555,1,0,0:0:0:0:
192,192,109611,1,0,0:0:0:0:
320,192,109611,1,0,0:0:0:0:
64,192,109777,1,0,0:0:0:0:
192,192,109814,1,0,0:0:0:0:
320,192,109833,1,0,0:0:0:0:
448,192,109888,1,0,0:0:0:0:
320,192,109944,1,0,0:0:0:0:
192,192,109999,1,0,0:0:0:0:
448,192,109999,1,0,0:0:0:0:
64,192,110055,1,0,0:0:0:0:
64,192,110185,1,0,0:0:0:0:
192,192,110222,1,0,0:0:0:0:
448,192,110277,1,0,0:0:0:0:
320,192,110277,1,0,0:0:0:0:
64,192,110370,1,0,0:0:0:0:
448,192,110444,1,0,0:0:0:0:
192,192,110472,1,0,0:0:0:0:
320,192,110499,1,0,0:0:0:0:
192,192,110592,1,0,0:0:0:0:
448,192,110611,1,0,0:0:0:0:
64,192,110666,1,0,0:0:0:0:
192,192,110722,1,0,0:0:0:0:
320,192,110722,1,0,0:0:0:0:
192,192,110888,1,0,0:0:0:0:
64,192,110888,1,0,0:0:0:0:
448,192,110944,1,0,0:0:0:0:
320,192,111027,1,0,0:0:0:0:
64,192,111111,1,0,0:0:0:0:
192,192,111222,1,0,0:0:0:0:
320,192,111305,1,0,0:0:0:0:
192,192,111333,1,0,0:0:0:0:
320,192,111444,1,0,0:0:0:0:
192,192,111527,1,0,0:0:0:0:
448,192,111527,1,0,0:0:0:0:
64,192,111555,1,0,0:0:0:0:
320,192,111583,1,0,0:0:0:0:
192,192,111638,1,0,0:0:0:0:
448,192,111666,1,0,0:0:0:0:
192,192,111749,1,0,0:0:0:0:
64,192,111777,1,0,0:0:0:0:
448,192,111805,1,0,0:0:0:0:
448,192,111805,1,0,0:0:0:0:
320,192,111805,1,0,0:0:0:0:
64,192,111999,1,0,0:0:0:0:
448,192,112027,1,0,0:0:0:0:
192,192,112055,1,0,0:0:0:0:
320,192,112194,1,0,0:0:0:0:
64,192,112222,1,0,0:0:0:0:
448,192,112249,1,0,0:0:0:0:
64,192,112333,1,0,0:0:0:0:
448,192,112361,1,0,0:0:0:0:
192,192,112370,1,0,0:0:0:0:
320,192,112472,1,0,0:0:0:0:
448,192,112472,1,0,0:0:0:0:
64,192,112638,1,0,0:0:0:0:
192,192,112666,1,0,0:0:0:0:
320,192,112694,1,0,0:0:0:0:
192,192,112888,1,0,0:0:0:0:
320,192,112944,1,0,0:0:0:0:
64,192,112962,1,0,0:0:0:0:
448,192,112999,1,0,0:0:0:0:
192,192,113055,1,0,0:0:0:0:
64,192,113111,1,0,0:0:0:0:
320,192,113138,1,0,0:0:0:0:
448,192,113222,1,0,0:0:0:0:
320,192,113305,1,0,0:0:0:0:
448,192,113361,1,0,0:0:0:0:
64,192,113370,1,0,0:0:0:0:
192,192,113388,1,0,0:0:0:0:
448,192,113527,1,0,0:0:0:0:
320,192,113527,1,0,0:0:0:0:
64,192,113555,1,0,0:0:0:0:
192,192,113583,1,0,0:0:0:0:
192,192,113749,1,0,0:0:0:0:
64,192,113777,1,0,0:0:0:0:
320,192,113805,1,0,0:0:0:0:
448,192,113805,1,0,0:0:0:0:
192,192,113962,1,0,0:0:0:0:
320,192,113972,1,0,0:0:0:0:
64,192,113999,1,0,0:0:0:0:
448,192,114027,1,0,0:0:0:0:
192,192,114111,1,0,0:0:0:0:
320,192,114194,1,0,0:0:0:0:
192,192,114222,1,0,0:0:0:0:
448,192,114249,1,0,0:0:0:0:
64,192,114277,1,0,0:0:0:0:
192,192,114444,1,0,0:0:0:0:
320,192,114472,1,0,0:0:0:0:
448,192,114472,1,0,0:0:0:0:
192,192,114555,1,0,0:0:0:0:
64,192,114666,1,0,0:0:0:0:
192,192,114777,1,0,0:0:0:0:
64,192,114833,1,0,0:0:0:0:
320,192,114833,1,0,0:0:0:0:
448,192,114916,1,0,0:0:0:0:
192,192,114944,1,0,0:0:0:0:
64,192,115037,1,0,0:0:0:0:
320,192,115111,1,0,0:0:0:0:
192,192,115166,1,0,0:0:0:0:
64,192,115185,1,0,0:0:0:0:
448,192,115194,1,0,0:0:0:0:
320,192,115277,1,0,0:0:0:0:
192,192,115333,1,0,0:0:0:0:
448,192,115333,1,0,0:0:0:0:
64,192,115499,1,0,0:0:0:0:
448,192,115555,1,0,0:0:0:0:
192,192,115583,1,0,0:0:0:0:
320,192,115638,1,0,0:0:0:0:
320,192,115777,1,0,0:0:0:0:
192,192,115805,1,0,0:0:0:0:
448,192,115861,1,0,0:0:0:0:
64,192,115888,1,0,0:0:0:0:
192,192,115944,1,0,0:0:0:0:
64,192,115999,1,0,0:0:0:0:
448,192,115999,1,0,0:0:0:0:
320,192,115999,1,0,0:0:0:0:
192,192,116111,1,0,0:0:0:0:
64,192,116222,1,0,0:0:0:0:
320,192,116222,1,0,0:0:0:0:
448,192,116222,1,0,0:0:0:0:
192,192,116259,1,0,0:0:0:0:
64,192,116444,1,0,0:0:0:0:
448,192,116444,1,0,0:0:0:0:
320,192,116527,1,0,0:0:0:0:
192,192,116638,1,0,0:0:0:0:
448,192,116666,1,0,0:0:0:0:
320,192,116666,1,0,0:0:0:0:
64,192,116703,1,0,0:0:0:0:
192,192,116777,1,0,0:0:0:0:
64,192,116888,1,0,0:0:0:0:
320,192,116916,1,0,0:0:0:0:
448,192,116916,1,0,0:0:0:0:
448,192,117083,1,0,0:0:0:0:
64,192,117111,1,0,0:0:0:0:
192,192,117111,1,0,0:0:0:0:
320,192,117138,1,0,0:0:0:0:
64,192,117296,1,0,0:0:0:0:
192,192,117333,1,0,0:0:0:0:
448,192,117333,1,0,0:0:0:0:
320,192,117333,1,0,0:0:0:0:
192,192,117481,1,0,0:0:0:0:
320,192,117499,1,0,0:0:0:0:
448,192,117555,1,0,0:0:0:0:
64,192,117583,1,0,0:0:0:0:
192,192,117666,1,0,0:0:0:0:
320,192,117694,1,0,0:0:0:0:
448,192,117749,1,0,0:0:0:0:
64,192,117777,1,0,0:0:0:0:
64,192,117972,1,0,0:0:0:0:
192,192,117999,1,0,0:0:0:0:
448,192,117999,1,0,0:0:0:0:
64,192,118083,1,0,0:0:0:0:
320,192,118083,1,0,0:0:0:0:
320,192,118222,1,0,0:0:0:0:
448,192,118333,1,0,0:0:0:0:
192,192,118388,1,0,0:0:0:0:
320,192,118388,1,0,0:0:0:0:
64,192,118444,1,0,0:0:0:0:
448,192,118444,1,0,0:0:0:0:
192,192,118592,1,0,0:0:0:0:
64,192,118638,1,0,0:0:0:0:
448,192,118666,1,0,0:0:0:0:
320,192,118666,1,0,0:0:0:0:
192,192,118749,1,0,0:0:0:0:
448,192,118833,1,0,0:0:0:0:
192,192,118851,1,0,0:0:0:0:
64,192,118888,1,0,0:0:0:0:
320,192,118916,1,0,0:0:0:0:
64,192,119074,1,0,0:0:0:0:
192,192,119083,1,0,0:0:0:0:
320,192,119111,1,0,0:0:0:0:
448,192,119277,1,0,0:0:0:0:
192,192,119333,1,0,0:0:0:0:
64,192,119333,1,0,0:0:0:0:
320,192,119416,1,0,0:0:0:0:
448,192,119444,1,0,0:0:0:0:
192,192,119499,1,0,0:0:0:0:
64,192,119555,1,0,0:0:0:0:
320,192,119555,1,0,0:0:0:0:
320,192,119777,1,0,0:0:0:0:
448,192,119777,1,0,0:0:0:0:
192,192,119888,1,0,0:0:0:0:
64,192,119999,1,0,0:0:0:0:
448,192,119999,1,0,0:0:0:0:
192,192,120074,1,0,0:0:0:0:
64,192,120166,1,0,0:0:0:0:
192,192,120222,1,0,0:0:0:0:
320,192,120222,1,0,0:0:0:0:
448,192,120305,1,0,0:0:0:0:
192,192,120416,1,0,0:0:0:0:
64,192,120444,1,0,0:0:0:0:
448,192,120444,1,0,0:0:0:0:
192,192,120592,1,0,0:0:0:0:
64,192,120666,1,0,0:0:0:0:
448,192,120666,1,0,0:0:0:0:
320,192,120666,1,0,0:0:0:0:
64,192,120777,1,0,0:0:0:0:
192,192,120888,1,0,0:0:0:0:
320,192,120916,1,0,0:0:0:0:
192,192,121037,1,0,0:0:0:0:
64,192,121083,1,0,0:0:0:0:
448,192,121111,1,0,0:0:0:0:
320,192,121111,1,0,0:0:0:0:
192,192,121222,1,0,0:0:0:0:
320,192,121277,1,0,0:0:0:0:
448,192,121333,1,0,0:0:0:0:
64,192,121388,1,0,0:0:0:0:
192,192,121444,1,0,0:0:0:0:
320,192,121555,1,0,0:0:0:0:
448,192,121555,1,0,0:0:0:0:
192,192,121592,1,0,0:0:0:0:
64,192,121638,1,0,0:0:0:0:
448,192,121777,1,0,0:0:0:0:
192,192,121888,1,0,0:0:0:0:
64,192,121925,1,0,0:0:0:0:
448,192,121944,1,0,0:0:0:0:
320,192,121999,1,0,0:0:0:0:
192,192,122037,1,0,0:0:0:0:
320,192,122166,1,0,0:0:0:0:
64,192,122222,1,0,0:0:0:0:
192,192,122296,1,0,0:0:0:0:
448,192,122305,1,0,0:0:0:0:
448,192,122388,1,0,0:0:0:0:
320,192,122388,1,0,0:0:0:0:
192,192,122444,1,0,0:0:0:0:
64,192,122472,1,0,0:0:0:0:
64,192,122666,1,0,0:0:0:0:
448,192,122666,1,0,0:0:0:0:
320,192,122666,1,0,0:0:0:0:
192,192,122777,1,0,0:0:0:0:
320,192,122833,1,0,0:0:0:0:
192,192,122888,1,0,0:0:0:0:
448,192,122916,1,0,0:0:0:0:
64,192,122999,1,0,0:0:0:0:
448,192,122999,1,0,0:0:0:0:
192,192,123037,1,0,0:0:0:0:
448,192,123111,1,0,0:0:0:0:
320,192,123111,1,0,0:0:0:0:
192,192,123222,1,0,0:0:0:0:
448,192,123277,1,0,0:0:0:0:
64,192,123305,1,0,0:0:0:0:
320,192,123305,1,0,0:0:0:0:
448,192,123416,1,0,0:0:0:0:
64,192,123444,1,0,0:0:0:0:
192,192,123472,1,0,0:0:0:0:
320,192,123499,1,0,0:0:0:0:
448,192,123527,1,0,0:0:0:0:
64,192,123638,1,0,0:0:0:0:
192,192,123666,1,0,0:0:0:0:
192,192,123777,1,0,0:0:0:0:
320,192,123777,1,0,0:0:0:0:
448,192,123777,1,0,0:0:0:0:
64,192,123833,1,0,0:0:0:0:
192,192,123888,1,0,0:0:0:0:
64,192,123999,1,0,0:0:0:0:
192,192,123999,1,0,0:0:0:0:
448,192,123999,1,0,0:0:0:0:
320,192,124055,1,0,0:0:0:0:
448,192,124166,1,0,0:0:0:0:
64,192,124194,1,0,0:0:0:0:
320,192,124194,1,0,0:0:0:0:
192,192,124333,1,0,0:0:0:0:
320,192,124416,1,0,0:0:0:0:
64,192,124444,1,0,0:0:0:0:
448,192,124444,1,0,0:0:0:0:
192,192,124555,1,0,0:0:0:0:
448,192,124611,1,0,0:0:0:0:
320,192,124638,1,0,0:0:0:0:
64,192,124666,1,0,0:0:0:0:
448,192,124749,1,0,0:0:0:0:
64,192,124888,1,0,0:0:0:0:
192,192,124888,1,0,0:0:0:0:
320,192,124888,1,0,0:0:0:0:
64,192,124999,1,0,0:0:0:0:
448,192,125083,1,0,0:0:0:0:
320,192,125111,1,0,0:0:0:0:
64,192,125166,1,0,0:0:0:0:
192,192,125166,1,0,0:0:0:0:
448,192,125222,1,0,0:0:0:0:
320,192,125305,1,0,0:0:0:0:
64,192,125333,1,0,0:0:0:0:
64,192,125444,1,0,0:0:0:0:
320,192,125444,1,0,0:0:0:0:
192,192,125481,1,0,0:0:0:0:
448,192,125499,1,0,0:0:0:0:
320,192,125583,1,0,0:0:0:0:
64,192,125611,1,0,0:0:0:0:
192,192,125666,1,0,0:0:0:0:
320,192,125694,1,0,0:0:0:0:
64,192,125777,1,0,0:0:0:0:
448,192,125805,1,0,0:0:0:0:
192,192,125814,1,0,0:0:0:0:
192,192,125962,1,0,0:0:0:0:
320,192,125972,1,0,0:0:0:0:
448,192,125999,1,0,0:0:0:0:
64,192,126027,1,0,0:0:0:0:
320,192,126111,1,0,0:0:0:0:
64,192,126222,1,0,0:0:0:0:
192,192,126222,1,0,0:0:0:0:
448,192,126249,1,0,0:0:0:0:
320,192,126361,1,0,0:0:0:0:
64,192,126444,1,0,0:0:0:0:
320,192,126472,1,0,0:0:0:0:
64,192,126555,1,0,0:0:0:0:
448,192,126555,1,0,0:0:0:0:
192,192,126592,1,0,0:0:0:0:
320,192,126694,1,0,0:0:0:0:
448,192,126694,1,0,0:0:0:0:
64,192,126861,1,0,0:0:0:0:
192,192,126888,1,0,0:0:0:0:
320,192,126944,1,0,0:0:0:0:
192,192,127111,1,0,0:0:0:0:
320,192,127138,1,0,0:0:0:0:
64,192,127185,1,0,0:0:0:0:
448,192,127222,1,0,0:0:0:0:
192,192,127277,1,0,0:0:0:0:
64,192,127333,1,0,0:0:0:0:
320,192,127361,1,0,0:0:0:0:
448,192,127444,1,0,0:0:0:0:
320,192,127527,1,0,0:0:0:0:
448,192,127583,1,0,0:0:0:0:
64,192,127592,1,0,0:0:0:0:
192,192,127611,1,0,0:0:0:0:
320,192,127694,1,0,0:0:0:0:
192,192,127722,1,0,0:0:0:0:
64,192,127749,1,0,0:0:0:0:
448,192,127777,1,0,0:0:0:0:
320,192,127888,1,0,0:0:0:0:
64,192,127999,1,0,0:0:0:0:
448,192,127999,1,0,0:0:0:0:
192,192,128027,1,0,0:0:0:0:
320,192,128055,1,0,0:0:0:0:
448,192,128111,1,0,0:0:0:0:
192,192,128166,1,0,0:0:0:0:
64,192,128222,1,0,0:0:0:0:
320,192,128249,1,0,0:0:0:0:
448,192,128277,1,0,0:0:0:0:
192,192,128333,1,0,0:0:0:0:
64,192,128444,1,0,0:0:0:0:
448,192,128444,1,0,0:0:0:0:
320,192,128472,1,0,0:0:0:0:
192,192,128555,1,0,0:0:0:0:
320,192,128638,1,0,0:0:0:0:
448,192,128666,1,0,0:0:0:0:
192,192,128694,1,0,0:0:0:0:
64,192,128694,1,0,0:0:0:0:
320,192,128833,1,0,0:0:0:0:
192,192,128888,1,0,0:0:0:0:
64,192,128888,1,0,0:0:0:0:
448,192,128972,1,0,0:0:0:0:
320,192,128999,1,0,0:0:0:0:
192,192,129055,1,0,0:0:0:0:
64,192,129111,1,0,0:0:0:0:
320,192,129111,1,0,0:0:0:0:
448,192,129148,1,0,0:0:0:0:
192,192,129194,1,0,0:0:0:0:
320,192,129222,1,0,0:0:0:0:
64,192,129333,1,0,0:0:0:0:
448,192,129333,1,0,0:0:0:0:
192,192,129361,1,0,0:0:0:0:
320,192,129416,1,0,0:0:0:0:
448,192,129472,1,0,0:0:0:0:
64,192,129499,1,0,0:0:0:0:
192,192,129527,1,0,0:0:0:0:
320,192,129555,1,0,0:0:0:0:
448,192,129583,1,0,0:0:0:0:
192,192,129666,1,0,0:0:0:0:
64,192,129777,1,0,0:0:0:0:
320,192,129777,1,0,0:0:0:0:
