osu file format v14

[General]
AudioFilename: Lv10,19 End Time.mp3
AudioLeadIn: 0
PreviewTime: -1
Countdown: 0
SampleSet: Soft
StackLeniency: 0.7
Mode: 3
LetterboxInBreaks: 1
SpecialStyle: 0
WidescreenStoryboard: 1

[Editor]
DistanceSpacing: 2
BeatDivisor: 8
GridSize: 16
TimelineZoom: 1.3

[Metadata]
Title:Gems Pack 2 - Disaster
TitleUnicode:Gems Pack 2 - Disaster
Artist:gems
ArtistUnicode:gems
Creator:gemboyong
Version:14 - Cres, End Time
Source:BMS
Tags:
BeatmapID:749366
BeatmapSetID:338726

[Difficulty]
HPDrainRate:7
CircleSize:4
OverallDifficulty:7
ApproachRate:5
SliderMultiplier:1.4
SliderTickRate:1

[Events]
//Background and Video events
0,0,"endtime.jpg",0,0
//Break Periods
//Storyboard Layer 0 (Background)
//Storyboard Layer 1 (Fail)
//Storyboard Layer 2 (Pass)
//Storyboard Layer 3 (Foreground)
//Storyboard Sound Samples
Sample,1333,0,"pianophrase1.wav",70
Sample,1333,0,"rain1.wav",70
Sample,1333,0,"tranceintro.wav",70
Sample,13333,0,"strings_C.wav",70
Sample,13333,0,"trancemix-2.wav",70
Sample,13333,0,"violin1_Glong.wav",70
Sample,13333,0,"minitraphrase1.wav",70
Sample,13500,0,"closed.wav",70
Sample,13583,0,"piano_C5weak.wav",70
Sample,13750,0,"piano_C5weak.wav",70
Sample,13833,0,"closed.wav",70
Sample,13833,0,"bass_C2.wav",70
Sample,13916,0,"piano_C5weak.wav",70
Sample,14083,0,"piano_C5weak.wav",70
Sample,14166,0,"closed.wav",70
Sample,14250,0,"piano_C5weak.wav",70
Sample,14416,0,"piano_C5weak.wav",70
Sample,14500,0,"closed.wav",70
Sample,14583,0,"piano_C5weak.wav",70
Sample,14666,0,"strings_A#.wav",70
Sample,14833,0,"closed.wav",70
Sample,14916,0,"piano_A#4weak.wav",70
Sample,15083,0,"piano_A#4weak.wav",70
Sample,15166,0,"closed.wav",70
Sample,15166,0,"bass_A#2.wav",70
Sample,15250,0,"piano_A#4weak.wav",70
Sample,15416,0,"piano_A#4weak.wav",70
Sample,15583,0,"piano_A#4weak.wav",70
Sample,15750,0,"piano_A#4weak.wav",70
Sample,15833,0,"closed.wav",70
Sample,15916,0,"piano_A#4weak.wav",70
Sample,16000,0,"strings_G#.wav",70
Sample,16166,0,"closed.wav",70
Sample,16249,0,"piano_G#4weak.wav",70
Sample,16416,0,"piano_G#4weak.wav",70
Sample,16500,0,"closed.wav",70
Sample,16500,0,"bass_G#2.wav",70
Sample,16583,0,"piano_G#4weak.wav",70
Sample,16750,0,"piano_G#4weak.wav",70
Sample,16833,0,"closed.wav",70
Sample,16916,0,"piano_G#4weak.wav",70
Sample,17083,0,"piano_G#4weak.wav",70
Sample,17166,0,"closed.wav",70
Sample,17250,0,"piano_G#4weak.wav",70
Sample,17333,0,"violin1_A#1.wav",70
Sample,17333,0,"strings_G.wav",70
Sample,17500,0,"closed.wav",70
Sample,17583,0,"piano_G4weak.wav",70
Sample,17750,0,"piano_G4weak.wav",70
Sample,17833,0,"bass_G2.wav",70
Sample,17833,0,"closed.wav",70
Sample,17916,0,"piano_G4weak.wav",70
Sample,18000,0,"violin1_C1.wav",70
Sample,18083,0,"piano_G4weak.wav",70
Sample,18166,0,"closed.wav",70
Sample,18250,0,"piano_G4weak.wav",70
Sample,18416,0,"piano_G4weak.wav",70
Sample,18500,0,"closed.wav",70
Sample,18583,0,"piano_G4weak.wav",70
Sample,18666,0,"violin1_D#1.wav",70
Sample,18666,0,"strings_F.wav",70
Sample,18833,0,"closed.wav",70
Sample,18916,0,"piano_F4weak.wav",70
Sample,19083,0,"piano_F4weak.wav",70
Sample,19166,0,"closed.wav",70
Sample,19166,0,"bass_F2.wav",70
Sample,19250,0,"piano_F4weak.wav",70
Sample,19416,0,"piano_F4weak.wav",70
Sample,19500,0,"closed.wav",70
Sample,19583,0,"piano_F4weak.wav",70
Sample,19750,0,"piano_F4weak.wav",70
Sample,19833,0,"closed.wav",70
Sample,19916,0,"piano_F4weak.wav",70
Sample,20000,0,"strings_A#.wav",70
Sample,20000,0,"violin1_F1.wav",70
Sample,20166,0,"closed.wav",70
Sample,20250,0,"piano_A#4weak.wav",70
Sample,20416,0,"piano_A#4weak.wav",70
Sample,20500,0,"bass_A#2.wav",70
Sample,20500,0,"closed.wav",70
Sample,20583,0,"piano_A#4weak.wav",70
Sample,20666,0,"violin1_A#2.wav",70
Sample,20750,0,"piano_A#4weak.wav",70
Sample,20916,0,"piano_A#4weak.wav",70
Sample,21083,0,"piano_A#4weak.wav",70
Sample,21166,0,"closed.wav",70
Sample,21250,0,"piano_A#4weak.wav",70
Sample,21333,0,"violin1_G1.wav",70
Sample,21333,0,"strings_B#.wav",70
Sample,21500,0,"closed.wav",70
Sample,21583,0,"piano_D#4weak.wav",70
Sample,21750,0,"piano_D#4weak.wav",70
Sample,21833,0,"closed.wav",70
Sample,21833,0,"bass_D#2.wav",70
Sample,21916,0,"piano_D#4weak.wav",70
Sample,22083,0,"piano_D#4weak.wav",70
Sample,22166,0,"closed.wav",70
Sample,22250,0,"piano_D#4weak.wav",70
Sample,22416,0,"piano_D#4weak.wav",70
Sample,22500,0,"closed.wav",70
Sample,22583,0,"piano_D#4weak.wav",70
Sample,22666,0,"strings_G.wav",70
Sample,22833,0,"closed.wav",70
Sample,22916,0,"piano_G4weak.wav",70
Sample,23083,0,"piano_G4weak.wav",70
Sample,23166,0,"bass_G2.wav",70
Sample,23166,0,"closed.wav",70
Sample,23250,0,"piano_G4weak.wav",70
Sample,23500,0,"closed.wav",70
Sample,23583,0,"piano_G4weak.wav",70
Sample,23750,0,"closed.wav",70
Sample,23750,0,"piano_G4weak.wav",70
Sample,23916,0,"piano_G4weak.wav",70
Sample,23916,0,"closed.wav",70
Sample,24000,0,"trancemix-1.wav",70
Sample,24125,0,"closed.wav",70
Sample,24333,0,"bd2.wav",70
Sample,24500,0,"bass_C2.wav",70
Sample,24500,0,"piano_D6str.wav",70
Sample,24666,0,"bd2.wav",70
Sample,24833,0,"piano_A#5str.wav",70
Sample,25166,0,"closed.wav",70
Sample,25500,0,"piano_G5str.wav",70
Sample,25833,0,"bass_A#2.wav",70
Sample,25833,0,"closed.wav",70
Sample,26166,0,"closed.wav",70
Sample,26333,0,"piano_G5str.wav",70
Sample,26500,0,"piano_F5str.wav",70
Sample,26833,0,"piano_G5str.wav",70
Sample,26833,0,"closed.wav",70
Sample,27166,0,"bass_G#2.wav",70
Sample,27333,0,"piano_C6str.wav",70
Sample,27833,0,"closed.wav",70
Sample,28166,0,"closed.wav",70
Sample,28500,0,"closed.wav",70
Sample,28500,0,"bass_G2.wav",70
Sample,28666,0,"piano_C6str.wav",70
Sample,29166,0,"closed.wav",70
Sample,29333,0,"violin1_D#1.wav",70
Sample,29500,0,"bd4.wav",70
Sample,29833,0,"bd4.wav",70
Sample,29833,0,"bass_F2.wav",70
Sample,29833,0,"piano_G5.wav",70
Sample,30166,0,"piano_D#5.wav",70
Sample,30166,0,"bd4.wav",70
Sample,30500,0,"piano_A#4.wav",70
Sample,30500,0,"bd4.wav",70
Sample,30500,0,"piano_F5str.wav",70
Sample,30666,0,"violin1_D1.wav",70
Sample,30833,0,"piano_D5.wav",70
Sample,30833,0,"piano_G5str.wav",70
Sample,31166,0,"bd4.wav",70
Sample,31166,0,"bass_G2.wav",70
Sample,31833,0,"piano_F5.wav",70
Sample,31833,0,"bd4.wav",70
Sample,32000,0,"strings_G#long.wav",70
Sample,32000,0,"minitram1.wav",70
Sample,32000,0,"bass_G#long.wav",70
Sample,32000,0,"violin1_Clong.wav",70
Sample,32083,0,"minitram2.wav",70
Sample,32166,0,"minitram3.wav",70
Sample,32249,0,"minitram4.wav",70
Sample,32333,0,"minitram5.wav",70
Sample,32416,0,"minitram6.wav",70
Sample,32499,0,"minitram7.wav",70
Sample,32583,0,"minitram8.wav",70
Sample,32666,0,"rec3.wav",70
Sample,32666,0,"minitran1.wav",70
Sample,32749,0,"minitran2.wav",70
Sample,32833,0,"minitran3.wav",70
Sample,32916,0,"minitran4.wav",70
Sample,33000,0,"minitran5.wav",70
Sample,33000,0,"tranceinsert.wav",70
Sample,33083,0,"minitran6.wav",70
Sample,33166,0,"minitran7.wav",70
Sample,33250,0,"minitran8.wav",70
Sample,33333,0,"closedmin.wav",70
Sample,33500,0,"closedmin.wav",70
Sample,33666,0,"closedmin.wav",70
Sample,33833,0,"closedmin.wav",70
Sample,34000,0,"closedmin.wav",70
Sample,34041,0,"bd4.wav",70
Sample,34125,0,"bd4.wav",70
Sample,34166,0,"closedmin.wav",70
Sample,34208,0,"bd4.wav",70
Sample,34291,0,"bd4.wav",70
Sample,34333,0,"closedmin.wav",70
Sample,34375,0,"bd3.wav",70
Sample,34458,0,"bd3.wav",70
Sample,34500,0,"closedmin.wav",70
Sample,34541,0,"bd3.wav",70
Sample,34625,0,"bd3.wav",70
Sample,34666,0,"pianophrase2.wav",70
Sample,45333,0,"pianophrase3.wav",70
Sample,56000,0,"bass_G#3.wav",70
Sample,56000,0,"strings_G#.wav",70
Sample,56000,0,"trancephrase3.wav",70
Sample,56000,0,"pianophrase4.wav",70
Sample,57333,0,"bass_A#3.wav",70
Sample,57333,0,"strings_A#.wav",70
Sample,58666,0,"bass_C3.wav",70
Sample,58666,0,"strings_C.wav",70
Sample,60000,0,"strings_G.wav",70
Sample,60000,0,"bass_G3.wav",70
Sample,61166,0,"bd2.wav",70
Sample,61333,0,"strings_G#.wav",70
Sample,61333,0,"bass_G#3.wav",70
Sample,62666,0,"strings_A#.wav",70
Sample,62666,0,"bass_A#3.wav",70
Sample,64000,0,"strings_C.wav",70
Sample,64000,0,"bass_C3.wav",70
Sample,65333,0,"strings_G.wav",70
Sample,65333,0,"bass_G3.wav",70
Sample,66666,0,"pianophrase5.wav",70
Sample,66666,0,"trancephrase4.wav",70
Sample,66666,0,"strings_G#.wav",70
Sample,66666,0,"bass_G#3.wav",70
Sample,67500,0,"closed.wav",70
Sample,67833,0,"closed.wav",70
Sample,68000,0,"strings_A#.wav",70
Sample,68000,0,"bass_A#3.wav",70
Sample,69333,0,"bass_D#4.wav",70
Sample,69333,0,"strings_B#highhalf.wav",70
Sample,70000,0,"strings_D_half.wav",70
Sample,70000,0,"bass_D4.wav",70
Sample,70166,0,"closed.wav",70
Sample,70500,0,"open.wav",70
Sample,70666,0,"bass_C4.wav",70
Sample,70666,0,"strings_Chalf.wav",70
Sample,71333,0,"strings_A#half.wav",70
Sample,71333,0,"bass_A#4.wav",70
Sample,72000,0,"strings_G#.wav",70
Sample,72000,0,"bass_G#3.wav",70
Sample,73333,0,"strings_G.wav",70
Sample,73333,0,"bass_G3.wav",70
Sample,74666,0,"strings_F.wav",70
Sample,74666,0,"bass_F2.wav",70
Sample,75333,0,"bass_F2.wav",70
Sample,76000,0,"bass_G2.wav",70
Sample,76000,0,"strings_G.wav",70
Sample,76333,0,"closed.wav",70
Sample,76666,0,"bass_G2.wav",70
Sample,77083,0,"closed.wav",70
Sample,77166,0,"closed.wav",70
Sample,77250,0,"closed.wav",70
Sample,77333,0,"strings_G#.wav",70
Sample,77333,0,"trancemix.wav",70
Sample,77333,0,"bass_G#1.wav",70
Sample,77333,0,"bd1.wav",70
Sample,77500,0,"pedal.wav",70
Sample,77500,0,"minitraphrase2.wav",70
Sample,77666,0,"bd2.wav",70
Sample,77833,0,"bass_G#2.wav",70
Sample,77833,0,"closed.wav",70
Sample,78000,0,"bd2.wav",70
Sample,78166,0,"closed.wav",70
Sample,78500,0,"closed.wav",70
Sample,78666,0,"bass_A#1.wav",70
Sample,78666,0,"strings_A#.wav",70
Sample,78833,0,"open.wav",70
Sample,79000,0,"bd2.wav",70
Sample,79166,0,"bass_A#2.wav",70
Sample,79166,0,"closed.wav",70
Sample,79500,0,"closed.wav",70
Sample,79833,0,"closed.wav",70
Sample,80000,0,"strings_C.wav",70
Sample,80000,0,"bass_C1.wav",70
Sample,80166,0,"closed.wav",70
Sample,80500,0,"closed.wav",70
Sample,80500,0,"bass_C2.wav",70
Sample,80666,0,"bd2.wav",70
Sample,80833,0,"pedal.wav",70
Sample,81000,0,"bd2.wav",70
Sample,81166,0,"closed.wav",70
Sample,81333,0,"strings_G.wav",70
Sample,81333,0,"bass_G1.wav",70
Sample,81500,0,"closed.wav",70
Sample,81833,0,"bass_G2.wav",70
Sample,82166,0,"open.wav",70
Sample,82500,0,"bd3.wav",70
Sample,82500,0,"closed.wav",70
Sample,82666,0,"bass_G#1.wav",70
Sample,82666,0,"strings_G#.wav",70
Sample,82666,0,"bd1.wav",70
Sample,82833,0,"closed.wav",70
Sample,83000,0,"bd2.wav",70
Sample,83166,0,"closed.wav",70
Sample,83166,0,"bass_G#2.wav",70
Sample,83333,0,"bd2.wav",70
Sample,83500,0,"closed.wav",70
Sample,83666,0,"bd2.wav",70
Sample,83833,0,"closed.wav",70
Sample,84000,0,"bass_A#1.wav",70
Sample,84000,0,"bd1.wav",70
Sample,84000,0,"strings_A#.wav",70
Sample,84166,0,"closed.wav",70
Sample,84500,0,"bass_A#2.wav",70
Sample,84500,0,"closed.wav",70
Sample,84833,0,"pedal.wav",70
Sample,85000,0,"bd2.wav",70
Sample,85166,0,"closed.wav",70
Sample,85333,0,"bass_C1.wav",70
Sample,85333,0,"strings_C.wav",70
Sample,85500,0,"closed.wav",70
Sample,85666,0,"bd2.wav",70
Sample,85833,0,"bass_C2.wav",70
Sample,86000,0,"bd2.wav",70
Sample,86166,0,"closed.wav",70
Sample,86333,0,"bd2.wav",70
Sample,86500,0,"closed.wav",70
Sample,86666,0,"bass_G1.wav",70
Sample,86666,0,"bd1.wav",70
Sample,86666,0,"strings_G.wav",70
Sample,86833,0,"closed.wav",70
Sample,87166,0,"bass_G2.wav",70
Sample,87166,0,"closed.wav",70
Sample,87333,0,"bd2.wav",70
Sample,87500,0,"open.wav",70
Sample,87833,0,"closed.wav",70
Sample,88000,0,"bass_G#1.wav",70
Sample,88000,0,"strings_G#.wav",70
Sample,88166,0,"closed.wav",70
Sample,88333,0,"bd2.wav",70
Sample,88500,0,"bass_G#2.wav",70
Sample,88500,0,"closed.wav",70
Sample,88833,0,"closed.wav",70
Sample,89166,0,"closed.wav",70
Sample,89333,0,"bass_A#1.wav",70
Sample,89333,0,"strings_A#.wav",70
Sample,89333,0,"bd1.wav",70
Sample,89500,0,"pedal.wav",70
Sample,89666,0,"bd2.wav",70
Sample,89833,0,"closed.wav",70
Sample,89833,0,"bass_A#2.wav",70
Sample,90000,0,"bd2.wav",70
Sample,90166,0,"closed.wav",70
Sample,90333,0,"bd2.wav",70
Sample,90500,0,"closed.wav",70
Sample,90666,0,"bass_C1.wav",70
Sample,90666,0,"bd1.wav",70
Sample,90666,0,"strings_C.wav",70
Sample,90833,0,"closed.wav",70
Sample,91000,0,"bd2.wav",70
Sample,91166,0,"bass_C2.wav",70
Sample,91166,0,"closed.wav",70
Sample,91333,0,"bd2.wav",70
Sample,91500,0,"closed.wav",70
Sample,91666,0,"bd2.wav",70
Sample,91833,0,"closed.wav",70
Sample,92000,0,"strings_G.wav",70
Sample,92000,0,"bass_G1.wav",70
Sample,92166,0,"closed.wav",70
Sample,92333,0,"bd2.wav",70
Sample,92500,0,"closed.wav",70
Sample,92500,0,"bass_G2.wav",70
Sample,92666,0,"bd2.wav",70
Sample,92833,0,"open.wav",70
Sample,93000,0,"bd2.wav",70
Sample,93166,0,"closed.wav",70
Sample,93166,0,"bd3.wav",70
Sample,93333,0,"bass_G#1.wav",70
Sample,93333,0,"bd1.wav",70
Sample,93333,0,"strings_G#.wav",70
Sample,93500,0,"closed.wav",70
Sample,93666,0,"bd2.wav",70
Sample,93833,0,"bass_G#2.wav",70
Sample,93833,0,"closed.wav",70
Sample,94000,0,"bd2.wav",70
Sample,94166,0,"closed.wav",70
Sample,94333,0,"bd2.wav",70
Sample,94500,0,"closed.wav",70
Sample,94666,0,"strings_A#.wav",70
Sample,94666,0,"bass_A#1.wav",70
Sample,94833,0,"pedal.wav",70
Sample,95000,0,"bd2.wav",70
Sample,95166,0,"closed.wav",70
Sample,95166,0,"bass_A#2.wav",70
Sample,95500,0,"closed.wav",70
Sample,95833,0,"closed.wav",70
Sample,95833,0,"bd3.wav",70
Sample,96000,0,"strings_C_long.wav",70
Sample,96000,0,"bass_Clong.wav",70
Sample,96000,0,"drumptrn.wav",70
Sample,97333,0,"piano_D#4.wav",70
Sample,97541,0,"piano_D#4.wav",70
Sample,97583,0,"piano_G4.wav",70
Sample,97625,0,"piano_G4.wav",70
Sample,97666,0,"piano_C5.wav",70
Sample,97708,0,"piano_C5.wav",70
Sample,97833,0,"piano_G4.wav",70
Sample,97875,0,"piano_G4.wav",70
Sample,97916,0,"piano_C5.wav",70
Sample,97958,0,"piano_C5.wav",70
Sample,98041,0,"piano_D#5.wav",70
Sample,98166,0,"piano_C5.wav",70
Sample,98208,0,"piano_C5.wav",70
Sample,98250,0,"piano_D#5.wav",70
Sample,98291,0,"piano_D#5.wav",70
Sample,98625,0,"piano_G6.wav",70
Sample,98666,0,"trancemix2.wav",70
Sample,98666,0,"strings_G#.wav",70
Sample,98666,0,"violin2_C1.wav",70
Sample,98666,0,"bass_G#1.wav",70
Sample,98666,0,"bd1.wav",70
Sample,98666,0,"piano_C7.wav",70
Sample,98833,0,"closed.wav",70
Sample,99000,0,"bd2.wav",70
Sample,99166,0,"bass_G#2.wav",70
Sample,99166,0,"closed.wav",70
Sample,99333,0,"bd2.wav",70
Sample,99500,0,"closed.wav",70
Sample,99666,0,"bd2.wav",70
Sample,99666,0,"piano_C6.wav",70
Sample,99833,0,"closed.wav",70
Sample,100000,0,"strings_A#.wav",70
Sample,100000,0,"bd1.wav",70
Sample,100000,0,"bass_A#1.wav",70
Sample,100166,0,"pedal.wav",70
Sample,100333,0,"bd2.wav",70
Sample,100500,0,"closed.wav",70
Sample,100500,0,"bass_A#2.wav",70
Sample,100666,0,"bd2.wav",70
Sample,100833,0,"closed.wav",70
Sample,101000,0,"bd2.wav",70
Sample,101166,0,"closed.wav",70
Sample,101166,0,"bd3.wav",70
Sample,101333,0,"strings_C.wav",70
Sample,101333,0,"bd1.wav",70
Sample,101333,0,"bass_C1.wav",70
Sample,101500,0,"closed.wav",70
Sample,101666,0,"bd2.wav",70
Sample,101833,0,"closed.wav",70
Sample,101833,0,"bass_C2.wav",70
Sample,102000,0,"bd2.wav",70
Sample,102166,0,"closed.wav",70
Sample,102333,0,"bd2.wav",70
Sample,102333,0,"piano_G5.wav",70
Sample,102500,0,"closed.wav",70
Sample,102666,0,"violin2_D1.wav",70
Sample,102666,0,"bd1.wav",70
Sample,102666,0,"strings_G.wav",70
Sample,102666,0,"bass_G1.wav",70
Sample,102833,0,"open.wav",70
Sample,103000,0,"bd2.wav",70
Sample,103166,0,"closed.wav",70
Sample,103166,0,"bass_G2.wav",70
Sample,103333,0,"bd3.wav",70
Sample,103333,0,"violin2_A#1.wav",70
Sample,103416,0,"bd2.wav",70
Sample,103500,0,"closed.wav",70
Sample,103583,0,"bd3.wav",70
Sample,103666,0,"piano_A#3.wav",70
Sample,103666,0,"bd2.wav",70
Sample,103833,0,"closed.wav",70
Sample,103833,0,"bd3.wav",70
Sample,103916,0,"bd2.wav",70
Sample,104000,0,"piano_D#5.wav",70
Sample,104000,0,"violin2_C2.wav",70
Sample,104000,0,"bass_G#1.wav",70
Sample,104000,0,"strings_G#.wav",70
Sample,104166,0,"closed.wav",70
Sample,104333,0,"bd2.wav",70
Sample,104333,0,"piano_G6.wav",70
Sample,104500,0,"closed.wav",70
Sample,104500,0,"bass_G#2.wav",70
Sample,104666,0,"bd2.wav",70
Sample,104666,0,"piano_C6.wav",70
Sample,104833,0,"closed.wav",70
Sample,105000,0,"piano_D#6.wav",70
Sample,105000,0,"bd2.wav",70
Sample,105166,0,"closed.wav",70
Sample,105333,0,"strings_A#.wav",70
Sample,105333,0,"bd1.wav",70
Sample,105333,0,"bass_A#1.wav",70
Sample,105333,0,"piano_A#6.wav",70
Sample,105500,0,"closed.wav",70
Sample,105666,0,"piano_F6.wav",70
Sample,105666,0,"bd2.wav",70
Sample,105833,0,"bass_A#2.wav",70
Sample,105833,0,"closed.wav",70
Sample,106000,0,"violin2_F1.wav",70
Sample,106000,0,"piano_F5.wav",70
Sample,106000,0,"bd2.wav",70
Sample,106166,0,"pedal.wav",70
Sample,106333,0,"piano_F4.wav",70
Sample,106333,0,"bd2.wav",70
Sample,106500,0,"closed.wav",70
Sample,106500,0,"bd3.wav",70
Sample,106666,0,"violin2_G1.wav",70
Sample,106666,0,"strings_B#high.wav",70
Sample,106666,0,"bd1.wav",70
Sample,106666,0,"bass_D#1.wav",70
Sample,106666,0,"piano_G#5.wav",70
Sample,106833,0,"closed.wav",70
Sample,107000,0,"piano_D#6.wav",70
Sample,107000,0,"bd2.wav",70
Sample,107166,0,"closed.wav",70
Sample,107166,0,"bass_D#2.wav",70
Sample,107291,0,"bd2.wav",70
Sample,107333,0,"piano_D#6.wav",70
Sample,107500,0,"open.wav",70
Sample,107666,0,"piano_A#4.wav",70
Sample,107666,0,"bd2.wav",70
Sample,107833,0,"closed.wav",70
Sample,108000,0,"violin2_G2.wav",70
Sample,108000,0,"bd1.wav",70
Sample,108000,0,"strings_G.wav",70
Sample,108000,0,"piano_D6.wav",70
Sample,108000,0,"bass_G3.wav",70
Sample,108166,0,"closed.wav",70
Sample,108333,0,"piano_D6.wav",70
Sample,108333,0,"bd2.wav",70
Sample,108500,0,"closed.wav",70
Sample,108500,0,"bd3.wav",70
Sample,108500,0,"violin2_F2.wav",70
Sample,108666,0,"bd3.wav",70
Sample,108666,0,"piano_D5.wav",70
Sample,108750,0,"bd2.wav",70
Sample,108833,0,"bd3.wav",70
Sample,108833,0,"closedmin.wav",70
Sample,108916,0,"closedmin.wav",70
Sample,109000,0,"piano_G5.wav",70
Sample,109000,0,"violin2_D2.wav",70
Sample,109000,0,"closedmin.wav",70
Sample,109083,0,"closedmin.wav",70
Sample,109083,0,"bd2.wav",70
Sample,109166,0,"closedmin.wav",70
Sample,109250,0,"closedmin.wav",70
Sample,109333,0,"bass_G#1.wav",70
Sample,109333,0,"strings_G#.wav",70
Sample,109333,0,"violin2_C3.wav",70
Sample,109500,0,"pedal.wav",70
Sample,109666,0,"bd2.wav",70
Sample,109833,0,"bass_G#2.wav",70
Sample,109833,0,"pedal.wav",70
Sample,110166,0,"open.wav",70
Sample,110166,0,"bd2.wav",70
Sample,110500,0,"bd3.wav",70
Sample,110500,0,"closed.wav",70
Sample,110666,0,"bass_A#1.wav",70
Sample,110666,0,"strings_A#.wav",70
Sample,110833,0,"pedal.wav",70
Sample,111000,0,"bd2.wav",70
Sample,111166,0,"bass_A#2.wav",70
Sample,111166,0,"pedal.wav",70
Sample,111500,0,"closed.wav",70
Sample,111666,0,"bd2.wav",70
Sample,111833,0,"bd3.wav",70
Sample,111833,0,"pedal.wav",70
Sample,112000,0,"bass_C1.wav",70
Sample,112000,0,"strings_C.wav",70
Sample,112166,0,"pedal.wav",70
Sample,112333,0,"bd2.wav",70
Sample,112500,0,"bass_C2.wav",70
Sample,112500,0,"pedal.wav",70
Sample,112666,0,"bd2.wav",70
Sample,112833,0,"pedal.wav",70
Sample,113000,0,"bd2.wav",70
Sample,113166,0,"pedal.wav",70
Sample,113333,0,"bass_G1.wav",70
Sample,113333,0,"violin2_A#2.wav",70
Sample,113333,0,"strings_G.wav",70
Sample,113500,0,"pedal.wav",70
Sample,113666,0,"bd2.wav",70
Sample,113833,0,"pedal.wav",70
Sample,113833,0,"bass_G2.wav",70
Sample,114000,0,"violin2_D3.wav",70
Sample,114166,0,"open.wav",70
Sample,114166,0,"bd2.wav",70
Sample,114500,0,"bd3.wav",70
Sample,114500,0,"pedal.wav",70
Sample,114666,0,"violin2_C4.wav",70
Sample,114666,0,"strings_G#.wav",70
Sample,114666,0,"bass_G#1.wav",70
Sample,114833,0,"pedal.wav",70
Sample,115000,0,"bd2.wav",70
Sample,115166,0,"bass_G#2.wav",70
Sample,115166,0,"pedal.wav",70
Sample,115333,0,"bd2.wav",70
Sample,115500,0,"pedal.wav",70
Sample,115666,0,"bd2.wav",70
Sample,115833,0,"bd3.wav",70
Sample,115833,0,"pedal.wav",70
Sample,116000,0,"strings_A#.wav",70
Sample,116000,0,"bass_A#1.wav",70
Sample,116166,0,"closed.wav",70
Sample,116416,0,"violin2_A#3.wav",70
Sample,116500,0,"bass_A#2.wav",70
Sample,116500,0,"pedal.wav",70
Sample,116833,0,"pedal.wav",70
Sample,117000,0,"rec8.wav",70
Sample,117166,0,"pedal.wav",70
Sample,117333,0,"bass_Clong.wav",70
Sample,117333,0,"strings_C_long.wav",70
Sample,117333,0,"violin2_C5.wav",70
Sample,117500,0,"pedal.wav",70
Sample,117833,0,"pedal.wav",70
Sample,118166,0,"pedal.wav",70
Sample,118500,0,"pedal.wav",70
Sample,119333,0,"closedmin.wav",70
Sample,119500,0,"closedmin.wav",70
Sample,119666,0,"closedmin.wav",70
Sample,119833,0,"closedmin.wav",70
Sample,119958,0,"bd4.wav",70
Sample,120000,0,"pianophrase6.wav",70
Sample,120000,0,"tranceepi.wav",70

[TimingPoints]
0,333.333333333333,4,2,0,0,1,0
0,333.333333333333,4,2,0,0,1,0
124000,375,4,2,0,0,1,0
124750,400,4,2,0,0,1,0
125550,352.941176470588,4,2,0,0,1,0
126255,375,4,2,0,0,1,0
126818,413.793103448276,4,2,0,0,1,0
127025,428.571428571429,4,2,0,0,1,0
128632,500,4,2,0,0,1,0

[HitObjects]
320,192,1333,5,0,0:0:0:0:
64,192,1333,1,0,0:0:0:0:
448,192,2333,1,0,0:0:0:0:
448,192,2666,1,0,0:0:0:0:
64,192,2666,1,0,0:0:0:0:
320,192,2999,1,0,0:0:0:0:
192,192,3333,1,0,0:0:0:0:
64,192,3666,1,0,0:0:0:0:
320,192,3999,1,0,0:0:0:0:
448,192,3999,1,0,0:0:0:0:
448,192,4999,1,0,0:0:0:0:
448,192,5333,1,0,0:0:0:0:
64,192,5333,1,0,0:0:0:0:
320,192,5666,1,0,0:0:0:0:
192,192,5999,1,0,0:0:0:0:
64,192,6333,1,0,0:0:0:0:
192,192,6666,1,0,0:0:0:0:
448,192,6666,1,0,0:0:0:0:
192,192,7999,1,0,0:0:0:0:
320,192,7999,1,0,0:0:0:0:
64,192,9333,1,0,0:0:0:0:
448,192,9333,1,0,0:0:0:0:
64,192,13333,1,0,0:0:0:0:
448,192,13333,1,0,0:0:0:0:
320,192,13499,1,0,0:0:0:0:
448,192,13666,1,0,0:0:0:0:
64,192,13666,1,0,0:0:0:0:
320,192,13833,1,0,0:0:0:0:
192,192,13999,1,0,0:0:0:0:
448,192,13999,1,0,0:0:0:0:
64,192,14166,1,0,0:0:0:0:
448,192,14333,1,0,0:0:0:0:
192,192,14333,1,0,0:0:0:0:
320,192,14499,1,0,0:0:0:0:
64,192,14666,1,0,0:0:0:0:
192,192,14666,1,0,0:0:0:0:
320,192,14833,1,0,0:0:0:0:
448,192,14999,1,0,0:0:0:0:
64,192,14999,1,0,0:0:0:0:
320,192,15166,1,0,0:0:0:0:
192,192,15333,1,0,0:0:0:0:
448,192,15333,1,0,0:0:0:0:
64,192,15499,1,0,0:0:0:0:
448,192,15666,1,0,0:0:0:0:
192,192,15666,1,0,0:0:0:0:
320,192,15833,1,0,0:0:0:0:
64,192,15833,1,0,0:0:0:0:
192,192,15999,1,0,0:0:0:0:
448,192,15999,1,0,0:0:0:0:
320,192,16166,1,0,0:0:0:0:
448,192,16333,1,0,0:0:0:0:
64,192,16333,1,0,0:0:0:0:
320,192,16499,1,0,0:0:0:0:
192,192,16666,1,0,0:0:0:0:
448,192,16666,1,0,0:0:0:0:
64,192,16833,1,0,0:0:0:0:
448,192,16999,1,0,0:0:0:0:
192,192,16999,1,0,0:0:0:0:
320,192,17166,1,0,0:0:0:0:
64,192,17333,1,0,0:0:0:0:
192,192,17333,1,0,0:0:0:0:
320,192,17499,1,0,0:0:0:0:
448,192,17666,1,0,0:0:0:0:
64,192,17666,1,0,0:0:0:0:
320,192,17833,1,0,0:0:0:0:
192,192,17999,1,0,0:0:0:0:
448,192,17999,1,0,0:0:0:0:
64,192,18166,1,0,0:0:0:0:
448,192,18333,1,0,0:0:0:0:
192,192,18333,1,0,0:0:0:0:
320,192,18499,1,0,0:0:0:0:
64,192,18666,1,0,0:0:0:0:
192,192,18666,1,0,0:0:0:0:
320,192,18833,1,0,0:0:0:0:
448,192,18999,1,0,0:0:0:0:
64,192,18999,1,0,0:0:0:0:
320,192,19166,1,0,0:0:0:0:
192,192,19333,1,0,0:0:0:0:
448,192,19333,1,0,0:0:0:0:
64,192,19499,1,0,0:0:0:0:
192,192,19666,1,0,0:0:0:0:
448,192,19666,1,0,0:0:0:0:
320,192,19833,1,0,0:0:0:0:
192,192,19999,1,0,0:0:0:0:
64,192,19999,1,0,0:0:0:0:
320,192,20166,1,0,0:0:0:0:
448,192,20333,1,0,0:0:0:0:
64,192,20333,1,0,0:0:0:0:
320,192,20499,1,0,0:0:0:0:
64,192,20666,1,0,0:0:0:0:
448,192,20666,1,0,0:0:0:0:
320,192,20833,1,0,0:0:0:0:
64,192,20999,1,0,0:0:0:0:
192,192,20999,1,0,0:0:0:0:
64,192,21166,1,0,0:0:0:0:
320,192,21166,1,0,0:0:0:0:
64,192,21333,1,0,0:0:0:0:
320,192,21333,1,0,0:0:0:0:
192,192,21499,1,0,0:0:0:0:
448,192,21666,1,0,0:0:0:0:
64,192,21666,1,0,0:0:0:0:
320,192,21833,1,0,0:0:0:0:
192,192,21999,1,0,0:0:0:0:
448,192,21999,1,0,0:0:0:0:
64,192,22166,1,0,0:0:0:0:
320,192,22333,1,0,0:0:0:0:
448,192,22333,1,0,0:0:0:0:
192,192,22499,1,0,0:0:0:0:
320,192,22666,1,0,0:0:0:0:
64,192,22666,1,0,0:0:0:0:
448,192,22833,1,0,0:0:0:0:
64,192,22999,1,0,0:0:0:0:
320,192,22999,1,0,0:0:0:0:
64,192,23166,1,0,0:0:0:0:
448,192,23166,1,0,0:0:0:0:
64,192,23333,1,0,0:0:0:0:
192,192,23333,1,0,0:0:0:0:
320,192,23416,1,0,0:0:0:0:
448,192,23416,1,0,0:0:0:0:
64,192,23499,1,0,0:0:0:0:
192,192,23499,1,0,0:0:0:0:
64,192,23666,1,0,0:0:0:0:
192,192,23666,1,0,0:0:0:0:
320,192,23833,1,0,0:0:0:0:
448,192,23833,1,0,0:0:0:0:
192,192,23916,1,0,0:0:0:0:
64,192,23916,1,0,0:0:0:0:
320,192,23999,1,0,0:0:0:0:
448,192,23999,1,0,0:0:0:0:
64,192,24083,1,0,0:0:0:0:
192,192,24166,1,0,0:0:0:0:
320,192,24249,1,0,0:0:0:0:
64,192,24333,1,0,0:0:0:0:
448,192,24333,1,0,0:0:0:0:
320,192,24416,1,0,0:0:0:0:
192,192,24499,1,0,0:0:0:0:
64,192,24583,1,0,0:0:0:0:
448,192,24666,1,0,0:0:0:0:
192,192,24666,1,0,0:0:0:0:
320,192,24749,1,0,0:0:0:0:
192,192,24833,1,0,0:0:0:0:
64,192,24916,1,0,0:0:0:0:
192,192,24999,1,0,0:0:0:0:
320,192,24999,1,0,0:0:0:0:
448,192,25083,1,0,0:0:0:0:
320,192,25166,1,0,0:0:0:0:
192,192,25249,1,0,0:0:0:0:
64,192,25333,1,0,0:0:0:0:
448,192,25333,1,0,0:0:0:0:
320,192,25416,1,0,0:0:0:0:
64,192,25499,1,0,0:0:0:0:
448,192,25499,1,0,0:0:0:0:
192,192,25583,1,0,0:0:0:0:
320,192,25666,1,0,0:0:0:0:
64,192,25666,1,0,0:0:0:0:
448,192,25749,1,0,0:0:0:0:
320,192,25833,1,0,0:0:0:0:
192,192,25916,1,0,0:0:0:0:
64,192,25999,1,0,0:0:0:0:
320,192,25999,1,0,0:0:0:0:
448,192,26083,1,0,0:0:0:0:
320,192,26166,1,0,0:0:0:0:
192,192,26249,1,0,0:0:0:0:
64,192,26333,1,0,0:0:0:0:
448,192,26333,1,0,0:0:0:0:
192,192,26416,1,0,0:0:0:0:
320,192,26499,1,0,0:0:0:0:
448,192,26583,1,0,0:0:0:0:
320,192,26666,1,0,0:0:0:0:
64,192,26666,1,0,0:0:0:0:
192,192,26749,1,0,0:0:0:0:
320,192,26833,1,0,0:0:0:0:
448,192,26916,1,0,0:0:0:0:
64,192,26999,1,0,0:0:0:0:
320,192,26999,1,0,0:0:0:0:
192,192,27083,1,0,0:0:0:0:
448,192,27166,1,0,0:0:0:0:
320,192,27249,1,0,0:0:0:0:
192,192,27333,1,0,0:0:0:0:
448,192,27333,1,0,0:0:0:0:
64,192,27416,1,0,0:0:0:0:
192,192,27499,1,0,0:0:0:0:
320,192,27583,1,0,0:0:0:0:
448,192,27666,1,0,0:0:0:0:
64,192,27666,1,0,0:0:0:0:
320,192,27749,1,0,0:0:0:0:
192,192,27833,1,0,0:0:0:0:
64,192,27916,1,0,0:0:0:0:
320,192,27999,1,0,0:0:0:0:
448,192,27999,1,0,0:0:0:0:
64,192,28083,1,0,0:0:0:0:
192,192,28166,1,0,0:0:0:0:
320,192,28249,1,0,0:0:0:0:
448,192,28333,1,0,0:0:0:0:
64,192,28333,1,0,0:0:0:0:
320,192,28416,1,0,0:0:0:0:
192,192,28499,1,0,0:0:0:0:
64,192,28583,1,0,0:0:0:0:
448,192,28666,1,0,0:0:0:0:
192,192,28666,1,0,0:0:0:0:
320,192,28749,1,0,0:0:0:0:
192,192,28833,1,0,0:0:0:0:
64,192,28916,1,0,0:0:0:0:
192,192,28999,1,0,0:0:0:0:
448,192,28999,1,0,0:0:0:0:
320,192,29083,1,0,0:0:0:0:
192,192,29166,1,0,0:0:0:0:
448,192,29166,1,0,0:0:0:0:
64,192,29249,1,0,0:0:0:0:
192,192,29333,1,0,0:0:0:0:
448,192,29333,1,0,0:0:0:0:
320,192,29416,1,0,0:0:0:0:
448,192,29499,1,0,0:0:0:0:
64,192,29499,1,0,0:0:0:0:
320,192,29583,1,0,0:0:0:0:
64,192,29666,1,0,0:0:0:0:
192,192,29666,1,0,0:0:0:0:
320,192,29749,1,0,0:0:0:0:
64,192,29833,1,0,0:0:0:0:
448,192,29833,1,0,0:0:0:0:
320,192,29916,1,0,0:0:0:0:
64,192,29999,1,0,0:0:0:0:
192,192,29999,1,0,0:0:0:0:
320,192,30083,1,0,0:0:0:0:
64,192,30166,1,0,0:0:0:0:
448,192,30166,1,0,0:0:0:0:
320,192,30249,1,0,0:0:0:0:
64,192,30333,1,0,0:0:0:0:
192,192,30333,1,0,0:0:0:0:
448,192,30416,1,0,0:0:0:0:
64,192,30499,1,0,0:0:0:0:
320,192,30499,1,0,0:0:0:0:
192,192,30583,1,0,0:0:0:0:
64,192,30666,1,0,0:0:0:0:
320,192,30666,1,0,0:0:0:0:
448,192,30749,1,0,0:0:0:0:
64,192,30833,1,0,0:0:0:0:
320,192,30833,1,0,0:0:0:0:
192,192,30916,1,0,0:0:0:0:
64,192,30999,1,0,0:0:0:0:
448,192,30999,1,0,0:0:0:0:
320,192,31083,1,0,0:0:0:0:
64,192,31166,1,0,0:0:0:0:
192,192,31166,1,0,0:0:0:0:
448,192,31249,1,0,0:0:0:0:
64,192,31333,1,0,0:0:0:0:
320,192,31333,1,0,0:0:0:0:
192,192,31416,1,0,0:0:0:0:
64,192,31499,1,0,0:0:0:0:
448,192,31499,1,0,0:0:0:0:
192,192,31583,1,0,0:0:0:0:
64,192,31666,1,0,0:0:0:0:
320,192,31666,1,0,0:0:0:0:
448,192,31749,1,0,0:0:0:0:
64,192,31833,1,0,0:0:0:0:
192,192,31833,1,0,0:0:0:0:
320,192,31916,1,0,0:0:0:0:
64,192,31999,1,0,0:0:0:0:
192,192,31999,1,0,0:0:0:0:
320,192,32083,1,0,0:0:0:0:
448,192,32111,1,0,0:0:0:0:
64,192,32166,1,0,0:0:0:0:
192,192,32166,1,0,0:0:0:0:
320,192,32249,1,0,0:0:0:0:
448,192,32277,1,0,0:0:0:0:
64,192,32333,1,0,0:0:0:0:
192,192,32333,1,0,0:0:0:0:
320,192,32416,1,0,0:0:0:0:
448,192,32444,1,0,0:0:0:0:
64,192,32499,1,0,0:0:0:0:
192,192,32499,1,0,0:0:0:0:
320,192,32583,1,0,0:0:0:0:
448,192,32611,1,0,0:0:0:0:
64,192,32666,1,0,0:0:0:0:
192,192,32666,1,0,0:0:0:0:
320,192,32749,1,0,0:0:0:0:
448,192,32777,1,0,0:0:0:0:
64,192,32833,1,0,0:0:0:0:
192,192,32833,1,0,0:0:0:0:
320,192,32916,1,0,0:0:0:0:
448,192,32944,1,0,0:0:0:0:
64,192,32999,1,0,0:0:0:0:
192,192,32999,1,0,0:0:0:0:
320,192,33083,1,0,0:0:0:0:
448,192,33111,1,0,0:0:0:0:
64,192,33166,1,0,0:0:0:0:
192,192,33166,1,0,0:0:0:0:
320,192,33249,1,0,0:0:0:0:
64,192,33333,1,0,0:0:0:0:
192,192,33333,1,0,0:0:0:0:
448,192,33388,1,0,0:0:0:0:
320,192,33416,1,0,0:0:0:0:
64,192,33499,1,0,0:0:0:0:
192,192,33499,1,0,0:0:0:0:
448,192,33555,1,0,0:0:0:0:
320,192,33583,1,0,0:0:0:0:
192,192,33666,1,0,0:0:0:0:
64,192,33666,1,0,0:0:0:0:
448,192,33722,1,0,0:0:0:0:
320,192,33749,1,0,0:0:0:0:
192,192,33833,1,0,0:0:0:0:
64,192,33833,1,0,0:0:0:0:
448,192,33888,1,0,0:0:0:0:
320,192,33916,1,0,0:0:0:0:
192,192,33999,1,0,0:0:0:0:
64,192,33999,1,0,0:0:0:0:
448,192,34055,1,0,0:0:0:0:
320,192,34083,1,0,0:0:0:0:
192,192,34166,1,0,0:0:0:0:
64,192,34166,1,0,0:0:0:0:
448,192,34222,1,0,0:0:0:0:
320,192,34249,1,0,0:0:0:0:
192,192,34333,1,0,0:0:0:0:
64,192,34333,1,0,0:0:0:0:
448,192,34388,1,0,0:0:0:0:
320,192,34416,1,0,0:0:0:0:
192,192,34499,1,0,0:0:0:0:
64,192,34499,1,0,0:0:0:0:
448,192,34555,1,0,0:0:0:0:
320,192,34583,1,0,0:0:0:0:
192,192,34666,1,0,0:0:0:0:
64,192,34666,1,0,0:0:0:0:
320,192,35666,1,0,0:0:0:0:
448,192,35833,1,0,0:0:0:0:
320,192,35999,1,0,0:0:0:0:
64,192,35999,1,0,0:0:0:0:
320,192,36999,1,0,0:0:0:0:
448,192,37166,1,0,0:0:0:0:
192,192,37333,1,0,0:0:0:0:
64,192,37333,1,0,0:0:0:0:
192,192,38333,1,0,0:0:0:0:
320,192,38499,1,0,0:0:0:0:
64,192,38666,1,0,0:0:0:0:
192,192,38666,1,0,0:0:0:0:
64,192,39333,1,0,0:0:0:0:
320,192,39999,1,0,0:0:0:0:
64,192,39999,1,0,0:0:0:0:
320,192,41333,1,0,0:0:0:0:
192,192,41333,1,0,0:0:0:0:
448,192,41999,1,0,0:0:0:0:
320,192,42666,1,0,0:0:0:0:
64,192,42666,1,0,0:0:0:0:
64,192,43999,1,0,0:0:0:0:
320,192,43999,1,0,0:0:0:0:
192,192,45333,1,0,0:0:0:0:
64,192,45333,1,0,0:0:0:0:
448,192,45999,1,0,0:0:0:0:
320,192,46666,1,0,0:0:0:0:
64,192,46666,1,0,0:0:0:0:
192,192,47333,1,0,0:0:0:0:
320,192,47999,1,0,0:0:0:0:
192,192,47999,1,0,0:0:0:0:
320,192,49333,1,0,0:0:0:0:
64,192,49333,1,0,0:0:0:0:
192,192,49999,1,0,0:0:0:0:
64,192,50666,1,0,0:0:0:0:
448,192,50666,1,0,0:0:0:0:
192,192,51666,1,0,0:0:0:0:
320,192,51833,1,0,0:0:0:0:
448,192,51999,1,0,0:0:0:0:
64,192,51999,1,0,0:0:0:0:
320,192,52666,1,0,0:0:0:0:
64,192,53333,1,0,0:0:0:0:
192,192,53333,1,0,0:0:0:0:
64,192,55333,1,0,0:0:0:0:
192,192,55416,1,0,0:0:0:0:
320,192,55499,1,0,0:0:0:0:
448,192,55583,1,0,0:0:0:0:
64,192,55666,1,0,0:0:0:0:
192,192,55749,1,0,0:0:0:0:
320,192,55833,1,0,0:0:0:0:
448,192,55916,1,0,0:0:0:0:
64,192,55999,1,0,0:0:0:0:
320,192,55999,1,0,0:0:0:0:
192,192,55999,1,0,0:0:0:0:
64,192,56166,1,0,0:0:0:0:
320,192,56166,1,0,0:0:0:0:
192,192,56249,1,0,0:0:0:0:
448,192,56249,1,0,0:0:0:0:
64,192,56499,1,0,0:0:0:0:
448,192,56499,1,0,0:0:0:0:
192,192,56666,1,0,0:0:0:0:
320,192,56666,1,0,0:0:0:0:
448,192,56749,1,0,0:0:0:0:
64,192,56749,1,0,0:0:0:0:
64,192,56999,1,0,0:0:0:0:
448,192,56999,1,0,0:0:0:0:
64,192,57166,1,0,0:0:0:0:
448,192,57166,1,0,0:0:0:0:
64,192,57333,1,0,0:0:0:0:
320,192,57333,1,0,0:0:0:0:
448,192,57333,1,0,0:0:0:0:
64,192,57499,1,0,0:0:0:0:
192,192,57499,1,0,0:0:0:0:
320,192,57583,1,0,0:0:0:0:
448,192,57583,1,0,0:0:0:0:
320,192,57833,1,0,0:0:0:0:
448,192,57833,1,0,0:0:0:0:
64,192,57999,1,0,0:0:0:0:
192,192,57999,1,0,0:0:0:0:
320,192,58083,1,0,0:0:0:0:
448,192,58083,1,0,0:0:0:0:
192,192,58333,1,0,0:0:0:0:
448,192,58333,1,0,0:0:0:0:
64,192,58499,1,0,0:0:0:0:
320,192,58499,1,0,0:0:0:0:
192,192,58666,1,0,0:0:0:0:
64,192,58666,1,0,0:0:0:0:
448,192,58666,1,0,0:0:0:0:
64,192,58833,1,0,0:0:0:0:
320,192,58833,1,0,0:0:0:0:
192,192,58916,1,0,0:0:0:0:
64,192,59166,1,0,0:0:0:0:
320,192,59166,1,0,0:0:0:0:
192,192,59333,1,0,0:0:0:0:
448,192,59333,1,0,0:0:0:0:
320,192,59416,1,0,0:0:0:0:
64,192,59416,1,0,0:0:0:0:
192,192,59499,1,0,0:0:0:0:
448,192,59499,1,0,0:0:0:0:
64,192,59666,1,0,0:0:0:0:
448,192,59666,1,0,0:0:0:0:
192,192,59833,1,0,0:0:0:0:
320,192,59833,1,0,0:0:0:0:
320,192,59999,1,0,0:0:0:0:
448,192,59999,1,0,0:0:0:0:
64,192,59999,1,0,0:0:0:0:
192,192,60166,1,0,0:0:0:0:
320,192,60249,1,0,0:0:0:0:
448,192,60249,1,0,0:0:0:0:
64,192,60416,1,0,0:0:0:0:
320,192,60499,1,0,0:0:0:0:
448,192,60499,1,0,0:0:0:0:
192,192,60666,1,0,0:0:0:0:
64,192,60666,1,0,0:0:0:0:
320,192,60749,1,0,0:0:0:0:
448,192,60749,1,0,0:0:0:0:
192,192,60833,1,0,0:0:0:0:
64,192,60833,1,0,0:0:0:0:
192,192,60999,1,0,0:0:0:0:
448,192,60999,1,0,0:0:0:0:
64,192,61333,1,0,0:0:0:0:
448,192,61333,1,0,0:0:0:0:
192,192,61333,1,0,0:0:0:0:
320,192,61499,1,0,0:0:0:0:
64,192,61499,1,0,0:0:0:0:
192,192,61583,1,0,0:0:0:0:
448,192,61583,1,0,0:0:0:0:
192,192,61833,1,0,0:0:0:0:
448,192,61833,1,0,0:0:0:0:
320,192,61999,1,0,0:0:0:0:
64,192,61999,1,0,0:0:0:0:
192,192,62083,1,0,0:0:0:0:
448,192,62083,1,0,0:0:0:0:
64,192,62333,1,0,0:0:0:0:
320,192,62333,1,0,0:0:0:0:
192,192,62499,1,0,0:0:0:0:
448,192,62499,1,0,0:0:0:0:
64,192,62666,1,0,0:0:0:0:
320,192,62666,1,0,0:0:0:0:
448,192,62666,1,0,0:0:0:0:
64,192,62833,1,0,0:0:0:0:
192,192,62833,1,0,0:0:0:0:
320,192,62916,1,0,0:0:0:0:
448,192,62916,1,0,0:0:0:0:
64,192,63166,1,0,0:0:0:0:
192,192,63166,1,0,0:0:0:0:
320,192,63333,1,0,0:0:0:0:
448,192,63333,1,0,0:0:0:0:
192,192,63416,1,0,0:0:0:0:
64,192,63416,1,0,0:0:0:0:
320,192,63666,1,0,0:0:0:0:
448,192,63666,1,0,0:0:0:0:
192,192,63833,1,0,0:0:0:0:
320,192,63833,1,0,0:0:0:0:
64,192,63999,1,0,0:0:0:0:
448,192,63999,1,0,0:0:0:0:
64,192,64166,1,0,0:0:0:0:
192,192,64166,1,0,0:0:0:0:
320,192,64249,1,0,0:0:0:0:
64,192,64416,1,0,0:0:0:0:
192,192,64416,1,0,0:0:0:0:
448,192,64499,1,0,0:0:0:0:
64,192,64666,1,0,0:0:0:0:
192,192,64666,1,0,0:0:0:0:
320,192,64749,1,0,0:0:0:0:
448,192,64916,1,0,0:0:0:0:
64,192,64916,1,0,0:0:0:0:
320,192,64999,1,0,0:0:0:0:
192,192,64999,1,0,0:0:0:0:
64,192,65083,1,0,0:0:0:0:
448,192,65083,1,0,0:0:0:0:
320,192,65166,1,0,0:0:0:0:
192,192,65166,1,0,0:0:0:0:
64,192,65333,1,0,0:0:0:0:
448,192,65333,1,0,0:0:0:0:
320,192,65333,1,0,0:0:0:0:
64,192,65499,1,0,0:0:0:0:
192,192,65499,1,0,0:0:0:0:
320,192,65583,1,0,0:0:0:0:
448,192,65583,1,0,0:0:0:0:
64,192,65749,1,0,0:0:0:0:
192,192,65749,1,0,0:0:0:0:
320,192,65833,1,0,0:0:0:0:
448,192,65833,1,0,0:0:0:0:
192,192,65916,1,0,0:0:0:0:
64,192,65916,1,0,0:0:0:0:
448,192,65999,1,0,0:0:0:0:
320,192,65999,1,0,0:0:0:0:
192,192,66166,1,0,0:0:0:0:
320,192,66166,1,0,0:0:0:0:
192,192,66333,1,0,0:0:0:0:
64,192,66333,1,0,0:0:0:0:
448,192,66333,1,0,0:0:0:0:
320,192,66499,1,0,0:0:0:0:
64,192,66499,1,0,0:0:0:0:
192,192,66666,1,0,0:0:0:0:
448,192,66666,1,0,0:0:0:0:
64,192,66833,1,0,0:0:0:0:
192,192,66833,1,0,0:0:0:0:
320,192,66916,1,0,0:0:0:0:
64,192,67166,1,0,0:0:0:0:
192,192,67166,1,0,0:0:0:0:
320,192,67333,1,0,0:0:0:0:
448,192,67333,1,0,0:0:0:0:
192,192,67416,1,0,0:0:0:0:
64,192,67416,1,0,0:0:0:0:
192,192,67666,1,0,0:0:0:0:
64,192,67666,1,0,0:0:0:0:
320,192,67833,1,0,0:0:0:0:
448,192,67833,1,0,0:0:0:0:
64,192,67999,1,0,0:0:0:0:
320,192,67999,1,0,0:0:0:0:
448,192,67999,1,0,0:0:0:0:
192,192,68166,1,0,0:0:0:0:
320,192,68249,1,0,0:0:0:0:
448,192,68249,1,0,0:0:0:0:
64,192,68499,1,0,0:0:0:0:
192,192,68499,1,0,0:0:0:0:
320,192,68666,1,0,0:0:0:0:
448,192,68666,1,0,0:0:0:0:
64,192,68666,1,0,0:0:0:0:
192,192,68749,1,0,0:0:0:0:
64,192,68833,1,0,0:0:0:0:
448,192,68833,1,0,0:0:0:0:
320,192,68999,1,0,0:0:0:0:
192,192,68999,1,0,0:0:0:0:
64,192,68999,1,0,0:0:0:0:
64,192,69166,1,0,0:0:0:0:
448,192,69166,1,0,0:0:0:0:
320,192,69166,1,0,0:0:0:0:
192,192,69333,1,0,0:0:0:0:
64,192,69333,1,0,0:0:0:0:
448,192,69333,1,0,0:0:0:0:
448,192,69499,1,0,0:0:0:0:
192,192,69499,1,0,0:0:0:0:
320,192,69583,1,0,0:0:0:0:
64,192,69583,1,0,0:0:0:0:
192,192,69666,1,0,0:0:0:0:
448,192,69666,1,0,0:0:0:0:
320,192,69833,1,0,0:0:0:0:
192,192,69833,1,0,0:0:0:0:
64,192,69916,1,0,0:0:0:0:
448,192,69916,1,0,0:0:0:0:
320,192,69999,1,0,0:0:0:0:
192,192,69999,1,0,0:0:0:0:
64,192,70083,1,0,0:0:0:0:
448,192,70083,1,0,0:0:0:0:
448,192,70249,1,0,0:0:0:0:
192,192,70249,1,0,0:0:0:0:
320,192,70333,1,0,0:0:0:0:
64,192,70333,1,0,0:0:0:0:
448,192,70416,1,0,0:0:0:0:
192,192,70416,1,0,0:0:0:0:
320,192,70499,1,0,0:0:0:0:
64,192,70499,1,0,0:0:0:0:
320,192,70666,1,0,0:0:0:0:
192,192,70666,1,0,0:0:0:0:
64,192,70833,1,0,0:0:0:0:
448,192,70833,1,0,0:0:0:0:
192,192,70916,1,0,0:0:0:0:
320,192,70916,1,0,0:0:0:0:
448,192,70999,1,0,0:0:0:0:
64,192,70999,1,0,0:0:0:0:
320,192,71166,1,0,0:0:0:0:
192,192,71166,1,0,0:0:0:0:
64,192,71333,1,0,0:0:0:0:
320,192,71333,1,0,0:0:0:0:
448,192,71416,1,0,0:0:0:0:
192,192,71416,1,0,0:0:0:0:
320,192,71499,1,0,0:0:0:0:
64,192,71499,1,0,0:0:0:0:
64,192,71666,1,0,0:0:0:0:
192,192,71666,1,0,0:0:0:0:
320,192,71833,1,0,0:0:0:0:
448,192,71833,1,0,0:0:0:0:
192,192,71833,1,0,0:0:0:0:
192,192,71999,1,0,0:0:0:0:
64,192,71999,1,0,0:0:0:0:
448,192,71999,1,0,0:0:0:0:
320,192,72166,1,0,0:0:0:0:
448,192,72166,1,0,0:0:0:0:
192,192,72249,1,0,0:0:0:0:
64,192,72333,1,0,0:0:0:0:
192,192,72499,1,0,0:0:0:0:
320,192,72499,1,0,0:0:0:0:
448,192,72666,1,0,0:0:0:0:
192,192,72666,1,0,0:0:0:0:
64,192,72666,1,0,0:0:0:0:
320,192,72749,1,0,0:0:0:0:
448,192,72833,1,0,0:0:0:0:
64,192,72833,1,0,0:0:0:0:
192,192,72999,1,0,0:0:0:0:
64,192,72999,1,0,0:0:0:0:
320,192,73166,1,0,0:0:0:0:
448,192,73166,1,0,0:0:0:0:
192,192,73333,1,0,0:0:0:0:
64,192,73333,1,0,0:0:0:0:
320,192,73333,1,0,0:0:0:0:
448,192,73499,1,0,0:0:0:0:
192,192,73499,1,0,0:0:0:0:
320,192,73583,1,0,0:0:0:0:
64,192,73583,1,0,0:0:0:0:
192,192,73666,1,0,0:0:0:0:
320,192,73833,1,0,0:0:0:0:
192,192,73833,1,0,0:0:0:0:
448,192,73999,1,0,0:0:0:0:
320,192,73999,1,0,0:0:0:0:
192,192,74083,1,0,0:0:0:0:
64,192,74083,1,0,0:0:0:0:
320,192,74166,1,0,0:0:0:0:
448,192,74166,1,0,0:0:0:0:
64,192,74333,1,0,0:0:0:0:
192,192,74333,1,0,0:0:0:0:
320,192,74416,1,0,0:0:0:0:
448,192,74416,1,0,0:0:0:0:
192,192,74499,1,0,0:0:0:0:
64,192,74499,1,0,0:0:0:0:
64,192,74666,1,0,0:0:0:0:
192,192,74666,1,0,0:0:0:0:
448,192,74666,1,0,0:0:0:0:
448,192,74833,1,0,0:0:0:0:
192,192,74833,1,0,0:0:0:0:
64,192,74916,1,0,0:0:0:0:
320,192,74916,1,0,0:0:0:0:
192,192,74999,1,0,0:0:0:0:
448,192,74999,1,0,0:0:0:0:
320,192,75083,1,0,0:0:0:0:
64,192,75083,1,0,0:0:0:0:
192,192,75166,1,0,0:0:0:0:
448,192,75166,1,0,0:0:0:0:
64,192,75333,1,0,0:0:0:0:
192,192,75333,1,0,0:0:0:0:
320,192,75416,1,0,0:0:0:0:
448,192,75416,1,0,0:0:0:0:
192,192,75499,1,0,0:0:0:0:
64,192,75499,1,0,0:0:0:0:
320,192,75666,1,0,0:0:0:0:
64,192,75666,1,0,0:0:0:0:
192,192,75749,1,0,0:0:0:0:
448,192,75749,1,0,0:0:0:0:
320,192,75833,1,0,0:0:0:0:
64,192,75833,1,0,0:0:0:0:
64,192,75999,1,0,0:0:0:0:
320,192,75999,1,0,0:0:0:0:
448,192,75999,1,0,0:0:0:0:
192,192,76166,1,0,0:0:0:0:
320,192,76249,1,0,0:0:0:0:
448,192,76249,1,0,0:0:0:0:
192,192,76333,1,0,0:0:0:0:
64,192,76416,1,0,0:0:0:0:
320,192,76499,1,0,0:0:0:0:
192,192,76499,1,0,0:0:0:0:
448,192,76583,1,0,0:0:0:0:
320,192,76666,1,0,0:0:0:0:
192,192,76666,1,0,0:0:0:0:
64,192,76749,1,0,0:0:0:0:
320,192,76833,1,0,0:0:0:0:
192,192,76833,1,0,0:0:0:0:
448,192,76916,1,0,0:0:0:0:
64,192,76999,1,0,0:0:0:0:
64,192,77166,1,0,0:0:0:0:
64,192,77333,1,0,0:0:0:0:
448,192,77333,1,0,0:0:0:0:
192,192,77416,1,0,0:0:0:0:
320,192,77499,1,0,0:0:0:0:
448,192,77583,1,0,0:0:0:0:
320,192,77666,1,0,0:0:0:0:
64,192,77666,1,0,0:0:0:0:
192,192,77749,1,0,0:0:0:0:
320,192,77833,1,0,0:0:0:0:
448,192,77916,1,0,0:0:0:0:
192,192,77999,1,0,0:0:0:0:
64,192,77999,1,0,0:0:0:0:
320,192,78083,1,0,0:0:0:0:
448,192,78166,1,0,0:0:0:0:
320,192,78249,1,0,0:0:0:0:
64,192,78333,1,0,0:0:0:0:
448,192,78333,1,0,0:0:0:0:
192,192,78416,1,0,0:0:0:0:
320,192,78499,1,0,0:0:0:0:
448,192,78583,1,0,0:0:0:0:
192,192,78666,1,0,0:0:0:0:
64,192,78666,1,0,0:0:0:0:
448,192,78749,1,0,0:0:0:0:
320,192,78833,1,0,0:0:0:0:
448,192,78916,1,0,0:0:0:0:
64,192,78999,1,0,0:0:0:0:
320,192,78999,1,0,0:0:0:0:
192,192,79083,1,0,0:0:0:0:
320,192,79166,1,0,0:0:0:0:
448,192,79249,1,0,0:0:0:0:
192,192,79333,1,0,0:0:0:0:
64,192,79333,1,0,0:0:0:0:
320,192,79416,1,0,0:0:0:0:
448,192,79499,1,0,0:0:0:0:
320,192,79583,1,0,0:0:0:0:
448,192,79666,1,0,0:0:0:0:
64,192,79666,1,0,0:0:0:0:
192,192,79749,1,0,0:0:0:0:
448,192,79833,1,0,0:0:0:0:
64,192,79833,1,0,0:0:0:0:
320,192,79916,1,0,0:0:0:0:
448,192,79999,1,0,0:0:0:0:
320,192,79999,1,0,0:0:0:0:
64,192,80041,1,0,0:0:0:0:
192,192,80083,1,0,0:0:0:0:
320,192,80124,1,0,0:0:0:0:
448,192,80166,1,0,0:0:0:0:
64,192,80208,1,0,0:0:0:0:
192,192,80249,1,0,0:0:0:0:
320,192,80291,1,0,0:0:0:0:
448,192,80333,1,0,0:0:0:0:
64,192,80388,1,0,0:0:0:0:
192,192,80444,1,0,0:0:0:0:
320,192,80499,1,0,0:0:0:0:
448,192,80555,1,0,0:0:0:0:
64,192,80611,1,0,0:0:0:0:
192,192,80666,1,0,0:0:0:0:
64,192,80749,1,0,0:0:0:0:
448,192,80749,1,0,0:0:0:0:
320,192,80833,1,0,0:0:0:0:
192,192,80916,1,0,0:0:0:0:
448,192,80999,1,0,0:0:0:0:
64,192,80999,1,0,0:0:0:0:
192,192,81083,1,0,0:0:0:0:
64,192,81166,1,0,0:0:0:0:
320,192,81249,1,0,0:0:0:0:
448,192,81333,1,0,0:0:0:0:
192,192,81333,1,0,0:0:0:0:
64,192,81388,1,0,0:0:0:0:
192,192,81444,1,0,0:0:0:0:
320,192,81527,1,0,0:0:0:0:
192,192,81583,1,0,0:0:0:0:
448,192,81666,1,0,0:0:0:0:
64,192,81666,1,0,0:0:0:0:
320,192,81722,1,0,0:0:0:0:
64,192,81805,1,0,0:0:0:0:
192,192,81833,1,0,0:0:0:0:
320,192,81916,1,0,0:0:0:0:
448,192,81999,1,0,0:0:0:0:
64,192,81999,1,0,0:0:0:0:
192,192,82055,1,0,0:0:0:0:
320,192,82111,1,0,0:0:0:0:
448,192,82166,1,0,0:0:0:0:
192,192,82222,1,0,0:0:0:0:
320,192,82277,1,0,0:0:0:0:
64,192,82333,1,0,0:0:0:0:
192,192,82374,1,0,0:0:0:0:
320,192,82416,1,0,0:0:0:0:
448,192,82458,1,0,0:0:0:0:
64,192,82499,1,0,0:0:0:0:
192,192,82541,1,0,0:0:0:0:
320,192,82583,1,0,0:0:0:0:
448,192,82624,1,0,0:0:0:0:
64,192,82666,1,0,0:0:0:0:
320,192,82749,1,0,0:0:0:0:
192,192,82833,1,0,0:0:0:0:
64,192,82916,1,0,0:0:0:0:
448,192,82999,1,0,0:0:0:0:
192,192,82999,1,0,0:0:0:0:
320,192,83083,1,0,0:0:0:0:
192,192,83166,1,0,0:0:0:0:
64,192,83249,1,0,0:0:0:0:
320,192,83333,1,0,0:0:0:0:
448,192,83333,1,0,0:0:0:0:
192,192,83416,1,0,0:0:0:0:
64,192,83499,1,0,0:0:0:0:
320,192,83583,1,0,0:0:0:0:
448,192,83666,1,0,0:0:0:0:
64,192,83666,1,0,0:0:0:0:
192,192,83749,1,0,0:0:0:0:
320,192,83833,1,0,0:0:0:0:
64,192,83916,1,0,0:0:0:0:
448,192,83999,1,0,0:0:0:0:
192,192,83999,1,0,0:0:0:0:
320,192,84083,1,0,0:0:0:0:
448,192,84166,1,0,0:0:0:0:
192,192,84249,1,0,0:0:0:0:
64,192,84333,1,0,0:0:0:0:
448,192,84333,1,0,0:0:0:0:
192,192,84416,1,0,0:0:0:0:
64,192,84499,1,0,0:0:0:0:
192,192,84583,1,0,0:0:0:0:
320,192,84666,1,0,0:0:0:0:
64,192,84666,1,0,0:0:0:0:
448,192,84722,1,0,0:0:0:0:
320,192,84777,1,0,0:0:0:0:
192,192,84861,1,0,0:0:0:0:
64,192,84916,1,0,0:0:0:0:
192,192,84999,1,0,0:0:0:0:
448,192,84999,1,0,0:0:0:0:
320,192,85083,1,0,0:0:0:0:
448,192,85138,1,0,0:0:0:0:
192,192,85194,1,0,0:0:0:0:
64,192,85249,1,0,0:0:0:0:
448,192,85333,1,0,0:0:0:0:
320,192,85333,1,0,0:0:0:0:
64,192,85388,1,0,0:0:0:0:
192,192,85444,1,0,0:0:0:0:
320,192,85499,1,0,0:0:0:0:
448,192,85555,1,0,0:0:0:0:
192,192,85611,1,0,0:0:0:0:
64,192,85666,1,0,0:0:0:0:
448,192,85666,1,0,0:0:0:0:
192,192,85722,1,0,0:0:0:0:
320,192,85777,1,0,0:0:0:0:
448,192,85833,1,0,0:0:0:0:
64,192,85888,1,0,0:0:0:0:
192,192,85944,1,0,0:0:0:0:
320,192,85999,1,0,0:0:0:0:
448,192,85999,1,0,0:0:0:0:
64,192,86083,1,0,0:0:0:0:
192,192,86138,1,0,0:0:0:0:
320,192,86194,1,0,0:0:0:0:
448,192,86249,1,0,0:0:0:0:
64,192,86333,1,0,0:0:0:0:
192,192,86361,1,0,0:0:0:0:
320,192,86388,1,0,0:0:0:0:
448,192,86416,1,0,0:0:0:0:
320,192,86499,1,0,0:0:0:0:
192,192,86583,1,0,0:0:0:0:
64,192,86666,1,0,0:0:0:0:
448,192,86666,1,0,0:0:0:0:
320,192,86722,1,0,0:0:0:0:
192,192,86777,1,0,0:0:0:0:
64,192,86833,1,0,0:0:0:0:
320,192,86916,1,0,0:0:0:0:
64,192,86999,1,0,0:0:0:0:
192,192,87027,1,0,0:0:0:0:
448,192,87083,1,0,0:0:0:0:
320,192,87138,1,0,0:0:0:0:
192,192,87194,1,0,0:0:0:0:
64,192,87249,1,0,0:0:0:0:
448,192,87333,1,0,0:0:0:0:
320,192,87374,1,0,0:0:0:0:
192,192,87416,1,0,0:0:0:0:
64,192,87458,1,0,0:0:0:0:
320,192,87499,1,0,0:0:0:0:
192,192,87555,1,0,0:0:0:0:
64,192,87611,1,0,0:0:0:0:
320,192,87666,1,0,0:0:0:0:
448,192,87666,1,0,0:0:0:0:
192,192,87722,1,0,0:0:0:0:
320,192,87777,1,0,0:0:0:0:
448,192,87833,1,0,0:0:0:0:
64,192,87833,1,0,0:0:0:0:
320,192,87916,1,0,0:0:0:0:
192,192,87999,1,0,0:0:0:0:
64,192,87999,1,0,0:0:0:0:
448,192,88083,1,0,0:0:0:0:
320,192,88166,1,0,0:0:0:0:
192,192,88249,1,0,0:0:0:0:
320,192,88333,1,0,0:0:0:0:
448,192,88333,1,0,0:0:0:0:
64,192,88416,1,0,0:0:0:0:
192,192,88499,1,0,0:0:0:0:
320,192,88583,1,0,0:0:0:0:
448,192,88666,1,0,0:0:0:0:
64,192,88666,1,0,0:0:0:0:
192,192,88749,1,0,0:0:0:0:
320,192,88833,1,0,0:0:0:0:
448,192,88916,1,0,0:0:0:0:
320,192,88999,1,0,0:0:0:0:
64,192,88999,1,0,0:0:0:0:
192,192,89083,1,0,0:0:0:0:
320,192,89166,1,0,0:0:0:0:
448,192,89249,1,0,0:0:0:0:
192,192,89333,1,0,0:0:0:0:
64,192,89333,1,0,0:0:0:0:
320,192,89416,1,0,0:0:0:0:
192,192,89499,1,0,0:0:0:0:
448,192,89583,1,0,0:0:0:0:
320,192,89666,1,0,0:0:0:0:
64,192,89666,1,0,0:0:0:0:
192,192,89749,1,0,0:0:0:0:
320,192,89833,1,0,0:0:0:0:
448,192,89916,1,0,0:0:0:0:
192,192,89999,1,0,0:0:0:0:
64,192,89999,1,0,0:0:0:0:
448,192,90083,1,0,0:0:0:0:
320,192,90166,1,0,0:0:0:0:
448,192,90249,1,0,0:0:0:0:
320,192,90333,1,0,0:0:0:0:
64,192,90333,1,0,0:0:0:0:
192,192,90416,1,0,0:0:0:0:
448,192,90499,1,0,0:0:0:0:
320,192,90583,1,0,0:0:0:0:
192,192,90666,1,0,0:0:0:0:
64,192,90666,1,0,0:0:0:0:
448,192,90708,1,0,0:0:0:0:
320,192,90749,1,0,0:0:0:0:
192,192,90791,1,0,0:0:0:0:
64,192,90833,1,0,0:0:0:0:
448,192,90874,1,0,0:0:0:0:
320,192,90916,1,0,0:0:0:0:
192,192,90958,1,0,0:0:0:0:
64,192,90999,1,0,0:0:0:0:
448,192,91055,1,0,0:0:0:0:
320,192,91111,1,0,0:0:0:0:
192,192,91166,1,0,0:0:0:0:
64,192,91222,1,0,0:0:0:0:
448,192,91277,1,0,0:0:0:0:
320,192,91333,1,0,0:0:0:0:
64,192,91416,1,0,0:0:0:0:
448,192,91416,1,0,0:0:0:0:
192,192,91499,1,0,0:0:0:0:
320,192,91583,1,0,0:0:0:0:
64,192,91666,1,0,0:0:0:0:
448,192,91666,1,0,0:0:0:0:
320,192,91749,1,0,0:0:0:0:
448,192,91833,1,0,0:0:0:0:
192,192,91916,1,0,0:0:0:0:
64,192,91999,1,0,0:0:0:0:
320,192,91999,1,0,0:0:0:0:
448,192,92055,1,0,0:0:0:0:
320,192,92111,1,0,0:0:0:0:
192,192,92194,1,0,0:0:0:0:
320,192,92249,1,0,0:0:0:0:
448,192,92333,1,0,0:0:0:0:
64,192,92333,1,0,0:0:0:0:
192,192,92388,1,0,0:0:0:0:
448,192,92472,1,0,0:0:0:0:
320,192,92499,1,0,0:0:0:0:
192,192,92583,1,0,0:0:0:0:
64,192,92666,1,0,0:0:0:0:
448,192,92666,1,0,0:0:0:0:
320,192,92722,1,0,0:0:0:0:
192,192,92777,1,0,0:0:0:0:
64,192,92833,1,0,0:0:0:0:
320,192,92888,1,0,0:0:0:0:
192,192,92944,1,0,0:0:0:0:
448,192,92999,1,0,0:0:0:0:
320,192,93041,1,0,0:0:0:0:
192,192,93083,1,0,0:0:0:0:
64,192,93124,1,0,0:0:0:0:
448,192,93166,1,0,0:0:0:0:
320,192,93208,1,0,0:0:0:0:
192,192,93249,1,0,0:0:0:0:
64,192,93291,1,0,0:0:0:0:
448,192,93333,1,0,0:0:0:0:
192,192,93416,1,0,0:0:0:0:
320,192,93499,1,0,0:0:0:0:
448,192,93583,1,0,0:0:0:0:
64,192,93666,1,0,0:0:0:0:
320,192,93666,1,0,0:0:0:0:
192,192,93749,1,0,0:0:0:0:
320,192,93833,1,0,0:0:0:0:
448,192,93916,1,0,0:0:0:0:
192,192,93999,1,0,0:0:0:0:
64,192,93999,1,0,0:0:0:0:
320,192,94083,1,0,0:0:0:0:
448,192,94166,1,0,0:0:0:0:
192,192,94249,1,0,0:0:0:0:
448,192,94333,1,0,0:0:0:0:
64,192,94333,1,0,0:0:0:0:
320,192,94416,1,0,0:0:0:0:
192,192,94499,1,0,0:0:0:0:
448,192,94583,1,0,0:0:0:0:
320,192,94666,1,0,0:0:0:0:
64,192,94666,1,0,0:0:0:0:
448,192,94749,1,0,0:0:0:0:
192,192,94833,1,0,0:0:0:0:
320,192,94916,1,0,0:0:0:0:
192,192,94999,1,0,0:0:0:0:
64,192,94999,1,0,0:0:0:0:
448,192,95083,1,0,0:0:0:0:
320,192,95166,1,0,0:0:0:0:
448,192,95249,1,0,0:0:0:0:
192,192,95333,1,0,0:0:0:0:
64,192,95333,1,0,0:0:0:0:
320,192,95416,1,0,0:0:0:0:
448,192,95499,1,0,0:0:0:0:
320,192,95583,1,0,0:0:0:0:
192,192,95666,1,0,0:0:0:0:
64,192,95666,1,0,0:0:0:0:
320,192,95749,1,0,0:0:0:0:
448,192,95833,1,0,0:0:0:0:
64,192,95833,1,0,0:0:0:0:
320,192,95916,1,0,0:0:0:0:
64,192,95999,1,0,0:0:0:0:
448,192,95999,1,0,0:0:0:0:
192,192,96083,1,0,0:0:0:0:
320,192,96166,1,0,0:0:0:0:
192,192,96249,1,0,0:0:0:0:
320,192,96333,1,0,0:0:0:0:
64,192,96333,1,0,0:0:0:0:
192,192,96416,1,0,0:0:0:0:
320,192,96499,1,0,0:0:0:0:
192,192,96583,1,0,0:0:0:0:
320,192,96666,1,0,0:0:0:0:
448,192,96666,1,0,0:0:0:0:
192,192,96749,1,0,0:0:0:0:
320,192,96833,1,0,0:0:0:0:
192,192,96916,1,0,0:0:0:0:
64,192,96999,1,0,0:0:0:0:
320,192,96999,1,0,0:0:0:0:
192,192,97083,1,0,0:0:0:0:
64,192,97166,1,0,0:0:0:0:
320,192,97166,1,0,0:0:0:0:
448,192,97249,1,0,0:0:0:0:
320,192,97333,1,0,0:0:0:0:
64,192,97333,1,0,0:0:0:0:
192,192,97333,1,0,0:0:0:0:
448,192,97416,1,0,0:0:0:0:
192,192,97499,1,0,0:0:0:0:
64,192,97499,1,0,0:0:0:0:
320,192,97583,1,0,0:0:0:0:
448,192,97583,1,0,0:0:0:0:
192,192,97666,1,0,0:0:0:0:
64,192,97666,1,0,0:0:0:0:
320,192,97749,1,0,0:0:0:0:
448,192,97749,1,0,0:0:0:0:
192,192,97833,1,0,0:0:0:0:
64,192,97833,1,0,0:0:0:0:
320,192,97916,1,0,0:0:0:0:
448,192,97916,1,0,0:0:0:0:
192,192,97999,1,0,0:0:0:0:
64,192,97999,1,0,0:0:0:0:
320,192,98083,1,0,0:0:0:0:
448,192,98083,1,0,0:0:0:0:
192,192,98166,1,0,0:0:0:0:
320,192,98249,1,0,0:0:0:0:
448,192,98249,1,0,0:0:0:0:
192,192,98333,1,0,0:0:0:0:
64,192,98333,1,0,0:0:0:0:
320,192,98416,1,0,0:0:0:0:
448,192,98499,1,0,0:0:0:0:
64,192,98499,1,0,0:0:0:0:
192,192,98583,1,0,0:0:0:0:
320,192,98666,1,0,0:0:0:0:
448,192,98666,1,0,0:0:0:0:
64,192,98666,1,0,0:0:0:0:
192,192,98749,1,0,0:0:0:0:
320,192,98833,1,0,0:0:0:0:
448,192,98874,1,0,0:0:0:0:
192,192,98916,1,0,0:0:0:0:
64,192,98999,1,0,0:0:0:0:
320,192,98999,1,0,0:0:0:0:
192,192,99083,1,0,0:0:0:0:
64,192,99166,1,0,0:0:0:0:
320,192,99166,1,0,0:0:0:0:
192,192,99249,1,0,0:0:0:0:
448,192,99333,1,0,0:0:0:0:
64,192,99333,1,0,0:0:0:0:
192,192,99416,1,0,0:0:0:0:
320,192,99499,1,0,0:0:0:0:
64,192,99499,1,0,0:0:0:0:
448,192,99583,1,0,0:0:0:0:
320,192,99666,1,0,0:0:0:0:
64,192,99666,1,0,0:0:0:0:
192,192,99749,1,0,0:0:0:0:
64,192,99833,1,0,0:0:0:0:
192,192,99916,1,0,0:0:0:0:
64,192,99999,1,0,0:0:0:0:
448,192,99999,1,0,0:0:0:0:
320,192,100083,1,0,0:0:0:0:
192,192,100166,1,0,0:0:0:0:
320,192,100249,1,0,0:0:0:0:
64,192,100249,1,0,0:0:0:0:
192,192,100333,1,0,0:0:0:0:
448,192,100333,1,0,0:0:0:0:
320,192,100416,1,0,0:0:0:0:
192,192,100499,1,0,0:0:0:0:
448,192,100499,1,0,0:0:0:0:
320,192,100583,1,0,0:0:0:0:
192,192,100666,1,0,0:0:0:0:
64,192,100666,1,0,0:0:0:0:
320,192,100749,1,0,0:0:0:0:
192,192,100833,1,0,0:0:0:0:
448,192,100833,1,0,0:0:0:0:
320,192,100916,1,0,0:0:0:0:
448,192,100999,1,0,0:0:0:0:
192,192,100999,1,0,0:0:0:0:
64,192,101083,1,0,0:0:0:0:
192,192,101166,1,0,0:0:0:0:
448,192,101166,1,0,0:0:0:0:
320,192,101249,1,0,0:0:0:0:
448,192,101333,1,0,0:0:0:0:
64,192,101333,1,0,0:0:0:0:
320,192,101416,1,0,0:0:0:0:
448,192,101499,1,0,0:0:0:0:
192,192,101499,1,0,0:0:0:0:
320,192,101583,1,0,0:0:0:0:
448,192,101666,1,0,0:0:0:0:
192,192,101666,1,0,0:0:0:0:
320,192,101749,1,0,0:0:0:0:
448,192,101833,1,0,0:0:0:0:
64,192,101833,1,0,0:0:0:0:
320,192,101916,1,0,0:0:0:0:
448,192,101999,1,0,0:0:0:0:
192,192,101999,1,0,0:0:0:0:
320,192,102083,1,0,0:0:0:0:
448,192,102166,1,0,0:0:0:0:
64,192,102166,1,0,0:0:0:0:
320,192,102249,1,0,0:0:0:0:
448,192,102333,1,0,0:0:0:0:
192,192,102333,1,0,0:0:0:0:
320,192,102416,1,0,0:0:0:0:
192,192,102499,1,0,0:0:0:0:
64,192,102499,1,0,0:0:0:0:
320,192,102583,1,0,0:0:0:0:
448,192,102666,1,0,0:0:0:0:
64,192,102666,1,0,0:0:0:0:
192,192,102749,1,0,0:0:0:0:
320,192,102833,1,0,0:0:0:0:
64,192,102833,1,0,0:0:0:0:
448,192,102916,1,0,0:0:0:0:
320,192,102999,1,0,0:0:0:0:
64,192,102999,1,0,0:0:0:0:
192,192,103083,1,0,0:0:0:0:
64,192,103166,1,0,0:0:0:0:
448,192,103166,1,0,0:0:0:0:
320,192,103249,1,0,0:0:0:0:
448,192,103333,1,0,0:0:0:0:
320,192,103388,1,0,0:0:0:0:
192,192,103444,1,0,0:0:0:0:
64,192,103499,1,0,0:0:0:0:
320,192,103555,1,0,0:0:0:0:
192,192,103611,1,0,0:0:0:0:
448,192,103666,1,0,0:0:0:0:
320,192,103722,1,0,0:0:0:0:
192,192,103777,1,0,0:0:0:0:
64,192,103833,1,0,0:0:0:0:
448,192,103888,1,0,0:0:0:0:
320,192,103944,1,0,0:0:0:0:
64,192,103999,1,0,0:0:0:0:
192,192,104083,1,0,0:0:0:0:
448,192,104166,1,0,0:0:0:0:
64,192,104166,1,0,0:0:0:0:
320,192,104249,1,0,0:0:0:0:
192,192,104333,1,0,0:0:0:0:
448,192,104333,1,0,0:0:0:0:
64,192,104333,1,0,0:0:0:0:
320,192,104416,1,0,0:0:0:0:
448,192,104499,1,0,0:0:0:0:
64,192,104499,1,0,0:0:0:0:
320,192,104583,1,0,0:0:0:0:
192,192,104666,1,0,0:0:0:0:
448,192,104666,1,0,0:0:0:0:
320,192,104749,1,0,0:0:0:0:
64,192,104833,1,0,0:0:0:0:
448,192,104833,1,0,0:0:0:0:
320,192,104916,1,0,0:0:0:0:
448,192,104999,1,0,0:0:0:0:
192,192,104999,1,0,0:0:0:0:
320,192,105083,1,0,0:0:0:0:
448,192,105166,1,0,0:0:0:0:
64,192,105166,1,0,0:0:0:0:
320,192,105249,1,0,0:0:0:0:
192,192,105333,1,0,0:0:0:0:
448,192,105333,1,0,0:0:0:0:
64,192,105333,1,0,0:0:0:0:
320,192,105416,1,0,0:0:0:0:
192,192,105499,1,0,0:0:0:0:
64,192,105499,1,0,0:0:0:0:
320,192,105583,1,0,0:0:0:0:
192,192,105666,1,0,0:0:0:0:
448,192,105666,1,0,0:0:0:0:
320,192,105749,1,0,0:0:0:0:
192,192,105833,1,0,0:0:0:0:
64,192,105833,1,0,0:0:0:0:
320,192,105916,1,0,0:0:0:0:
448,192,105999,1,0,0:0:0:0:
64,192,105999,1,0,0:0:0:0:
320,192,106083,1,0,0:0:0:0:
192,192,106166,1,0,0:0:0:0:
64,192,106166,1,0,0:0:0:0:
320,192,106249,1,0,0:0:0:0:
448,192,106333,1,0,0:0:0:0:
64,192,106333,1,0,0:0:0:0:
320,192,106416,1,0,0:0:0:0:
192,192,106499,1,0,0:0:0:0:
64,192,106499,1,0,0:0:0:0:
320,192,106583,1,0,0:0:0:0:
448,192,106666,1,0,0:0:0:0:
192,192,106749,1,0,0:0:0:0:
64,192,106833,1,0,0:0:0:0:
320,192,106833,1,0,0:0:0:0:
192,192,106916,1,0,0:0:0:0:
64,192,106999,1,0,0:0:0:0:
448,192,106999,1,0,0:0:0:0:
192,192,107083,1,0,0:0:0:0:
320,192,107166,1,0,0:0:0:0:
64,192,107166,1,0,0:0:0:0:
192,192,107249,1,0,0:0:0:0:
64,192,107333,1,0,0:0:0:0:
448,192,107333,1,0,0:0:0:0:
320,192,107416,1,0,0:0:0:0:
192,192,107499,1,0,0:0:0:0:
448,192,107499,1,0,0:0:0:0:
320,192,107583,1,0,0:0:0:0:
192,192,107666,1,0,0:0:0:0:
64,192,107666,1,0,0:0:0:0:
448,192,107749,1,0,0:0:0:0:
320,192,107833,1,0,0:0:0:0:
192,192,107833,1,0,0:0:0:0:
64,192,107916,1,0,0:0:0:0:
320,192,107999,1,0,0:0:0:0:
448,192,107999,1,0,0:0:0:0:
192,192,108083,1,0,0:0:0:0:
64,192,108166,1,0,0:0:0:0:
448,192,108249,1,0,0:0:0:0:
64,192,108333,1,0,0:0:0:0:
192,192,108416,1,0,0:0:0:0:
320,192,108499,1,0,0:0:0:0:
64,192,108499,1,0,0:0:0:0:
192,192,108583,1,0,0:0:0:0:
448,192,108666,1,0,0:0:0:0:
320,192,108722,1,0,0:0:0:0:
192,192,108777,1,0,0:0:0:0:
64,192,108833,1,0,0:0:0:0:
448,192,108888,1,0,0:0:0:0:
320,192,108944,1,0,0:0:0:0:
192,192,108999,1,0,0:0:0:0:
64,192,109055,1,0,0:0:0:0:
448,192,109111,1,0,0:0:0:0:
320,192,109166,1,0,0:0:0:0:
192,192,109222,1,0,0:0:0:0:
64,192,109277,1,0,0:0:0:0:
320,192,109333,1,0,0:0:0:0:
448,192,109333,1,0,0:0:0:0:
64,192,109499,1,0,0:0:0:0:
192,192,109499,1,0,0:0:0:0:
192,192,109666,1,0,0:0:0:0:
448,192,109666,1,0,0:0:0:0:
320,192,109833,1,0,0:0:0:0:
64,192,109833,1,0,0:0:0:0:
192,192,109999,1,0,0:0:0:0:
64,192,109999,1,0,0:0:0:0:
192,192,110166,1,0,0:0:0:0:
448,192,110166,1,0,0:0:0:0:
64,192,110333,1,0,0:0:0:0:
320,192,110333,1,0,0:0:0:0:
192,192,110499,1,0,0:0:0:0:
64,192,110499,1,0,0:0:0:0:
64,192,110666,1,0,0:0:0:0:
192,192,110833,1,0,0:0:0:0:
320,192,110833,1,0,0:0:0:0:
192,192,110999,1,0,0:0:0:0:
448,192,110999,1,0,0:0:0:0:
320,192,111166,1,0,0:0:0:0:
64,192,111166,1,0,0:0:0:0:
192,192,111333,1,0,0:0:0:0:
64,192,111333,1,0,0:0:0:0:
320,192,111499,1,0,0:0:0:0:
448,192,111499,1,0,0:0:0:0:
192,192,111666,1,0,0:0:0:0:
320,192,111666,1,0,0:0:0:0:
64,192,111833,1,0,0:0:0:0:
192,192,111833,1,0,0:0:0:0:
64,192,111999,1,0,0:0:0:0:
192,192,112166,1,0,0:0:0:0:
320,192,112166,1,0,0:0:0:0:
64,192,112333,1,0,0:0:0:0:
448,192,112333,1,0,0:0:0:0:
192,192,112499,1,0,0:0:0:0:
448,192,112499,1,0,0:0:0:0:
320,192,112666,1,0,0:0:0:0:
448,192,112666,1,0,0:0:0:0:
64,192,112833,1,0,0:0:0:0:
448,192,112833,1,0,0:0:0:0:
320,192,112999,1,0,0:0:0:0:
448,192,112999,1,0,0:0:0:0:
192,192,113166,1,0,0:0:0:0:
320,192,113166,1,0,0:0:0:0:
64,192,113333,1,0,0:0:0:0:
192,192,113499,1,0,0:0:0:0:
320,192,113499,1,0,0:0:0:0:
320,192,113666,1,0,0:0:0:0:
448,192,113666,1,0,0:0:0:0:
192,192,113833,1,0,0:0:0:0:
448,192,113833,1,0,0:0:0:0:
64,192,113999,1,0,0:0:0:0:
320,192,113999,1,0,0:0:0:0:
192,192,114166,1,0,0:0:0:0:
448,192,114166,1,0,0:0:0:0:
64,192,114333,1,0,0:0:0:0:
448,192,114333,1,0,0:0:0:0:
64,192,114499,1,0,0:0:0:0:
320,192,114499,1,0,0:0:0:0:
64,192,114666,1,0,0:0:0:0:
192,192,114833,1,0,0:0:0:0:
320,192,114833,1,0,0:0:0:0:
320,192,114999,1,0,0:0:0:0:
448,192,114999,1,0,0:0:0:0:
192,192,115166,1,0,0:0:0:0:
448,192,115166,1,0,0:0:0:0:
192,192,115333,1,0,0:0:0:0:
320,192,115333,1,0,0:0:0:0:
64,192,115499,1,0,0:0:0:0:
320,192,115499,1,0,0:0:0:0:
192,192,115666,1,0,0:0:0:0:
320,192,115666,1,0,0:0:0:0:
64,192,115833,1,0,0:0:0:0:
192,192,115833,1,0,0:0:0:0:
64,192,115999,1,0,0:0:0:0:
64,192,116166,1,0,0:0:0:0:
192,192,116166,1,0,0:0:0:0:
64,192,116333,1,0,0:0:0:0:
448,192,116333,1,0,0:0:0:0:
64,192,116499,1,0,0:0:0:0:
320,192,116499,1,0,0:0:0:0:
64,192,116666,1,0,0:0:0:0:
192,192,116666,1,0,0:0:0:0:
64,192,116833,1,0,0:0:0:0:
320,192,116833,1,0,0:0:0:0:
64,192,116999,1,0,0:0:0:0:
192,192,116999,1,0,0:0:0:0:
192,192,117166,1,0,0:0:0:0:
64,192,117166,1,0,0:0:0:0:
320,192,117249,1,0,0:0:0:0:
64,192,117333,1,0,0:0:0:0:
192,192,117333,1,0,0:0:0:0:
320,192,117416,1,0,0:0:0:0:
448,192,117444,1,0,0:0:0:0:
64,192,117499,1,0,0:0:0:0:
192,192,117499,1,0,0:0:0:0:
320,192,117583,1,0,0:0:0:0:
448,192,117611,1,0,0:0:0:0:
64,192,117666,1,0,0:0:0:0:
192,192,117666,1,0,0:0:0:0:
320,192,117749,1,0,0:0:0:0:
448,192,117777,1,0,0:0:0:0:
192,192,117833,1,0,0:0:0:0:
64,192,117833,1,0,0:0:0:0:
320,192,117916,1,0,0:0:0:0:
448,192,117944,1,0,0:0:0:0:
192,192,117999,1,0,0:0:0:0:
64,192,117999,1,0,0:0:0:0:
320,192,118083,1,0,0:0:0:0:
448,192,118111,1,0,0:0:0:0:
64,192,118166,1,0,0:0:0:0:
192,192,118166,1,0,0:0:0:0:
320,192,118249,1,0,0:0:0:0:
448,192,118277,1,0,0:0:0:0:
192,192,118333,1,0,0:0:0:0:
64,192,118333,1,0,0:0:0:0:
320,192,118416,1,0,0:0:0:0:
448,192,118444,1,0,0:0:0:0:
64,192,118499,1,0,0:0:0:0:
192,192,118499,1,0,0:0:0:0:
320,192,118583,1,0,0:0:0:0:
64,192,118666,1,0,0:0:0:0:
192,192,118666,1,0,0:0:0:0:
448,192,118722,1,0,0:0:0:0:
320,192,118749,1,0,0:0:0:0:
64,192,118833,1,0,0:0:0:0:
192,192,118833,1,0,0:0:0:0:
448,192,118888,1,0,0:0:0:0:
320,192,118916,1,0,0:0:0:0:
64,192,118999,1,0,0:0:0:0:
192,192,118999,1,0,0:0:0:0:
448,192,119055,1,0,0:0:0:0:
320,192,119083,1,0,0:0:0:0:
192,192,119166,1,0,0:0:0:0:
64,192,119166,1,0,0:0:0:0:
448,192,119222,1,0,0:0:0:0:
320,192,119249,1,0,0:0:0:0:
192,192,119333,1,0,0:0:0:0:
64,192,119333,1,0,0:0:0:0:
448,192,119388,1,0,0:0:0:0:
320,192,119416,1,0,0:0:0:0:
64,192,119499,1,0,0:0:0:0:
192,192,119499,1,0,0:0:0:0:
448,192,119555,1,0,0:0:0:0:
320,192,119583,1,0,0:0:0:0:
64,192,119666,1,0,0:0:0:0:
192,192,119666,1,0,0:0:0:0:
448,192,119722,1,0,0:0:0:0:
320,192,119749,1,0,0:0:0:0:
192,192,119833,1,0,0:0:0:0:
64,192,119833,1,0,0:0:0:0:
448,192,119888,1,0,0:0:0:0:
320,192,119916,1,0,0:0:0:0:
64,192,119999,1,0,0:0:0:0:
192,192,119999,1,0,0:0:0:0:
448,192,120999,1,0,0:0:0:0:
448,192,121333,1,0,0:0:0:0:
64,192,121333,1,0,0:0:0:0:
320,192,121666,1,0,0:0:0:0:
192,192,121999,1,0,0:0:0:0:
64,192,122333,1,0,0:0:0:0:
192,192,122666,1,0,0:0:0:0:
448,192,122666,1,0,0:0:0:0:
320,192,123666,1,0,0:0:0:0:
320,192,123999,1,0,0:0:0:0:
448,192,124281,1,0,0:0:0:0:
320,192,124562,1,0,0:0:0:0:
192,192,124750,1,0,0:0:0:0:
320,192,125150,1,0,0:0:0:0:
64,192,125550,1,0,0:0:0:0:
192,192,127024,1,0,0:0:0:0:
64,192,127882,1,0,0:0:0:0:
192,192,128757,1,0,0:0:0:0:
