osu file format v14

[General]
AudioFilename: 3R2 - Colorful Skies.mp3
AudioLeadIn: 0
PreviewTime: 57670
Countdown: 0
SampleSet: None
StackLeniency: 0.7
Mode: 3
LetterboxInBreaks: 0
SpecialStyle: 0
WidescreenStoryboard: 1

[Editor]
DistanceSpacing: 1
BeatDivisor: 4
GridSize: 4
TimelineZoom: 1.8

[Metadata]
Title:Cytus Collection 1
TitleUnicode:Cytus Collection 1
Artist:gems
ArtistUnicode:gems
Creator:gemboyong
Version:13 - 3R2, Colorful Skies
Source:Cytus
Tags:
BeatmapID:1084588
BeatmapSetID:357538

[Difficulty]
HPDrainRate:8
CircleSize:4
OverallDifficulty:7
ApproachRate:10
SliderMultiplier:1.4
SliderTickRate:1

[Events]
//Background and Video events
0,0,"BG.jpg",0,0
//Break Periods
//Storyboard Layer 0 (Background)
//Storyboard Layer 1 (Fail)
//Storyboard Layer 2 (Pass)
//Storyboard Layer 3 (Foreground)
//Storyboard Sound Samples

[TimingPoints]
1776,410.958904109589,4,1,0,0,1,0
31369,-100,4,1,0,0,0,0

[HitObjects]
192,192,1776,5,0,0:0:0:0:
64,192,1776,1,0,0:0:0:0:
192,192,1981,1,0,0:0:0:0:
64,192,1981,1,0,0:0:0:0:
320,192,2186,1,0,0:0:0:0:
448,192,2186,1,0,0:0:0:0:
64,192,2392,1,0,0:0:0:0:
448,192,2392,1,0,0:0:0:0:
320,192,2443,1,0,0:0:0:0:
192,192,2495,1,0,0:0:0:0:
64,192,2546,1,0,0:0:0:0:
320,192,2597,1,0,0:0:0:0:
448,192,2597,1,0,0:0:0:0:
64,192,2803,1,0,0:0:0:0:
448,192,2803,1,0,0:0:0:0:
192,192,2854,1,0,0:0:0:0:
320,192,2906,1,0,0:0:0:0:
448,192,2957,1,0,0:0:0:0:
192,192,3008,1,0,0:0:0:0:
64,192,3008,1,0,0:0:0:0:
320,192,3214,1,0,0:0:0:0:
448,192,3214,1,0,0:0:0:0:
64,192,3214,1,0,0:0:0:0:
320,192,3317,1,0,0:0:0:0:
192,192,3419,1,0,0:0:0:0:
64,192,3419,1,0,0:0:0:0:
448,192,3419,1,0,0:0:0:0:
448,192,3625,1,0,0:0:0:0:
64,192,3625,1,0,0:0:0:0:
192,192,3728,1,0,0:0:0:0:
320,192,3830,1,0,0:0:0:0:
448,192,3830,1,0,0:0:0:0:
64,192,3830,1,0,0:0:0:0:
64,192,4036,1,0,0:0:0:0:
448,192,4036,1,0,0:0:0:0:
320,192,4139,1,0,0:0:0:0:
192,192,4241,1,0,0:0:0:0:
64,192,4241,1,0,0:0:0:0:
448,192,4241,1,0,0:0:0:0:
448,192,4447,1,0,0:0:0:0:
320,192,4447,1,0,0:0:0:0:
192,192,4549,1,0,0:0:0:0:
320,192,4652,1,0,0:0:0:0:
448,192,4652,1,0,0:0:0:0:
64,192,4652,1,0,0:0:0:0:
192,192,4858,1,0,0:0:0:0:
64,192,4858,1,0,0:0:0:0:
320,192,4960,1,0,0:0:0:0:
448,192,5063,1,0,0:0:0:0:
192,192,5063,1,0,0:0:0:0:
64,192,5063,1,0,0:0:0:0:
320,192,5269,1,0,0:0:0:0:
64,192,5269,1,0,0:0:0:0:
192,192,5371,1,0,0:0:0:0:
448,192,5474,1,0,0:0:0:0:
320,192,5474,1,0,0:0:0:0:
64,192,5474,1,0,0:0:0:0:
192,192,5680,1,0,0:0:0:0:
448,192,5680,1,0,0:0:0:0:
320,192,5782,1,0,0:0:0:0:
192,192,5885,1,0,0:0:0:0:
448,192,5885,1,0,0:0:0:0:
64,192,5885,1,0,0:0:0:0:
64,192,6091,1,0,0:0:0:0:
320,192,6091,1,0,0:0:0:0:
448,192,6193,1,0,0:0:0:0:
320,192,6296,1,0,0:0:0:0:
192,192,6296,1,0,0:0:0:0:
64,192,6296,1,0,0:0:0:0:
192,192,6502,1,0,0:0:0:0:
448,192,6502,1,0,0:0:0:0:
64,192,6604,1,0,0:0:0:0:
320,192,6707,1,0,0:0:0:0:
192,192,6707,1,0,0:0:0:0:
448,192,6707,1,0,0:0:0:0:
320,192,6912,1,0,0:0:0:0:
64,192,6912,1,0,0:0:0:0:
192,192,7015,1,0,0:0:0:0:
448,192,7118,1,0,0:0:0:0:
320,192,7118,1,0,0:0:0:0:
64,192,7118,1,0,0:0:0:0:
192,192,7323,1,0,0:0:0:0:
448,192,7323,1,0,0:0:0:0:
320,192,7426,1,0,0:0:0:0:
64,192,7529,1,0,0:0:0:0:
192,192,7529,1,0,0:0:0:0:
448,192,7529,1,0,0:0:0:0:
320,192,7734,1,0,0:0:0:0:
448,192,7734,1,0,0:0:0:0:
64,192,7837,1,0,0:0:0:0:
448,192,7940,1,0,0:0:0:0:
320,192,7940,1,0,0:0:0:0:
192,192,7940,1,0,0:0:0:0:
64,192,8145,1,0,0:0:0:0:
192,192,8145,1,0,0:0:0:0:
448,192,8248,1,0,0:0:0:0:
64,192,8351,1,0,0:0:0:0:
192,192,8351,1,0,0:0:0:0:
320,192,8351,1,0,0:0:0:0:
448,192,8556,1,0,0:0:0:0:
192,192,8556,1,0,0:0:0:0:
64,192,8659,1,0,0:0:0:0:
320,192,8762,1,0,0:0:0:0:
448,192,8762,1,0,0:0:0:0:
192,192,8762,1,0,0:0:0:0:
64,192,8967,1,0,0:0:0:0:
320,192,8967,1,0,0:0:0:0:
448,192,9070,1,0,0:0:0:0:
192,192,9173,1,0,0:0:0:0:
64,192,9173,1,0,0:0:0:0:
320,192,9173,1,0,0:0:0:0:
192,192,9378,1,0,0:0:0:0:
448,192,9378,1,0,0:0:0:0:
320,192,9481,1,0,0:0:0:0:
448,192,9584,1,0,0:0:0:0:
64,192,9584,1,0,0:0:0:0:
192,192,9584,1,0,0:0:0:0:
64,192,9789,1,0,0:0:0:0:
320,192,9789,1,0,0:0:0:0:
448,192,9789,1,0,0:0:0:0:
320,192,9995,1,0,0:0:0:0:
64,192,9995,1,0,0:0:0:0:
192,192,9995,1,0,0:0:0:0:
448,192,10200,1,0,0:0:0:0:
64,192,10200,1,0,0:0:0:0:
192,192,10303,1,0,0:0:0:0:
448,192,10406,1,0,0:0:0:0:
320,192,10406,1,0,0:0:0:0:
64,192,10406,1,0,0:0:0:0:
64,192,10611,1,0,0:0:0:0:
448,192,10611,1,0,0:0:0:0:
320,192,10714,1,0,0:0:0:0:
192,192,10817,1,0,0:0:0:0:
64,192,10817,1,0,0:0:0:0:
448,192,10817,1,0,0:0:0:0:
320,192,11022,1,0,0:0:0:0:
448,192,11022,1,0,0:0:0:0:
192,192,11125,1,0,0:0:0:0:
448,192,11228,1,0,0:0:0:0:
320,192,11228,1,0,0:0:0:0:
64,192,11228,1,0,0:0:0:0:
192,192,11433,1,0,0:0:0:0:
64,192,11433,1,0,0:0:0:0:
320,192,11536,1,0,0:0:0:0:
192,192,11639,1,0,0:0:0:0:
64,192,11639,1,0,0:0:0:0:
448,192,11639,1,0,0:0:0:0:
320,192,11844,1,0,0:0:0:0:
64,192,11844,1,0,0:0:0:0:
192,192,11947,1,0,0:0:0:0:
320,192,12049,1,0,0:0:0:0:
448,192,12049,1,0,0:0:0:0:
64,192,12049,1,0,0:0:0:0:
192,192,12255,1,0,0:0:0:0:
448,192,12255,1,0,0:0:0:0:
320,192,12358,1,0,0:0:0:0:
64,192,12460,1,0,0:0:0:0:
192,192,12460,1,0,0:0:0:0:
448,192,12460,1,0,0:0:0:0:
64,192,12666,1,0,0:0:0:0:
320,192,12666,1,0,0:0:0:0:
448,192,12769,1,0,0:0:0:0:
320,192,12871,1,0,0:0:0:0:
192,192,12871,1,0,0:0:0:0:
64,192,12871,1,0,0:0:0:0:
192,192,13077,1,0,0:0:0:0:
448,192,13077,1,0,0:0:0:0:
64,192,13180,1,0,0:0:0:0:
448,192,13282,1,0,0:0:0:0:
192,192,13282,1,0,0:0:0:0:
320,192,13282,1,0,0:0:0:0:
320,192,13488,1,0,0:0:0:0:
64,192,13488,1,0,0:0:0:0:
192,192,13591,1,0,0:0:0:0:
320,192,13693,1,0,0:0:0:0:
448,192,13693,1,0,0:0:0:0:
64,192,13693,1,0,0:0:0:0:
448,192,13899,1,0,0:0:0:0:
192,192,13899,1,0,0:0:0:0:
320,192,14002,1,0,0:0:0:0:
448,192,14104,1,0,0:0:0:0:
64,192,14104,1,0,0:0:0:0:
192,192,14104,1,0,0:0:0:0:
448,192,14310,1,0,0:0:0:0:
320,192,14310,1,0,0:0:0:0:
64,192,14412,1,0,0:0:0:0:
320,192,14515,1,0,0:0:0:0:
448,192,14515,1,0,0:0:0:0:
192,192,14515,1,0,0:0:0:0:
64,192,14721,1,0,0:0:0:0:
192,192,14721,1,0,0:0:0:0:
448,192,14823,1,0,0:0:0:0:
320,192,14926,1,0,0:0:0:0:
64,192,14926,1,0,0:0:0:0:
192,192,14926,1,0,0:0:0:0:
448,192,15132,1,0,0:0:0:0:
64,192,15132,1,0,0:0:0:0:
192,192,15234,1,0,0:0:0:0:
448,192,15337,1,0,0:0:0:0:
320,192,15337,1,0,0:0:0:0:
64,192,15337,1,0,0:0:0:0:
448,192,15543,1,0,0:0:0:0:
64,192,15543,1,0,0:0:0:0:
320,192,15645,1,0,0:0:0:0:
448,192,15748,1,0,0:0:0:0:
192,192,15748,1,0,0:0:0:0:
64,192,15748,1,0,0:0:0:0:
448,192,15954,1,0,0:0:0:0:
192,192,15954,1,0,0:0:0:0:
320,192,16056,1,0,0:0:0:0:
64,192,16056,1,0,0:0:0:0:
448,192,16159,1,0,0:0:0:0:
192,192,16159,1,0,0:0:0:0:
192,192,16262,1,0,0:0:0:0:
64,192,16262,1,0,0:0:0:0:
320,192,16365,1,0,0:0:0:0:
448,192,16365,1,0,0:0:0:0:
192,192,16467,1,0,0:0:0:0:
64,192,16467,1,0,0:0:0:0:
448,192,16570,1,0,0:0:0:0:
64,192,16570,1,0,0:0:0:0:
320,192,16570,1,0,0:0:0:0:
192,192,16673,1,0,0:0:0:0:
320,192,16776,1,0,0:0:0:0:
448,192,16776,1,0,0:0:0:0:
192,192,16878,1,0,0:0:0:0:
64,192,16878,1,0,0:0:0:0:
448,192,16981,1,0,0:0:0:0:
64,192,17084,1,0,0:0:0:0:
320,192,17084,1,0,0:0:0:0:
192,192,17186,1,0,0:0:0:0:
448,192,17186,1,0,0:0:0:0:
448,192,17392,1,0,0:0:0:0:
192,192,17392,1,0,0:0:0:0:
64,192,17392,1,0,0:0:0:0:
320,192,17495,1,0,0:0:0:0:
448,192,17597,1,0,0:0:0:0:
64,192,17597,1,0,0:0:0:0:
192,192,17700,1,0,0:0:0:0:
320,192,17700,1,0,0:0:0:0:
448,192,17803,1,0,0:0:0:0:
192,192,17906,1,0,0:0:0:0:
64,192,17906,1,0,0:0:0:0:
320,192,18008,1,0,0:0:0:0:
448,192,18008,1,0,0:0:0:0:
64,192,18214,1,0,0:0:0:0:
320,192,18214,1,0,0:0:0:0:
448,192,18214,1,0,0:0:0:0:
192,192,18317,1,0,0:0:0:0:
64,192,18419,1,0,0:0:0:0:
448,192,18419,1,0,0:0:0:0:
320,192,18522,1,0,0:0:0:0:
192,192,18522,1,0,0:0:0:0:
448,192,18625,1,0,0:0:0:0:
64,192,18728,1,0,0:0:0:0:
192,192,18728,1,0,0:0:0:0:
320,192,18830,1,0,0:0:0:0:
448,192,18830,1,0,0:0:0:0:
192,192,19036,1,0,0:0:0:0:
320,192,19036,1,0,0:0:0:0:
448,192,19036,1,0,0:0:0:0:
64,192,19139,1,0,0:0:0:0:
192,192,19241,1,0,0:0:0:0:
448,192,19241,1,0,0:0:0:0:
320,192,19344,1,0,0:0:0:0:
64,192,19344,1,0,0:0:0:0:
192,192,19447,1,0,0:0:0:0:
320,192,19549,1,0,0:0:0:0:
64,192,19652,1,0,0:0:0:0:
192,192,19652,1,0,0:0:0:0:
448,192,19755,1,0,0:0:0:0:
320,192,19755,1,0,0:0:0:0:
64,192,19858,1,0,0:0:0:0:
192,192,19858,1,0,0:0:0:0:
320,192,19960,1,0,0:0:0:0:
448,192,20063,1,0,0:0:0:0:
64,192,20063,1,0,0:0:0:0:
320,192,20166,1,0,0:0:0:0:
192,192,20166,1,0,0:0:0:0:
448,192,20269,1,0,0:0:0:0:
64,192,20371,1,0,0:0:0:0:
192,192,20371,1,0,0:0:0:0:
320,192,20474,1,0,0:0:0:0:
448,192,20474,1,0,0:0:0:0:
320,192,20680,1,0,0:0:0:0:
448,192,20680,1,0,0:0:0:0:
64,192,20680,1,0,0:0:0:0:
192,192,20782,1,0,0:0:0:0:
64,192,20885,1,0,0:0:0:0:
448,192,20885,1,0,0:0:0:0:
320,192,20988,1,0,0:0:0:0:
192,192,20988,1,0,0:0:0:0:
448,192,21091,1,0,0:0:0:0:
64,192,21193,1,0,0:0:0:0:
320,192,21193,1,0,0:0:0:0:
448,192,21296,1,0,0:0:0:0:
192,192,21296,1,0,0:0:0:0:
192,192,21502,1,0,0:0:0:0:
64,192,21502,1,0,0:0:0:0:
448,192,21502,1,0,0:0:0:0:
320,192,21604,1,0,0:0:0:0:
448,192,21707,1,0,0:0:0:0:
64,192,21707,1,0,0:0:0:0:
192,192,21810,1,0,0:0:0:0:
320,192,21810,1,0,0:0:0:0:
448,192,21912,1,0,0:0:0:0:
192,192,22015,1,0,0:0:0:0:
64,192,22015,1,0,0:0:0:0:
448,192,22118,1,0,0:0:0:0:
320,192,22118,1,0,0:0:0:0:
64,192,22323,1,0,0:0:0:0:
448,192,22323,1,0,0:0:0:0:
192,192,22323,1,0,0:0:0:0:
320,192,22426,1,0,0:0:0:0:
192,192,22529,1,0,0:0:0:0:
64,192,22529,1,0,0:0:0:0:
320,192,22632,1,0,0:0:0:0:
64,192,22734,5,0,0:0:0:0:
192,192,22734,1,0,0:0:0:0:
448,192,22734,1,0,0:0:0:0:
320,192,22837,5,0,0:0:0:0:
192,192,22940,5,0,0:0:0:0:
64,192,22940,1,0,0:0:0:0:
448,192,22940,1,0,0:0:0:0:
320,192,23043,1,0,0:0:0:0:
64,192,23145,5,0,0:0:0:0:
192,192,23145,1,0,0:0:0:0:
448,192,23145,1,0,0:0:0:0:
320,192,23351,1,0,0:0:0:0:
192,192,23454,1,0,0:0:0:0:
64,192,23659,1,0,0:0:0:0:
192,192,23762,1,0,0:0:0:0:
320,192,23967,1,0,0:0:0:0:
448,192,24070,1,0,0:0:0:0:
320,192,24173,1,0,0:0:0:0:
192,192,24276,1,0,0:0:0:0:
64,192,24481,1,0,0:0:0:0:
192,192,24584,1,0,0:0:0:0:
64,192,24789,1,0,0:0:0:0:
192,192,24892,1,0,0:0:0:0:
320,192,24995,1,0,0:0:0:0:
192,192,25097,1,0,0:0:0:0:
64,192,25303,1,0,0:0:0:0:
320,192,25406,1,0,0:0:0:0:
192,192,25611,1,0,0:0:0:0:
320,192,25714,1,0,0:0:0:0:
448,192,25817,1,0,0:0:0:0:
320,192,25919,1,0,0:0:0:0:
192,192,26022,1,0,0:0:0:0:
64,192,26125,1,0,0:0:0:0:
192,192,26228,1,0,0:0:0:0:
320,192,26330,1,0,0:0:0:0:
192,192,26433,1,0,0:0:0:0:
64,192,26433,1,0,0:0:0:0:
448,192,26433,1,0,0:0:0:0:
192,192,26639,1,0,0:0:0:0:
64,192,26639,1,0,0:0:0:0:
320,192,26639,1,0,0:0:0:0:
192,192,26844,1,0,0:0:0:0:
320,192,26844,1,0,0:0:0:0:
448,192,26844,1,0,0:0:0:0:
64,192,27049,1,0,0:0:0:0:
448,192,27049,1,0,0:0:0:0:
320,192,27049,1,0,0:0:0:0:
320,192,27152,1,0,0:0:0:0:
448,192,27255,1,0,0:0:0:0:
192,192,27255,1,0,0:0:0:0:
64,192,27255,1,0,0:0:0:0:
64,192,27460,1,0,0:0:0:0:
192,192,27460,1,0,0:0:0:0:
320,192,27460,1,0,0:0:0:0:
192,192,27666,1,0,0:0:0:0:
320,192,27666,1,0,0:0:0:0:
448,192,27666,1,0,0:0:0:0:
192,192,27871,1,0,0:0:0:0:
64,192,27871,1,0,0:0:0:0:
448,192,27871,1,0,0:0:0:0:
192,192,27974,1,0,0:0:0:0:
448,192,28077,1,0,0:0:0:0:
64,192,28077,1,0,0:0:0:0:
320,192,28077,1,0,0:0:0:0:
192,192,28180,1,0,0:0:0:0:
320,192,28180,1,0,0:0:0:0:
192,192,28385,1,0,0:0:0:0:
64,192,28385,1,0,0:0:0:0:
448,192,28488,1,0,0:0:0:0:
320,192,28488,1,0,0:0:0:0:
192,192,28591,1,0,0:0:0:0:
64,192,28591,1,0,0:0:0:0:
64,192,28796,1,0,0:0:0:0:
192,192,28796,1,0,0:0:0:0:
320,192,28899,1,0,0:0:0:0:
448,192,28899,1,0,0:0:0:0:
192,192,29002,1,0,0:0:0:0:
64,192,29002,1,0,0:0:0:0:
448,192,29104,1,0,0:0:0:0:
320,192,29156,1,0,0:0:0:0:
192,192,29207,1,0,0:0:0:0:
64,192,29258,1,0,0:0:0:0:
320,192,29310,1,0,0:0:0:0:
448,192,29310,1,0,0:0:0:0:
192,192,29412,1,0,0:0:0:0:
64,192,29412,1,0,0:0:0:0:
320,192,29515,1,0,0:0:0:0:
448,192,29515,1,0,0:0:0:0:
192,192,29567,1,0,0:0:0:0:
64,192,29618,1,0,0:0:0:0:
448,192,29669,1,0,0:0:0:0:
192,192,29721,1,0,0:0:0:0:
320,192,29721,1,0,0:0:0:0:
64,192,31365,1,0,0:0:0:0:
192,192,31467,1,0,0:0:0:0:
320,192,31570,1,0,0:0:0:0:
448,192,31673,1,0,0:0:0:0:
192,192,31776,1,0,0:0:0:0:
320,192,31878,1,0,0:0:0:0:
448,192,31981,1,0,0:0:0:0:
320,192,32084,1,0,0:0:0:0:
64,192,32186,1,0,0:0:0:0:
192,192,32289,1,0,0:0:0:0:
320,192,32392,1,0,0:0:0:0:
448,192,32495,1,0,0:0:0:0:
320,192,32597,1,0,0:0:0:0:
192,192,32700,1,0,0:0:0:0:
320,192,32803,1,0,0:0:0:0:
448,192,32906,1,0,0:0:0:0:
64,192,33008,1,0,0:0:0:0:
192,192,33111,1,0,0:0:0:0:
320,192,33214,1,0,0:0:0:0:
448,192,33317,1,0,0:0:0:0:
192,192,33419,1,0,0:0:0:0:
448,192,33522,1,0,0:0:0:0:
320,192,33625,1,0,0:0:0:0:
192,192,33728,1,0,0:0:0:0:
64,192,33830,1,0,0:0:0:0:
192,192,33933,1,0,0:0:0:0:
320,192,34036,1,0,0:0:0:0:
448,192,34139,1,0,0:0:0:0:
64,192,34241,1,0,0:0:0:0:
192,192,34344,1,0,0:0:0:0:
448,192,34447,1,0,0:0:0:0:
320,192,34549,1,0,0:0:0:0:
64,192,34652,1,0,0:0:0:0:
192,192,34755,1,0,0:0:0:0:
320,192,34858,1,0,0:0:0:0:
448,192,34960,1,0,0:0:0:0:
320,192,35063,1,0,0:0:0:0:
192,192,35166,1,0,0:0:0:0:
320,192,35269,1,0,0:0:0:0:
448,192,35371,1,0,0:0:0:0:
64,192,35474,1,0,0:0:0:0:
192,192,35577,1,0,0:0:0:0:
320,192,35680,1,0,0:0:0:0:
448,192,35782,1,0,0:0:0:0:
320,192,35885,1,0,0:0:0:0:
192,192,35988,1,0,0:0:0:0:
64,192,36091,1,0,0:0:0:0:
320,192,36193,1,0,0:0:0:0:
64,192,36296,1,0,0:0:0:0:
192,192,36399,1,0,0:0:0:0:
320,192,36502,1,0,0:0:0:0:
448,192,36604,1,0,0:0:0:0:
320,192,36707,1,0,0:0:0:0:
192,192,36810,1,0,0:0:0:0:
64,192,36912,1,0,0:0:0:0:
448,192,37015,1,0,0:0:0:0:
64,192,37118,1,0,0:0:0:0:
192,192,37221,1,0,0:0:0:0:
320,192,37323,1,0,0:0:0:0:
448,192,37426,1,0,0:0:0:0:
64,192,37529,1,0,0:0:0:0:
192,192,37632,1,0,0:0:0:0:
320,192,37734,1,0,0:0:0:0:
448,192,37837,1,0,0:0:0:0:
64,192,37940,1,0,0:0:0:0:
192,192,38043,1,0,0:0:0:0:
320,192,38145,1,0,0:0:0:0:
448,192,38248,1,0,0:0:0:0:
192,192,38351,1,0,0:0:0:0:
320,192,38454,1,0,0:0:0:0:
448,192,38556,1,0,0:0:0:0:
320,192,38659,1,0,0:0:0:0:
64,192,38762,1,0,0:0:0:0:
192,192,38865,1,0,0:0:0:0:
320,192,38967,1,0,0:0:0:0:
448,192,39070,1,0,0:0:0:0:
320,192,39173,1,0,0:0:0:0:
192,192,39275,1,0,0:0:0:0:
320,192,39378,1,0,0:0:0:0:
448,192,39481,1,0,0:0:0:0:
64,192,39584,1,0,0:0:0:0:
192,192,39686,1,0,0:0:0:0:
320,192,39789,1,0,0:0:0:0:
448,192,39892,1,0,0:0:0:0:
192,192,39995,1,0,0:0:0:0:
448,192,40097,1,0,0:0:0:0:
320,192,40200,1,0,0:0:0:0:
192,192,40303,1,0,0:0:0:0:
64,192,40406,1,0,0:0:0:0:
192,192,40508,1,0,0:0:0:0:
320,192,40611,1,0,0:0:0:0:
448,192,40714,1,0,0:0:0:0:
64,192,40817,1,0,0:0:0:0:
192,192,40919,1,0,0:0:0:0:
448,192,41022,1,0,0:0:0:0:
320,192,41125,1,0,0:0:0:0:
64,192,41228,1,0,0:0:0:0:
192,192,41330,1,0,0:0:0:0:
320,192,41433,1,0,0:0:0:0:
448,192,41536,1,0,0:0:0:0:
320,192,41639,1,0,0:0:0:0:
192,192,41741,1,0,0:0:0:0:
320,192,41844,1,0,0:0:0:0:
448,192,41947,1,0,0:0:0:0:
64,192,42049,1,0,0:0:0:0:
192,192,42152,1,0,0:0:0:0:
320,192,42255,1,0,0:0:0:0:
448,192,42358,1,0,0:0:0:0:
320,192,42460,1,0,0:0:0:0:
192,192,42563,1,0,0:0:0:0:
64,192,42666,1,0,0:0:0:0:
320,192,42769,1,0,0:0:0:0:
64,192,42871,1,0,0:0:0:0:
192,192,42974,1,0,0:0:0:0:
320,192,43077,1,0,0:0:0:0:
448,192,43180,1,0,0:0:0:0:
320,192,43282,1,0,0:0:0:0:
192,192,43385,1,0,0:0:0:0:
64,192,43488,1,0,0:0:0:0:
448,192,43591,1,0,0:0:0:0:
64,192,43693,1,0,0:0:0:0:
192,192,43796,1,0,0:0:0:0:
320,192,43899,1,0,0:0:0:0:
448,192,44002,1,0,0:0:0:0:
64,192,44104,1,0,0:0:0:0:
192,192,44207,1,0,0:0:0:0:
320,192,44310,1,0,0:0:0:0:
448,192,44412,1,0,0:0:0:0:
192,192,44515,1,0,0:0:0:0:
64,192,44515,1,0,0:0:0:0:
320,192,44926,1,0,0:0:0:0:
64,192,45337,1,0,0:0:0:0:
448,192,45543,1,0,0:0:0:0:
320,192,45954,1,0,0:0:0:0:
448,192,46365,1,0,0:0:0:0:
192,192,46570,1,0,0:0:0:0:
320,192,46775,1,0,0:0:0:0:
448,192,46981,1,0,0:0:0:0:
320,192,47186,1,0,0:0:0:0:
192,192,47392,1,0,0:0:0:0:
64,192,47597,1,0,0:0:0:0:
448,192,47803,1,0,0:0:0:0:
320,192,48008,1,0,0:0:0:0:
64,192,48214,1,0,0:0:0:0:
448,192,48419,1,0,0:0:0:0:
320,192,48830,1,0,0:0:0:0:
192,192,49241,1,0,0:0:0:0:
64,192,49447,1,0,0:0:0:0:
448,192,49652,1,0,0:0:0:0:
320,192,49858,1,0,0:0:0:0:
192,192,50063,1,0,0:0:0:0:
64,192,50269,1,0,0:0:0:0:
192,192,50474,1,0,0:0:0:0:
320,192,50680,1,0,0:0:0:0:
192,192,50885,1,0,0:0:0:0:
64,192,50885,1,0,0:0:0:0:
448,192,50885,1,0,0:0:0:0:
192,192,51091,1,0,0:0:0:0:
64,192,51091,1,0,0:0:0:0:
448,192,51091,1,0,0:0:0:0:
320,192,51193,1,0,0:0:0:0:
192,192,51296,1,0,0:0:0:0:
320,192,51399,1,0,0:0:0:0:
192,192,51502,1,0,0:0:0:0:
320,192,51604,1,0,0:0:0:0:
192,192,51707,1,0,0:0:0:0:
320,192,51810,1,0,0:0:0:0:
192,192,51912,1,0,0:0:0:0:
320,192,52015,1,0,0:0:0:0:
192,192,52118,1,0,0:0:0:0:
320,192,52221,1,0,0:0:0:0:
192,192,52323,1,0,0:0:0:0:
320,192,52426,1,0,0:0:0:0:
192,192,52529,1,0,0:0:0:0:
64,192,52529,1,0,0:0:0:0:
320,192,52632,1,0,0:0:0:0:
192,192,52734,1,0,0:0:0:0:
64,192,52734,1,0,0:0:0:0:
320,192,52837,1,0,0:0:0:0:
192,192,52940,1,0,0:0:0:0:
320,192,53043,1,0,0:0:0:0:
192,192,53145,1,0,0:0:0:0:
320,192,53248,1,0,0:0:0:0:
192,192,53351,1,0,0:0:0:0:
320,192,53454,1,0,0:0:0:0:
192,192,53556,1,0,0:0:0:0:
320,192,53659,1,0,0:0:0:0:
192,192,53762,1,0,0:0:0:0:
320,192,53865,1,0,0:0:0:0:
192,192,53967,1,0,0:0:0:0:
320,192,54070,1,0,0:0:0:0:
192,192,54173,1,0,0:0:0:0:
64,192,54173,1,0,0:0:0:0:
320,192,54275,1,0,0:0:0:0:
192,192,54378,1,0,0:0:0:0:
64,192,54378,1,0,0:0:0:0:
320,192,54481,1,0,0:0:0:0:
192,192,54584,1,0,0:0:0:0:
320,192,54686,1,0,0:0:0:0:
192,192,54789,1,0,0:0:0:0:
320,192,54892,1,0,0:0:0:0:
192,192,54995,1,0,0:0:0:0:
448,192,54995,1,0,0:0:0:0:
320,192,55097,1,0,0:0:0:0:
192,192,55200,1,0,0:0:0:0:
448,192,55200,1,0,0:0:0:0:
320,192,55303,1,0,0:0:0:0:
192,192,55406,1,0,0:0:0:0:
320,192,55508,1,0,0:0:0:0:
192,192,55611,1,0,0:0:0:0:
320,192,55714,1,0,0:0:0:0:
192,192,55817,1,0,0:0:0:0:
64,192,55817,1,0,0:0:0:0:
320,192,55919,1,0,0:0:0:0:
192,192,56022,1,0,0:0:0:0:
64,192,56073,1,0,0:0:0:0:
448,192,56125,1,0,0:0:0:0:
320,192,56176,1,0,0:0:0:0:
192,192,56228,1,0,0:0:0:0:
64,192,56279,1,0,0:0:0:0:
448,192,56330,1,0,0:0:0:0:
320,192,56382,1,0,0:0:0:0:
192,192,56433,1,0,0:0:0:0:
64,192,56433,128,0,56741:0:0:0:0:
320,192,56536,128,0,56844:0:0:0:0:
192,192,56639,128,0,56947:0:0:0:0:
448,192,56741,128,0,57049:0:0:0:0:
64,192,56844,128,0,57152:0:0:0:0:
320,192,56947,128,0,57255:0:0:0:0:
192,192,57049,128,0,57358:0:0:0:0:
448,192,57152,128,0,57358:0:0:0:0:
64,192,57255,128,0,57358:0:0:0:0:
320,192,57358,128,0,57460:0:0:0:0:
192,192,57460,1,0,0:0:0:0:
64,192,57460,1,0,0:0:0:0:
320,192,57563,1,0,0:0:0:0:
448,192,57563,1,0,0:0:0:0:
64,192,57666,1,0,0:0:0:0:
192,192,57666,1,0,0:0:0:0:
448,192,57769,1,0,0:0:0:0:
320,192,57871,1,0,0:0:0:0:
448,192,57974,1,0,0:0:0:0:
64,192,57974,1,0,0:0:0:0:
320,192,58077,1,0,0:0:0:0:
192,192,58077,1,0,0:0:0:0:
448,192,58180,1,0,0:0:0:0:
64,192,58282,1,0,0:0:0:0:
192,192,58282,1,0,0:0:0:0:
320,192,58385,1,0,0:0:0:0:
64,192,58488,1,0,0:0:0:0:
448,192,58488,1,0,0:0:0:0:
192,192,58693,1,0,0:0:0:0:
64,192,58693,1,0,0:0:0:0:
320,192,58796,1,0,0:0:0:0:
448,192,58796,1,0,0:0:0:0:
192,192,58899,1,0,0:0:0:0:
64,192,59002,1,0,0:0:0:0:
448,192,59002,1,0,0:0:0:0:
320,192,59104,1,0,0:0:0:0:
192,192,59104,1,0,0:0:0:0:
448,192,59207,1,0,0:0:0:0:
64,192,59310,1,0,0:0:0:0:
320,192,59310,1,0,0:0:0:0:
192,192,59515,1,0,0:0:0:0:
320,192,59618,1,0,0:0:0:0:
448,192,59618,1,0,0:0:0:0:
192,192,59721,1,0,0:0:0:0:
64,192,59721,1,0,0:0:0:0:
448,192,59823,1,0,0:0:0:0:
192,192,59926,1,0,0:0:0:0:
320,192,59926,1,0,0:0:0:0:
448,192,60029,1,0,0:0:0:0:
64,192,60132,1,0,0:0:0:0:
320,192,60132,1,0,0:0:0:0:
192,192,60337,1,0,0:0:0:0:
64,192,60337,1,0,0:0:0:0:
320,192,60440,1,0,0:0:0:0:
448,192,60440,1,0,0:0:0:0:
192,192,60543,1,0,0:0:0:0:
64,192,60645,1,0,0:0:0:0:
320,192,60645,1,0,0:0:0:0:
448,192,60748,1,0,0:0:0:0:
192,192,60851,1,0,0:0:0:0:
320,192,60851,1,0,0:0:0:0:
448,192,60954,1,0,0:0:0:0:
64,192,60954,1,0,0:0:0:0:
192,192,61159,1,0,0:0:0:0:
320,192,61262,1,0,0:0:0:0:
448,192,61262,1,0,0:0:0:0:
64,192,61365,1,0,0:0:0:0:
192,192,61365,1,0,0:0:0:0:
320,192,61467,1,0,0:0:0:0:
64,192,61570,1,0,0:0:0:0:
192,192,61673,1,0,0:0:0:0:
448,192,61673,1,0,0:0:0:0:
320,192,61775,1,0,0:0:0:0:
64,192,61775,1,0,0:0:0:0:
64,192,61981,1,0,0:0:0:0:
192,192,61981,1,0,0:0:0:0:
320,192,62084,1,0,0:0:0:0:
448,192,62084,1,0,0:0:0:0:
192,192,62186,1,0,0:0:0:0:
320,192,62289,1,0,0:0:0:0:
448,192,62289,1,0,0:0:0:0:
192,192,62392,1,0,0:0:0:0:
64,192,62392,1,0,0:0:0:0:
320,192,62495,1,0,0:0:0:0:
448,192,62597,1,0,0:0:0:0:
192,192,62597,1,0,0:0:0:0:
320,192,62803,1,0,0:0:0:0:
448,192,62906,1,0,0:0:0:0:
64,192,62906,1,0,0:0:0:0:
192,192,63008,1,0,0:0:0:0:
320,192,63008,1,0,0:0:0:0:
448,192,63111,1,0,0:0:0:0:
64,192,63214,1,0,0:0:0:0:
320,192,63214,1,0,0:0:0:0:
192,192,63317,1,0,0:0:0:0:
64,192,63419,1,0,0:0:0:0:
448,192,63419,1,0,0:0:0:0:
320,192,63625,1,0,0:0:0:0:
448,192,63728,1,0,0:0:0:0:
64,192,63728,1,0,0:0:0:0:
192,192,63830,1,0,0:0:0:0:
320,192,63830,1,0,0:0:0:0:
64,192,63933,1,0,0:0:0:0:
192,192,64036,1,0,0:0:0:0:
320,192,64036,1,0,0:0:0:0:
448,192,64036,1,0,0:0:0:0:
64,192,64139,1,0,0:0:0:0:
192,192,64241,1,0,0:0:0:0:
320,192,64241,1,0,0:0:0:0:
448,192,64241,1,0,0:0:0:0:
192,192,64447,1,0,0:0:0:0:
64,192,64549,1,0,0:0:0:0:
448,192,64549,1,0,0:0:0:0:
192,192,64652,1,0,0:0:0:0:
320,192,64652,1,0,0:0:0:0:
64,192,64755,1,0,0:0:0:0:
448,192,64858,1,0,0:0:0:0:
320,192,64858,1,0,0:0:0:0:
192,192,64960,1,0,0:0:0:0:
448,192,65063,1,0,0:0:0:0:
64,192,65063,1,0,0:0:0:0:
320,192,65269,1,0,0:0:0:0:
448,192,65269,1,0,0:0:0:0:
192,192,65371,1,0,0:0:0:0:
64,192,65371,1,0,0:0:0:0:
320,192,65474,1,0,0:0:0:0:
448,192,65577,1,0,0:0:0:0:
64,192,65577,1,0,0:0:0:0:
192,192,65680,1,0,0:0:0:0:
320,192,65680,1,0,0:0:0:0:
64,192,65782,1,0,0:0:0:0:
448,192,65885,1,0,0:0:0:0:
192,192,65885,1,0,0:0:0:0:
320,192,66091,1,0,0:0:0:0:
192,192,66193,1,0,0:0:0:0:
64,192,66193,1,0,0:0:0:0:
320,192,66296,1,0,0:0:0:0:
448,192,66296,1,0,0:0:0:0:
64,192,66399,1,0,0:0:0:0:
320,192,66502,1,0,0:0:0:0:
192,192,66502,1,0,0:0:0:0:
64,192,66604,1,0,0:0:0:0:
448,192,66707,1,0,0:0:0:0:
192,192,66707,1,0,0:0:0:0:
320,192,66912,1,0,0:0:0:0:
448,192,66912,1,0,0:0:0:0:
192,192,67015,1,0,0:0:0:0:
64,192,67015,1,0,0:0:0:0:
320,192,67118,1,0,0:0:0:0:
448,192,67221,1,0,0:0:0:0:
192,192,67221,1,0,0:0:0:0:
64,192,67323,1,0,0:0:0:0:
320,192,67426,1,0,0:0:0:0:
192,192,67426,1,0,0:0:0:0:
64,192,67529,1,0,0:0:0:0:
448,192,67529,1,0,0:0:0:0:
320,192,67734,1,0,0:0:0:0:
192,192,67837,1,0,0:0:0:0:
64,192,67837,1,0,0:0:0:0:
448,192,67940,1,0,0:0:0:0:
320,192,67940,1,0,0:0:0:0:
192,192,68043,1,0,0:0:0:0:
448,192,68145,1,0,0:0:0:0:
320,192,68248,1,0,0:0:0:0:
64,192,68248,1,0,0:0:0:0:
192,192,68351,1,0,0:0:0:0:
448,192,68351,1,0,0:0:0:0:
448,192,68556,1,0,0:0:0:0:
320,192,68556,1,0,0:0:0:0:
192,192,68659,1,0,0:0:0:0:
64,192,68659,1,0,0:0:0:0:
320,192,68762,1,0,0:0:0:0:
192,192,68865,1,0,0:0:0:0:
64,192,68865,1,0,0:0:0:0:
320,192,68967,1,0,0:0:0:0:
448,192,68967,1,0,0:0:0:0:
192,192,69070,1,0,0:0:0:0:
64,192,69173,1,0,0:0:0:0:
320,192,69173,1,0,0:0:0:0:
192,192,69378,1,0,0:0:0:0:
64,192,69481,1,0,0:0:0:0:
448,192,69481,1,0,0:0:0:0:
320,192,69584,1,0,0:0:0:0:
192,192,69584,1,0,0:0:0:0:
64,192,69686,1,0,0:0:0:0:
448,192,69789,1,0,0:0:0:0:
192,192,69789,1,0,0:0:0:0:
320,192,69892,1,0,0:0:0:0:
448,192,69995,1,0,0:0:0:0:
64,192,69995,1,0,0:0:0:0:
192,192,70200,1,0,0:0:0:0:
64,192,70303,1,0,0:0:0:0:
448,192,70303,1,0,0:0:0:0:
320,192,70303,1,0,0:0:0:0:
192,192,70406,1,0,0:0:0:0:
448,192,70508,1,0,0:0:0:0:
64,192,70508,1,0,0:0:0:0:
448,192,70611,1,0,0:0:0:0:
192,192,70611,1,0,0:0:0:0:
320,192,70714,1,0,0:0:0:0:
64,192,70714,1,0,0:0:0:0:
448,192,70817,1,0,0:0:0:0:
64,192,70817,1,0,0:0:0:0:
192,192,70817,128,0,71022:0:0:0:0:
320,192,71022,1,0,0:0:0:0:
64,192,71125,1,0,0:0:0:0:
448,192,71125,128,0,71228:0:0:0:0:
320,192,71228,1,0,0:0:0:0:
192,192,71228,1,0,0:0:0:0:
448,192,71330,1,0,0:0:0:0:
64,192,71433,1,0,0:0:0:0:
192,192,71433,128,0,71536:0:0:0:0:
320,192,71536,1,0,0:0:0:0:
448,192,71639,128,0,71741:0:0:0:0:
64,192,71639,1,0,0:0:0:0:
64,192,71844,1,0,0:0:0:0:
192,192,71844,1,0,0:0:0:0:
448,192,71947,1,0,0:0:0:0:
320,192,71947,128,0,72049:0:0:0:0:
192,192,72049,1,0,0:0:0:0:
64,192,72152,1,0,0:0:0:0:
448,192,72152,128,0,72255:0:0:0:0:
320,192,72255,1,0,0:0:0:0:
192,192,72255,128,0,72358:0:0:0:0:
448,192,72358,1,0,0:0:0:0:
64,192,72460,1,0,0:0:0:0:
320,192,72460,128,0,72563:0:0:0:0:
192,192,72666,1,0,0:0:0:0:
448,192,72769,1,0,0:0:0:0:
320,192,72769,128,0,72871:0:0:0:0:
192,192,72871,1,0,0:0:0:0:
64,192,72871,1,0,0:0:0:0:
448,192,72974,1,0,0:0:0:0:
320,192,73077,1,0,0:0:0:0:
192,192,73077,128,0,73180:0:0:0:0:
448,192,73180,1,0,0:0:0:0:
64,192,73282,1,0,0:0:0:0:
320,192,73282,1,0,0:0:0:0:
64,192,73488,1,0,0:0:0:0:
192,192,73488,128,0,73591:0:0:0:0:
320,192,73591,1,0,0:0:0:0:
448,192,73591,1,0,0:0:0:0:
192,192,73693,1,0,0:0:0:0:
64,192,73693,1,0,0:0:0:0:
320,192,73796,128,0,73899:0:0:0:0:
448,192,73899,1,0,0:0:0:0:
192,192,73899,1,0,0:0:0:0:
64,192,73899,1,0,0:0:0:0:
320,192,74002,128,0,74104:0:0:0:0:
192,192,74104,1,0,0:0:0:0:
448,192,74104,1,0,0:0:0:0:
64,192,74104,1,0,0:0:0:0:
192,192,74310,1,0,0:0:0:0:
448,192,74412,1,0,0:0:0:0:
320,192,74412,128,0,74515:0:0:0:0:
64,192,74515,1,0,0:0:0:0:
192,192,74515,1,0,0:0:0:0:
320,192,74618,1,0,0:0:0:0:
64,192,74721,128,0,74823:0:0:0:0:
192,192,74823,1,0,0:0:0:0:
448,192,74823,1,0,0:0:0:0:
64,192,74926,1,0,0:0:0:0:
320,192,74926,128,0,75029:0:0:0:0:
64,192,75132,1,0,0:0:0:0:
192,192,75132,128,0,75234:0:0:0:0:
320,192,75234,1,0,0:0:0:0:
448,192,75234,128,0,75337:0:0:0:0:
192,192,75337,1,0,0:0:0:0:
320,192,75440,1,0,0:0:0:0:
448,192,75440,128,0,75543:0:0:0:0:
192,192,75543,1,0,0:0:0:0:
64,192,75543,128,0,75645:0:0:0:0:
320,192,75645,1,0,0:0:0:0:
448,192,75748,1,0,0:0:0:0:
192,192,75748,128,0,75851:0:0:0:0:
320,192,75954,1,0,0:0:0:0:
64,192,76056,1,0,0:0:0:0:
448,192,76056,128,0,76159:0:0:0:0:
192,192,76159,1,0,0:0:0:0:
320,192,76159,1,0,0:0:0:0:
448,192,76262,1,0,0:0:0:0:
64,192,76365,1,0,0:0:0:0:
320,192,76365,128,0,76467:0:0:0:0:
192,192,76467,1,0,0:0:0:0:
64,192,76570,1,0,0:0:0:0:
448,192,76570,128,0,76673:0:0:0:0:
320,192,76776,1,0,0:0:0:0:
448,192,76878,1,0,0:0:0:0:
64,192,76878,1,0,0:0:0:0:
192,192,76878,1,0,0:0:0:0:
192,192,76981,1,0,0:0:0:0:
320,192,76981,1,0,0:0:0:0:
64,192,77084,1,0,0:0:0:0:
192,192,77186,1,0,0:0:0:0:
320,192,77186,1,0,0:0:0:0:
448,192,77186,1,0,0:0:0:0:
64,192,77289,1,0,0:0:0:0:
320,192,77392,1,0,0:0:0:0:
448,192,77392,1,0,0:0:0:0:
192,192,77392,1,0,0:0:0:0:
192,192,77597,1,0,0:0:0:0:
64,192,77700,1,0,0:0:0:0:
448,192,77700,128,0,77803:0:0:0:0:
192,192,77803,1,0,0:0:0:0:
320,192,77803,1,0,0:0:0:0:
64,192,77906,1,0,0:0:0:0:
448,192,78008,1,0,0:0:0:0:
320,192,78008,128,0,78111:0:0:0:0:
192,192,78111,1,0,0:0:0:0:
64,192,78214,1,0,0:0:0:0:
448,192,78214,128,0,78317:0:0:0:0:
320,192,78419,1,0,0:0:0:0:
448,192,78419,1,0,0:0:0:0:
64,192,78522,1,0,0:0:0:0:
192,192,78522,128,0,78625:0:0:0:0:
320,192,78625,1,0,0:0:0:0:
448,192,78625,1,0,0:0:0:0:
192,192,78728,128,0,78830:0:0:0:0:
64,192,78830,1,0,0:0:0:0:
448,192,78830,1,0,0:0:0:0:
320,192,78830,128,0,78933:0:0:0:0:
192,192,78933,1,0,0:0:0:0:
448,192,79036,1,0,0:0:0:0:
64,192,79036,1,0,0:0:0:0:
320,192,79036,1,0,0:0:0:0:
320,192,79241,1,0,0:0:0:0:
64,192,79344,1,0,0:0:0:0:
192,192,79344,128,0,79447:0:0:0:0:
320,192,79447,1,0,0:0:0:0:
448,192,79447,1,0,0:0:0:0:
64,192,79549,128,0,79652:0:0:0:0:
192,192,79652,1,0,0:0:0:0:
320,192,79652,128,0,79755:0:0:0:0:
64,192,79755,1,0,0:0:0:0:
448,192,79858,1,0,0:0:0:0:
192,192,79858,1,0,0:0:0:0:
448,192,80063,1,0,0:0:0:0:
320,192,80063,1,0,0:0:0:0:
64,192,80166,1,0,0:0:0:0:
192,192,80166,128,0,80269:0:0:0:0:
320,192,80269,1,0,0:0:0:0:
448,192,80269,1,0,0:0:0:0:
192,192,80371,128,0,80474:0:0:0:0:
64,192,80474,1,0,0:0:0:0:
448,192,80474,1,0,0:0:0:0:
320,192,80474,128,0,80577:0:0:0:0:
192,192,80577,128,0,80680:0:0:0:0:
64,192,80680,1,0,0:0:0:0:
448,192,80680,1,0,0:0:0:0:
320,192,80680,1,0,0:0:0:0:
192,192,80885,1,0,0:0:0:0:
448,192,80988,1,0,0:0:0:0:
320,192,80988,128,0,81091:0:0:0:0:
64,192,81091,1,0,0:0:0:0:
192,192,81091,1,0,0:0:0:0:
320,192,81193,128,0,81296:0:0:0:0:
64,192,81296,1,0,0:0:0:0:
448,192,81296,1,0,0:0:0:0:
192,192,81296,128,0,81399:0:0:0:0:
320,192,81399,1,0,0:0:0:0:
192,192,81502,1,0,0:0:0:0:
448,192,81502,1,0,0:0:0:0:
64,192,81502,1,0,0:0:0:0:
448,192,81707,1,0,0:0:0:0:
320,192,81707,128,0,81810:0:0:0:0:
64,192,81810,1,0,0:0:0:0:
192,192,81810,128,0,81912:0:0:0:0:
320,192,81912,1,0,0:0:0:0:
448,192,81912,1,0,0:0:0:0:
192,192,82015,128,0,82118:0:0:0:0:
64,192,82118,1,0,0:0:0:0:
448,192,82118,1,0,0:0:0:0:
320,192,82118,128,0,82221:0:0:0:0:
192,192,82221,128,0,82323:0:0:0:0:
320,192,82323,1,0,0:0:0:0:
448,192,82375,1,0,0:0:0:0:
64,192,82426,1,0,0:0:0:0:
192,192,82478,1,0,0:0:0:0:
320,192,82529,1,0,0:0:0:0:
448,192,82580,1,0,0:0:0:0:
64,192,82632,1,0,0:0:0:0:
192,192,82683,1,0,0:0:0:0:
320,192,82734,1,0,0:0:0:0:
448,192,82734,128,0,83043:0:0:0:0:
192,192,82837,128,0,83145:0:0:0:0:
320,192,82940,128,0,83248:0:0:0:0:
64,192,83043,128,0,83351:0:0:0:0:
448,192,83145,128,0,83454:0:0:0:0:
192,192,83248,128,0,83556:0:0:0:0:
320,192,83351,128,0,83659:0:0:0:0:
64,192,83454,128,0,83967:0:0:0:0:
448,192,83556,128,0,83865:0:0:0:0:
192,192,83659,128,0,83762:0:0:0:0:
320,192,83762,128,0,83865:0:0:0:0:
192,192,83865,128,0,83967:0:0:0:0:
320,192,83967,128,0,84173:0:0:0:0:
448,192,83967,1,0,0:0:0:0:
192,192,84173,1,0,0:0:0:0:
320,192,84378,1,0,0:0:0:0:
64,192,84378,128,0,84584:0:0:0:0:
192,192,84584,1,0,0:0:0:0:
448,192,84789,1,0,0:0:0:0:
64,192,84789,128,0,84995:0:0:0:0:
448,192,84995,1,0,0:0:0:0:
192,192,84995,128,0,85200:0:0:0:0:
320,192,85200,1,0,0:0:0:0:
64,192,85200,1,0,0:0:0:0:
64,192,85406,1,0,0:0:0:0:
192,192,85406,128,0,85611:0:0:0:0:
320,192,85611,1,0,0:0:0:0:
448,192,85611,1,0,0:0:0:0:
64,192,85817,1,0,0:0:0:0:
448,192,85817,128,0,86022:0:0:0:0:
320,192,86022,1,0,0:0:0:0:
64,192,86022,128,0,86228:0:0:0:0:
192,192,86228,1,0,0:0:0:0:
320,192,86228,128,0,86433:0:0:0:0:
64,192,86433,1,0,0:0:0:0:
448,192,86433,128,0,86639:0:0:0:0:
192,192,86639,1,0,0:0:0:0:
320,192,86639,1,0,0:0:0:0:
64,192,86844,1,0,0:0:0:0:
320,192,86844,1,0,0:0:0:0:
192,192,87049,1,0,0:0:0:0:
64,192,87049,128,0,87255:0:0:0:0:
320,192,87255,1,0,0:0:0:0:
448,192,87255,128,0,87460:0:0:0:0:
192,192,87460,1,0,0:0:0:0:
320,192,87460,128,0,87666:0:0:0:0:
64,192,87666,1,0,0:0:0:0:
192,192,87666,128,0,87871:0:0:0:0:
448,192,87871,1,0,0:0:0:0:
320,192,87871,128,0,88077:0:0:0:0:
192,192,88077,1,0,0:0:0:0:
64,192,88077,1,0,0:0:0:0:
64,192,88282,1,0,0:0:0:0:
448,192,88282,128,0,88488:0:0:0:0:
320,192,88488,1,0,0:0:0:0:
192,192,88488,1,0,0:0:0:0:
192,192,88693,1,0,0:0:0:0:
448,192,88693,128,0,88899:0:0:0:0:
64,192,88899,1,0,0:0:0:0:
320,192,88899,128,0,89104:0:0:0:0:
192,192,89104,1,0,0:0:0:0:
448,192,89104,128,0,89310:0:0:0:0:
320,192,89310,1,0,0:0:0:0:
64,192,89310,128,0,89515:0:0:0:0:
192,192,89515,1,0,0:0:0:0:
320,192,89515,128,0,89721:0:0:0:0:
64,192,89721,1,0,0:0:0:0:
192,192,89721,128,0,89926:0:0:0:0:
64,192,89926,1,0,0:0:0:0:
320,192,89926,128,0,90132:0:0:0:0:
448,192,90132,1,0,0:0:0:0:
192,192,90132,128,0,90543:0:0:0:0:
320,192,90337,1,0,0:0:0:0:
448,192,90337,1,0,0:0:0:0:
64,192,90337,1,0,0:0:0:0:
320,192,90543,1,0,0:0:0:0:
448,192,90543,1,0,0:0:0:0:
64,192,90543,1,0,0:0:0:0:
192,192,90748,1,0,0:0:0:0:
320,192,90748,128,0,90954:0:0:0:0:
192,192,90954,1,0,0:0:0:0:
64,192,90954,128,0,91159:0:0:0:0:
192,192,91159,1,0,0:0:0:0:
320,192,91159,128,0,91365:0:0:0:0:
64,192,91365,1,0,0:0:0:0:
448,192,91365,1,0,0:0:0:0:
192,192,91570,1,0,0:0:0:0:
64,192,91570,128,0,91775:0:0:0:0:
320,192,91775,1,0,0:0:0:0:
192,192,91775,128,0,91981:0:0:0:0:
320,192,91981,1,0,0:0:0:0:
448,192,91981,128,0,92186:0:0:0:0:
320,192,92186,1,0,0:0:0:0:
192,192,92186,128,0,92392:0:0:0:0:
64,192,92392,1,0,0:0:0:0:
448,192,92392,128,0,92597:0:0:0:0:
320,192,92597,1,0,0:0:0:0:
64,192,92597,1,0,0:0:0:0:
448,192,92803,1,0,0:0:0:0:
192,192,92803,128,0,93008:0:0:0:0:
320,192,93008,1,0,0:0:0:0:
64,192,93008,1,0,0:0:0:0:
192,192,93214,1,0,0:0:0:0:
320,192,93214,128,0,93419:0:0:0:0:
64,192,93419,1,0,0:0:0:0:
192,192,93419,128,0,93625:0:0:0:0:
64,192,93625,1,0,0:0:0:0:
320,192,93625,128,0,93830:0:0:0:0:
64,192,93830,1,0,0:0:0:0:
192,192,93830,1,0,0:0:0:0:
448,192,93830,128,0,94036:0:0:0:0:
192,192,94036,1,0,0:0:0:0:
448,192,94241,1,0,0:0:0:0:
64,192,94241,1,0,0:0:0:0:
320,192,94241,128,0,94447:0:0:0:0:
64,192,94447,1,0,0:0:0:0:
448,192,94652,1,0,0:0:0:0:
320,192,94652,1,0,0:0:0:0:
192,192,94652,128,0,94858:0:0:0:0:
320,192,94858,1,0,0:0:0:0:
192,192,95063,1,0,0:0:0:0:
448,192,95063,1,0,0:0:0:0:
64,192,95063,128,0,95269:0:0:0:0:
448,192,95269,1,0,0:0:0:0:
320,192,95474,1,0,0:0:0:0:
64,192,95474,1,0,0:0:0:0:
192,192,95474,128,0,95680:0:0:0:0:
64,192,95680,1,0,0:0:0:0:
320,192,95885,1,0,0:0:0:0:
192,192,95885,1,0,0:0:0:0:
448,192,95885,128,0,96091:0:0:0:0:
320,192,96091,1,0,0:0:0:0:
320,192,96296,1,0,0:0:0:0:
64,192,96296,1,0,0:0:0:0:
448,192,96296,128,0,96502:0:0:0:0:
64,192,96502,1,0,0:0:0:0:
320,192,96604,1,0,0:0:0:0:
192,192,96604,1,0,0:0:0:0:
64,192,96707,1,0,0:0:0:0:
448,192,96707,1,0,0:0:0:0:
448,192,96810,1,0,0:0:0:0:
192,192,96810,1,0,0:0:0:0:
64,192,96912,1,0,0:0:0:0:
320,192,96912,1,0,0:0:0:0:
320,192,97118,1,0,0:0:0:0:
448,192,97118,128,0,97323:0:0:0:0:
64,192,97118,1,0,0:0:0:0:
192,192,97323,1,0,0:0:0:0:
320,192,97426,1,0,0:0:0:0:
192,192,97529,1,0,0:0:0:0:
64,192,97529,128,0,97734:0:0:0:0:
448,192,97734,1,0,0:0:0:0:
192,192,97837,1,0,0:0:0:0:
448,192,97940,1,0,0:0:0:0:
320,192,97940,128,0,98145:0:0:0:0:
64,192,98145,1,0,0:0:0:0:
448,192,98145,128,0,98351:0:0:0:0:
192,192,98248,1,0,0:0:0:0:
320,192,98351,1,0,0:0:0:0:
64,192,98351,1,0,0:0:0:0:
320,192,98556,1,0,0:0:0:0:
192,192,98556,128,0,98762:0:0:0:0:
448,192,98659,1,0,0:0:0:0:
320,192,98762,1,0,0:0:0:0:
64,192,98762,1,0,0:0:0:0:
448,192,98967,128,0,99173:0:0:0:0:
192,192,98967,1,0,0:0:0:0:
320,192,99070,1,0,0:0:0:0:
192,192,99173,1,0,0:0:0:0:
64,192,99173,128,0,99378:0:0:0:0:
448,192,99378,1,0,0:0:0:0:
320,192,99378,128,0,99584:0:0:0:0:
64,192,99481,1,0,0:0:0:0:
448,192,99584,1,0,0:0:0:0:
192,192,99584,128,0,99789:0:0:0:0:
448,192,99789,128,0,99995:0:0:0:0:
320,192,99789,1,0,0:0:0:0:
64,192,99892,1,0,0:0:0:0:
192,192,99995,1,0,0:0:0:0:
320,192,99995,128,0,100200:0:0:0:0:
448,192,100200,1,0,0:0:0:0:
64,192,100200,128,0,100406:0:0:0:0:
192,192,100200,1,0,0:0:0:0:
448,192,100406,128,0,100611:0:0:0:0:
320,192,100406,1,0,0:0:0:0:
192,192,100406,1,0,0:0:0:0:
320,192,100611,128,0,100817:0:0:0:0:
64,192,100611,1,0,0:0:0:0:
448,192,100714,1,0,0:0:0:0:
192,192,100817,128,0,101022:0:0:0:0:
64,192,100817,1,0,0:0:0:0:
448,192,101022,1,0,0:0:0:0:
320,192,101022,128,0,101228:0:0:0:0:
64,192,101125,1,0,0:0:0:0:
192,192,101228,1,0,0:0:0:0:
448,192,101228,1,0,0:0:0:0:
64,192,101433,1,0,0:0:0:0:
448,192,101433,128,0,101639:0:0:0:0:
320,192,101536,1,0,0:0:0:0:
192,192,101639,1,0,0:0:0:0:
64,192,101639,1,0,0:0:0:0:
448,192,101844,128,0,102049:0:0:0:0:
320,192,101844,1,0,0:0:0:0:
64,192,101947,1,0,0:0:0:0:
192,192,102049,1,0,0:0:0:0:
320,192,102049,128,0,102255:0:0:0:0:
192,192,102255,1,0,0:0:0:0:
448,192,102255,128,0,102460:0:0:0:0:
320,192,102358,1,0,0:0:0:0:
192,192,102460,1,0,0:0:0:0:
64,192,102460,128,0,102666:0:0:0:0:
320,192,102666,128,0,102871:0:0:0:0:
448,192,102666,1,0,0:0:0:0:
64,192,102769,1,0,0:0:0:0:
448,192,102871,1,0,0:0:0:0:
192,192,102871,128,0,103077:0:0:0:0:
64,192,103077,1,0,0:0:0:0:
320,192,103077,128,0,103180:0:0:0:0:
448,192,103180,1,0,0:0:0:0:
192,192,103180,1,0,0:0:0:0:
64,192,103282,1,0,0:0:0:0:
320,192,103282,1,0,0:0:0:0:
320,192,103488,1,0,0:0:0:0:
448,192,103488,1,0,0:0:0:0:
64,192,103488,1,0,0:0:0:0:
320,192,103693,1,0,0:0:0:0:
448,192,103693,1,0,0:0:0:0:
64,192,103693,1,0,0:0:0:0:
192,192,103796,1,0,0:0:0:0:
320,192,103899,1,0,0:0:0:0:
192,192,104002,1,0,0:0:0:0:
320,192,104104,1,0,0:0:0:0:
64,192,104104,1,0,0:0:0:0:
192,192,104207,1,0,0:0:0:0:
320,192,104310,1,0,0:0:0:0:
192,192,104412,1,0,0:0:0:0:
320,192,104515,1,0,0:0:0:0:
448,192,104515,1,0,0:0:0:0:
192,192,104618,1,0,0:0:0:0:
320,192,104721,1,0,0:0:0:0:
192,192,104823,1,0,0:0:0:0:
320,192,104926,1,0,0:0:0:0:
64,192,104926,1,0,0:0:0:0:
192,192,105029,1,0,0:0:0:0:
320,192,105132,1,0,0:0:0:0:
448,192,105132,1,0,0:0:0:0:
192,192,105234,1,0,0:0:0:0:
320,192,105337,1,0,0:0:0:0:
448,192,105337,1,0,0:0:0:0:
192,192,105440,1,0,0:0:0:0:
320,192,105543,1,0,0:0:0:0:
192,192,105645,1,0,0:0:0:0:
320,192,105748,1,0,0:0:0:0:
64,192,105748,1,0,0:0:0:0:
192,192,105851,1,0,0:0:0:0:
320,192,105954,1,0,0:0:0:0:
192,192,106056,1,0,0:0:0:0:
320,192,106159,1,0,0:0:0:0:
448,192,106159,1,0,0:0:0:0:
192,192,106262,1,0,0:0:0:0:
320,192,106365,1,0,0:0:0:0:
192,192,106467,1,0,0:0:0:0:
320,192,106570,1,0,0:0:0:0:
64,192,106570,1,0,0:0:0:0:
192,192,106673,1,0,0:0:0:0:
320,192,106775,1,0,0:0:0:0:
448,192,106775,1,0,0:0:0:0:
192,192,106878,1,0,0:0:0:0:
320,192,106981,1,0,0:0:0:0:
448,192,106981,1,0,0:0:0:0:
192,192,107084,1,0,0:0:0:0:
320,192,107186,1,0,0:0:0:0:
192,192,107289,1,0,0:0:0:0:
320,192,107392,1,0,0:0:0:0:
64,192,107392,1,0,0:0:0:0:
192,192,107495,1,0,0:0:0:0:
320,192,107597,1,0,0:0:0:0:
448,192,107597,1,0,0:0:0:0:
192,192,107700,1,0,0:0:0:0:
320,192,107803,1,0,0:0:0:0:
448,192,107803,1,0,0:0:0:0:
192,192,107906,1,0,0:0:0:0:
320,192,108008,1,0,0:0:0:0:
192,192,108111,1,0,0:0:0:0:
320,192,108214,1,0,0:0:0:0:
64,192,108214,1,0,0:0:0:0:
192,192,108317,1,0,0:0:0:0:
320,192,108419,1,0,0:0:0:0:
448,192,108419,1,0,0:0:0:0:
192,192,108522,1,0,0:0:0:0:
320,192,108625,1,0,0:0:0:0:
448,192,108625,1,0,0:0:0:0:
64,192,108625,1,0,0:0:0:0:
64,192,109036,1,0,0:0:0:0:
320,192,109447,1,0,0:0:0:0:
192,192,109858,1,0,0:0:0:0:
320,192,110063,1,0,0:0:0:0:
192,192,110269,1,0,0:0:0:0:
64,192,110269,1,0,0:0:0:0:
320,192,110269,1,0,0:0:0:0:
448,192,110269,1,0,0:0:0:0:
