osu file format v14

[General]
AudioFilename: audio.mp3
AudioLeadIn: 0
PreviewTime: 166310
Countdown: 0
SampleSet: Soft
StackLeniency: 0.4
Mode: 0
LetterboxInBreaks: 0
WidescreenStoryboard: 0

[Editor]
DistanceSpacing: 0.7
BeatDivisor: 4
GridSize: 32
TimelineZoom: 2.599999

[Metadata]
Title:hauynite
TitleUnicode:hauynite
Artist:garnet feat. F9
ArtistUnicode:garnet feat. F9
Creator:Shurelia
Version:rumination
Source:
Tags:narry japanese pop kiyono j-pop
BeatmapID:3796946
BeatmapSetID:1848363

[Difficulty]
HPDrainRate:6.1
CircleSize:4.5
OverallDifficulty:8
ApproachRate:7.5
SliderMultiplier:2
SliderTickRate:1

[Events]
//Background and Video events
0,0,"83499589_p0.jpg",0,0
//Break Periods
2,167082,179771
//Storyboard Layer 0 (Background)
//Storyboard Layer 1 (Fail)
//Storyboard Layer 2 (Pass)
//Storyboard Layer 3 (Foreground)
//Storyboard Layer 4 (Overlay)
//Storyboard Sound Samples

[TimingPoints]
1740,571.428571428571,4,2,1,35,1,0
2311,571.428571428571,4,2,1,35,1,0
2311,-125,4,2,1,35,0,0
20596,-100,4,2,1,40,0,0
80025,-76.9230769230769,4,2,1,55,0,1
107453,-100,4,2,1,40,0,0
125739,-90.9090909090909,4,2,1,45,0,0
142025,-86.9565217391304,4,2,1,25,0,0
142310,-83.3333333333333,4,2,1,30,0,0
142596,-80,4,2,1,35,0,0
142882,-76.9230769230769,4,2,1,40,0,0
143168,-74.0740740740741,4,2,1,45,0,0
144025,-83.3333333333333,4,2,1,45,0,0
164596,-133.333333333333,4,2,1,30,0,0
166882,-125,4,2,1,30,0,1
167025,-125,4,2,1,30,0,0
192882,-111.111111111111,4,2,1,30,0,0
193025,-100,4,2,1,40,0,0
194310,-66.6666666666667,4,2,1,60,0,1
221168,-66.6666666666667,4,2,1,60,0,0
221739,-76.9230769230769,4,2,1,60,0,1
249168,-100,4,2,1,35,0,0
265310,-100,4,2,1,20,0,0

[Colours]
Combo1 : 94,174,255
Combo2 : 2,200,170

[HitObjects]
256,192,1740,5,2,0:0:0:0:
256,152,1882,1,0,0:0:0:0:
256,111,2025,1,2,0:0:0:0:
251,366,2311,5,2,0:0:0:0:
173,348,2596,1,0,0:0:0:0:
94,330,2882,2,0,L|99:250,1,80,2|0,0:0|0:0,0:0:0:0:
173,348,3453,1,0,0:0:0:0:
94,330,3739,2,0,L|99:250,1,80,2|0,0:0|0:0,0:0:0:0:
173,348,4310,1,0,0:0:0:0:
327,366,4596,5,2,0:0:0:0:
405,348,4881,1,0,0:0:0:0:
484,330,5167,2,0,L|478:250,1,80,2|0,0:0|0:0,0:0:0:0:
405,348,5738,1,0,0:0:0:0:
484,330,6024,2,0,L|478:250,1,80,2|2,0:0|0:0,0:0:0:0:
475,209,6453,1,0,0:0:0:0:
473,169,6596,1,2,0:0:0:0:
457,17,6882,5,2,0:0:0:0:
379,35,7167,1,0,0:0:0:0:
300,53,7453,2,0,L|305:132,1,80,2|0,0:0|0:0,0:0:0:0:
379,35,8024,1,0,0:0:0:0:
300,53,8310,2,0,L|305:132,1,80,2|0,0:0|0:0,0:0:0:0:
379,35,8881,1,0,0:0:0:0:
58,17,9168,5,2,0:0:0:0:
136,35,9453,1,0,0:0:0:0:
215,53,9739,2,0,L|209:132,1,80,2|0,0:0|0:0,0:0:0:0:
136,35,10310,1,0,0:0:0:0:
215,53,10596,1,2,0:0:0:0:
53,100,10882,1,2,0:0:0:0:
202,204,11168,1,2,0:0:0:0:
36,351,11453,5,2,0:0:0:0:
102,305,11739,1,0,0:0:0:0:
181,315,12025,2,0,L|259:331,1,80,2|0,0:0|0:0,0:0:0:0:
102,305,12596,1,0,0:0:0:0:
181,315,12882,2,0,L|259:331,1,80,2|0,0:0|0:0,0:0:0:0:
102,305,13453,1,0,0:0:0:0:
394,375,13739,5,2,0:0:0:0:
348,309,14025,1,0,0:0:0:0:
358,230,14311,2,0,L|374:151,1,80,2|0,0:0|0:0,0:0:0:0:
348,309,14882,1,0,0:0:0:0:
358,230,15168,2,0,L|374:151,1,80,2|2,0:0|0:0,0:0:0:0:
364,112,15596,1,0,0:0:0:0:
346,76,15739,1,2,0:0:0:0:
138,19,16025,5,2,0:0:0:0:
92,85,16311,1,0,0:0:0:0:
102,164,16597,2,0,L|118:242,1,80,2|0,0:0|0:0,0:0:0:0:
92,85,17168,1,0,0:0:0:0:
102,164,17454,2,0,L|118:242,1,80,2|0,0:0|0:0,0:0:0:0:
92,85,18025,1,0,0:0:0:0:
282,261,18310,5,2,0:0:0:0:
236,195,18596,1,0,0:0:0:0:
246,116,18882,2,0,L|262:37,1,80,2|0,0:0|0:0,0:0:0:0:
236,195,19453,1,0,0:0:0:0:
246,116,19739,2,0,L|262:37,1,80,2|0,0:0|0:0,0:0:0:0:
236,195,20310,1,0,0:0:0:0:
440,30,20595,5,2,0:0:0:0:
440,30,21168,2,0,P|434:79|444:128,1,100,2|0,0:0|0:0,0:0:0:0:
472,168,21596,2,0,P|473:217|471:267,1,100,2|0,0:0|0:0,0:0:0:0:
453,315,22025,1,2,0:0:0:0:
369,258,22310,2,0,P|321:254|281:283,1,100,2|0,0:0|0:0,0:0:0:0:
202,381,22882,6,0,P|190:332|175:284,1,100,2|0,0:0|0:0,0:0:0:0:
125,278,23310,2,0,P|76:290|27:297,1,100,2|0,0:0|0:0,0:0:0:0:
22,247,23739,1,2,0:0:0:0:
34,147,24025,1,0,0:0:0:0:
90,64,24310,1,0,0:0:0:0:
195,54,24596,1,0,0:0:0:0:
195,54,24739,1,0,0:0:0:0:
195,54,24882,1,0,0:0:0:0:
255,192,25168,5,2,0:0:0:0:
255,192,25739,2,0,P|304:194|333:156,1,100,2|0,0:0|0:0,0:0:0:0:
331,106,26167,2,0,P|380:108|430:111,1,100,2|0,0:0|0:0,0:0:0:0:
477,131,26596,1,2,0:0:0:0:
456,293,26881,2,0,P|443:244|420:200,1,100,2|0,0:0|0:0,0:0:0:0:
360,36,27453,6,0,P|311:33|264:48,1,100,2|0,0:0|0:0,0:0:0:0:
229,85,27881,2,0,P|179:79|129:71,1,100,2|0,0:0|0:0,0:0:0:0:
81,56,28310,1,2,0:0:0:0:
81,56,28881,1,2,0:0:0:0:
40,147,29167,1,2,0:0:0:0:
64,243,29453,1,2,0:0:0:0:
11,363,29739,6,0,P|110:354|209:340,1,200,2|0,0:0|0:0,0:0:0:0:
64,243,30596,2,0,P|162:230|250:183,1,200,2|0,0:0|0:0,0:0:0:0:
269,85,31453,1,0,0:0:0:0:
269,85,31739,1,0,0:0:0:0:
366,64,32025,6,0,P|458:87|475:180,1,200,2|0,0:0|0:0,0:0:0:0:
337,352,32882,2,0,P|356:254|384:157,1,200,2|0,0:0|0:0,0:0:0:0:
485,292,33739,1,2,0:0:0:0:
485,292,33882,1,2,0:0:0:0:
485,292,34025,1,2,0:0:0:0:
323,358,34310,6,0,B|265:328|186:392|127:355,1,200,2|0,0:0|0:0,0:0:0:0:
47,294,35168,1,0,0:0:0:0:
115,221,35453,1,2,0:0:0:0:
55,139,35739,2,0,P|43:91|30:43,1,100
123,6,36310,1,0,0:0:0:0:
115,221,36596,5,2,0:0:0:0:
188,152,36882,1,0,0:0:0:0:
283,181,37168,2,0,P|332:173|381:164,1,100,2|0,0:0|0:0,0:0:0:0:
188,152,37739,1,0,0:0:0:0:
283,181,38025,2,0,P|332:173|381:164,1,100,2|0,0:0|0:0,0:0:0:0:
468,114,38596,1,2,0:0:0:0:
477,64,38739,1,0,0:0:0:0:
490,15,38882,5,2,0:0:0:0:
497,199,39453,2,0,P|492:248|486:298,1,100,2|0,0:0|0:0,0:0:0:0:
460,341,39883,2,0,P|410:336|366:357,1,100,2|0,0:0|0:0,0:0:0:0:
321,380,40310,1,2,0:0:0:0:
221,370,40597,2,0,B|181:378|153:352|122:357,1,100,2|0,0:0|0:0,0:0:0:0:
0,287,41168,6,0,P|48:283|83:248,1,100,2|0,0:0|0:0,0:0:0:0:
102,202,41597,2,0,P|151:192|199:205,1,100,2|0,0:0|0:0,0:0:0:0:
226,248,42026,1,2,0:0:0:0:
318,208,42310,1,0,0:0:0:0:
415,226,42597,1,0,0:0:0:0:
512,194,42883,1,0,0:0:0:0:
512,194,43026,1,0,0:0:0:0:
512,194,43169,1,0,0:0:0:0:
393,13,43453,5,2,0:0:0:0:
393,13,44026,2,0,B|357:32|317:8|294:18,1,100,2|0,0:0|0:0,0:0:0:0:
273,63,44454,2,0,P|225:75|179:57,1,100,2|0,0:0|0:0,0:0:0:0:
150,16,44883,1,2,0:0:0:0:
0,47,45168,2,0,P|48:38|89:64,1,100,2|0,0:0|0:0,0:0:0:0:
53,231,45740,6,0,L|36:132,1,100,2|0,0:0|0:0,0:0:0:0:
84,136,46168,2,0,P|127:162|176:165,1,100,2|0,0:0|0:0,0:0:0:0:
225,150,46597,1,2,0:0:0:0:
13,367,47168,1,2,0:0:0:0:
94,309,47454,1,2,0:0:0:0:
192,324,47740,1,2,0:0:0:0:
315,370,48026,6,0,P|414:360|512:340,1,200,2|0,0:0|0:0,0:0:0:0:
284,286,48883,2,0,P|374:245|430:164,1,200,2|0,0:0|0:0,0:0:0:0:
421,65,49740,1,0,0:0:0:0:
334,15,50026,1,0,0:0:0:0:
211,75,50310,6,0,P|113:79|24:35,1,200,2|0,0:0|0:0,0:0:0:0:
229,172,51169,2,0,P|133:200|33:206,1,200,2|0,0:0|0:0,0:0:0:0:
91,299,52026,1,2,0:0:0:0:
91,299,52169,1,2,0:0:0:0:
91,299,52310,1,2,0:0:0:0:
245,371,52597,6,0,P|241:272|257:173,1,200,2|0,0:0|0:0,0:0:0:0:
295,81,53453,1,0,0:0:0:0:
392,57,53740,1,2,0:0:0:0:
480,103,54025,2,0,P|489:151|489:201,1,100
392,57,54597,1,0,0:0:0:0:
295,81,54882,5,2,0:0:0:0:
198,54,55169,1,0,0:0:0:0:
100,74,55453,2,0,P|91:123|88:173,1,100,2|0,0:0|0:0,0:0:0:0:
42,358,56025,2,0,P|35:311|77:289,1,100,2|0,0:0|0:0,0:0:0:0:
127,297,56453,2,0,B|160:296|188:327|223:320,1,100,2|0,0:0|0:0,0:0:0:0:
272,310,56882,1,2,0:0:0:0:
381,374,57168,6,0,B|396:318|349:279|322:249|329:211|367:168|393:138|466:152|510:203|520:238|509:280|488:294,1,400,2|0,0:0|0:0,0:0:0:0:
425,250,58595,1,2,0:0:0:0:
453,153,58882,1,2,0:0:0:0:
490,60,59168,1,2,0:0:0:0:
320,11,59453,6,0,B|238:10|177:41|118:79|28:31,1,300,2|0,0:0|0:0,0:0:0:0:
140,130,60596,1,2,0:0:0:0:
239,115,60882,1,2,0:0:0:0:
113,227,61168,1,2,0:0:0:0:
113,227,61310,1,0,0:0:0:0:
113,227,61453,1,2,0:0:0:0:
173,316,61739,6,0,P|267:289|360:321,1,200,2|0,0:0|0:0,0:0:0:0:
239,115,62596,2,0,P|323:168|398:234,2,200,2|2|2,0:0|0:0|0:0,0:0:0:0:
101,57,64025,6,0,P|52:58|2:49,2,100,2|0|0,0:0|0:0|0:0,0:0:0:0:
213,15,64882,2,0,P|310:35|410:39,1,200,2|0,0:0|0:0,0:0:0:0:
507,13,65739,1,2,0:0:0:0:
363,135,66025,1,2,0:0:0:0:
507,265,66310,5,2,0:0:0:0:
506,265,66596,1,0,0:0:0:0:
506,265,66882,2,0,P|493:313|489:362,1,100,2|0,0:0|0:0,0:0:0:0:
390,245,67453,1,0,0:0:0:0:
320,330,67739,2,0,B|262:302|186:359|124:319,1,200,2|0,0:0|0:0,0:0:0:0:
102,169,68596,6,0,P|171:180|180:250,1,150,2|0,0:0|0:0,0:0:0:0:
137,275,69168,1,2,0:0:0:0:
14,267,69453,2,0,P|10:167|34:70,1,200,2|2,0:0|0:0,0:0:0:0:
307,2,70596,1,2,0:0:0:0:
381,13,70739,2,0,L|394:34,1,25,2|0,0:0|0:0,0:0:0:0:
391,48,70882,5,2,0:0:0:0:
340,126,71453,1,2,0:0:0:0:
411,205,72025,1,0,0:0:0:0:
343,247,72310,1,2,0:0:0:0:
411,205,72596,1,0,0:0:0:0:
442,278,72882,1,0,0:0:0:0:
411,205,73168,5,2,0:0:0:0:
343,247,73453,1,0,0:0:0:0:
267,221,73739,1,2,0:0:0:0:
343,247,74025,1,0,0:0:0:0:
278,294,74310,1,0,0:0:0:0:
203,264,74595,1,2,0:0:0:0:
151,325,74881,1,2,0:0:0:0:
151,325,75025,1,0,0:0:0:0:
151,325,75167,1,2,0:0:0:0:
77,214,75453,6,0,P|85:114|97:15,1,200,2|0,0:0|0:0,0:0:0:0:
262,11,76310,1,2,0:0:0:0:
262,11,76453,1,2,0:0:0:0:
262,11,76596,2,0,P|273:110|282:209,1,200,2|0,0:0|0:0,0:0:0:0:
183,225,77453,1,2,0:0:0:0:
387,213,77739,5,2,0:0:0:0:
387,213,79453,2,0,L|390:237,7,25,2|0|2|0|2|0|0|0,0:0|0:0|0:0|0:0|0:0|0:0|0:0|0:0,0:0:0:0:
306,202,80025,6,0,P|395:173|468:231,2,194.999991073609,6|0|0,3:2|0:0|3:2,0:0:0:0:
275,351,81168,1,12,0:0:0:0:
377,268,81453,1,0,0:0:0:0:
68,367,82025,1,0,3:2:0:0:
15,309,82168,1,0,0:0:0:0:
67,252,82310,6,0,P|124:222|148:163,1,129.999994049073,2|0,3:2|0:0,0:0:0:0:
99,66,82739,2,0,P|50:103|67:162,1,129.999994049073,2|0,3:2|0:0,0:0:0:0:
186,93,83168,1,2,3:2:0:0:
412,239,83453,1,12,0:0:0:0:
481,128,83739,1,0,0:0:0:0:
412,239,84025,1,2,0:0:0:0:
481,128,84310,1,0,3:2:0:0:
463,30,84596,6,0,P|404:55|340:63,1,129.999994049073,6|0,3:2|0:0,0:0:0:0:
178,52,85025,2,0,P|219:5|281:9,1,129.999994049073
332,147,85453,1,0,3:2:0:0:
95,18,85739,1,12,0:0:0:0:
73,100,86025,2,0,B|105:163|41:221|1:274|24:345,1,259.999988098145,0|0,0:0|3:2,0:0:0:0:
36,365,86739,1,0,0:0:0:0:
51,376,86882,6,0,P|114:365|159:320,1,129.999994049073,2|0,3:2|0:0,0:0:0:0:
188,233,87310,2,0,P|249:223|289:271,1,129.999994049073,2|0,3:2|0:0,0:0:0:0:
276,346,87739,1,2,3:2:0:0:
445,384,88025,2,0,P|457:287|474:191,1,194.999991073609,12|0,0:0|0:0,0:0:0:0:
491,122,88596,1,2,0:0:0:0:
501,91,88739,1,8,0:0:0:0:
501,58,88882,1,4,3:3:0:0:
366,293,89168,6,0,P|338:168|400:57,1,259.999988098145,6|0,3:2|0:0,0:0:0:0:
400,57,90025,1,0,3:2:0:0:
228,121,90310,2,0,P|164:129|102:110,1,129.999994049073,12|0,0:0|0:0,0:0:0:0:
37,7,90882,1,0,0:0:0:0:
0,166,91168,1,0,3:2:0:0:
0,166,91310,1,0,0:0:0:0:
0,165,91453,6,0,P|18:228|28:292,1,129.999994049073,2|0,3:2|0:0,0:0:0:0:
86,373,91882,2,0,P|140:342|150:280,1,129.999994049073,2|0,3:2|0:0,0:0:0:0:
90,220,92310,1,2,3:2:0:0:
253,21,92596,1,12,0:0:0:0:
318,102,92882,1,8,0:0:0:0:
349,95,93025,1,8,0:0:0:0:
380,87,93168,1,2,0:0:0:0:
411,82,93310,1,0,0:0:0:0:
442,75,93453,1,8,3:2:0:0:
474,70,93596,1,8,0:0:0:0:
506,68,93739,6,0,P|491:164|484:261,2,194.999991073609,6|0|0,3:2|0:0|3:2,0:0:0:0:
396,261,94882,1,12,0:0:0:0:
481,375,95168,1,0,0:0:0:0:
189,294,95739,1,0,3:2:0:0:
156,291,95882,1,0,0:0:0:0:
123,287,96024,6,0,P|103:226|52:188,1,129.999994049073,2|0,3:2|0:0,0:0:0:0:
105,54,96453,2,0,P|43:62|15:118,1,129.999994049073,2|0,3:2|0:0,0:0:0:0:
16,259,96882,1,2,3:2:0:0:
182,90,97167,1,12,0:0:0:0:
225,212,97453,1,0,0:0:0:0:
182,90,97739,1,2,0:0:0:0:
225,212,98024,1,0,3:2:0:0:
239,241,98168,1,0,0:0:0:0:
254,269,98310,6,0,P|317:255|381:261,1,129.999994049073,6|0,3:2|0:0,0:0:0:0:
306,364,98739,2,0,P|241:359|179:339,1,129.999994049073
254,269,99167,1,0,3:2:0:0:
162,60,99453,1,12,0:0:0:0:
238,2,99739,2,0,B|306:55|366:27|438:-2|488:27,1,259.999988098145,0|0,0:0|3:2,0:0:0:0:
500,57,100453,1,0,0:0:0:0:
488,87,100596,6,0,P|489:151|497:216,1,129.999994049073,2|0,3:2|0:0,0:0:0:0:
395,132,101024,2,0,P|409:195|417:259,1,129.999994049073,2|0,3:2|0:0,0:0:0:0:
336,274,101453,1,2,3:2:0:0:
512,367,101739,1,12,0:0:0:0:
397,376,102025,1,2,3:2:0:0:
364,372,102167,1,8,0:0:0:0:
331,370,102310,1,10,0:0:0:0:
298,367,102453,1,8,0:0:0:0:
265,365,102596,1,0,3:2:0:0:
77,359,102882,6,0,P|59:230|5:112,1,259.999988098145,6|0,3:2|0:0,0:0:0:0:
5,112,103739,1,0,3:2:0:0:
184,0,104024,2,0,P|161:60|142:123,1,129.999994049073,12|0,0:0|0:0,0:0:0:0:
208,302,104596,1,0,0:0:0:0:
68,207,104882,1,0,3:2:0:0:
99,213,105024,1,0,0:0:0:0:
130,219,105167,6,0,P|193:207|258:206,1,129.999994049073,2|0,3:2|0:0,0:0:0:0:
289,216,105596,1,2,3:2:0:0:
312,238,105739,1,0,0:0:0:0:
377,383,106024,1,2,3:2:0:0:
226,303,106310,1,12,0:0:0:0:
475,293,106596,1,0,0:0:0:0:
495,219,106882,1,0,0:3:0:0:
484,142,107167,1,4,3:3:0:0:
476,110,107310,1,0,0:0:0:0:
468,77,107453,6,0,P|418:84|369:75,1,100,6|0,0:0|0:0,0:0:0:0:
251,15,108025,1,2,0:0:0:0:
229,179,108310,2,0,P|215:132|184:93,1,100
251,15,108882,1,2,0:0:0:0:
322,159,109168,2,0,P|306:206|309:255,1,100
80,224,109739,6,0,P|129:228|176:246,1,100,2|0,0:0|0:0,0:0:0:0:
255,337,110311,1,2,0:0:0:0:
75,383,110596,2,0,P|70:334|106:302,1,100
255,337,111168,1,2,0:0:0:0:
306,230,111453,1,2,0:0:0:0:
293,208,111596,1,0,0:0:0:0:
278,187,111739,1,2,0:0:0:0:
47,52,112025,6,0,P|90:76|114:118,1,100,2|0,0:0|0:0,0:0:0:0:
38,223,112596,1,2,0:0:0:0:
192,281,112882,2,0,P|176:234|190:187,1,100
38,223,113454,1,2,0:0:0:0:
57,364,113739,2,0,P|106:369|154:357,1,100
342,340,114310,6,0,P|388:358|437:362,1,100,2|0,0:0|0:0,0:0:0:0:
490,256,114882,1,2,0:0:0:0:
317,167,115168,2,0,P|343:209|354:257,1,100
490,256,115739,1,2,0:0:0:0:
393,108,116025,1,2,0:0:0:0:
493,18,116310,1,2,0:0:0:0:
284,54,116596,6,0,P|235:49|190:28,1,100,2|0,0:0|0:0,0:0:0:0:
271,167,117168,1,2,0:0:0:0:
60,149,117453,2,0,P|89:109|137:99,1,100
271,167,118025,1,2,0:0:0:0:
148,308,118311,2,0,P|159:259|156:209,1,100
305,41,118882,6,0,P|354:38|404:33,1,100,2|0,0:0|0:0,0:0:0:0:
477,137,119454,1,2,0:0:0:0:
314,249,119739,2,0,P|278:215|270:166,1,100
477,137,120311,1,2,0:0:0:0:
470,288,120596,1,2,0:0:0:0:
469,313,120739,1,0,0:0:0:0:
468,338,120882,1,2,0:0:0:0:
260,356,121168,6,0,P|215:335|166:328,1,100,2|0,0:0|0:0,0:0:0:0:
6,361,121740,1,2,0:0:0:0:
106,190,122025,2,0,P|142:223|190:237,1,100
6,361,122597,1,2,0:0:0:0:
25,209,122883,2,0,P|25:159|13:110,1,100
177,1,123453,6,0,P|150:42|143:92,1,100,2|0,0:0|0:0,0:0:0:0:
255,195,124025,1,2,0:0:0:0:
334,41,124310,2,0,P|290:65|241:64,1,100
255,195,124882,1,2,0:0:0:0:
402,127,125168,1,0,0:0:0:0:
265,344,125453,1,2,0:0:0:0:
361,374,125739,6,0,P|412:354|466:343,1,110.000003356934,6|0,3:2|0:0,0:0:0:0:
493,337,126168,1,12,0:3:0:0:
505,312,126310,1,2,3:2:0:0:
413,258,126596,1,0,3:0:0:0:
492,186,126882,2,0,P|489:159|483:132,2,55.0000016784668,2|4|4,3:2|0:3|0:3,0:0:0:0:
430,26,127453,1,2,3:2:0:0:
316,80,127739,1,12,0:3:0:0:
244,24,128025,6,0,B|208:42|172:14|135:29,1,110.000003356934,2|0,3:2|0:0,0:0:0:0:
126,55,128454,1,4,0:3:0:0:
131,81,128596,1,2,3:2:0:0:
0,9,128882,1,4,0:3:0:0:
10,158,129168,2,0,P|16:184|18:212,2,55.0000016784668,2|0|4,3:2|0:0|0:3,0:0:0:0:
135,299,129739,1,2,3:2:0:0:
164,266,129882,1,2,3:2:0:0:
168,222,130025,1,4,0:3:0:0:
0,369,130310,6,0,P|54:367|109:364,1,110.000003356934,2|0,3:2|0:0,0:0:0:0:
137,368,130739,1,4,0:3:0:0:
163,372,130881,1,2,3:2:0:0:
287,318,131167,1,4,0:3:0:0:
413,368,131453,2,0,P|440:375|466:367,2,55.0000016784668,2|0|4,3:2|0:0|0:3,0:0:0:0:
404,229,132024,1,2,3:2:0:0:
287,148,132310,1,0,3:0:0:0:
102,247,132596,6,0,P|91:193|76:140,1,110.000003356934,2|0,3:2|0:0,0:0:0:0:
55,122,133025,1,4,0:3:0:0:
28,114,133167,1,2,3:2:0:0:
16,0,133453,1,4,0:3:0:0:
172,69,133739,2,0,P|182:94|187:121,2,55.0000016784668,2|4|4,3:2|0:3|0:3,0:0:0:0:
306,9,134310,1,2,3:2:0:0:
486,117,134596,1,4,0:3:0:0:
433,199,134882,6,0,P|436:253|444:308,1,110.000003356934,2|0,3:2|0:0,0:0:0:0:
460,330,135311,1,4,0:3:0:0:
486,336,135453,1,2,3:2:0:0:
338,185,135739,1,4,0:3:0:0:
302,361,136025,2,0,P|330:364|357:370,2,55.0000016784668,2|0|4,3:2|0:0|0:3,0:0:0:0:
208,258,136596,1,2,3:2:0:0:
20,367,136882,1,4,0:3:0:0:
64,241,137168,6,0,P|51:187|42:133,1,110.000003356934,2|0,3:2|0:0,0:0:0:0:
57,109,137597,1,4,0:3:0:0:
82,99,137739,1,2,3:2:0:0:
221,149,138025,1,4,0:3:0:0:
319,68,138310,2,0,P|308:42|301:16,2,55.0000016784668,2|0|4,3:2|0:0|0:3,0:0:0:0:
466,174,138882,1,2,3:2:0:0:
486,135,139025,1,4,0:3:0:0:
490,91,139168,1,4,0:3:0:0:
269,220,139453,6,0,P|214:215|160:203,1,110.000003356934,6|0,3:2|0:0,0:0:0:0:
140,184,139882,1,4,0:3:0:0:
150,158,140024,1,2,3:2:0:0:
278,311,140310,1,4,0:3:0:0:
117,382,140596,2,0,P|90:380|64:371,2,55.0000016784668,2|0|4,3:2|0:0|0:3,0:0:0:0:
0,250,141167,1,2,3:2:0:0:
50,33,141453,2,0,L|43:6,3,27.5000008392334,8|8|8|8,0:3|0:3|0:3|0:3,0:0:0:0:
64,61,141739,6,0,P|90:72|117:70,1,55.0000016784668,12|0,0:0|0:0,0:0:0:0:
118,151,142025,2,0,P|145:146|170:130,1,57.5000010967255,8|0,3:2|0:0,0:0:0:0:
231,214,142310,2,0,P|241:188|243:155,1,59.9999981689454,8|0,3:2|0:0,0:0:0:0:
355,192,142596,2,0,P|343:163|322:139,1,62.5,8|0,3:2|0:0,0:0:0:0:
423,96,142882,2,0,P|395:79|363:74,1,64.9999970245363,8|0,3:2|0:0,0:0:0:0:
474,270,143168,2,0,P|470:303|459:335,1,67.5000002574921,12|0,3:2|0:0,0:0:0:0:
407,350,143453,1,8,3:2:0:0:
353,345,143596,1,8,0:3:0:0:
299,337,143739,1,4,0:3:0:0:
150,357,144025,6,0,P|90:354|31:345,1,119.999996337891,6|0,3:2|0:0,0:0:0:0:
20,316,144453,1,8,0:0:0:0:
35,290,144596,1,2,3:2:0:0:
184,236,144882,1,8,0:3:0:0:
308,242,145168,1,2,3:2:0:0:
436,213,145453,2,0,P|408:160|402:100,1,119.999996337891,8|2,0:3|3:2,0:0:0:0:
411,70,145882,1,4,3:3:0:0:
432,46,146025,1,4,0:3:0:0:
459,33,146168,1,4,0:3:0:0:
444,19,146310,6,0,B|387:41|331:-2|266:26,1,179.999994506836,2|8,3:2|0:0,0:0:0:0:
255,54,146882,1,2,3:2:0:0:
336,155,147168,1,8,0:3:0:0:
164,139,147453,1,2,3:2:0:0:
148,113,147596,1,8,0:3:0:0:
148,82,147739,1,8,0:3:0:0:
0,12,148025,1,2,3:2:0:0:
16,37,148168,1,8,0:3:0:0:
29,63,148310,1,4,0:3:0:0:
35,92,148453,1,4,0:3:0:0:
25,120,148596,6,0,P|36:209|43:298,1,179.999994506836,6|8,3:2|0:0,0:0:0:0:
34,327,149168,1,2,3:2:0:0:
148,138,149453,2,0,P|168:226|195:312,1,179.999994506836,8|0,0:3|0:0,0:0:0:0:
184,341,150025,1,8,0:3:0:0:
278,121,150310,1,2,3:2:0:0:
304,106,150453,1,8,0:3:0:0:
331,94,150596,1,4,0:3:0:0:
359,83,150739,1,4,0:3:0:0:
387,74,150882,6,0,P|391:133|397:193,1,119.999996337891,2|0,3:2|0:0,0:0:0:0:
419,236,151310,1,8,0:0:0:0:
462,256,151453,1,2,3:2:0:0:
493,380,151739,2,0,P|433:371|375:357,2,119.999996337891,8|2|8,0:3|3:2|0:3,0:0:0:0:
319,252,152596,1,2,3:2:0:0:
294,252,152739,1,8,0:3:0:0:
270,255,152882,1,0,0:3:0:0:
245,255,153025,1,0,0:3:0:0:
220,257,153168,6,0,P|165:234|108:215,1,119.999996337891,6|0,3:2|0:0,0:0:0:0:
87,226,153596,1,8,0:0:0:0:
64,235,153739,1,2,3:2:0:0:
140,357,154025,1,8,0:3:0:0:
319,252,154310,1,2,3:2:0:0:
186,116,154596,1,8,0:3:0:0:
85,151,154882,1,2,3:2:0:0:
64,139,155025,1,8,0:3:0:0:
45,123,155168,1,0,0:3:0:0:
35,101,155310,1,0,0:3:0:0:
30,77,155453,6,0,P|118:59|204:33,1,179.999994506836,2|8,3:2|0:0,0:0:0:0:
291,9,156025,1,2,3:2:0:0:
194,124,156310,2,0,P|309:93|428:72,2,239.999992675781,8|8|0,0:3|0:3|0:3,0:0:0:0:
270,192,157596,1,0,0:3:0:0:
270,192,157739,6,0,P|295:279|308:368,1,179.999994506836,6|8,3:2|0:0,0:0:0:0:
234,351,158310,1,2,3:2:0:0:
419,310,158596,1,8,0:3:0:0:
183,255,158882,2,0,P|124:261|64:268,1,119.999996337891,2|8,3:2|0:3,0:0:0:0:
0,82,159453,1,2,3:2:0:0:
23,87,159596,1,8,0:3:0:0:
47,87,159739,1,0,0:3:0:0:
248,6,160025,6,0,P|306:19|366:26,1,119.999996337891,2|0,3:2|0:0,0:0:0:0:
390,53,160453,1,8,0:0:0:0:
378,87,160596,1,2,3:2:0:0:
512,0,160882,1,8,0:3:0:0:
512,148,161168,1,2,3:2:0:0:
378,232,161453,1,8,0:3:0:0:
247,124,161739,1,2,3:2:0:0:
232,150,161882,1,8,0:3:0:0:
222,178,162025,1,0,0:3:0:0:
216,207,162168,1,0,0:3:0:0:
216,236,162310,6,0,P|198:147|171:61,1,179.999994506836,6|8,3:2|0:0,0:0:0:0:
142,53,162882,1,2,3:2:0:0:
34,262,163168,1,8,0:3:0:0:
52,285,163310,1,0,0:0:0:0:
73,305,163453,2,0,P|161:325|250:335,1,179.999994506836,2|8,3:2|0:3,0:0:0:0:
279,324,164025,1,2,3:2:0:0:
307,313,164168,1,8,0:3:0:0:
336,306,164310,1,0,0:3:0:0:
365,298,164453,1,0,0:3:0:0:
401,290,164596,6,1,B|337:204|456:107|478:33|435:-5|380:-20|317:-5|310:64|339:108|376:122|403:77|387:60,1,449.999988079073,4|0,0:0|0:0,0:0:0:0:
387,60,166882,1,6,0:0:0:0:
145,57,180596,22,0,P|86:45|29:27,2,120,2|2|2,0:0|0:0|0:0,0:0:0:0:
218,89,181739,1,2,0:0:0:0:
155,138,182025,2,0,P|148:197|143:257,1,120,2|0,0:0|0:0,0:0:0:0:
119,288,182596,1,2,0:0:0:0:
116,327,182739,1,0,0:0:0:0:
143,356,182882,6,0,P|202:348|262:343,2,120,2|2|2,0:0|0:0|0:0,0:0:0:0:
232,255,184025,2,0,P|270:267|309:276,1,80,2|0,0:0|0:0,0:0:0:0:
368,329,184596,1,2,0:0:0:0:
511,375,184882,1,2,0:0:0:0:
504,335,185025,1,2,0:0:0:0:
498,294,185168,6,0,P|479:238|469:179,2,120,2|2|2,0:0|0:0|0:0,0:0:0:0:
385,230,186310,1,2,0:0:0:0:
386,132,186596,2,0,P|404:96|431:68,1,80,2|0,0:0|0:0,0:0:0:0:
503,31,187168,1,2,0:0:0:0:
360,19,187453,6,0,P|320:18|281:15,1,80,2|0,0:0|0:0,0:0:0:0:
254,46,187882,2,0,P|195:36|135:34,1,120,2|2,0:0|0:0,0:0:0:0:
0,21,188596,1,2,0:0:0:0:
52,87,188882,2,0,P|56:106|58:126,1,40,2|0,0:0|0:0,0:0:0:0:
64,156,189168,2,0,P|64:175|59:195,1,40,2|0,0:0|0:0,0:0:0:0:
48,227,189453,2,0,P|40:245|28:261,1,40,2|0,0:0|0:0,0:0:0:0:
17,286,189739,6,0,P|76:279|132:258,2,120,2|2|2,0:0|0:0|0:0,0:0:0:0:
154,359,190882,1,2,0:0:0:0:
256,251,191168,1,0,0:0:0:0:
189,127,191453,1,2,0:0:0:0:
118,172,191739,1,0,0:0:0:0:
29,4,192025,6,0,P|21:63|15:123,2,120,2|2|0,0:0|0:0|0:0,0:0:0:0:
199,49,193168,6,0,L|193:73,7,25,2|0|0|0|0|0|0|0,0:0|0:0|0:0|0:0|0:0|0:0|0:0|0:0,0:0:0:0:
267,64,193739,6,0,L|269:88,3,25,2|0|0|0,0:0|0:0|0:0|0:0,0:0:0:0:
335,48,194025,6,0,L|339:59,6,12.5,2|0|0|0|0|0|0,0:0|0:0|0:0|0:0|0:0|0:0|0:0,0:0:0:0:
387,0,194310,6,0,P|451:37|477:106,1,150.000005722046,6|0,3:2|0:0,0:0:0:0:
400,138,194739,2,0,P|386:211|376:286,1,150.000005722046
432,344,195168,1,0,3:2:0:0:
252,266,195453,1,12,0:0:0:0:
50,323,195739,2,1,B|20:298|17:268|26:239|41:220|77:208|77:208|125:231|108:269,1,225.000008583069,0|0,0:0|0:0,0:0:0:0:
123,345,196310,1,0,3:2:0:0:
197,355,196453,1,0,0:0:0:0:
271,343,196596,6,0,P|338:312|411:324,1,150.000005722046,2|0,3:2|0:0,0:0:0:0:
512,360,197025,2,0,P|475:294|459:221,1,150.000005722046,2|0,3:2|0:0,0:0:0:0:
481,149,197454,1,2,3:2:0:0:
384,0,197739,1,12,0:0:0:0:
340,69,198025,1,0,0:0:0:0:
172,91,198310,1,2,0:0:0:0:
130,11,198596,1,0,3:2:0:0:
99,14,198739,1,0,0:0:0:0:
65,18,198882,6,0,P|59:93|49:168,1,150.000005722046,6|0,3:2|0:0,0:0:0:0:
15,235,199311,2,0,P|35:307|52:380,1,150.000005722046
125,359,199740,1,0,3:2:0:0:
153,227,200025,1,12,0:0:0:0:
291,340,200310,2,1,B|315:369|346:373|375:364|394:349|405:312|405:312|382:264|344:281,1,225.000008583069,0|0,0:0|0:0,0:0:0:0:
269,273,200882,1,0,3:2:0:0:
312,212,201025,1,0,0:0:0:0:
382,185,201168,6,0,P|446:221|493:280,1,150.000005722046,2|0,3:2|0:0,0:0:0:0:
236,205,201596,2,0,P|171:168|124:109,1,150.000005722046,2|0,3:2|0:0,0:0:0:0:
117,28,202026,1,2,3:2:0:0:
370,8,202311,1,12,0:0:0:0:
319,64,202596,1,0,0:0:0:0:
472,13,202882,1,2,0:0:0:0:
481,49,203025,1,8,0:0:0:0:
478,86,203168,1,4,3:3:0:0:
461,119,203311,1,0,0:0:0:0:
435,144,203453,6,0,P|360:152|287:137,1,150.000005722046,6|0,3:2|0:0,0:0:0:0:
190,41,203882,2,0,P|116:26|42:32,1,150.000005722046
0,109,204311,1,0,3:2:0:0:
109,271,204596,1,12,0:0:0:0:
0,255,204882,1,0,0:0:0:0:
175,361,205168,1,0,0:0:0:0:
275,337,205453,1,0,3:2:0:0:
498,354,205739,6,0,P|442:261|334:260,2,225.000008583069,2|2|2,3:2|3:2|3:2,0:0:0:0:
336,260,206882,2,0,P|324:186|337:112,1,150.000005722046,12|0,0:0|0:0,0:0:0:0:
350,93,207310,1,0,0:0:0:0:
334,50,207453,1,2,0:0:0:0:
288,22,207596,1,0,0:0:0:0:
228,12,207739,1,8,3:2:0:0:
163,32,207882,1,8,0:0:0:0:
99,71,208025,6,0,P|86:146|80:220,1,150.000005722046,6|0,3:2|0:0,0:0:0:0:
64,363,208454,2,0,P|87:297|156:304,1,150.000005722046
141,375,208883,1,0,3:2:0:0:
255,226,209168,1,12,0:0:0:0:
363,317,209453,2,0,B|390:380|466:357|466:357|425:306|453:264,1,225.000008583069
506,211,210025,1,0,3:2:0:0:
476,141,210168,1,0,0:0:0:0:
414,97,210311,6,0,P|344:82|304:140,1,150.000005722046,2|0,3:2|0:0,0:0:0:0:
167,56,210740,2,0,P|198:123|221:195,1,150.000005722046,2|0,3:2|0:0,0:0:0:0:
327,231,211169,1,2,3:2:0:0:
87,108,211453,1,12,0:0:0:0:
91,22,211739,1,0,0:0:0:0:
0,178,212025,1,2,0:0:0:0:
14,258,212310,1,0,3:2:0:0:
21,295,212454,1,0,0:0:0:0:
31,330,212597,6,0,P|107:336|219:368,1,150.000005722046,6|0,3:2|0:0,0:0:0:0:
379,318,213026,2,0,P|321:274|251:293,1,150.000005722046
309,362,213453,1,0,3:2:0:0:
424,161,213740,1,12,0:0:0:0:
339,62,214025,2,0,B|311:-1|235:21|235:21|277:73|248:114,1,225.000008583069
206,177,214597,1,0,3:2:0:0:
145,133,214740,1,0,0:0:0:0:
184,68,214883,6,0,P|111:59|20:37,1,150.000005722046,2|0,3:2|0:0,0:0:0:0:
8,236,215310,2,0,P|82:233|157:239,1,150.000005722046,2|0,3:2|0:0,0:0:0:0:
217,286,215739,1,2,3:2:0:0:
0,333,216026,1,12,0:0:0:0:
98,145,216311,1,0,0:0:0:0:
14,20,216597,1,10,0:0:0:0:
50,27,216740,1,8,0:0:0:0:
87,33,216883,1,0,3:2:0:0:
124,37,217026,1,0,0:0:0:0:
160,35,217168,6,0,P|235:36|310:27,1,150.000005722046,6|0,3:2|0:0,0:0:0:0:
456,113,217597,2,0,P|455:42|389:17,1,150.000005722046
357,85,218026,1,0,3:2:0:0:
496,206,218311,1,12,0:0:0:0:
461,280,218597,1,0,0:0:0:0:
317,363,218883,1,0,0:0:0:0:
343,281,219168,1,0,3:2:0:0:
172,368,219453,6,0,P|103:362|22:351,1,150.000005722046,2|0,3:2|0:0,0:0:0:0:
18,284,219882,1,0,3:0:0:0:
18,284,220025,1,0,0:0:0:0:
157,286,220310,1,2,3:2:0:0:
195,146,220596,2,0,P|126:151|45:162,1,150.000005722046,12|0,0:0|0:0,0:0:0:0:
8,166,221025,1,0,0:0:0:0:
9,120,221168,1,0,0:3:0:0:
34,74,221310,1,0,0:0:0:0:
84,40,221454,1,4,3:3:0:0:
150,27,221597,1,0,0:0:0:0:
211,63,221739,6,0,B|262:99|352:63|402:81,2,194.999991073609,6|0|0,3:2|0:0|3:2,0:0:0:0:
355,152,222882,1,12,0:0:0:0:
466,0,223168,2,0,P|488:94|480:191,1,194.999991073609
512,270,223739,1,0,3:2:0:0:
334,296,224024,6,0,P|270:284|208:263,1,129.999994049073,2|0,3:2|0:0,0:0:0:0:
132,239,224453,2,0,P|84:275|100:334,1,129.999994049073,2|0,3:2|0:0,0:0:0:0:
181,348,224882,1,2,3:2:0:0:
286,201,225168,1,12,0:0:0:0:
119,151,225453,1,0,0:0:0:0:
286,201,225739,1,2,0:0:0:0:
119,151,226024,1,0,3:2:0:0:
257,0,226310,6,0,P|247:64|224:124,1,129.999994049073,6|0,3:2|0:0,0:0:0:0:
65,59,226739,2,0,P|107:11|169:16,1,129.999994049073
158,93,227167,1,0,3:2:0:0:
352,45,227453,1,12,0:0:0:0:
453,135,227739,2,0,B|503:201|444:253|444:253|398:258|373:238|359:201|373:179,1,259.999988098145,0|0,0:0|3:2,0:0:0:0:
286,211,228453,1,0,0:0:0:0:
286,211,228596,6,0,P|305:272|351:318,1,129.999994049073,2|0,3:2|0:0,0:0:0:0:
209,264,229024,2,0,P|144:257|82:239,1,129.999994049073,2|0,3:2|0:0,0:0:0:0:
20,289,229453,1,2,3:2:0:0:
167,165,229739,2,0,B|205:115|154:70|154:70|133:107|80:109,1,194.999991073609,12|0,0:0|0:0,0:0:0:0:
22,80,230310,1,2,0:0:0:0:
46,19,230453,1,8,0:0:0:0:
110,9,230596,1,4,3:3:0:0:
276,90,230882,6,0,P|273:155|249:215,1,129.999994049073,6|0,3:2|0:0,0:0:0:0:
103,276,231310,2,0,P|165:283|205:333,1,129.999994049073
135,370,231739,1,0,3:2:0:0:
313,296,232024,2,0,P|374:314|438:306,1,129.999994049073,12|0,0:0|0:0,0:0:0:0:
380,223,232596,1,0,0:0:0:0:
478,153,232882,1,0,3:2:0:0:
475,120,233024,1,0,0:0:0:0:
474,87,233167,6,0,P|411:97|349:78,1,129.999994049073,2|0,3:2|0:0,0:0:0:0:
300,217,233596,2,0,P|292:152|261:96,1,129.999994049073,2|0,3:2|0:0,0:0:0:0:
190,87,234024,1,2,3:2:0:0:
27,280,234310,1,12,0:0:0:0:
89,352,234596,1,0,0:0:0:0:
121,354,234739,1,0,0:0:0:0:
153,358,234882,1,2,0:0:0:0:
185,360,235024,1,0,0:0:0:0:
217,365,235167,1,8,3:2:0:0:
249,367,235310,1,8,0:0:0:0:
281,372,235453,6,0,P|328:306|248:296,2,194.999991073609,6|0|0,3:2|0:0|3:2,0:0:0:0:
356,217,236596,1,12,0:0:0:0:
478,384,236882,2,0,P|450:325|438:261,1,129.999994049073
486,134,237453,1,0,3:2:0:0:
474,103,237596,1,0,0:0:0:0:
458,74,237738,6,0,P|394:79|334:57,1,129.999994049073,2|0,3:2|0:0,0:0:0:0:
239,10,238167,2,0,P|178:18|149:74,1,129.999994049073,2|0,3:2|0:0,0:0:0:0:
194,164,238596,1,2,3:2:0:0:
31,13,238881,1,12,0:0:0:0:
1,154,239167,1,0,0:0:0:0:
31,13,239453,1,2,0:0:0:0:
1,154,239738,1,0,3:2:0:0:
16,182,239882,1,0,0:0:0:0:
37,206,240024,6,0,P|72:259|130:286,1,129.999994049073,6|0,3:2|0:0,0:0:0:0:
6,369,240453,2,0,P|70:374|134:364,1,129.999994049073
201,322,240881,1,0,3:2:0:0:
384,376,241167,1,12,0:0:0:0:
512,283,241453,2,0,B|462:254|390:283|330:311|262:258,1,259.999988098145,0|0,0:0|3:2,0:0:0:0:
340,199,242167,1,0,0:0:0:0:
340,199,242310,6,0,P|348:134|349:69,1,129.999994049073,2|0,3:2|0:0,0:0:0:0:
215,40,242738,2,0,P|229:103|237:167,1,129.999994049073,2|0,3:2|0:0,0:0:0:0:
160,216,243167,1,2,3:2:0:0:
439,160,243453,1,12,0:0:0:0:
479,37,243739,1,0,0:0:0:0:
447,42,243881,1,0,0:0:0:0:
415,48,244024,1,10,0:0:0:0:
382,53,244167,1,8,0:0:0:0:
349,56,244310,1,0,3:2:0:0:
158,72,244596,6,0,P|98:42|35:31,1,129.999994049073,6|0,3:2|0:0,0:0:0:0:
0,116,245025,2,0,P|48:156|54:220,1,129.999994049073
10,291,245453,1,0,3:2:0:0:
210,363,245738,2,0,P|272:346|337:343,1,129.999994049073,12|0,0:0|0:0,0:0:0:0:
485,378,246310,1,0,0:0:0:0:
427,285,246596,1,0,3:2:0:0:
431,253,246738,1,0,0:0:0:0:
435,220,246881,6,0,P|434:155|422:91,1,129.999994049073,2|0,3:2|0:0,0:0:0:0:
402,64,247310,1,2,3:2:0:0:
379,40,247453,1,0,0:0:0:0:
341,152,247738,1,2,3:2:0:0:
200,12,248024,1,12,0:0:0:0:
154,71,248310,1,0,0:0:0:0:
154,147,248596,1,0,0:3:0:0:
200,206,248881,1,4,3:3:0:0:
194,238,249025,1,0,0:0:0:0:
186,271,249168,5,2,0:0:0:0:
126,307,249453,1,0,0:0:0:0:
56,298,249739,1,2,0:0:0:0:
186,271,250025,1,0,0:0:0:0:
126,307,250310,1,0,0:0:0:0:
56,298,250596,1,2,0:0:0:0:
186,271,250882,1,0,0:0:0:0:
126,307,251168,1,0,0:0:0:0:
305,358,251453,5,2,0:0:0:0:
299,288,251739,1,0,0:0:0:0:
357,250,252024,1,2,0:0:0:0:
305,358,252310,1,0,0:0:0:0:
299,288,252596,1,0,0:0:0:0:
357,250,252881,1,2,0:0:0:0:
305,358,253168,1,2,0:0:0:0:
302,323,253310,1,0,0:0:0:0:
299,288,253454,1,2,0:0:0:0:
472,132,253738,5,2,0:0:0:0:
411,96,254025,1,0,0:0:0:0:
390,29,254310,1,2,0:0:0:0:
472,132,254596,1,0,0:0:0:0:
411,96,254883,1,0,0:0:0:0:
390,29,255168,1,2,0:0:0:0:
472,132,255453,1,0,0:0:0:0:
411,96,255740,1,0,0:0:0:0:
240,37,256025,5,2,0:0:0:0:
172,18,256310,1,0,0:0:0:0:
108,47,256596,1,2,0:0:0:0:
240,37,256882,1,0,0:0:0:0:
172,18,257167,1,0,0:0:0:0:
108,47,257453,1,2,0:0:0:0:
240,37,257739,1,2,0:0:0:0:
108,47,258025,1,2,0:0:0:0:
29,247,258310,5,2,0:0:0:0:
106,266,258596,1,0,0:0:0:0:
182,244,258881,1,2,0:0:0:0:
29,247,259168,1,0,0:0:0:0:
106,266,259454,1,0,0:0:0:0:
182,244,259739,1,2,0:0:0:0:
29,247,260025,1,0,0:0:0:0:
106,266,260311,1,0,0:0:0:0:
275,343,260595,5,2,0:0:0:0:
303,268,260881,1,0,0:0:0:0:
286,189,261168,1,2,0:0:0:0:
275,343,261453,1,0,0:0:0:0:
303,268,261739,1,0,0:0:0:0:
286,189,262026,1,2,0:0:0:0:
275,343,262310,1,2,0:0:0:0:
294,307,262453,1,0,0:0:0:0:
303,268,262596,1,2,0:0:0:0:
323,39,262882,5,2,0:0:0:0:
363,107,263167,1,0,0:0:0:0:
442,96,263453,1,2,0:0:0:0:
323,39,263739,1,0,0:0:0:0:
363,107,264024,1,0,0:0:0:0:
442,96,264310,1,2,0:0:0:0:
323,39,264596,1,0,0:0:0:0:
363,107,264881,1,0,0:0:0:0:
256,192,265168,5,2,0:0:0:0:
256,192,265310,12,0,274882,0:0:0:0:
