osu file format v14

[General]
AudioFilename: audio.mp3
AudioLeadIn: 0
PreviewTime: 73327
Countdown: 0
SampleSet: Soft
StackLeniency: 0.4
Mode: 0
LetterboxInBreaks: 0
WidescreenStoryboard: 0

[Editor]
DistanceSpacing: 0.4
BeatDivisor: 4
GridSize: 32
TimelineZoom: 2

[Metadata]
Title:aquamarine
TitleUnicode:aquamarine
Artist:garnet feat. F9
ArtistUnicode:garnet feat. F9
Creator:Shurelia
Version:deep blue
Source:
Tags:japanese pop ducky- angelina star stream star_stream Kalibe Silent Rock hauynite narry kiyono
BeatmapID:3182198
BeatmapSetID:1557792

[Difficulty]
HPDrainRate:5.8
CircleSize:4.2
OverallDifficulty:8.2
ApproachRate:8.8
SliderMultiplier:2
SliderTickRate:1

[Events]
//Background and Video events
0,0,"65118818_p0.jpg",0,0
//Break Periods
//Storyboard Layer 0 (Background)
//Storyboard Layer 1 (Fail)
//Storyboard Layer 2 (Pass)
//Storyboard Layer 3 (Foreground)
//Storyboard Layer 4 (Overlay)
//Storyboard Sound Samples

[TimingPoints]
2931,361.44578313253,3,2,7,46,1,0
2931,-200,3,2,7,46,0,0
20280,-125,3,2,7,52,0,0
37629,-100,3,2,6,59,0,0
38714,-100,3,2,7,59,0,0
38804,-100,3,2,6,59,0,0
40882,-100,3,2,7,59,0,0
40973,-100,3,2,6,59,0,0
43051,-100,3,2,7,59,0,0
43141,-100,3,2,6,59,0,0
45220,-100,3,2,7,59,0,0
45310,-100,3,2,6,59,0,0
45943,-200,3,2,4,59,0,0
46304,-100,3,2,6,59,0,0
47388,-100,3,2,7,59,0,0
49557,-100,3,2,7,59,0,0
49647,-100,3,2,6,59,0,0
51726,-100,3,2,7,59,0,0
51816,-100,3,2,6,59,0,0
53894,-100,3,2,7,59,0,0
53985,-100,3,2,6,59,0,0
54617,-200,3,2,4,59,0,0
54979,-100,3,2,7,64,0,0
63292,-100,3,2,4,64,0,0
63473,-100,3,2,7,64,0,0
63653,-200,3,2,7,42,0,0
64738,-200,3,2,7,47,0,0
67991,-100,3,2,7,64,0,0
71967,-100,3,2,4,64,0,0
72328,-100,3,2,7,64,0,0
73051,-333.333333333333,3,2,4,64,0,0
73412,-100,3,2,7,64,0,0
73503,-100,3,2,7,64,0,0
73593,-100,3,2,7,64,0,0
73684,-100,3,2,7,64,0,0
73774,-100,3,2,7,68,0,0
73864,-100,3,2,7,68,0,0
73955,-100,3,2,7,68,0,0
74045,-100,3,2,7,68,0,0
74135,-100,3,2,7,72,0,0
74226,-100,3,2,7,72,0,0
74316,-100,3,2,7,72,0,0
74406,-100,3,2,7,72,0,0
74497,-76.9230769230769,3,2,7,75,0,1
91123,-76.9230769230769,3,2,7,75,0,1
91214,-76.9230769230769,3,2,7,61,0,1
91304,-76.9230769230769,3,2,7,75,0,1
91394,-76.9230769230769,3,2,7,75,0,1
91485,-76.9230769230769,3,2,7,75,0,1
91575,-76.9230769230769,3,2,7,75,0,1
91665,-76.9230769230769,3,2,7,75,0,1
91756,-76.9230769230769,3,2,7,88,0,0
91846,-76.9230769230769,3,2,7,77,0,1
104226,-76.9230769230769,3,2,7,72,0,1
104316,-76.9230769230769,3,2,7,72,0,1
104406,-76.9230769230769,3,2,7,72,0,1
104497,-76.9230769230769,3,2,7,67,0,1
104587,-76.9230769230769,3,2,7,67,0,1
104677,-76.9230769230769,3,2,7,67,0,1
104768,-76.9230769230769,3,2,7,67,0,1
104858,-100,3,2,7,61,0,0
121485,-100,3,2,7,61,0,0
121575,-100,3,2,7,61,0,0
121665,-100,3,2,7,61,0,0
121756,-100,3,2,7,61,0,0
121846,-100,3,2,7,61,0,0
121937,-100,3,2,7,61,0,0
122027,-100,3,2,7,61,0,0
122117,-100,3,2,7,61,0,0
122208,-86.9565217391304,3,2,7,71,0,0
140280,-86.9565217391304,3,2,4,71,0,0
140641,-86.9565217391304,3,2,7,71,0,0
140732,-86.9565217391304,3,2,7,71,0,0
140822,-86.9565217391304,3,2,7,71,0,0
140912,-86.9565217391304,3,2,7,71,0,0
141003,-86.9565217391304,3,2,7,61,0,0
141093,-86.9565217391304,3,2,7,61,0,0
141184,-86.9565217391304,3,2,7,61,0,0
141274,-86.9565217391304,3,2,7,61,0,0
141364,-86.9565217391304,3,2,7,51,0,0
141455,-86.9565217391304,3,2,7,51,0,0
141545,-86.9565217391304,3,2,7,51,0,0
141635,-86.9565217391304,3,2,7,51,0,0
141726,-86.9565217391304,3,2,7,47,0,0
143894,-86.9565217391304,3,2,7,35,0,0
144256,-125,3,2,7,47,0,0
156906,-125,3,2,7,47,0,0
158352,-125,3,2,7,61,0,0
158443,-125,3,2,7,61,0,0
158533,-125,3,2,7,61,0,0
158623,-125,3,2,7,61,0,0
158714,-125,3,2,7,69,0,0
158804,-125,3,2,7,69,0,0
158894,-125,3,2,7,69,0,0
158985,-125,3,2,7,69,0,0
159075,-125,3,2,7,69,0,0
160521,-125,3,2,7,69,0,0
160611,-125,3,2,7,69,0,0
160702,-125,3,2,7,69,0,0
160792,-125,3,2,7,69,0,0
160882,-125,3,2,7,73,0,0
160973,-125,3,2,7,73,0,0
161063,-125,3,2,7,73,0,0
161153,-125,3,2,7,73,0,0
161244,-76.9230769230769,3,2,7,77,0,1
173623,-76.9230769230769,3,2,7,77,0,1
173714,-76.9230769230769,3,2,7,77,0,1
173804,-76.9230769230769,3,2,7,77,0,1
173894,-76.9230769230769,3,2,7,66,0,1
173985,-76.9230769230769,3,2,7,66,0,1
174075,-76.9230769230769,3,2,7,66,0,1
174165,-76.9230769230769,3,2,7,66,0,1
174256,-100,3,2,7,61,0,0
190973,-100,3,2,7,61,0,0
191063,-100,3,2,7,61,0,0
191153,-100,3,2,7,61,0,0
191244,-100,3,2,7,61,0,0
191334,-100,3,2,7,61,0,0
191424,-100,3,2,7,61,0,0
191515,-100,3,2,7,61,0,0
191605,-100,3,2,7,61,0,0
196123,-100,3,2,7,59,0,0
196304,-100,3,2,7,57,0,0
196485,-100,3,2,7,55,0,0
196665,-100,3,2,7,53,0,0
196846,-100,3,2,7,51,0,0
197027,-100,3,2,7,49,0,0
197208,-100,3,2,7,47,0,0
197388,-100,3,2,7,45,0,0
197569,-100,3,2,7,43,0,0
197659,-100,3,2,7,41,0,0
197750,-100,3,2,7,39,0,0
197930,-100,3,2,7,37,0,0
198111,-100,3,2,7,35,0,0
198382,-100,3,2,7,33,0,0
198653,-100,3,2,7,31,0,0
198834,-100,3,2,7,29,0,0
199015,-100,3,2,7,27,0,0
199196,-100,3,2,7,25,0,0
199376,-100,3,2,7,23,0,0
199557,-100,3,2,7,21,0,0
199738,-100,3,2,7,19,0,0
199918,-100,3,2,7,17,0,0
200099,-100,3,2,7,15,0,0
200190,-100,3,2,7,15,0,0
200280,-100,3,2,7,13,0,0

[Colours]
Combo1 : 18,124,255
Combo2 : 88,177,231

[HitObjects]
256,192,2027,12,0,2750,0:0:0:0:
331,201,2931,6,0,P|379:194|414:228,1,100,6|0,0:0|0:0,0:0:0:0:
421,302,3473,1,2,0:0:0:0:
350,281,3653,1,2,0:0:0:0:
478,35,4015,1,2,0:0:0:0:
478,34,5099,2,0,P|428:42|378:44,1,100,2|0,0:0|0:0,0:0:0:0:
260,44,5822,1,2,0:0:0:0:
28,34,6184,1,4,0:0:0:0:
445,219,7087,2,0,L|456:215,2,12.5
441,252,7268,6,0,B|403:263|380:252|341:257,1,100,2|0,0:0|0:0,0:0:0:0:
278,297,7810,1,2,0:0:0:0:
341,337,7991,1,2,0:0:0:0:
26,143,8352,1,2,0:0:0:0:
26,143,9437,2,0,P|33:192|41:241,1,100,2|0,0:0|0:0,0:0:0:0:
63,313,9979,1,2,0:0:0:0:
19,373,10159,1,2,0:0:0:0:
256,90,10521,1,4,0:0:0:0:
178,108,10882,1,2,0:0:0:0:
99,124,11244,1,2,0:0:0:0:
220,332,11424,2,0,L|221:344,2,12.5
219,324,11605,6,0,P|268:318|323:332,1,100,2|0,0:0|0:0,0:0:0:0:
380,369,12147,1,2,0:0:0:0:
449,341,12328,1,2,0:0:0:0:
256,29,12690,1,2,0:0:0:0:
256,29,13774,2,0,P|206:25|156:28,1,100,2|0,0:0|0:0,0:0:0:0:
61,144,14497,1,2,0:0:0:0:
249,365,14858,1,4,0:0:0:0:
249,365,15762,2,0,L|236:363,2,12.5
271,351,15943,6,0,P|319:362|369:361,1,100,2|0,0:0|0:0,0:0:0:0:
420,305,16485,1,2,0:0:0:0:
436,232,16665,1,2,0:0:0:0:
33,37,17027,1,2,0:0:0:0:
33,37,18111,2,0,P|23:85|21:135,1,100,2|0,0:0|0:0,0:0:0:0:
92,161,18653,1,0,0:0:0:0:
114,89,18834,1,2,0:0:0:0:
319,358,19196,1,6,0:0:0:0:
275,290,19557,1,2,0:0:0:0:
235,220,19918,1,2,0:0:0:0:
106,364,20099,2,0,L|122:368,2,16.6666666666667
87,358,20280,5,2,0:0:0:0:
87,358,20641,1,2,0:0:0:0:
30,297,20822,2,0,B|11:254|15:222|15:222|26:193|57:151,1,160,2|0,0:0|0:0,0:0:0:0:
166,159,21364,2,0,B|185:207|188:238|188:238|184:270|154:306,1,160,2|2,0:0|0:0,0:0:0:0:
120,30,22087,1,2,0:0:0:0:
197,78,22449,6,0,B|269:66|274:137|345:121,1,160,2|2,0:0|0:0,0:0:0:0:
428,74,22991,1,2,0:0:0:0:
428,74,23352,1,2,0:0:0:0:
477,153,23533,2,0,B|482:208|468:268|469:312,1,160,6|0,0:0|0:0,0:0:0:0:
34,339,24437,2,0,P|37:327|37:313,2,26.6666666666667
33,358,24617,6,0,B|86:372|121:291|180:313,1,160,2|2,0:0|0:0,0:0:0:0:
253,353,25159,2,0,P|292:358|332:356,1,80,2|0,0:0|0:0,0:0:0:0:
508,355,25520,1,2,0:0:0:0:
443,312,25702,2,0,B|459:251|450:207|459:153,2,160,2|2|2,0:0|0:0|0:0,0:0:0:0:
384,82,26786,6,0,P|308:59|229:48,1,160,2|0,0:0|0:0,0:0:0:0:
294,130,27328,2,0,P|214:128|134:137,1,160,2|0,0:0|0:0,0:0:0:0:
267,205,27870,1,6,0:0:0:0:
187,216,28232,1,2,0:0:0:0:
108,231,28593,1,2,0:0:0:0:
280,361,28774,2,0,P|266:364|255:358,2,26.6666666666667
327,355,28955,1,2,0:0:0:0:
327,355,29316,5,2,0:0:0:0:
176,364,29497,2,0,B|112:368|80:328|22:329,1,160,2|2,0:0|0:0,0:0:0:0:
35,247,30039,1,2,0:0:0:0:
117,89,30400,1,2,0:0:0:0:
47,49,30762,1,2,0:0:0:0:
51,147,31123,6,0,P|130:140|210:137,2,160,2|2|2,0:0|0:0|0:0,0:0:0:0:
117,222,32027,1,2,0:0:0:0:
192,70,32208,1,6,0:0:0:0:
192,70,32750,1,2,0:0:0:0:
260,26,32930,1,2,0:0:0:0:
391,75,33111,2,0,P|401:67|414:65,2,26.6666666666667
382,92,33292,6,0,B|410:119|411:140|411:140|408:171|393:202|363:230,1,160,2|0,0:0|0:0,0:0:0:0:
317,295,33834,1,2,0:0:0:0:
363,360,34015,2,0,P|402:363|442:358,1,80,2|0,0:0|0:0,0:0:0:0:
235,288,34376,2,0,B|196:265|166:252|166:252|115:248|87:271,1,160,2|2,0:0|0:0,0:0:0:0:
279,363,35099,1,2,0:0:0:0:
474,141,35461,6,0,P|462:65|393:33,1,160,2|2,0:0|0:0,0:0:0:0:
153,157,36184,1,2,0:0:0:0:
232,182,36545,1,6,0:0:0:0:
79,28,36906,1,0,3:0:0:0:
42,96,37087,1,0,3:0:0:0:
80,163,37268,1,0,0:0:0:0:
74,186,37358,1,0,3:0:0:0:
67,209,37449,1,0,3:0:0:0:
61,232,37539,1,0,3:0:0:0:
54,261,37629,6,0,P|58:310|60:360,1,100,4|0,0:1|0:0,0:0:0:0:
131,360,37991,1,10,0:0:0:0:
168,251,38171,2,0,B|239:252|280:177|352:183,1,200,2|2,3:2|3:2,0:0:0:0:
323,263,38714,2,0,P|311:312|304:362,1,100,10|0,0:0|3:0,0:0:0:0:
435,179,39075,2,0,P|427:129|416:81,1,100,10|0,0:0|3:0,0:0:0:0:
218,24,39437,1,10,0:2:0:0:
195,43,39528,1,0,3:0:0:0:
189,73,39618,1,0,3:0:0:0:
206,98,39708,1,0,3:0:0:0:
223,115,39798,6,0,B|145:116|96:84|24:92,1,200,10|10,0:0|0:0,0:0:0:0:
82,243,40340,1,2,3:2:0:0:
150,213,40521,1,8,0:0:0:0:
248,332,40702,1,2,3:2:0:0:
322,284,40882,1,10,0:0:0:0:
352,284,40973,1,0,3:0:0:0:
376,300,41063,1,0,3:0:0:0:
405,297,41153,1,0,3:0:0:0:
431,310,41244,2,0,P|427:260|425:210,1,100,4|0,0:3|3:0,0:0:0:0:
400,27,41605,1,0,1:0:0:0:
450,90,41786,1,4,3:0:0:0:
333,184,41967,6,0,P|283:178|234:168,1,100,4|0,0:3|3:0,0:0:0:0:
148,24,42328,1,10,0:0:0:0:
65,130,42509,2,0,P|114:124|163:114,1,100,2|8,3:2|0:0,0:0:0:0:
345,27,42870,1,2,3:2:0:0:
439,174,43051,2,0,P|449:223|462:272,1,100,10|0,0:0|3:0,0:0:0:0:
328,270,43412,2,0,P|325:319|325:369,1,100,10|0,0:0|3:0,0:0:0:0:
200,265,43774,1,10,0:0:0:0:
176,283,43864,1,0,3:0:0:0:
152,301,43955,1,0,3:0:0:0:
129,320,44045,1,0,3:0:0:0:
103,336,44135,6,0,P|90:289|64:246,1,100,10|0,0:0|3:0,0:0:0:0:
149,216,44497,2,0,P|113:181|69:156,1,100,8|2,0:0|3:2,0:0:0:0:
202,78,44858,2,0,P|250:67|296:48,1,100,8|0,0:0|3:0,0:0:0:0:
247,163,45220,1,10,0:0:0:0:
275,154,45310,1,0,3:0:0:0:
303,144,45400,1,0,3:0:0:0:
331,133,45491,1,0,3:0:0:0:
358,120,45581,1,8,0:0:0:0:
203,240,45762,1,0,3:0:0:0:
432,161,45943,6,0,P|442:183|446:208,1,50,2|0,0:0|0:0,0:0:0:0:
436,260,46214,1,0,0:0:0:0:
418,314,46304,6,0,B|357:298|302:368|224:349,1,200,4|10,0:0|3:2,0:0:0:0:
75,321,46846,2,0,P|158:269|256:272,1,200,2|2,3:2|3:2,0:0:0:0:
432,161,47388,2,0,L|459:64,1,100,10|0,0:0|3:0,0:0:0:0:
257,272,47750,2,0,L|284:368,1,100,10|0,0:0|3:0,0:0:0:0:
94,155,48111,1,10,0:0:0:0:
93,124,48202,1,0,3:0:0:0:
77,98,48292,1,0,3:0:0:0:
51,83,48382,1,0,3:0:0:0:
22,86,48473,6,0,B|173:87|50:49|213:50,1,200,10|10,0:0|0:0,0:0:0:0:
302,201,49015,2,0,P|211:216|181:129,1,200,2|2,3:2|3:2,0:0:0:0:
345,21,49557,1,10,0:0:0:0:
369,38,49647,1,0,3:0:0:0:
380,65,49738,1,0,3:0:0:0:
388,93,49828,1,0,3:0:0:0:
377,121,49918,1,8,0:0:0:0:
377,121,50280,1,10,3:2:0:0:
302,201,50461,1,2,3:2:0:0:
166,43,50641,6,0,B|122:47|95:52|95:52|46:98|36:164,1,200,10|8,0:0|0:0,0:0:0:0:
38,184,51364,2,0,P|64:226|96:264,1,100,10|0,0:0|3:0,0:0:0:0:
338,353,51726,2,0,P|388:348|437:336,1,100,10|0,0:0|3:0,0:0:0:0:
208,208,52087,2,0,P|256:218|306:223,1,100,10|0,0:0|3:0,0:0:0:0:
332,124,52449,1,10,0:0:0:0:
370,132,52539,1,0,3:0:0:0:
408,142,52629,1,0,3:0:0:0:
447,151,52720,1,0,3:0:0:0:
485,160,52810,6,0,P|478:111|477:61,1,100,10|0,0:0|3:0,0:0:0:0:
384,43,53171,1,8,0:0:0:0:
294,48,53352,1,0,3:0:0:0:
225,112,53533,2,0,P|223:161|217:211,1,100,8|0,0:0|3:0,0:0:0:0:
87,353,53894,1,10,0:0:0:0:
48,340,53985,1,0,3:0:0:0:
48,300,54075,1,0,3:0:0:0:
87,288,54165,1,0,3:0:0:0:
110,320,54256,1,8,0:0:0:0:
110,320,54617,2,0,L|198:315,1,75,2|0,0:0|0:0,0:0:0:0:
184,315,54979,6,0,P|220:347|269:351,1,100,12|0,0:0|3:0,0:0:0:0:
266,252,55340,1,2,3:2:0:0:
266,252,55521,2,0,P|229:219|180:215,1,100,2|0,1:2|3:2,0:0:0:0:
60,272,55882,1,2,3:2:0:0:
18,173,56063,2,0,P|26:124|29:74,1,100,12|0,0:0|3:0,0:0:0:0:
233,0,56424,2,0,P|236:49|244:99,1,100,2|0,3:2|1:0,0:0:0:0:
419,142,56786,1,2,0:0:0:0:
419,142,56967,1,0,3:0:0:0:
482,188,57147,6,0,P|472:238|465:287,1,100,2|0,0:0|3:0,0:0:0:0:
510,384,57509,1,0,3:0:0:0:
367,315,57690,2,0,P|318:304|268:300,1,100,2|0,1:2|3:0,0:0:0:0:
201,344,58051,1,2,3:2:0:0:
15,365,58232,1,10,0:0:0:0:
39,295,58412,1,0,3:0:0:0:
174,227,58593,1,0,3:0:0:0:
160,157,58774,1,0,1:0:0:0:
36,58,58955,1,2,3:2:0:0:
42,134,59135,1,0,3:0:0:0:
71,129,59226,1,0,3:0:0:0:
97,123,59316,6,0,P|146:114|195:103,1,100,6|0,0:0|3:0,0:0:0:0:
373,32,59677,1,2,3:2:0:0:
329,107,59858,2,0,P|343:155|363:201,1,100,2|0,1:2|3:0,0:0:0:0:
362,360,60220,1,2,3:2:0:0:
214,330,60400,2,0,P|233:284|248:236,1,100,10|0,0:0|3:0,0:0:0:0:
29,107,60762,2,0,P|43:154|63:200,1,100,10|0,3:2|1:0,0:0:0:0:
245,30,61123,2,0,P|290:11|340:11,1,100,2|0,3:2|3:0,0:0:0:0:
374,29,61394,1,0,3:0:0:0:
406,55,61485,6,0,L|501:25,1,100,2|0,0:2|3:0,0:0:0:0:
319,169,61846,1,0,3:0:0:0:
219,119,62027,2,0,L|123:89,1,100,2|0,1:2|3:0,0:0:0:0:
226,257,62388,1,2,3:2:0:0:
305,68,62569,1,6,1:2:0:0:
421,359,62930,1,0,3:0:0:0:
477,249,63111,1,0,1:0:0:0:
306,363,63292,1,2,0:0:0:0:
203,319,63473,1,0,3:0:0:0:
164,330,63563,1,0,3:0:0:0:
128,343,63653,1,4,0:1:0:0:
476,89,64738,5,6,0:0:0:0:
36,58,65822,2,0,B|70:48|79:35|79:35|92:46|127:47,2,100,2|2|2,0:0|0:0|0:0,0:0:0:0:
91,123,66906,2,0,P|98:172|106:221,1,100,6|0,0:0|0:0,0:0:0:0:
16,364,67629,1,2,3:2:0:0:
153,311,67810,1,0,3:0:0:0:
207,304,67900,1,0,3:0:0:0:
260,297,67991,1,4,0:1:0:0:
260,297,68352,5,12,0:3:0:0:
333,179,68533,1,0,1:0:0:0:
415,294,68714,1,8,3:0:0:0:
427,319,68804,1,0,3:0:0:0:
443,347,68894,1,0,3:0:0:0:
186,175,69075,2,0,P|194:126|204:77,1,100,8|0,1:2|3:0,0:0:0:0:
390,50,69437,1,4,3:0:0:0:
341,36,69527,1,0,3:0:0:0:
293,22,69617,1,0,1:0:0:0:
451,161,69798,1,8,3:0:0:0:
484,139,69888,1,0,3:0:0:0:
495,100,69979,1,0,3:0:0:0:
358,282,70159,6,0,P|308:277|258:270,1,100,4|0,0:1|3:0,0:0:0:0:
78,226,70521,1,4,3:0:0:0:
148,319,70702,1,0,1:0:0:0:
194,128,70882,1,0,3:0:0:0:
205,89,70973,1,0,3:0:0:0:
217,51,71063,1,4,3:0:0:0:
358,282,71244,2,0,P|308:277|258:270,1,100,2|0,1:2|3:0,0:0:0:0:
78,201,71605,1,4,3:0:0:0:
39,194,71695,1,0,3:0:0:0:
0,186,71786,1,0,1:0:0:0:
256,13,71967,2,0,B|271:52|228:122|250:160,1,150,2|0,0:0|0:0,0:0:0:0:
276,175,72328,1,4,0:3:0:0:
275,175,73051,6,0,P|295:163|317:160,1,44.999998626709,2|0,0:0|0:0,0:0:0:0:
357,162,73412,5,4,3:0:0:0:
393,180,73503,1,2,0:0:0:0:
409,216,73593,1,2,0:0:0:0:
406,256,73684,1,2,0:0:0:0:
440,219,73774,5,4,3:0:0:0:
455,171,73864,1,2,0:0:0:0:
444,121,73955,1,2,0:0:0:0:
416,79,74045,1,2,0:0:0:0:
369,41,74135,5,4,3:0:0:0:
310,24,74226,1,2,0:0:0:0:
251,33,74316,1,2,0:0:0:0:
204,70,74406,1,2,0:0:0:0:
181,123,74497,6,0,B|194:206|158:290|168:382,1,259.999988098145,4|12,0:1|3:0,0:0:0:0:
26,374,75039,2,0,B|28:328|46:308|43:245,1,129.999994049073,2|0,0:0|3:0,0:0:0:0:
44,246,75400,1,12,0:3:0:0:
75,85,75581,2,0,P|134:62|199:67,1,129.999994049073,6|0,1:2|0:0,0:0:0:0:
308,165,75943,2,0,P|372:156|436:149,1,129.999994049073,8|0,3:0|0:0,0:0:0:0:
161,283,76304,2,0,P|226:291|290:300,1,129.999994049073,12|0,3:0|1:0,0:0:0:0:
316,321,76575,1,4,3:0:0:0:
345,340,76665,6,0,P|339:253|426:250,2,194.999991073609,12|4|4,3:0|0:3|0:3,0:0:0:0:
432,333,77388,1,0,3:0:0:0:
437,342,77569,1,4,0:3:0:0:
474,179,77750,2,0,P|463:114|453:50,1,129.999994049073,2|0,1:2|3:0,0:0:0:0:
165,58,78111,2,0,P|109:90|63:135,1,129.999994049073,12|0,3:0|0:0,0:0:0:0:
309,344,78473,2,0,P|354:297|386:241,1,129.999994049073,12|4,3:0|3:0,0:0:0:0:
282,40,78744,1,4,3:0:0:0:
282,40,78834,6,0,B|199:53|115:17|23:27,1,259.999988098145,4|12,0:1|3:0,0:0:0:0:
132,244,79376,2,0,P|145:180|133:117,1,129.999994049073,2|0,0:0|3:0,0:0:0:0:
66,176,79737,1,12,0:3:0:0:
307,56,79918,2,0,P|371:51|430:24,1,129.999994049073,4|0,1:1|0:0,0:0:0:0:
243,228,80280,2,0,P|236:293|227:357,1,129.999994049073,2|0,3:2|3:0,0:0:0:0:
512,206,80641,2,0,P|503:141|495:77,1,129.999994049073,12|0,0:3|1:0,0:0:0:0:
470,109,80912,1,4,3:0:0:0:
446,138,81003,6,0,B|395:186|290:141|290:141|318:133,2,194.999991073609,12|4|4,3:0|0:3|0:3,0:0:0:0:
384,71,81726,1,0,3:0:0:0:
377,61,81906,1,4,0:3:0:0:
134,96,82087,2,0,P|69:92|5:78,1,129.999994049073,2|0,1:2|0:0,0:0:0:0:
22,372,82448,2,0,P|86:358|151:353,1,129.999994049073,12|0,3:0|0:0,0:0:0:0:
383,350,82810,2,0,P|446:363|511:369,1,129.999994049073,12|4,3:0|3:0,0:0:0:0:
257,232,83081,1,4,3:0:0:0:
257,232,83171,6,0,B|196:174|91:216|28:121,1,259.999988098145,4|2,0:1|0:0,0:0:0:0:
257,232,83714,2,0,B|318:174|423:216|485:121,1,259.999988098145,2|4,3:2|0:3,0:0:0:0:
127,14,84256,2,0,P|135:78|141:143,1,129.999994049073,2|0,1:2|0:0,0:0:0:0:
383,350,84617,2,0,P|388:285|397:220,1,129.999994049073,2|0,3:2|3:0,0:0:0:0:
284,132,84979,2,0,P|273:71|324:36,1,129.999994049073,2|2,3:2|3:2,0:0:0:0:
352,53,85250,1,2,0:0:0:0:
378,73,85340,6,0,P|280:77|183:81,2,194.999991073609,14|12|12,3:0|0:3|0:3,0:0:0:0:
461,120,86063,1,0,3:0:0:0:
464,127,86244,1,12,0:3:0:0:
286,377,86424,1,4,1:1:0:0:
286,377,86786,1,4,3:0:0:0:
147,269,86967,1,0,0:0:0:0:
308,197,87147,1,12,3:0:0:0:
82,361,87328,1,4,3:0:0:0:
54,302,87418,1,4,3:0:0:0:
30,240,87509,1,4,0:1:0:0:
30,240,87870,5,12,0:3:0:0:
192,151,88051,2,0,P|254:132|310:101,1,129.999994049073,2|0,1:2|3:0,0:0:0:0:
407,36,88412,1,6,0:3:0:0:
497,323,88593,2,0,P|446:283|383:266,1,129.999994049073,4|0,3:1|3:0,0:0:0:0:
58,302,88955,2,0,P|109:342|172:359,1,129.999994049073,12|0,0:3|1:0,0:0:0:0:
466,205,89316,1,8,3:0:0:0:
456,154,89406,1,0,0:0:0:0:
435,106,89497,1,4,3:0:0:0:
401,66,89587,1,0,0:0:0:0:
355,38,89677,6,0,P|291:28|226:23,1,129.999994049073,4|0,0:1|3:0,0:0:0:0:
0,171,90039,1,12,3:0:0:0:
0,60,90220,2,0,P|64:66|129:74,1,129.999994049073,2|0,1:2|3:0,0:0:0:0:
344,219,90581,1,4,0:3:0:0:
94,348,90762,2,0,P|84:252|132:169,1,194.999991073609,4|2,0:1|0:2,0:0:0:0:
154,152,91123,1,2,1:2:0:0:
182,141,91214,1,2,0:0:0:0:
214,136,91304,1,2,0:0:0:0:
246,139,91394,1,2,0:0:0:0:
302,171,91485,1,2,1:2:0:0:
344,219,91575,1,2,0:0:0:0:
369,278,91665,1,2,0:0:0:0:
364,343,91756,1,2,0:0:0:0:
317,384,91846,6,0,P|325:255|336:125,1,259.999988098145,4|0,0:1|1:0,0:0:0:0:
469,27,92388,1,8,3:0:0:0:
291,16,92569,1,2,1:2:0:0:
377,51,92750,1,12,3:0:0:0:
150,26,92930,1,2,1:2:0:0:
142,371,93292,1,2,1:2:0:0:
209,268,93473,1,0,0:0:0:0:
32,359,93653,1,2,1:2:0:0:
32,359,93834,1,0,1:0:0:0:
20,315,93924,1,0,1:0:0:0:
7,270,94015,1,4,3:1:0:0:
108,211,94196,5,0,0:0:0:0:
209,268,94376,1,2,1:2:0:0:
325,280,94557,1,4,3:0:0:0:
427,223,94738,1,2,1:2:0:0:
448,108,94918,1,4,3:0:0:0:
390,6,95099,1,0,1:2:0:0:
390,6,95461,2,0,P|397:70|402:135,1,129.999994049073,2|4,1:2|3:0,0:0:0:0:
400,374,95822,1,12,0:3:0:0:
379,357,95912,1,0,3:0:0:0:
356,343,96003,1,2,1:2:0:0:
332,332,96093,1,2,1:2:0:0:
305,327,96184,6,0,P|241:324|176:323,1,129.999994049073,4|0,1:0|3:0,0:0:0:0:
29,197,96545,1,12,0:3:0:0:
135,126,96726,2,0,P|120:189|108:253,1,129.999994049073,4|0,1:0|3:0,0:0:0:0:
22,366,97087,1,12,3:0:0:0:
240,107,97268,5,4,1:0:0:0:
206,307,97449,1,0,3:0:0:0:
392,384,97629,1,4,1:0:0:0:
358,184,97810,1,2,3:2:0:0:
512,74,97991,1,4,1:0:0:0:
492,212,98172,1,4,0:3:0:0:
178,46,98352,6,0,B|128:46|98:66|49:62,1,129.999994049073,4|0,1:0|3:0,0:0:0:0:
163,285,98714,1,4,0:3:0:0:
173,130,98894,1,4,1:0:0:0:
39,293,99075,1,0,3:0:0:0:
28,195,99256,1,4,3:0:0:0:
260,370,99437,6,0,P|347:329|441:303,1,194.999991073609,4|0,0:1|3:0,0:0:0:0:
448,285,99798,2,0,P|483:230|507:170,1,129.999994049073,4|2,0:3|0:2,0:0:0:0:
403,28,100159,1,12,3:0:0:0:
279,262,100340,1,2,1:2:0:0:
279,262,100430,1,2,1:2:0:0:
279,261,100521,2,0,P|301:139|210:54,1,259.999988098145,4|4,0:1|3:0,0:0:0:0:
130,204,101063,1,4,1:0:0:0:
130,204,101424,5,4,3:0:0:0:
219,37,101605,2,0,P|281:22|346:26,1,129.999994049073,4|0,1:0|0:0,0:0:0:0:
443,197,101967,2,0,P|456:260|464:325,1,129.999994049073,8|0,3:0|0:0,0:0:0:0:
250,252,102328,2,0,P|246:316|237:381,1,129.999994049073,12|4,3:0|3:0,0:0:0:0:
37,202,102690,2,0,P|37:140|85:99,1,129.999994049073,4|0,1:0|0:0,0:0:0:0:
166,220,102961,2,0,P|112:251|52:229,1,129.999994049073,4|0,3:0|0:0,0:0:0:0:
115,97,103232,2,0,P|168:128|180:190,1,129.999994049073,12|0,3:0|3:0,0:0:0:0:
151,371,103593,1,4,0:3:0:0:
440,334,103774,6,0,P|432:270|435:205,1,129.999994049073,4|0,1:0|3:0,0:0:0:0:
495,25,104135,1,2,1:2:0:0:
440,61,104226,1,2,0:0:0:0:
376,75,104316,1,2,0:0:0:0:
312,60,104406,1,2,0:0:0:0:
286,39,104497,1,2,1:2:0:0:
253,35,104587,1,2,0:0:0:0:
221,40,104677,1,2,0:0:0:0:
193,58,104768,1,2,0:0:0:0:
181,88,104858,6,0,P|131:82|81:75,2,100,6|0|4,0:0|0:0|0:3,0:0:0:0:
238,157,105400,2,0,P|226:205|218:254,1,100,2|0,0:0|3:0,0:0:0:0:
231,343,105761,1,4,0:3:0:0:
398,291,105943,2,0,P|356:264|308:252,1,100,2|0,1:2|0:0,0:0:0:0:
383,377,106304,1,4,3:0:0:0:
482,314,106485,1,0,3:0:0:0:
440,205,106665,1,4,3:0:0:0:
475,42,106846,1,0,3:0:0:0:
475,42,106937,1,4,3:0:0:0:
475,42,107027,6,0,P|405:50|393:119,2,150,4|4|4,0:3|0:3|0:3,0:0:0:0:
485,123,107750,1,0,3:0:0:0:
491,136,107930,1,4,0:3:0:0:
307,32,108111,2,0,P|257:37|208:44,1,100,2|0,1:2|0:0,0:0:0:0:
135,98,108473,1,4,3:0:0:0:
51,65,108653,1,0,3:0:0:0:
123,11,108834,1,4,3:0:0:0:
270,124,109015,1,4,3:0:0:0:
270,124,109105,1,4,3:0:0:0:
270,124,109196,6,0,P|277:173|283:223,1,100,4|0,0:3|0:0,0:0:0:0:
220,287,109557,1,0,3:0:0:0:
149,230,109738,2,0,P|99:239|50:245,1,100,4|0,0:3|3:0,0:0:0:0:
25,158,110099,1,4,0:3:0:0:
57,344,110280,2,0,P|106:353|155:359,1,100,2|0,1:2|0:0,0:0:0:0:
220,287,110641,1,4,3:0:0:0:
353,364,110822,1,0,0:0:0:0:
368,334,110912,1,0,0:0:0:0:
356,299,111003,1,4,3:0:0:0:
286,203,111184,1,0,3:0:0:0:
163,112,111364,6,0,B|108:117|69:80|16:88,2,150,4|4|4,0:3|0:3|0:3,0:0:0:0:
45,12,112087,1,0,3:0:0:0:
73,11,112268,1,4,0:3:0:0:
261,69,112449,2,0,P|310:60|360:58,1,100,2|0,1:2|3:0,0:0:0:0:
488,183,112810,1,4,3:0:0:0:
473,93,112991,1,4,0:3:0:0:
322,154,113171,1,0,1:0:0:0:
431,308,113352,1,4,0:3:0:0:
387,308,113443,1,4,0:3:0:0:
365,270,113533,6,0,B|294:244|262:333|177:318,1,200,4|4,0:1|3:0,0:0:0:0:
95,213,114075,2,0,P|144:214|190:233,1,100,4|0,3:0|3:0,0:0:0:0:
97,338,114436,1,4,0:3:0:0:
13,183,114617,2,0,P|27:135|36:86,1,100,2|0,1:2|0:0,0:0:0:0:
0,0,114979,1,4,0:3:0:0:
89,22,115159,1,0,3:0:0:0:
141,129,115340,1,4,3:0:0:0:
228,109,115521,1,4,3:0:0:0:
228,109,115611,1,4,3:0:0:0:
228,109,115702,6,0,P|251:173|189:203,2,150,4|4|4,0:3|0:3|0:3,0:0:0:0:
190,21,116424,1,0,0:0:0:0:
223,16,116605,1,4,0:3:0:0:
332,183,116786,2,0,P|339:232|342:282,1,100,2|0,1:2|0:0,0:0:0:0:
256,327,117147,1,4,3:0:0:0:
348,378,117328,1,0,0:0:0:0:
258,239,117509,1,4,3:0:0:0:
172,290,117690,1,4,3:0:0:0:
172,290,117780,1,4,3:0:0:0:
171,289,117870,6,0,P|128:202|37:166,1,200,4|0,0:3|3:0,0:0:0:0:
86,369,118412,2,0,P|178:332|277:336,1,200,4|4,0:3|0:3,0:0:0:0:
236,129,118955,2,0,P|187:140|149:172,1,100,2|0,1:2|0:0,0:0:0:0:
272,224,119316,1,4,3:0:0:0:
324,134,119497,1,0,0:0:0:0:
283,43,119677,1,4,3:0:0:0:
146,48,119858,1,4,3:0:0:0:
146,48,119949,1,4,3:0:0:0:
146,48,120039,6,0,P|71:49|5:17,2,150,4|4|4,0:3|0:3|0:3,0:0:0:0:
31,122,120762,1,0,3:0:0:0:
43,143,120943,1,4,0:3:0:0:
220,305,121123,2,0,P|246:211|214:118,1,200,2|2,1:2|0:0,0:0:0:0:
184,100,121575,1,2,0:0:0:0:
149,99,121665,1,2,0:0:0:0:
115,109,121756,1,2,0:0:0:0:
74,153,121846,1,2,0:0:0:0:
55,210,121937,1,2,0:0:0:0:
55,269,122027,1,2,0:0:0:0:
86,320,122117,1,2,0:0:0:0:
147,352,122208,6,0,B|227:370|311:339|376:353,1,230.000004386902,4|12,0:1|3:0,0:0:0:0:
168,194,122750,2,0,P|111:204|54:209,1,115.000002193451,2|0,1:2|3:0,0:0:0:0:
15,37,123111,1,12,0:3:0:0:
85,14,123292,2,0,P|92:70|99:128,1,115.000002193451,2|0,1:2|0:0,0:0:0:0:
239,374,123653,2,0,P|246:316|253:259,1,115.000002193451,8|4,3:0|0:3,0:0:0:0:
396,9,124015,2,0,P|403:65|410:123,1,115.000002193451,8|4,3:0|3:0,0:0:0:0:
415,166,124286,1,4,3:0:0:0:
418,219,124376,6,0,P|318:173|311:64,1,230.000004386902,12|4,0:3|3:0,0:0:0:0:
511,286,124918,2,0,P|399:304|298:359,1,230.000004386902,2|12,1:2|3:0,0:0:0:0:
499,374,125461,1,2,1:2:0:0:
114,374,126003,1,12,0:3:0:0:
236,274,126184,1,2,1:2:0:0:
43,255,126364,1,12,3:0:0:0:
43,255,126455,1,4,3:0:0:0:
43,255,126545,6,0,B|54:176|18:109|41:26,1,230.000004386902,4|12,1:0|3:0,0:0:0:0:
182,22,127087,1,2,1:2:0:0:
133,103,127268,1,0,3:0:0:0:
153,193,127449,1,12,3:0:0:0:
153,193,127539,1,0,3:0:0:0:
153,193,127629,2,0,B|202:191|235:180|267:181,1,115.000002193451,2|0,1:2|0:0,0:0:0:0:
475,249,127991,2,0,B|442:247|409:258|360:260,1,115.000002193451,8|0,3:0|1:0,0:0:0:0:
157,367,128352,2,0,B|206:365|239:354|271:355,1,115.000002193451,8|4,3:0|3:0,0:0:0:0:
246,323,128623,1,4,3:0:0:0:
219,288,128714,6,0,P|110:277|57:371,1,230.000004386902,12|4,0:3|3:0,0:0:0:0:
267,181,129256,2,0,P|283:126|295:69,1,115.000002193451,2|0,1:2|3:0,0:0:0:0:
211,9,129617,1,12,3:0:0:0:
9,205,129798,1,2,1:2:0:0:
334,272,130159,1,4,3:0:0:0:
389,208,130340,1,8,1:2:0:0:
446,319,130521,1,12,3:0:0:0:
469,174,130702,1,0,1:0:0:0:
469,174,130792,1,0,1:0:0:0:
468,174,130882,6,0,P|439:67|333:37,1,230.000004386902,4|12,0:1|3:0,0:0:0:0:
140,150,131424,2,0,B|216:135|303:148|368:136,1,230.000004386902,2|12,1:2|3:0,0:0:0:0:
215,338,131967,2,0,P|206:281|201:223,1,115.000002193451,2|0,1:2|0:0,0:0:0:0:
0,291,132328,2,0,P|33:244|70:200,1,115.000002193451,8|0,3:0|1:0,0:0:0:0:
19,62,132690,2,0,P|75:53|133:48,1,115.000002193451,12|4,3:0|3:0,0:0:0:0:
155,86,132961,1,4,3:0:0:0:
182,127,133051,6,0,P|297:125|411:114,1,230.000004386902,6|12,0:0|3:0,0:0:0:0:
220,258,133593,2,0,P|106:255|10:315,1,230.000004386902,2|12,1:2|3:0,0:0:0:0:
182,127,134135,1,2,1:2:0:0:
201,371,134497,1,0,3:0:0:0:
314,354,134677,1,4,3:0:0:0:
314,354,134768,1,0,3:0:0:0:
314,354,134858,2,0,L|442:336,1,115.000002193451,12|0,0:3|3:0,0:0:0:0:
460,352,135129,1,0,3:0:0:0:
495,370,135220,1,4,0:1:0:0:
488,240,135400,6,0,P|474:184|459:128,1,115.000002193451,0|4,0:0|3:0,0:0:0:0:
345,80,135762,1,0,1:0:0:0:
441,38,135943,1,8,3:0:0:0:
394,179,136123,1,12,3:0:0:0:
229,57,136304,2,0,P|172:63|117:79,1,115.000002193451,4|0,0:1|3:0,0:0:0:0:
289,284,136665,2,0,P|346:278|401:262,1,115.000002193451,12|0,0:3|1:0,0:0:0:0:
91,99,137027,2,0,P|54:143|27:193,1,115.000002193451,8|4,3:0|3:0,0:0:0:0:
95,358,137298,1,4,3:0:0:0:
95,358,137388,6,0,P|151:348|208:341,1,115.000002193451,4|0,0:1|3:0,0:0:0:0:
488,359,137749,2,0,P|479:302|471:245,1,115.000002193451,12|0,0:3|1:0,0:0:0:0:
308,192,138111,2,0,P|316:135|324:78,1,115.000002193451,8|4,3:0|3:0,0:0:0:0:
17,7,138473,2,0,P|24:63|33:120,1,115.000002193451,2|0,1:2|0:0,0:0:0:0:
132,268,138834,2,0,P|177:302|224:336,1,115.000002193451,12|0,3:0|1:0,0:0:0:0:
346,345,139196,2,0,P|402:337|459:328,1,115.000002193451,8|4,3:0|3:0,0:0:0:0:
498,162,139557,5,4,0:1:0:0:
462,143,139647,1,0,3:0:0:0:
453,103,139738,1,0,3:0:0:0:
486,81,139828,1,0,3:0:0:0:
501,118,139918,2,0,P|444:108|388:95,1,115.000002193451,2|4,0:0|3:0,0:0:0:0:
208,12,140280,1,6,0:0:0:0:
208,12,140641,5,4,0:3:0:0:
215,57,140732,1,2,0:0:0:0:
221,101,140822,1,2,0:0:0:0:
227,146,140912,1,2,0:0:0:0:
253,168,141003,1,4,0:3:0:0:
252,202,141093,1,2,0:0:0:0:
249,236,141184,1,2,0:0:0:0:
246,270,141274,1,2,0:0:0:0:
226,282,141364,1,4,0:3:0:0:
226,305,141455,1,2,0:0:0:0:
227,327,141545,1,2,0:0:0:0:
229,349,141635,1,2,0:0:0:0:
256,382,141726,5,4,0:0:0:0:
256,192,141816,12,4,143894,0:0:0:0:
331,83,144256,6,0,P|373:78|409:67,1,80,2|2,0:0|0:0,0:0:0:0:
409,67,144798,1,2,0:0:0:0:
384,170,144979,1,2,0:0:0:0:
384,170,145340,2,0,P|400:206|419:241,1,80,2|0,0:0|0:0,0:0:0:0:
311,219,145702,2,0,P|306:258|306:298,1,80,2|0,0:0|0:0,0:0:0:0:
228,254,146063,1,2,0:0:0:0:
228,254,146605,1,2,0:0:0:0:
228,254,146967,1,2,0:0:0:0:
122,257,147147,1,2,0:0:0:0:
177,334,147509,2,0,L|99:354,1,80,2|0,0:0|0:0,0:0:0:0:
122,257,147870,2,0,L|44:236,1,80,2|0,0:0|0:0,0:0:0:0:
31,163,148141,1,0,0:0:0:0:
31,163,148232,1,2,0:0:0:0:
31,163,148593,5,2,0:0:0:0:
68,73,148774,1,2,0:0:0:0:
68,73,149135,1,2,0:0:0:0:
156,51,149316,1,2,0:0:0:0:
156,51,149677,2,0,P|195:58|235:61,1,80,2|0,0:0|0:0,0:0:0:0:
178,176,150039,2,0,P|215:163|251:145,1,80,2|0,0:0|0:0,0:0:0:0:
275,262,150400,1,2,0:0:0:0:
275,262,150943,1,2,0:0:0:0:
275,262,151304,1,0,0:0:0:0:
216,349,151485,1,2,0:0:0:0:
216,349,151846,1,2,0:0:0:0:
295,378,152027,1,0,0:0:0:0:
368,341,152208,1,2,0:0:0:0:
458,378,152388,1,0,0:0:0:0:
458,378,152479,1,0,0:0:0:0:
458,378,152569,1,6,0:0:0:0:
458,378,153111,5,2,0:0:0:0:
458,378,153473,1,0,0:0:0:0:
495,307,153653,1,2,0:0:0:0:
495,307,154015,1,2,0:0:0:0:
438,249,154196,1,0,0:0:0:0:
489,188,154376,1,2,0:0:0:0:
492,107,154557,1,0,0:0:0:0:
428,23,154738,1,2,0:0:0:0:
428,23,155099,1,2,0:0:0:0:
363,82,155280,1,2,0:0:0:0:
363,82,155641,1,2,0:0:0:0:
277,61,155822,1,6,0:0:0:0:
277,61,156184,1,0,0:0:0:0:
298,156,156364,1,0,0:0:0:0:
213,203,156545,1,2,0:0:0:0:
142,140,156726,1,0,0:0:0:0:
162,96,156816,1,0,0:0:0:0:
182,52,156906,1,2,0:0:0:0:
182,52,157268,5,2,0:0:0:0:
88,30,157449,1,2,0:0:0:0:
40,114,157629,1,0,0:0:0:0:
104,186,157810,1,2,0:0:0:0:
47,263,157991,1,2,0:0:0:0:
47,263,158352,5,2,0:0:0:0:
77,289,158443,1,2,0:0:0:0:
114,301,158533,1,2,0:0:0:0:
153,300,158623,1,2,0:0:0:0:
192,294,158714,1,2,0:0:0:0:
226,273,158804,1,2,0:0:0:0:
282,253,158894,1,4,3:0:0:0:
340,289,158985,1,4,3:0:0:0:
398,322,159075,5,4,0:1:0:0:
398,322,159437,1,12,0:3:0:0:
472,49,159617,1,2,1:2:0:0:
504,199,159798,1,4,0:3:0:0:
328,30,159979,1,4,0:3:0:0:
76,90,160159,1,4,0:1:0:0:
76,90,160521,5,2,1:2:0:0:
70,137,160611,1,2,0:0:0:0:
63,184,160702,1,2,0:0:0:0:
56,231,160792,1,2,0:0:0:0:
81,285,160882,1,2,1:2:0:0:
139,299,160973,1,2,0:0:0:0:
195,280,161063,1,2,0:0:0:0:
223,227,161153,1,2,0:0:0:0:
213,163,161244,6,0,P|342:173|471:186,1,259.999988098145,4|0,0:1|1:0,0:0:0:0:
321,332,161786,1,8,3:0:0:0:
197,262,161967,1,2,1:2:0:0:
463,291,162147,1,12,3:0:0:0:
180,384,162328,1,2,1:2:0:0:
180,384,162690,1,2,1:2:0:0:
41,277,162870,1,0,0:0:0:0:
220,112,163051,1,2,1:2:0:0:
289,205,163232,1,0,1:0:0:0:
21,166,163412,5,4,3:1:0:0:
81,15,163593,1,0,0:0:0:0:
345,108,163774,1,2,1:2:0:0:
260,16,163955,1,4,3:0:0:0:
187,217,164135,1,2,1:2:0:0:
289,312,164316,1,4,3:0:0:0:
487,128,164497,1,0,1:2:0:0:
487,128,164858,1,2,1:2:0:0:
497,226,165039,1,4,3:0:0:0:
289,312,165220,1,12,0:3:0:0:
230,317,165310,1,0,3:0:0:0:
171,319,165400,1,2,1:2:0:0:
112,324,165491,1,2,1:2:0:0:
53,327,165581,6,0,P|44:262|39:197,1,129.999994049073,4|0,1:0|3:0,0:0:0:0:
99,9,165943,1,12,0:3:0:0:
17,73,166123,2,0,P|75:101|140:98,1,129.999994049073,4|0,1:0|3:0,0:0:0:0:
379,27,166485,1,12,3:0:0:0:
296,162,166665,5,4,1:0:0:0:
510,108,166846,1,0,3:0:0:0:
284,253,167027,1,4,1:0:0:0:
69,196,167208,1,2,3:2:0:0:
275,342,167388,1,4,1:0:0:0:
492,298,167569,1,4,0:3:0:0:
260,36,167750,2,0,P|199:30|165:81,1,129.999994049073,4|0,1:0|3:0,0:0:0:0:
176,273,168111,1,4,0:3:0:0:
261,173,168292,1,4,1:0:0:0:
275,342,168473,1,0,3:0:0:0:
356,300,168653,1,4,3:0:0:0:
474,42,168834,6,0,B|428:32|335:84|283:44,1,194.999991073609,4|0,0:1|3:0,0:0:0:0:
271,22,169196,2,0,P|206:29|141:34,1,129.999994049073,4|2,0:3|0:2,0:0:0:0:
17,166,169557,1,12,3:0:0:0:
139,202,169738,1,2,1:2:0:0:
143,176,169828,1,2,1:2:0:0:
147,150,169918,2,0,P|261:172|227:282,1,259.999988098145,4|4,0:1|3:0,0:0:0:0:
62,357,170461,1,4,1:0:0:0:
499,311,170822,1,4,3:0:0:0:
417,352,171003,6,0,P|410:287|403:222,1,129.999994049073,4|0,1:0|0:0,0:0:0:0:
497,42,171364,2,0,P|493:108|483:171,1,129.999994049073,8|0,3:0|0:0,0:0:0:0:
304,192,171726,2,0,P|294:127|290:62,1,129.999994049073,12|4,3:0|3:0,0:0:0:0:
106,81,171997,1,0,0:0:0:0:
106,81,172087,2,0,P|44:84|18:28,1,129.999994049073,4|0,1:0|0:0,0:0:0:0:
175,14,172358,2,0,P|183:78|183:143,1,129.999994049073,4|0,3:0|0:0,0:0:0:0:
144,263,172629,2,0,P|88:237|91:175,1,129.999994049073,12|0,3:0|3:0,0:0:0:0:
299,359,172991,1,4,0:3:0:0:
222,266,173171,6,0,B|291:260|347:313|410:311,1,194.999991073609,4|0,1:0|0:0,0:0:0:0:
446,329,173533,1,2,1:2:0:0:
476,272,173623,1,2,0:0:0:0:
471,206,173714,1,2,0:0:0:0:
437,150,173804,1,2,0:0:0:0:
415,117,173894,1,2,1:2:0:0:
417,77,173985,1,2,0:0:0:0:
441,46,174075,1,2,0:0:0:0:
479,46,174165,1,2,0:0:0:0:
482,60,174256,6,0,P|432:51|382:47,2,100,4|0|4,0:1|0:0|3:0,0:0:0:0:
473,147,174798,2,0,P|449:190|432:237,1,100,2|0,0:0|3:0,0:0:0:0:
397,311,175159,1,4,0:3:0:0:
328,353,175341,2,0,P|286:326|237:313,1,100,2|0,1:2|0:0,0:0:0:0:
144,352,175702,1,4,3:0:0:0:
101,267,175883,1,0,3:0:0:0:
222,184,176063,1,4,3:0:0:0:
282,115,176244,1,4,3:0:0:0:
282,115,176335,1,4,3:0:0:0:
281,115,176425,6,0,P|351:129|366:198,2,150,4|4|4,0:3|0:3|0:3,0:0:0:0:
281,204,177148,1,0,3:0:0:0:
275,217,177328,1,4,0:3:0:0:
177,72,177509,2,0,P|127:64|79:51,1,100,2|0,1:2|0:0,0:0:0:0:
179,173,177870,1,4,3:0:0:0:
87,203,178051,1,0,3:0:0:0:
177,72,178232,1,4,3:0:0:0:
270,124,178413,1,4,3:0:0:0:
270,124,178503,1,4,3:0:0:0:
269,124,178594,6,0,P|319:116|368:105,1,100,4|0,0:3|0:0,0:0:0:0:
441,15,178955,1,0,3:0:0:0:
494,99,179136,2,0,P|492:148|494:198,1,100,4|0,0:3|3:0,0:0:0:0:
467,365,179497,1,4,0:3:0:0:
404,286,179678,2,0,P|354:292|305:301,1,100,2|0,1:2|0:0,0:0:0:0:
202,362,180039,1,4,3:0:0:0:
158,258,180220,1,0,3:0:0:0:
188,243,180310,1,0,3:0:0:0:
224,249,180401,1,4,3:0:0:0:
100,369,180582,1,0,3:0:0:0:
25,311,180762,6,0,B|5:259|76:223|50:168,2,150,4|4|4,0:3|0:3|0:3,0:0:0:0:
135,192,181485,1,0,3:0:0:0:
43,81,181666,1,4,0:3:0:0:
101,30,181847,2,0,P|150:40|200:47,1,100,2|0,1:2|0:0,0:0:0:0:
340,116,182208,1,4,3:0:0:0:
263,154,182389,1,0,0:0:0:0:
408,213,182569,1,4,3:0:0:0:
477,152,182750,1,4,3:0:0:0:
477,152,182840,1,4,3:0:0:0:
477,152,182931,6,0,P|435:241|430:340,1,200,4|4,0:1|3:0,0:0:0:0:
269,285,183473,2,0,P|303:248|351:237,1,100,4|0,3:0|3:0,0:0:0:0:
346,317,183834,1,4,0:3:0:0:
271,370,184015,2,0,P|221:360|173:346,1,100,2|0,1:2|0:0,0:0:0:0:
27,272,184377,1,4,3:0:0:0:
92,192,184557,1,0,3:0:0:0:
27,59,184738,1,4,3:0:0:0:
119,14,184919,1,4,3:0:0:0:
119,14,185009,1,4,3:0:0:0:
118,13,185100,6,0,P|182:51|252:33,2,150,4|4|4,0:3|0:3|0:3,0:0:0:0:
152,121,185822,1,0,3:0:0:0:
157,154,186003,1,4,0:3:0:0:
319,75,186184,2,0,P|368:77|418:85,1,100,2|0,1:2|0:0,0:0:0:0:
503,219,186545,1,4,3:0:0:0:
413,172,186726,1,0,0:0:0:0:
425,322,186907,1,4,3:0:0:0:
331,229,187087,1,4,3:0:0:0:
331,229,187177,1,4,3:0:0:0:
330,229,187268,6,0,P|231:233|133:254,1,200,4|0,0:3|3:0,0:0:0:0:
43,106,187810,2,0,P|135:89|188:167,1,200,4|4,0:3|0:3,0:0:0:0:
77,330,188353,2,0,P|54:285|47:236,1,100,2|0,1:2|0:0,0:0:0:0:
43,106,188714,1,4,3:0:0:0:
137,55,188895,1,0,3:0:0:0:
267,109,189075,1,4,3:0:0:0:
225,201,189256,1,4,3:0:0:0:
225,201,189347,1,4,3:0:0:0:
224,200,189437,6,0,P|298:201|353:153,2,150,4|4|4,0:3|0:3|0:3,0:0:0:0:
178,280,190160,1,0,3:0:0:0:
166,301,190341,1,4,0:3:0:0:
320,333,190521,2,0,P|413:307|492:363,1,200,2|2,1:2|3:2,0:0:0:0:
493,337,190973,1,2,0:0:0:0:
486,312,191063,1,2,0:0:0:0:
470,291,191154,1,2,0:0:0:0:
447,264,191244,1,2,0:0:0:0:
441,229,191335,1,2,0:0:0:0:
439,194,191424,1,2,0:0:0:0:
443,158,191515,1,2,0:0:0:0:
442,123,191605,6,0,P|461:169|475:216,2,100,4|0|4,0:0|0:0|0:3,0:0:0:0:
331,143,192147,2,0,P|320:192|313:241,1,100,2|0,0:0|3:0,0:0:0:0:
263,80,192508,1,4,0:3:0:0:
194,26,192690,2,0,P|152:52|103:65,1,100,2|0,1:2|0:0,0:0:0:0:
0,4,193051,1,4,3:0:0:0:
19,88,193232,1,0,3:0:0:0:
144,146,193412,1,4,3:0:0:0:
83,239,193593,1,4,3:0:0:0:
83,239,193684,1,4,3:0:0:0:
83,239,193774,6,0,P|36:297|0:362,2,150,4|4|4,0:3|0:3|0:3,0:0:0:0:
138,315,194497,1,0,3:0:0:0:
116,337,194677,1,4,0:3:0:0:
217,372,194858,2,0,P|265:366|283:322,1,100,2|0,1:2|0:0,0:0:0:0:
247,237,195220,1,4,3:0:0:0:
335,216,195400,1,0,0:0:0:0:
362,378,195581,1,4,3:0:0:0:
460,352,195762,1,4,3:0:0:0:
460,352,195852,1,4,3:0:0:0:
460,352,195943,6,0,P|452:302|446:252,1,100,4|0,0:3|3:0,0:0:0:0:
475,183,196304,1,0,3:0:0:0:
427,127,196485,2,0,P|436:77|442:28,1,100,4|0,0:3|3:0,0:0:0:0:
364,66,196846,1,4,0:3:0:0:
352,146,197027,2,0,P|302:139|253:130,1,100,2|0,1:2|0:0,0:0:0:0:
242,209,197388,1,4,3:0:0:0:
315,257,197569,1,0,3:0:0:0:
328,289,197659,1,0,3:0:0:0:
320,324,197750,1,4,3:0:0:0:
248,372,197931,1,0,0:3:0:0:
179,316,198111,6,0,B|124:321|90:368|37:357,2,150,4|4|4,0:3|0:3|0:3,0:0:0:0:
125,255,198834,1,0,3:0:0:0:
123,234,199015,1,4,0:3:0:0:
32,201,199196,2,0,P|33:151|42:101,1,100,2|0,1:2|0:0,0:0:0:0:
89,49,199557,1,4,3:0:0:0:
159,34,199738,1,0,3:0:0:0:
227,62,199918,1,4,3:0:0:0:
267,131,200099,1,4,3:0:0:0:
267,131,200190,1,4,3:0:0:0:
267,131,200280,1,4,0:0:0:0:
