osu file format v14

[General]
AudioFilename: audio.mp3
AudioLeadIn: 0
PreviewTime: 73327
Countdown: 0
SampleSet: Soft
StackLeniency: 0.6
Mode: 0
LetterboxInBreaks: 0
WidescreenStoryboard: 1

[Editor]
Bookmarks: 20280,37629,54979,74497,91846,104858,122208,143894,161244,174256
DistanceSpacing: 1.8
BeatDivisor: 4
GridSize: 32
TimelineZoom: 2.2

[Metadata]
Title:aquamarine
TitleUnicode:aquamarine
Artist:garnet feat. F9
ArtistUnicode:garnet feat. F9
Creator:Shurelia
Version:collab hard
Source:
Tags:japanese pop ducky- angelina star stream star_stream Kalibe Silent Rock hauynite narry kiyono
BeatmapID:3196360
BeatmapSetID:1557792

[Difficulty]
HPDrainRate:4.5
CircleSize:4
OverallDifficulty:6
ApproachRate:8
SliderMultiplier:1.4
SliderTickRate:1

[Events]
//Background and Video events
0,0,"65118818_p0.jpg",0,0
//Break Periods
//Storyboard Layer 0 (Background)
//Storyboard Layer 1 (Fail)
//Storyboard Layer 2 (Pass)
//Storyboard Layer 3 (Foreground)
//Storyboard Layer 4 (Overlay)
//Storyboard Sound Samples

[TimingPoints]
2931,361.44578313253,3,2,7,46,1,0
2931,-125,3,2,7,46,0,0
4015,-125,3,2,7,46,0,0
5099,-125,3,2,7,46,0,0
5641,-125,3,2,7,46,0,0
5822,-125,3,2,7,46,0,0
7268,-125,3,2,7,46,0,0
9437,-125,3,2,7,46,0,0
10521,-125,3,2,7,46,0,0
11244,-125,3,2,7,46,0,0
12690,-125,3,2,7,46,0,0
14316,-125,3,2,7,46,0,0
14496,-125,3,2,7,46,0,0
14858,-125,3,2,7,46,0,0
16304,-125,3,2,7,46,0,0
17027,-125,3,2,7,46,0,0
18473,-125,3,2,7,46,0,0
19196,-125,3,2,7,46,0,0
20190,-125,3,2,7,46,0,0
20280,-133.333333333333,3,2,7,52,0,0
27508,-133.333333333333,3,2,7,52,0,0
27870,-133.333333333333,3,2,7,52,0,0
28864,-133.333333333333,3,2,7,52,0,0
28954,-133.333333333333,3,2,7,52,0,0
31665,-133.333333333333,3,2,7,52,0,0
32026,-133.333333333333,3,2,7,52,0,0
36003,-133.333333333333,3,2,7,52,0,0
36184,-133.333333333333,3,2,7,52,0,0
36455,-133.333333333333,3,2,7,52,0,0
36545,-133.333333333333,3,2,7,52,0,0
37629,-100,3,2,6,59,0,0
38714,-83.3333333333333,3,2,7,59,0,0
38804,-83.3333333333333,3,2,6,59,0,0
40882,-83.3333333333333,3,2,7,59,0,0
40973,-83.3333333333333,3,2,6,59,0,0
41244,-83.3333333333333,3,2,6,59,0,0
43051,-83.3333333333333,3,2,7,59,0,0
43141,-83.3333333333333,3,2,6,59,0,0
45220,-83.3333333333333,3,2,7,59,0,0
45310,-83.3333333333333,3,2,6,59,0,0
45581,-100,3,2,6,59,0,0
45943,-100,3,2,4,59,0,0
46304,-83.3333333333333,3,2,6,59,0,0
46846,-100,3,2,6,59,0,0
47388,-100,3,2,7,59,0,0
47479,-100,3,2,6,59,0,0
49557,-83.3333333333333,3,2,7,59,0,0
49647,-83.3333333333333,3,2,6,59,0,0
50279,-83.3333333333333,3,2,6,59,0,0
51726,-83.3333333333333,3,2,7,59,0,0
51816,-83.3333333333333,3,2,6,59,0,0
53894,-83.3333333333333,3,2,7,59,0,0
53985,-83.3333333333333,3,2,6,59,0,0
54617,-83.3333333333333,3,2,4,59,0,0
54979,-83.3333333333333,3,2,7,64,0,0
62749,-83.3333333333333,3,2,7,64,0,0
62930,-83.3333333333333,3,2,7,64,0,0
63292,-83.3333333333333,3,2,4,64,0,0
63473,-83.3333333333333,3,2,7,64,0,0
63653,-83.3333333333333,3,2,7,42,0,0
64738,-133.333333333333,3,2,7,47,0,0
65099,-133.333333333333,3,2,7,47,0,0
65822,-125,3,2,7,47,0,0
66364,-125,3,2,7,47,0,0
66545,-125,3,2,7,47,0,0
67086,-125,3,2,7,47,0,0
67268,-125,3,2,7,47,0,0
67448,-125,3,2,7,47,0,0
67629,-125,3,2,7,47,0,0
67991,-100,3,2,7,64,0,0
71967,-100,3,2,4,64,0,0
72328,-100,3,2,7,64,0,0
73051,-100,3,2,4,64,0,0
73412,-100,3,2,7,64,0,0
73503,-100,3,2,7,64,0,0
73593,-100,3,2,7,64,0,0
73684,-100,3,2,7,64,0,0
73774,-100,3,2,7,68,0,0
73864,-100,3,2,7,68,0,0
73955,-100,3,2,7,68,0,0
74045,-100,3,2,7,68,0,0
74135,-100,3,2,7,72,0,0
74226,-100,3,2,7,72,0,0
74316,-100,3,2,7,72,0,0
74406,-100,3,2,7,72,0,0
74497,-71.4285714285714,3,2,7,75,0,1
85520,-71.4285714285714,3,2,7,75,0,1
85882,-71.4285714285714,3,2,7,75,0,1
91123,-71.4285714285714,3,2,7,75,0,1
91214,-71.4285714285714,3,2,7,61,0,1
91304,-71.4285714285714,3,2,7,75,0,1
91394,-71.4285714285714,3,2,7,75,0,1
91485,-71.4285714285714,3,2,7,75,0,1
91575,-71.4285714285714,3,2,7,75,0,1
91665,-71.4285714285714,3,2,7,75,0,1
91756,-71.4285714285714,3,2,7,88,0,0
91846,-71.4285714285714,3,2,7,77,0,1
95009,-71.4285714285714,3,2,7,77,0,1
95099,-71.4285714285714,3,2,7,77,0,1
95279,-71.4285714285714,3,2,7,77,0,1
95461,-100,3,2,7,77,0,1
96184,-71.4285714285714,3,2,7,77,0,1
100521,-76.9230769230769,3,2,7,77,0,1
101243,-76.9230769230769,3,2,7,77,0,1
101424,-76.9230769230769,3,2,7,77,0,1
104045,-76.9230769230769,3,2,7,77,0,1
104135,-76.9230769230769,3,2,7,77,0,1
104226,-71.4285714285714,3,2,7,72,0,1
104316,-71.4285714285714,3,2,7,72,0,1
104406,-71.4285714285714,3,2,7,72,0,1
104497,-71.4285714285714,3,2,7,67,0,1
104587,-71.4285714285714,3,2,7,67,0,1
104677,-71.4285714285714,3,2,7,67,0,1
104768,-71.4285714285714,3,2,7,67,0,1
104858,-83.3333333333333,3,2,7,61,0,0
105400,-83.3333333333333,3,2,7,61,0,0
121303,-83.3333333333333,3,2,7,61,0,0
121485,-83.3333333333333,3,2,7,61,0,0
121575,-83.3333333333333,3,2,7,61,0,0
121665,-83.3333333333333,3,2,7,61,0,0
121756,-83.3333333333333,3,2,7,61,0,0
121846,-83.3333333333333,3,2,7,61,0,0
121937,-83.3333333333333,3,2,7,61,0,0
122027,-83.3333333333333,3,2,7,61,0,0
122117,-83.3333333333333,3,2,7,61,0,0
122208,-76.9230769230769,3,2,7,71,0,0
123563,-76.9230769230769,3,2,7,71,0,0
123653,-76.9230769230769,3,2,7,71,0,0
124556,-76.9230769230769,3,2,7,71,0,0
124737,-76.9230769230769,3,2,7,71,0,0
129978,-76.9230769230769,3,2,7,71,0,0
130159,-76.9230769230769,3,2,7,71,0,0
131153,-76.9230769230769,3,2,7,71,0,0
131244,-76.9230769230769,3,2,7,71,0,0
131876,-76.9230769230769,3,2,7,71,0,0
131967,-76.9230769230769,3,2,7,71,0,0
133773,-76.9230769230769,3,2,7,71,0,0
133955,-76.9230769230769,3,2,7,71,0,0
140280,-71.4285714285714,3,2,4,71,0,0
140551,-71.4285714285714,3,2,4,71,0,0
140641,-71.4285714285714,3,2,7,71,0,0
140732,-71.4285714285714,3,2,7,71,0,0
140822,-71.4285714285714,3,2,7,71,0,0
140912,-71.4285714285714,3,2,7,71,0,0
141003,-71.4285714285714,3,2,7,61,0,0
141093,-71.4285714285714,3,2,7,61,0,0
141184,-71.4285714285714,3,2,7,61,0,0
141274,-71.4285714285714,3,2,7,61,0,0
141364,-71.4285714285714,3,2,7,51,0,0
141455,-71.4285714285714,3,2,7,51,0,0
141545,-71.4285714285714,3,2,7,51,0,0
141635,-71.4285714285714,3,2,7,51,0,0
141726,-200,3,2,7,47,0,0
143894,-142.857142857143,3,2,7,35,0,0
144256,-142.857142857143,3,2,7,47,0,0
156906,-142.857142857143,3,2,7,47,0,0
158352,-142.857142857143,3,2,7,61,0,0
158443,-142.857142857143,3,2,7,61,0,0
158533,-142.857142857143,3,2,7,61,0,0
158623,-142.857142857143,3,2,7,61,0,0
158714,-142.857142857143,3,2,7,69,0,0
158804,-142.857142857143,3,2,7,69,0,0
158894,-142.857142857143,3,2,7,69,0,0
158985,-142.857142857143,3,2,7,69,0,0
159075,-142.857142857143,3,2,7,69,0,0
160159,-200,3,2,7,69,0,0
160521,-100,3,2,7,69,0,0
160611,-100,3,2,7,69,0,0
160702,-100,3,2,7,69,0,0
160792,-100,3,2,7,69,0,0
160882,-100,3,2,7,73,0,0
160973,-100,3,2,7,73,0,0
161063,-100,3,2,7,73,0,0
161153,-100,3,2,7,73,0,0
161244,-71.4285714285714,3,2,7,77,0,1
162599,-71.4285714285714,3,2,7,77,0,1
162690,-71.4285714285714,3,2,7,77,0,1
164768,-71.4285714285714,3,2,7,77,0,1
164858,-83.3333333333333,3,2,7,77,0,1
165581,-71.4285714285714,3,2,7,77,0,1
165852,-71.4285714285714,3,2,7,77,0,1
165943,-71.4285714285714,3,2,7,77,0,1
166575,-71.4285714285714,3,2,7,77,0,1
166665,-71.4285714285714,3,2,7,77,0,1
169918,-76.9230769230769,3,2,7,77,0,1
170098,-76.9230769230769,3,2,7,77,0,1
170280,-76.9230769230769,3,2,7,77,0,1
173623,-71.4285714285714,3,2,7,77,0,1
173714,-71.4285714285714,3,2,7,77,0,1
173804,-71.4285714285714,3,2,7,77,0,1
173894,-71.4285714285714,3,2,7,66,0,1
173985,-71.4285714285714,3,2,7,66,0,1
174075,-71.4285714285714,3,2,7,66,0,1
174165,-71.4285714285714,3,2,7,66,0,1
174256,-83.3333333333333,3,2,7,61,0,0
190701,-83.3333333333333,3,2,7,61,0,0
190882,-83.3333333333333,3,2,7,61,0,0
190973,-100,3,2,7,61,0,0
191063,-100,3,2,7,61,0,0
191153,-100,3,2,7,61,0,0
191244,-100,3,2,7,61,0,0
191334,-100,3,2,7,61,0,0
191424,-100,3,2,7,61,0,0
191515,-100,3,2,7,61,0,0
191605,-100,3,2,7,61,0,0
196123,-100,3,2,7,59,0,0
196304,-100,3,2,7,57,0,0
196485,-100,3,2,7,55,0,0
196665,-100,3,2,7,53,0,0
196846,-100,3,2,7,51,0,0
197027,-100,3,2,7,49,0,0
197208,-100,3,2,7,47,0,0
197388,-100,3,2,7,45,0,0
197569,-100,3,2,7,43,0,0
197659,-100,3,2,7,41,0,0
197750,-100,3,2,7,39,0,0
197930,-100,3,2,7,37,0,0
198111,-100,3,2,7,35,0,0
198382,-100,3,2,7,33,0,0
198653,-100,3,2,7,31,0,0
198834,-100,3,2,7,29,0,0
199015,-100,3,2,7,27,0,0
199196,-100,3,2,7,25,0,0
199376,-100,3,2,7,23,0,0
199557,-100,3,2,7,21,0,0
199738,-100,3,2,7,19,0,0
199918,-100,3,2,7,17,0,0
200099,-100,3,2,7,15,0,0
200190,-100,3,2,7,15,0,0
200280,-100,3,2,7,13,0,0
200370,-100,3,2,7,13,0,0

[Colours]
Combo1 : 18,124,255
Combo2 : 88,177,231

[HitObjects]
376,43,2931,6,0,P|430:39|468:78,1,112,6|0,0:0|0:0,0:0:0:0:
397,124,3473,2,0,P|369:129|341:133,1,56,2|2,0:0|0:0,0:0:0:0:
222,31,4015,1,2,0:0:0:0:
221,30,5099,2,0,P|168:37|158:88,1,112,2|0,0:0|0:0,0:0:0:0:
219,137,5641,2,0,P|213:164|197:187,1,56,0|2,0:0|0:0,0:0:0:0:
13,370,6183,1,4,0:0:0:0:
13,370,7268,6,0,P|66:363|96:318,1,112,2|0,0:0|0:0,0:0:0:0:
146,261,7810,2,0,P|171:251|199:254,1,56,2|2,0:0|0:0,0:0:0:0:
328,349,8352,1,2,0:0:0:0:
328,348,9437,2,0,P|383:340|437:352,1,112,2|0,0:0|0:0,0:0:0:0:
450,278,9979,2,0,P|476:273|492:251,1,56,2|2,0:0|0:0,0:0:0:0:
471,33,10521,5,4,0:0:0:0:
421,86,10882,1,2,0:0:0:0:
374,146,11244,1,2,0:0:0:0:
336,218,11424,5,0,0:0:0:0:
336,218,11515,1,0,0:0:0:0:
335,218,11605,2,0,P|286:235|253:195,1,112,2|0,0:0|0:0,0:0:0:0:
239,109,12147,2,0,P|211:115|185:124,1,56,2|2,0:0|0:0,0:0:0:0:
32,50,12690,1,2,0:0:0:0:
32,50,13774,2,0,P|87:45|141:28,1,112,2|0,0:0|0:0,0:0:0:0:
219,18,14316,2,0,P|235:40|240:67,1,56,0|2,0:0|0:0,0:0:0:0:
194,343,14858,1,4,0:0:0:0:
194,343,15943,6,0,P|248:344|286:306,1,112,2|0,0:0|0:0,0:0:0:0:
272,225,16485,2,0,P|267:198|273:171,1,56,2|2,0:0|0:0,0:0:0:0:
383,42,17027,1,2,0:0:0:0:
383,42,18111,2,0,P|431:31|437:80,1,112,2|0,0:0|0:0,0:0:0:0:
400,141,18653,2,0,P|412:166|421:192,1,56,0|2,0:0|0:0,0:0:0:0:
479,348,19195,5,6,0:0:0:0:
408,346,19557,1,2,0:0:0:0:
335,344,19918,1,2,0:0:0:0:
264,343,20099,5,0,0:0:0:0:
264,343,20190,1,0,0:0:0:0:
264,343,20280,1,2,0:0:0:0:
119,280,20641,1,2,0:0:0:0:
53,331,20822,2,0,P|48:299|37:216,1,105.000004005432,2|0,0:0|0:0,0:0:0:0:
83,172,21364,1,2,0:0:0:0:
83,172,21726,1,2,0:0:0:0:
83,172,22087,1,2,0:0:0:0:
210,78,22449,6,0,P|199:111|172:183,1,105.000004005432,2|2,0:0|0:0,0:0:0:0:
279,143,22991,2,0,P|309:129|375:102,1,105.000004005432,2|2,0:0|0:0,0:0:0:0:
463,169,23533,2,0,P|373:277|208:222,1,315.000012016297,6|2,0:0|0:0,0:0:0:0:
227,245,24979,5,2,0:0:0:0:
227,245,25159,2,0,P|180:252|105:264,1,105.000004005432,2|2,0:0|0:0,0:0:0:0:
196,330,25702,2,0,P|156:332|91:340,2,105.000004005432,2|2|2,0:0|0:0|0:0,0:0:0:0:
19,267,26786,6,0,P|4:226|59:181,1,105.000004005432,2|0,0:0|0:0,0:0:0:0:
92,116,27328,2,0,P|88:91|70:57,1,52.5000020027161,2|0,0:0|0:0,0:0:0:0:
258,8,27870,2,0,B|287:117|224:103|229:226,1,210.000008010865,6|2,0:0|0:0,0:0:0:0:
240,300,28774,6,0,L|232:338,2,26.2500010013581,0|0|2,0:0|0:0|0:0,0:0:0:0:
377,222,29316,1,2,0:0:0:0:
326,302,29497,2,0,P|370:289|434:281,1,105.000004005432,2|2,0:0|0:0,0:0:0:0:
503,305,30039,1,2,0:0:0:0:
503,305,30400,1,2,0:0:0:0:
503,305,30762,1,2,0:0:0:0:
473,142,31123,6,0,P|459:118|427:34,1,105.000004005432,2|2,0:0|0:0,0:0:0:0:
346,114,31665,2,0,P|331:139|273:212,1,105.000004005432,0|2,0:0|0:0,0:0:0:0:
362,261,32208,2,0,P|388:159|212:73,1,315.000012016297,6|2,0:0|0:0,0:0:0:0:
237,73,33653,5,0,0:0:0:0:
237,73,33834,2,0,L|166:61,1,52.5000020027161,2|2,0:0|0:0,0:0:0:0:
36,119,34376,2,0,P|33:145|19:222,2,105.000004005432,2|2|2,0:0|0:0|0:0,0:0:0:0:
162,214,35461,2,0,P|156:246|147:336,1,105.000004005432,2|2,0:0|0:0,0:0:0:0:
214,355,36003,1,0,0:0:0:0:
270,306,36184,2,0,P|269:286|263:225,1,78.7500030040742,2|0,0:0|0:0,0:0:0:0:
263,227,36545,6,0,P|293:226|379:227,1,105.000004005432,6|0,0:0|3:0,0:0:0:0:
475,110,37268,1,0,0:0:0:0:
478,89,37358,1,0,3:0:0:0:
480,68,37449,1,0,3:0:0:0:
485,47,37539,1,0,3:0:0:0:
488,33,37629,6,0,P|429:26|331:22,1,140,4|10,0:1|0:0,0:0:0:0:
302,92,38171,2,0,P|232:80|164:64,1,140,2|2,3:2|3:2,0:0:0:0:
70,50,38714,2,0,P|89:87|106:125,1,83.9999974365235,10|0,0:0|3:0,0:0:0:0:
189,143,39075,2,0,P|169:180|152:218,1,83.9999974365235,10|0,0:0|3:0,0:0:0:0:
5,235,39437,2,0,P|42:215|80:198,1,83.9999974365235,10|0,0:2|3:0,0:0:0:0:
4,321,39798,2,0,P|86:313|158:353,1,167.999994873047,10|10,0:0|0:0,0:0:0:0:
248,355,40340,2,0,P|282:282|361:262,1,167.999994873047,2|2,3:2|3:2,0:0:0:0:
352,367,40882,1,10,0:0:0:0:
352,367,41244,1,4,0:3:0:0:
352,367,41605,1,0,1:0:0:0:
436,356,41786,1,4,3:0:0:0:
447,262,41967,5,4,0:3:0:0:
447,262,42328,1,10,0:0:0:0:
360,261,42509,2,0,P|280:238|197:227,1,167.999994873047,2|2,3:2|3:2,0:0:0:0:
172,151,43051,2,0,P|90:139|9:159,2,167.999994873047,10|10|10,0:0|0:0|0:0,0:0:0:0:
197,227,43955,1,0,3:0:0:0:
118,224,44135,2,0,P|92:143|86:60,1,167.999994873047,10|8,0:0|0:0,0:0:0:0:
183,48,44677,2,0,P|266:49|349:36,1,167.999994873047,2|0,3:2|3:0,0:0:0:0:
450,29,45220,1,10,0:0:0:0:
450,29,45581,1,8,0:0:0:0:
450,29,45943,1,2,0:0:0:0:
427,130,46123,1,0,0:0:0:0:
444,141,46214,1,0,0:0:0:0:
462,154,46304,5,4,0:0:0:0:
462,154,46665,1,10,3:2:0:0:
350,129,46846,2,0,P|365:197|368:267,1,140,2|2,3:2|3:2,0:0:0:0:
256,172,47388,2,0,P|259:102|274:33,2,140,10|10|10,0:0|0:0|0:0,0:0:0:0:
163,196,48292,1,0,3:0:0:0:
163,196,48382,1,0,3:0:0:0:
163,196,48473,2,0,P|105:160|37:167,1,140,10|10,0:0|0:0,0:0:0:0:
84,254,49015,2,0,P|113:317|133:384,1,140,2|2,3:2|3:2,0:0:0:0:
0,384,49557,1,10,0:0:0:0:
26,27,50279,2,0,P|66:23|93:53,1,83.9999974365235,10|2,3:2|3:2,0:0:0:0:
64,142,50641,6,0,P|117:79|198:61,1,167.999994873047,10|8,0:0|0:0,0:0:0:0:
448,91,51364,2,0,P|441:51|410:24,1,83.9999974365235,10|0,0:0|3:0,0:0:0:0:
322,20,51726,2,0,L|364:92,1,83.9999974365235,10|0,0:0|3:0,0:0:0:0:
403,162,52087,2,0,L|326:195,1,83.9999974365235,10|0,0:0|3:0,0:0:0:0:
290,130,52449,1,10,0:0:0:0:
312,285,52629,1,0,3:0:0:0:
312,285,52720,1,0,3:0:0:0:
312,284,52810,2,0,P|390:255|473:256,2,167.999994873047,10|8|8,0:0|0:0|0:0,0:0:0:0:
494,360,53894,2,0,B|374:297|261:378|167:315,1,335.999989746094,10|2,0:0|0:0,0:0:0:0:
12,151,54979,6,0,L|195:127,1,167.999994873047,12|2,0:0|3:2,0:0:0:0:
205,63,55521,2,0,L|171:255,1,167.999994873047,2|2,1:2|3:2,0:0:0:0:
278,297,56063,2,0,P|319:291|378:277,1,83.9999974365235,12|0,0:0|3:0,0:0:0:0:
422,231,56424,2,0,P|391:205|334:169,1,83.9999974365235,2|0,3:2|1:0,0:0:0:0:
291,134,56786,2,0,P|271:169|255:220,1,83.9999974365235,2|0,0:0|3:0,0:0:0:0:
323,308,57147,6,0,B|380:342|422:298|504:351,1,167.999994873047,2|0,0:0|3:0,0:0:0:0:
347,227,57690,2,0,P|297:233|146:247,1,167.999994873047,2|2,1:2|3:2,0:0:0:0:
47,315,58232,1,10,0:0:0:0:
47,315,58593,1,0,3:0:0:0:
39,239,58774,1,0,1:0:0:0:
109,272,58955,2,0,P|108:313|113:367,1,83.9999974365235,2|0,3:2|3:0,0:0:0:0:
97,193,59316,6,0,B|99:102|134:137|127:28,1,167.999994873047,6|2,0:0|3:2,0:0:0:0:
249,59,59858,2,0,B|342:45|342:45|301:127,1,167.999994873047,2|2,1:2|3:2,0:0:0:0:
217,226,60400,2,0,L|204:132,1,83.9999974365235,10|0,0:0|3:0,0:0:0:0:
205,142,60762,1,10,3:2:0:0:
318,200,60943,1,0,1:0:0:0:
387,139,61123,2,0,L|489:115,1,83.9999974365235,2|0,3:2|3:0,0:0:0:0:
374,273,61485,6,0,L|103:248,1,251.999992309571,2|2,0:2|1:2,0:0:0:0:
123,249,62388,1,2,3:2:0:0:
9,363,62569,6,0,L|104:349,1,83.9999974365235,6|0,1:2|0:0,0:0:0:0:
176,371,62930,2,0,L|283:350,1,83.9999974365235,0|0,3:0|1:0,0:0:0:0:
332,376,63292,1,2,0:0:0:0:
512,265,63653,1,4,0:1:0:0:
320,241,64738,6,0,P|355:253|441:276,2,105.000004005432,6|0|0,0:0|0:0|0:0,0:0:0:0:
194,181,65822,2,0,P|162:187|78:210,1,112,2|2,0:0|0:0,0:0:0:0:
85,207,66364,1,0,0:0:0:0:
85,207,66545,1,2,0:0:0:0:
269,159,66906,6,0,P|292:145|321:121,1,56,6|0,0:0|0:0,0:0:0:0:
363,131,67268,2,0,P|380:109|396:78,1,56
458,79,67629,1,2,3:2:0:0:
421,14,67810,5,0,3:0:0:0:
421,14,67900,1,0,3:0:0:0:
421,14,67991,2,0,B|416:62|449:73|440:177,1,140,4|12,0:1|0:3,0:0:0:0:
407,267,68533,1,0,1:0:0:0:
477,221,68714,2,0,L|535:204,2,35,8|0|0,3:0|3:0|3:0,0:0:0:0:
361,154,69075,2,0,P|332:147|279:124,1,70,8|0,1:2|3:0,0:0:0:0:
229,210,69437,1,4,3:0:0:0:
229,210,69527,1,0,3:0:0:0:
229,210,69617,2,0,P|195:220|133:234,1,70,0|8,1:0|3:0,0:0:0:0:
64,183,69979,1,0,3:0:0:0:
0,260,70159,6,0,P|30:260|163:273,1,140,4|4,0:1|3:0,0:0:0:0:
276,313,70702,1,0,1:0:0:0:
180,361,70882,2,0,L|120:380,2,35,0|0|4,3:0|3:0|3:0,0:0:0:0:
228,251,71244,2,0,P|235:229|240:172,1,70,2|0,1:2|3:0,0:0:0:0:
316,135,71605,1,4,3:0:0:0:
331,139,71696,1,0,3:0:0:0:
347,145,71786,1,0,1:0:0:0:
266,189,71967,2,0,B|277:137|249:99|263:45,1,140,2|4,0:0|0:3,0:0:0:0:
281,12,73051,6,0,L|397:24,1,105,2|0,0:0|0:0,0:0:0:0:
386,24,73412,6,0,L|401:72,3,35,4|2|2|2,3:0|0:0|0:0|0:0,0:0:0:0:
395,102,73774,2,0,L|409:162,3,35,4|2|2|2,3:0|0:0|0:0|0:0,0:0:0:0:
391,188,74135,2,0,L|406:239,3,35,4|2|2|2,3:0|0:0|0:0|0:0,0:0:0:0:
379,275,74497,6,0,L|164:257,1,195.999994018555,4|12,0:1|3:0,0:0:0:0:
64,326,75039,2,0,P|100:234|132:142,1,195.999994018555,2|12,0:0|0:3,0:0:0:0:
22,38,75581,2,0,P|69:49|117:57,1,97.9999970092774,6|0,1:2|0:0,0:0:0:0:
228,122,75943,2,0,P|180:133|132:141,1,97.9999970092774,8|0,3:0|0:0,0:0:0:0:
15,209,76304,2,0,P|31:163|54:120,1,97.9999970092774,12|0,3:0|1:0,0:0:0:0:
205,44,76665,2,0,P|274:40|310:101,2,146.999995513916,12|4|4,3:0|0:3|0:3,0:0:0:0:
458,17,77569,1,4,0:3:0:0:
417,119,77750,2,0,P|347:185|252:194,1,195.999994018555,2|12,1:2|3:0,0:0:0:0:
502,265,78473,1,12,3:0:0:0:
435,314,78653,1,4,3:0:0:0:
435,314,78744,1,4,3:0:0:0:
435,314,78834,6,0,B|365:305|308:376|248:353,1,195.999994018555,4|12,0:1|3:0,0:0:0:0:
252,268,79376,2,0,P|154:279|60:307,1,195.999994018555,2|12,0:0|0:3,0:0:0:0:
70,139,79918,2,0,P|104:173|142:205,1,97.9999970092774,4|0,1:1|0:0,0:0:0:0:
227,198,80280,2,0,P|241:152|254:105,1,97.9999970092774,2|0,3:2|3:0,0:0:0:0:
318,198,80641,2,0,P|331:245|345:291,1,97.9999970092774,12|0,0:3|1:0,0:0:0:0:
421,373,81003,2,0,P|435:305|504:294,2,146.999995513916,12|4|4,3:0|0:3|0:3,0:0:0:0:
397,150,81906,1,4,0:3:0:0:
475,88,82087,2,0,P|379:68|286:38,1,195.999994018555,2|12,1:2|3:0,0:0:0:0:
26,19,82810,1,12,3:0:0:0:
106,63,82991,1,4,3:0:0:0:
106,63,83081,1,4,3:0:0:0:
106,63,83171,6,0,P|109:160|111:258,1,195.999994018555,4|2,0:1|0:0,0:0:0:0:
154,351,83714,2,0,P|251:349|349:345,1,195.999994018555,2|4,3:2|0:3,0:0:0:0:
482,319,84256,2,0,P|396:271|306:234,2,195.999994018555,2|2|2,1:2|3:2|3:2,0:0:0:0:
482,319,85159,1,2,3:2:0:0:
428,380,85340,2,0,P|420:331|416:282,1,97.9999970092774,14|0,3:0|0:0,0:0:0:0:
476,213,85702,1,2,0:0:0:0:
432,135,85882,2,0,P|383:143|335:148,1,97.9999970092774,12|0,0:3|3:0,0:0:0:0:
248,175,86244,1,12,0:3:0:0:
221,91,86424,1,4,1:1:0:0:
49,150,86786,1,0,0:0:0:0:
220,90,87147,2,0,P|173:80|124:77,1,97.9999970092774,12|4,3:0|3:0,0:0:0:0:
49,150,87509,6,0,P|41:247|28:344,1,195.999994018555,4|12,0:1|0:3,0:0:0:0:
161,370,88051,2,0,P|133:330|110:285,1,97.9999970092774,2|0,1:2|3:0,0:0:0:0:
166,217,88412,1,6,0:3:0:0:
218,315,88593,2,0,P|261:292|301:264,1,97.9999970092774,4|0,3:1|3:0,0:0:0:0:
358,319,88955,2,0,P|406:310|454:305,1,97.9999970092774,12|0,0:3|1:0,0:0:0:0:
361,189,89316,2,0,P|368:212|372:236,3,48.9999985046387,8|0|4|0,3:0|0:0|3:0|0:0,0:0:0:0:
349,154,89677,2,0,B|301:136|231:225|163:186,1,195.999994018555,4|12,0:1|3:0,0:0:0:0:
74,260,90220,2,0,P|67:165|121:85,1,195.999994018555,2|4,1:2|0:3,0:0:0:0:
266,61,90762,1,4,0:1:0:0:
265,61,91123,2,0,P|256:38|243:19,3,48.9999985046387,2|2|2|2,1:2|0:0|0:0|0:0,0:0:0:0:
338,65,91485,2,0,P|340:40|339:16,3,48.9999985046387,2|2|2|2,1:2|0:0|0:0|0:0,0:0:0:0:
402,103,91846,6,0,L|197:114,1,195.999994018555,4|0,0:1|1:0,0:0:0:0:
206,113,92388,1,8,3:0:0:0:
334,180,92569,2,0,L|433:195,1,97.9999970092774,2|12,1:2|3:0,0:0:0:0:
325,258,92930,2,0,P|295:336|249:263,1,195.999994018555,2|2,1:2|1:2,0:0:0:0:
243,275,93473,5,0,0:0:0:0:
342,354,93653,2,0,P|300:378|242:357,1,97.9999970092774,2|0,1:2|1:0,0:0:0:0:
141,283,94015,6,0,B|127:226|182:168|182:168|148:194|110:186,1,195.999994018555,4|2,3:1|1:2,0:0:0:0:
33,230,94557,1,4,3:0:0:0:
125,194,94738,2,0,L|306:181,1,146.999995513916,2|0,1:2|0:0,0:0:0:0:
271,183,95099,2,0,L|385:168,1,97.9999970092774,0|0,1:2|0:0,0:0:0:0:
438,64,95461,6,0,L|530:79,1,70,2|4,1:2|3:0,0:0:0:0:
507,75,95822,1,12,0:3:0:0:
507,75,96003,1,2,1:2:0:0:
459,163,96184,6,0,B|452:213|488:267|488:267|434:242|370:275,1,195.999994018555,4|12,1:0|0:3,0:0:0:0:
495,343,96726,2,0,P|450:350|309:283,1,195.999994018555,4|12,1:0|3:0,0:0:0:0:
183,294,97268,6,0,P|134:304|46:327,1,97.9999970092774,4|0,1:0|3:0,0:0:0:0:
187,218,97629,2,0,P|197:170|212:123,1,97.9999970092774,4|2,1:0|3:2,0:0:0:0:
252,259,97991,2,0,P|282:297|317:331,1,97.9999970092774,4|4,1:0|0:3,0:0:0:0:
300,202,98352,6,0,P|294:148|431:104,1,195.999994018555,4|4,1:0|0:3,0:0:0:0:
462,137,98894,2,0,P|389:197|296:137,1,195.999994018555,4|4,1:0|3:0,0:0:0:0:
218,98,99437,1,4,0:1:0:0:
218,98,99798,1,4,0:3:0:0:
218,98,100159,1,12,3:0:0:0:
136,48,100340,5,2,1:2:0:0:
143,56,100430,1,2,1:2:0:0:
143,56,100521,2,0,L|120:253,1,181.999991668702,4|4,0:1|3:0,0:0:0:0:
220,191,101063,2,0,L|328:215,1,90.9999958343508,4|0,1:0|0:0,0:0:0:0:
308,210,101424,1,4,3:0:0:0:
244,294,101605,2,0,B|336:256|346:341|412:336,2,181.999991668702,4|8|12,1:0|3:0|3:0,0:0:0:0:
483,164,102690,6,0,L|516:313,2,136.499993751526,4|4|12,1:0|3:0|3:0,0:0:0:0:
483,164,103593,1,4,0:3:0:0:
380,238,103774,2,0,L|409:72,1,136.499993751526,4|0,1:0|0:0,0:0:0:0:
403,103,104135,6,0,L|337:88,3,45.4999979171754,2|2|2|2,1:2|0:0|0:0|0:0,0:0:0:0:
318,56,104497,2,0,L|246:41,3,48.9999985046387,2|2|2|2,1:2|0:0|0:0|0:0,0:0:0:0:
218,20,104858,6,0,P|134:25|50:29,1,167.999994873047,6|4,0:0|0:3,0:0:0:0:
134,104,105400,2,0,P|145:187|158:270,1,167.999994873047,2|4,0:0|0:3,0:0:0:0:
62,208,105943,2,0,P|50:248|38:288,1,83.9999974365235,2|0,1:2|0:0,0:0:0:0:
110,345,106304,1,4,3:0:0:0:
158,270,106485,1,0,3:0:0:0:
221,206,106665,2,0,P|262:203|304:208,1,83.9999974365235,4|0,3:0|3:0,0:0:0:0:
428,256,107027,2,0,P|439:199|384:181,2,125.999996154785,4|4|4,0:3|0:3|0:3,0:0:0:0:
484,28,107930,1,4,0:3:0:0:
472,104,108111,2,0,P|390:82|308:65,1,167.999994873047,2|4,1:2|3:0,0:0:0:0:
252,289,108834,2,0,P|310:285|328:341,1,125.999996154785,4|4,3:0|3:0,0:0:0:0:
327,341,109196,6,0,P|246:358|162:351,1,167.999994873047,4|0,0:3|3:0,0:0:0:0:
103,292,109738,2,0,P|26:283|6:357,1,167.999994873047,4|4,0:3|0:3,0:0:0:0:
178,250,110280,2,0,P|175:208|170:166,1,83.9999974365235,2|0,1:2|0:0,0:0:0:0:
92,134,110641,1,4,3:0:0:0:
43,196,110822,1,0,0:0:0:0:
9,89,111003,2,0,P|26:52|65:40,1,83.9999974365235,4|0,3:0|3:0,0:0:0:0:
182,67,111364,2,0,P|151:120|91:133,2,125.999996154785,4|4|4,0:3|0:3|0:3,0:0:0:0:
146,325,112268,1,4,0:3:0:0:
73,348,112449,2,0,B|132:370|186:313|236:324,1,167.999994873047,2|4,1:2|3:0,0:0:0:0:
482,380,113171,1,0,1:0:0:0:
424,312,113352,1,4,0:3:0:0:
424,312,113443,1,4,0:3:0:0:
424,312,113533,6,0,B|420:267|470:196|447:149,1,167.999994873047,4|4,0:1|3:0,0:0:0:0:
504,62,114075,2,0,P|420:66|337:78,1,167.999994873047,4|4,3:0|0:3,0:0:0:0:
372,214,114617,2,0,P|331:201|291:192,1,83.9999974365235,2|0,1:2|0:0,0:0:0:0:
215,167,114979,1,4,0:3:0:0:
194,88,115159,1,0,3:0:0:0:
168,12,115340,2,0,P|128:22|86:24,1,83.9999974365235,4|4,3:0|3:0,0:0:0:0:
7,157,115702,2,0,P|41:107|101:108,2,125.999996154785,4|4|4,0:3|0:3|0:3,0:0:0:0:
20,361,116605,1,4,0:3:0:0:
99,364,116786,2,0,P|179:345|240:289,1,167.999994873047,2|4,1:2|3:0,0:0:0:0:
348,28,117509,2,0,P|407:11|459:43,1,125.999996154785,4|4,3:0|3:0,0:0:0:0:
459,43,117870,6,0,B|450:118|453:157|447:210,1,167.999994873047,4|0,0:3|3:0,0:0:0:0:
510,281,118412,2,0,L|351:224,1,167.999994873047,4|4,0:3|0:3,0:0:0:0:
434,341,118955,2,0,P|392:345|351:355,1,83.9999974365235,2|0,1:2|0:0,0:0:0:0:
266,353,119316,1,4,3:0:0:0:
191,312,119497,1,0,0:0:0:0:
121,362,119677,2,0,P|79:356|39:343,1,83.9999974365235,4|4,3:0|3:0,0:0:0:0:
22,216,120039,2,0,P|82:223|99:280,2,125.999996154785,4|4|4,0:3|0:3|0:3,0:0:0:0:
13,0,120943,1,4,0:3:0:0:
40,77,121123,2,0,P|82:73|116:49,1,83.9999974365235,2|0,1:2|0:0,0:0:0:0:
192,12,121485,5,2,0:0:0:0:
278,23,121665,1,2,0:0:0:0:
362,39,121846,1,2,0:0:0:0:
452,56,122027,1,2,0:0:0:0:
452,56,122117,1,2,0:0:0:0:
452,56,122208,6,0,L|424:239,1,181.999991668702,4|12,0:1|3:0,0:0:0:0:
512,175,122750,2,0,L|313:198,1,181.999991668702,2|12,1:2|0:3,0:0:0:0:
240,241,123292,2,0,L|250:392,1,136.499993751526,2|0,1:2|0:0,0:0:0:0:
249,377,123653,2,0,P|205:370|147:356,1,90.9999958343508,8|4,3:0|0:3,0:0:0:0:
39,274,124015,1,8,3:0:0:0:
39,274,124376,6,0,L|145:256,2,90.9999958343508,12|0|4,0:3|0:0|3:0,0:0:0:0:
136,152,124918,2,0,B|196:170|196:170|221:221|221:221|293:245,1,181.999991668702,2|12,1:2|3:0,0:0:0:0:
406,325,125461,1,2,1:2:0:0:
406,325,126003,5,12,0:3:0:0:
383,251,126184,1,2,1:2:0:0:
419,189,126364,1,12,3:0:0:0:
382,127,126545,2,0,B|271:78|281:162|168:130,1,181.999991668702,4|12,1:0|3:0,0:0:0:0:
82,32,127087,2,0,B|162:-7|162:-7|234:69,1,181.999991668702,2|12,1:2|3:0,0:0:0:0:
123,100,127629,2,0,L|16:119,1,90.9999958343508,2|0,1:2|0:0,0:0:0:0:
147,214,127991,2,0,L|191:128,1,90.9999958343508,8|0,3:0|1:0,0:0:0:0:
4,192,128352,2,0,L|82:254,1,90.9999958343508,8|4,3:0|3:0,0:0:0:0:
190,345,128714,6,0,P|219:343|385:323,1,181.999991668702,12|4,0:3|3:0,0:0:0:0:
370,325,129256,1,2,1:2:0:0:
370,325,129617,1,12,3:0:0:0:
283,265,129798,2,0,P|249:252|178:207,1,90.9999958343508,2|0,1:2|0:0,0:0:0:0:
317,122,130159,2,0,P|325:166|341:209,1,90.9999958343508,4|8,3:0|1:2,0:0:0:0:
412,242,130521,2,0,P|433:202|462:167,1,90.9999958343508,12|0,3:0|1:0,0:0:0:0:
349,315,130882,6,0,B|286:280|257:350|191:332,1,136.499993751526,4|0,0:1|0:0,0:0:0:0:
219,334,131244,1,12,3:0:0:0:
109,374,131424,2,0,L|132:192,1,181.999991668702,2|12,1:2|3:0,0:0:0:0:
136,182,131876,1,0,0:0:0:0:
145,172,131967,2,0,L|49:156,1,90.9999958343508,2|0,1:2|0:0,0:0:0:0:
0,77,132328,5,8,3:0:0:0:
79,34,132509,1,0,1:0:0:0:
190,63,132690,2,0,L|390:38,1,181.999991668702,12|6,3:0|0:0,0:0:0:0:
512,292,133412,5,12,3:0:0:0:
512,292,133593,2,0,P|483:268|416:242,1,90.9999958343508,2|0,1:2|0:0,0:0:0:0:
363,244,133955,1,12,3:0:0:0:
300,294,134135,2,0,P|257:249|334:142,1,181.999991668702,2|0,1:2|3:0,0:0:0:0:
406,137,134677,5,4,3:0:0:0:
448,68,134858,1,12,0:3:0:0:
404,0,135039,1,0,3:0:0:0:
387,0,135129,1,0,3:0:0:0:
372,3,135220,6,0,P|299:13|165:32,1,181.999991668702,4|4,0:1|3:0,0:0:0:0:
51,89,135762,1,0,1:0:0:0:
147,89,135943,2,0,L|239:115,1,90.9999958343508,8|12,3:0|3:0,0:0:0:0:
390,176,136304,2,0,L|373:291,1,90.9999958343508,4|0,0:1|3:0,0:0:0:0:
376,266,136665,1,12,0:3:0:0:
284,222,136846,1,0,1:0:0:0:
196,308,137027,2,0,P|159:326|81:345,1,90.9999958343508,8|4,3:0|3:0,0:0:0:0:
216,221,137388,6,0,P|142:171|40:217,1,181.999991668702,4|12,0:1|0:3,0:0:0:0:
12,50,137930,1,0,1:0:0:0:
98,99,138111,2,0,L|114:-7,1,90.9999958343508,8|4,3:0|3:0,0:0:0:0:
259,81,138473,2,0,P|278:88|359:117,1,90.9999958343508,2|0,1:2|0:0,0:0:0:0:
202,163,138834,2,0,P|197:138|181:72,1,90.9999958343508,12|0,3:0|1:0,0:0:0:0:
323,188,139196,2,0,P|301:197|240:227,1,90.9999958343508,8|4,3:0|3:0,0:0:0:0:
146,293,139557,5,4,0:1:0:0:
146,293,139918,1,2,0:0:0:0:
55,355,140099,1,4,3:0:0:0:
94,248,140280,2,0,P|100:191|112:91,1,146.999995513916,6|0,0:0|0:0,0:0:0:0:
110,101,140641,6,0,L|111:42,3,48.9999985046387,4|2|2|2,0:3|0:0|0:0|0:0,0:0:0:0:
161,38,141003,2,0,L|294:59,1,97.9999970092774,4|2,0:3|0:0,0:0:0:0:
344,166,141364,2,0,L|516:146,1,146.999995513916,4|2,0:3|0:0,0:0:0:0:
491,150,141726,6,0,B|582:70|497:-36|353:52|386:177|506:111|520:204|557:254|490:320|467:270|487:245,1,420,4|4,0:0|0:0,0:0:0:0:
484,248,144256,5,2,0:0:0:0:
447,337,144437,2,0,P|403:314|355:304,1,97.9999970092774,2|2,0:0|0:0,0:0:0:0:
287,343,144979,2,0,P|239:356|190:359,1,97.9999970092774,2|2,0:0|0:0,0:0:0:0:
4,367,145702,1,2,0:0:0:0:
123,184,146063,2,0,P|161:242|129:304,2,146.999995513916,2|2|2,0:0|0:0|0:0,0:0:0:0:
123,184,147509,1,2,0:0:0:0:
79,250,147870,1,2,0:0:0:0:
23,81,148232,6,0,P|70:94|118:101,1,97.9999970092774,2|2,0:0|0:0,0:0:0:0:
193,86,148774,2,0,P|240:75|289:66,1,97.9999970092774,2|2,0:0|0:0,0:0:0:0:
368,82,149316,2,0,P|415:82|432:40,2,97.9999970092774,2|2|2,0:0|0:0|0:0,0:0:0:0:
368,82,150400,1,2,0:0:0:0:
311,144,150943,1,2,0:0:0:0:
227,162,151485,1,2,0:0:0:0:
227,162,151846,2,0,P|179:164|143:196,1,97.9999970092774,2|2,0:0|0:0,0:0:0:0:
65,180,152569,6,0,B|67:258|124:252|114:314,1,146.999995513916,6|2,0:0|0:0,0:0:0:0:
301,356,153653,1,2,0:0:0:0:
381,353,154015,2,0,P|369:306|360:258,1,97.9999970092774,2|2,0:0|0:0,0:0:0:0:
336,105,154738,2,0,P|370:71|417:76,1,97.9999970092774,2|2,0:0|0:0,0:0:0:0:
265,87,155280,2,0,P|270:39|236:6,1,97.9999970092774,2|2,0:0|0:0,0:0:0:0:
280,159,155822,1,6,0:0:0:0:
488,356,156545,1,2,0:0:0:0:
484,267,156906,6,0,P|467:220|463:172,1,97.9999970092774,2|2,0:0|0:0,0:0:0:0:
406,82,157449,2,0,P|401:130|385:176,1,97.9999970092774,2|2,0:0|0:0,0:0:0:0:
397,284,157991,1,2,0:0:0:0:
316,247,158352,1,2,0:0:0:0:
282,166,158714,1,2,0:0:0:0:
270,48,158894,1,4,3:0:0:0:
270,48,158985,1,4,3:0:0:0:
270,48,159075,1,4,0:1:0:0:
270,48,159437,5,12,0:3:0:0:
319,102,159617,1,2,1:2:0:0:
282,166,159798,1,4,0:3:0:0:
210,150,159979,1,4,0:3:0:0:
202,77,160159,1,4,0:1:0:0:
202,77,160521,2,0,L|188:44,3,35,2|2|2|2,1:2|0:0|0:0|0:0,0:0:0:0:
210,150,160882,2,0,L|204:184,3,35,2|2|2|2,1:2|0:0|0:0|0:0,0:0:0:0:
139,120,161244,5,4,0:1:0:0:
139,120,161605,1,0,1:0:0:0:
53,174,161786,2,0,P|50:144|49:65,1,97.9999970092774,8|2,3:0|1:2,0:0:0:0:
141,190,162147,1,12,3:0:0:0:
44,252,162328,2,0,P|86:260|213:274,1,146.999995513916,2|0,1:2|0:0,0:0:0:0:
189,272,162690,6,0,P|186:307|176:378,1,97.9999970092774,2|0,1:2|0:0,0:0:0:0:
279,250,163051,2,0,P|280:222|277:152,1,97.9999970092774,2|0,1:2|1:0,0:0:0:0:
353,279,163412,2,0,B|371:225|371:225|323:171|323:171|350:100,1,195.999994018555,4|2,3:1|1:2,0:0:0:0:
385,27,163955,2,0,P|419:32|517:52,2,97.9999970092774,4|2|4,3:0|1:2|3:0,0:0:0:0:
474,147,164497,2,0,P|477:183|496:324,1,146.999995513916,0|0,1:2|0:0,0:0:0:0:
492,293,164858,6,0,L|398:306,1,83.9999974365235,2|4,1:2|3:0,0:0:0:0:
384,372,165220,2,0,L|282:379,1,83.9999974365235,12|2,0:3|1:2,0:0:0:0:
162,322,165581,6,0,P|142:288|225:195,1,146.999995513916,4|0,1:0|0:0,0:0:0:0:
194,198,165943,1,12,0:3:0:0:
313,250,166123,2,0,P|330:200|216:134,1,195.999994018555,4|12,1:0|3:0,0:0:0:0:
186,115,166575,1,0,0:0:0:0:
186,115,166665,6,0,P|231:107|284:98,1,97.9999970092774,4|0,1:0|3:0,0:0:0:0:
162,228,167027,2,0,P|149:272|131:327,1,97.9999970092774,4|2,1:0|3:2,0:0:0:0:
111,147,167388,2,0,P|75:118|20:73,1,97.9999970092774,4|4,1:0|0:3,0:0:0:0:
139,54,167750,6,0,B|99:146|59:101|8:199,1,195.999994018555,4|4,1:0|0:3,0:0:0:0:
63,291,168292,2,0,L|271:276,1,195.999994018555,4|4,1:0|3:0,0:0:0:0:
418,296,168834,6,0,B|306:321|243:227|126:250,1,293.999991027832,4|2,0:1|0:2,0:0:0:0:
32,307,169557,1,12,3:0:0:0:
133,349,169738,5,2,1:2:0:0:
133,349,169828,1,2,1:2:0:0:
133,349,169918,2,0,L|245:329,1,90.9999958343508,4|0,0:1|0:0,0:0:0:0:
290,361,170280,1,4,3:0:0:0:
234,261,170461,2,0,B|304:240|337:330|407:318,1,181.999991668702,4|4,1:0|3:0,0:0:0:0:
462,195,171003,6,0,P|472:158|488:98,1,90.9999958343508,4|0,1:0|0:0,0:0:0:0:
342,160,171364,2,0,P|368:130|424:61,1,90.9999958343508,8|0,3:0|0:0,0:0:0:0:
252,54,171726,2,0,P|287:43|364:18,1,90.9999958343508,12|4,3:0|3:0,0:0:0:0:
258,137,172087,6,0,P|264:172|283:289,2,136.499993751526,4|4|12,1:0|3:0|3:0,0:0:0:0:
5,58,172991,1,4,0:3:0:0:
5,58,173171,2,0,P|51:50|169:29,1,136.499993751526,4|0,1:0|0:0,0:0:0:0:
139,34,173533,6,0,L|209:20,3,45.4999979171754,2|2|2|2,1:2|0:0|0:0|0:0,0:0:0:0:
256,33,173894,2,0,L|307:18,3,48.9999985046387,2|2|2|2,1:2|0:0|0:0|0:0,0:0:0:0:
372,48,174256,6,0,P|448:39|468:113,1,167.999994873047,4|4,0:1|3:0,0:0:0:0:
376,152,174798,2,0,P|452:141|479:214,1,167.999994873047,2|4,0:0|0:3,0:0:0:0:
418,307,175341,2,0,P|393:273|397:232,1,83.9999974365235,2|0,1:2|0:0,0:0:0:0:
509,296,175702,1,4,3:0:0:0:
418,307,175882,1,0,3:0:0:0:
331,338,176063,2,0,P|289:341|248:352,1,83.9999974365235,4|4,3:0|3:0,0:0:0:0:
116,276,176425,2,0,P|177:262|239:270,2,125.999996154785,4|4|4,0:3|0:3|0:3,0:0:0:0:
336,142,177328,1,4,0:3:0:0:
273,77,177509,2,0,B|226:97|176:32|112:44,1,167.999994873047,2|4,1:2|3:0,0:0:0:0:
22,334,178232,2,0,P|54:282|115:275,1,125.999996154785,4|4,3:0|3:0,0:0:0:0:
114,274,178594,6,0,B|185:313|246:283|273:316,1,167.999994873047,4|0,0:3|3:0,0:0:0:0:
285,224,179136,2,0,P|355:264|366:345,1,167.999994873047,4|4,0:3|0:3,0:0:0:0:
202,369,179678,2,0,P|199:328|199:286,1,83.9999974365235,2|0,1:2|0:0,0:0:0:0:
197,203,180039,1,4,3:0:0:0:
263,139,180220,1,0,3:0:0:0:
410,103,180401,2,0,P|370:114|353:151,1,83.9999974365235,4|0,3:0|3:0,0:0:0:0:
435,265,180762,2,0,P|443:202|474:148,2,125.999996154785,4|4|4,0:3|0:3|0:3,0:0:0:0:
492,20,181666,1,4,0:3:0:0:
415,21,181847,2,0,B|359:27|316:69|252:55,1,167.999994873047,2|4,1:2|3:0,0:0:0:0:
3,11,182569,1,4,3:0:0:0:
74,72,182750,1,4,3:0:0:0:
74,72,182841,1,4,3:0:0:0:
74,71,182931,6,0,P|141:113|132:192,1,167.999994873047,4|4,0:1|3:0,0:0:0:0:
85,292,183473,2,0,P|167:280|232:229,1,167.999994873047,4|4,3:0|0:3,0:0:0:0:
310,142,184015,2,0,P|322:182|331:222,1,83.9999974365235,2|0,1:2|0:0,0:0:0:0:
285,295,184377,1,4,3:0:0:0:
360,336,184557,1,0,3:0:0:0:
404,263,184738,2,0,P|445:266|487:271,1,83.9999974365235,4|4,3:0|3:0,0:0:0:0:
360,352,185100,2,0,P|298:353|238:374,2,125.999996154785,4|4|4,0:3|0:3|0:3,0:0:0:0:
381,175,186003,1,4,0:3:0:0:
280,159,186184,2,0,P|357:161|369:85,1,167.999994873047,2|4,1:2|3:0,0:0:0:0:
195,282,186907,2,0,P|250:295|286:241,1,125.999996154785,4|4,3:0|3:0,0:0:0:0:
285,243,187268,6,0,P|202:244|118:241,1,167.999994873047,4|0,0:3|3:0,0:0:0:0:
98,349,187810,2,0,L|-5:205,1,167.999994873047,4|4,0:3|0:3,0:0:0:0:
90,70,188352,2,0,P|83:111|76:152,1,83.9999974365235,2|0,1:2|0:0,0:0:0:0:
4,29,188714,1,4,3:0:0:0:
90,70,188895,1,0,3:0:0:0:
172,22,189075,2,0,P|212:31|253:40,1,83.9999974365235,4|4,3:0|3:0,0:0:0:0:
384,78,189437,2,0,P|356:131|296:127,2,125.999996154785,4|4|4,0:3|0:3|0:3,0:0:0:0:
473,351,190340,1,4,0:3:0:0:
409,303,190521,2,0,P|367:309|325:313,1,83.9999974365235,2|0,1:2|0:0,0:0:0:0:
244,334,190882,1,2,3:2:0:0:
167,351,191063,1,2,0:0:0:0:
84,365,191244,2,0,L|8:294,1,105,2|2,0:0|0:0,0:0:0:0:
7,294,191605,6,0,P|61:253|52:187,1,140,4|4,0:0|0:3,0:0:0:0:
21,104,192147,2,0,P|61:158|129:164,1,140,2|4,0:0|0:3,0:0:0:0:
222,46,192690,2,0,P|204:75|197:110,1,70,2|0,1:2|0:0,0:0:0:0:
276,145,193051,1,4,3:0:0:0:
311,66,193232,1,0,3:0:0:0:
397,50,193412,2,0,P|431:50|464:37,1,70,4|4,3:0|3:0,0:0:0:0:
366,146,193774,2,0,P|416:144|443:186,2,105,4|4|4,0:3|0:3|0:3,0:0:0:0:
481,355,194677,1,4,0:3:0:0:
399,320,194858,2,0,P|330:310|268:339,1,140,2|4,1:2|3:0,0:0:0:0:
8,243,195581,2,0,P|59:243|104:216,1,105,4|4,3:0|3:0,0:0:0:0:
104,215,195943,6,0,P|105:285|104:355,1,140,4|0,0:3|3:0,0:0:0:0:
200,252,196485,2,0,P|199:182|200:112,1,140,4|4,0:3|0:3,0:0:0:0:
240,38,197027,2,0,P|274:35|304:51,1,70,2|0,1:2|0:0,0:0:0:0:
346,124,197388,1,4,3:0:0:0:
330,206,197569,1,0,3:0:0:0:
281,273,197750,2,0,P|285:308|288:343,1,70,4|0,3:0|0:3,0:0:0:0:
412,260,198111,2,0,P|421:208|428:156,2,105,4|4|4,0:3|0:3|0:3,0:0:0:0:
205,355,199015,1,4,0:3:0:0:
162,290,199196,2,0,P|95:312|32:342,1,140,2|4,1:2|3:0,0:0:0:0:
306,157,199918,1,4,3:0:0:0:
260,63,200099,1,4,3:0:0:0:
260,63,200190,1,4,3:0:0:0:
260,63,200280,1,4,0:0:0:0:
256,192,200370,12,0,202449,0:0:0:0:
