osu file format v14

[General]
AudioFilename: audio.ogg
AudioLeadIn: 0
PreviewTime: 21256
Countdown: 0
SampleSet: Soft
StackLeniency: 0.7
Mode: 3
LetterboxInBreaks: 0
SpecialStyle: 0
WidescreenStoryboard: 1

[Editor]
DistanceSpacing: 0.9
BeatDivisor: 2
GridSize: 32
TimelineZoom: 1.8

[Metadata]
Title:Uplift
TitleUnicode:Uplift
Artist:garlagan
ArtistUnicode:garlagan
Creator:Vincus
Version:4K | Insane
Source:
Tags:Maxim-Miau featured artist fa future electronic instrumental 00 dnb drum and bass d&b d'n'b mpg mg mappers' guild above and beyond priority quests chord jack chordjack CJ
BeatmapID:4493859
BeatmapSetID:2135686

[Difficulty]
HPDrainRate:8
CircleSize:4
OverallDifficulty:8.2
ApproachRate:5
SliderMultiplier:1.4
SliderTickRate:1

[Events]
//Background and Video events
0,0,"Previous Background was better but whatever.jpg",0,0
//Break Periods
//Storyboard Layer 0 (Background)
//Storyboard Layer 1 (Fail)
//Storyboard Layer 2 (Pass)
//Storyboard Layer 3 (Foreground)
//Storyboard Layer 4 (Overlay)
//Storyboard Sound Samples

[TimingPoints]
257,333.333333333333,4,2,1,10,1,0
21590,-100,4,2,1,30,0,1
32256,-100,4,2,1,25,0,0
42923,-100,4,2,1,30,0,1
53590,-100,4,2,1,10,0,0

[HitObjects]
320,192,257,5,0,0:0:0:0:
448,192,257,128,0,2923:0:0:0:0:
64,192,590,128,0,1090:0:0:0:0:
192,192,1090,128,0,1590:0:0:0:0:
320,192,1590,128,0,2090:0:0:0:0:
192,192,2090,128,0,2506:0:0:0:0:
64,192,2506,128,0,4423:0:0:0:0:
320,192,4423,1,0,0:0:0:0:
320,192,4923,1,0,0:0:0:0:
192,192,5590,1,0,0:0:0:0:
64,192,5590,128,0,8256:0:0:0:0:
448,192,5923,128,0,6423:0:0:0:0:
320,192,6423,128,0,6923:0:0:0:0:
192,192,6923,128,0,7423:0:0:0:0:
320,192,7423,128,0,7756:0:0:0:0:
448,192,7756,128,0,8256:0:0:0:0:
320,192,8256,1,0,0:0:0:0:
192,192,8256,128,0,9590:0:0:0:0:
448,192,8590,128,0,9090:0:0:0:0:
320,192,9090,128,0,9590:0:0:0:0:
64,192,9590,128,0,10090:0:0:0:0:
448,192,9590,128,0,10423:0:0:0:0:
192,192,10090,128,0,10423:0:0:0:0:
320,192,10423,128,0,10923:0:0:0:0:
448,192,10923,1,0,0:0:0:0:
64,192,10923,1,0,0:0:0:0:
320,192,11090,1,0,0:0:0:0:
192,192,11256,1,0,0:0:0:0:
448,192,11256,128,0,11590:0:0:0:0:
64,192,11423,1,0,0:0:0:0:
192,192,11590,1,0,0:0:0:0:
320,192,11756,1,0,0:0:0:0:
64,192,11756,128,0,12090:0:0:0:0:
192,192,11923,1,0,0:0:0:0:
448,192,12090,1,0,0:0:0:0:
192,192,12256,128,0,12590:0:0:0:0:
320,192,12256,1,0,0:0:0:0:
448,192,12423,1,0,0:0:0:0:
64,192,12590,1,0,0:0:0:0:
448,192,12756,128,0,12923:0:0:0:0:
320,192,12756,1,0,0:0:0:0:
192,192,12923,1,0,0:0:0:0:
320,192,13090,128,0,13256:0:0:0:0:
64,192,13090,1,0,0:0:0:0:
192,192,13256,1,0,0:0:0:0:
320,192,13423,1,0,0:0:0:0:
448,192,13590,1,0,0:0:0:0:
64,192,13590,128,0,13756:0:0:0:0:
320,192,13756,128,0,13923:0:0:0:0:
192,192,13923,1,0,0:0:0:0:
448,192,13923,128,0,14090:0:0:0:0:
64,192,14090,1,0,0:0:0:0:
320,192,14256,128,0,14423:0:0:0:0:
192,192,14423,128,0,14590:0:0:0:0:
448,192,14423,1,0,0:0:0:0:
64,192,14590,1,0,0:0:0:0:
320,192,14756,128,0,14923:0:0:0:0:
64,192,14923,128,0,15090:0:0:0:0:
448,192,14923,1,0,0:0:0:0:
192,192,15090,1,0,0:0:0:0:
320,192,15256,1,0,0:0:0:0:
448,192,15423,1,0,0:0:0:0:
192,192,15423,128,0,15590:0:0:0:0:
64,192,15590,1,0,0:0:0:0:
320,192,15756,1,0,0:0:0:0:
448,192,15756,128,0,15923:0:0:0:0:
192,192,15923,1,0,0:0:0:0:
320,192,16090,1,0,0:0:0:0:
448,192,16256,1,0,0:0:0:0:
64,192,16256,128,0,16423:0:0:0:0:
192,192,16423,128,0,16590:0:0:0:0:
320,192,16590,128,0,16756:0:0:0:0:
64,192,16590,1,0,0:0:0:0:
192,192,16756,1,0,0:0:0:0:
448,192,16923,128,0,17090:0:0:0:0:
320,192,17090,128,0,17256:0:0:0:0:
64,192,17090,1,0,0:0:0:0:
192,192,17256,128,0,17423:0:0:0:0:
320,192,17423,128,0,17590:0:0:0:0:
64,192,17590,128,0,17756:0:0:0:0:
192,192,17590,1,0,0:0:0:0:
448,192,17756,1,0,0:0:0:0:
192,192,17923,1,0,0:0:0:0:
320,192,18090,1,0,0:0:0:0:
448,192,18090,128,0,18256:0:0:0:0:
64,192,18256,128,0,18423:0:0:0:0:
192,192,18423,128,0,18590:0:0:0:0:
320,192,18423,1,0,0:0:0:0:
448,192,18590,1,0,0:0:0:0:
192,192,18756,1,0,0:0:0:0:
64,192,18923,1,0,0:0:0:0:
320,192,18923,128,0,19090:0:0:0:0:
448,192,19090,128,0,19256:0:0:0:0:
192,192,19256,128,0,19423:0:0:0:0:
320,192,19256,1,0,0:0:0:0:
64,192,19423,128,0,19590:0:0:0:0:
448,192,19590,128,0,19756:0:0:0:0:
64,192,19756,1,0,0:0:0:0:
192,192,19756,128,0,19923:0:0:0:0:
448,192,19923,1,0,0:0:0:0:
192,192,20090,128,0,20256:0:0:0:0:
448,192,20256,1,0,0:0:0:0:
320,192,20256,128,0,20423:0:0:0:0:
64,192,20423,128,0,20590:0:0:0:0:
192,192,20590,128,0,20756:0:0:0:0:
320,192,20756,1,0,0:0:0:0:
448,192,20756,128,0,20923:0:0:0:0:
192,192,20923,1,0,0:0:0:0:
64,192,21090,128,0,21423:0:0:0:0:
448,192,21090,128,0,21423:0:0:0:0:
192,192,21256,1,0,0:0:0:0:
320,192,21423,1,0,0:0:0:0:
64,192,21590,5,0,0:0:0:0:
320,192,21590,1,4,0:0:0:0:
192,192,21590,1,8,0:0:0:0:
448,192,21590,1,0,0:0:0:0:
192,192,21756,1,0,0:0:0:0:
320,192,21923,1,0,0:0:0:0:
448,192,21923,1,0,0:0:0:0:
192,192,22090,1,0,0:0:0:0:
320,192,22090,1,0,0:0:0:0:
448,192,22090,1,8,0:0:0:0:
64,192,22090,1,0,0:0:0:0:
320,192,22256,1,0,0:0:0:0:
192,192,22423,1,0,0:0:0:0:
64,192,22423,1,0,0:0:0:0:
320,192,22590,1,0,0:0:0:0:
448,192,22590,1,0,0:0:0:0:
64,192,22590,1,0,0:0:0:0:
192,192,22590,1,8,0:0:0:0:
64,192,22756,1,0,0:0:0:0:
64,192,22923,1,0,0:0:0:0:
192,192,22923,1,0,0:0:0:0:
320,192,22923,1,0,0:0:0:0:
448,192,22923,1,8,0:0:0:0:
448,192,23090,1,0,0:0:0:0:
192,192,23256,1,0,0:0:0:0:
64,192,23256,1,0,0:0:0:0:
448,192,23423,1,0,0:0:0:0:
320,192,23423,1,8,0:0:0:0:
192,192,23423,1,0,0:0:0:0:
64,192,23423,1,0,0:0:0:0:
320,192,23590,1,0,0:0:0:0:
64,192,23756,1,0,0:0:0:0:
192,192,23756,1,0,0:0:0:0:
448,192,23923,1,0,0:0:0:0:
320,192,23923,1,8,0:0:0:0:
64,192,23923,1,0,0:0:0:0:
320,192,24090,1,8,0:0:0:0:
448,192,24090,1,0,0:0:0:0:
192,192,24090,1,0,0:0:0:0:
64,192,24256,1,0,0:0:0:0:
448,192,24256,1,0,0:0:0:0:
192,192,24423,1,0,0:0:0:0:
64,192,24590,1,0,0:0:0:0:
320,192,24590,1,0,0:0:0:0:
320,192,24756,1,0,0:0:0:0:
448,192,24756,1,0,0:0:0:0:
192,192,24756,1,0,0:0:0:0:
64,192,24756,1,8,0:0:0:0:
192,192,24923,1,0,0:0:0:0:
448,192,25090,1,0,0:0:0:0:
320,192,25090,1,0,0:0:0:0:
448,192,25256,1,0,0:0:0:0:
320,192,25256,1,0,0:0:0:0:
192,192,25256,1,8,0:0:0:0:
64,192,25256,1,0,0:0:0:0:
448,192,25423,1,0,0:0:0:0:
64,192,25590,1,0,0:0:0:0:
192,192,25590,1,0,0:0:0:0:
448,192,25590,1,8,0:0:0:0:
320,192,25590,1,0,0:0:0:0:
192,192,25756,1,0,0:0:0:0:
64,192,25923,1,0,0:0:0:0:
320,192,25923,1,0,0:0:0:0:
320,192,26090,1,0,0:0:0:0:
192,192,26090,1,8,0:0:0:0:
64,192,26090,1,0,0:0:0:0:
448,192,26090,1,0,0:0:0:0:
192,192,26256,1,0,0:0:0:0:
448,192,26423,1,0,0:0:0:0:
320,192,26423,1,0,0:0:0:0:
320,192,26590,1,0,0:0:0:0:
192,192,26590,1,0,0:0:0:0:
64,192,26590,1,0,0:0:0:0:
448,192,26590,1,8,0:0:0:0:
64,192,26756,1,8,0:0:0:0:
192,192,26840,1,8,0:0:0:0:
448,192,26923,1,0,0:0:0:0:
64,192,26923,1,4,0:0:0:0:
320,192,26923,1,8,0:0:0:0:
192,192,27090,1,0,0:0:0:0:
448,192,27256,1,0,0:0:0:0:
64,192,27256,1,0,0:0:0:0:
64,192,27423,1,0,0:0:0:0:
192,192,27423,1,0,0:0:0:0:
320,192,27423,1,0,0:0:0:0:
448,192,27423,1,8,0:0:0:0:
320,192,27590,1,0,0:0:0:0:
448,192,27756,1,0,0:0:0:0:
192,192,27756,1,0,0:0:0:0:
64,192,27923,1,0,0:0:0:0:
192,192,27923,1,0,0:0:0:0:
448,192,27923,1,8,0:0:0:0:
320,192,27923,1,0,0:0:0:0:
192,192,28090,1,0,0:0:0:0:
320,192,28256,1,0,0:0:0:0:
64,192,28256,1,0,0:0:0:0:
448,192,28256,1,8,0:0:0:0:
192,192,28256,1,0,0:0:0:0:
320,192,28423,1,0,0:0:0:0:
192,192,28590,1,0,0:0:0:0:
448,192,28590,1,0,0:0:0:0:
64,192,28756,1,0,0:0:0:0:
192,192,28756,1,0,0:0:0:0:
320,192,28756,1,0,0:0:0:0:
448,192,28756,1,8,0:0:0:0:
320,192,28923,1,0,0:0:0:0:
64,192,29090,1,0,0:0:0:0:
192,192,29090,1,0,0:0:0:0:
192,192,29256,1,0,0:0:0:0:
448,192,29256,1,8,0:0:0:0:
320,192,29256,1,0,0:0:0:0:
64,192,29423,1,0,0:0:0:0:
448,192,29423,1,0,0:0:0:0:
320,192,29423,1,8,0:0:0:0:
64,192,29590,1,0,0:0:0:0:
192,192,29590,1,0,0:0:0:0:
320,192,29756,1,0,0:0:0:0:
64,192,29923,1,0,0:0:0:0:
448,192,29923,1,0,0:0:0:0:
192,192,30090,1,0,0:0:0:0:
320,192,30090,1,0,0:0:0:0:
448,192,30090,1,8,0:0:0:0:
64,192,30090,1,0,0:0:0:0:
192,192,30256,1,0,0:0:0:0:
64,192,30423,1,0,0:0:0:0:
320,192,30423,1,0,0:0:0:0:
64,192,30590,1,0,0:0:0:0:
192,192,30590,1,0,0:0:0:0:
448,192,30590,1,0,0:0:0:0:
320,192,30590,1,8,0:0:0:0:
320,192,30756,1,0,0:0:0:0:
64,192,30923,1,0,0:0:0:0:
192,192,30923,1,0,0:0:0:0:
320,192,30923,1,8,0:0:0:0:
448,192,30923,1,0,0:0:0:0:
192,192,31090,1,0,0:0:0:0:
64,192,31256,1,0,0:0:0:0:
448,192,31256,1,0,0:0:0:0:
192,192,31423,1,0,0:0:0:0:
64,192,31423,1,8,0:0:0:0:
448,192,31423,1,0,0:0:0:0:
320,192,31423,1,0,0:0:0:0:
320,192,31590,1,0,0:0:0:0:
192,192,31756,1,0,0:0:0:0:
64,192,31756,1,0,0:0:0:0:
320,192,31923,1,0,0:0:0:0:
64,192,31923,1,0,0:0:0:0:
192,192,31923,1,8,0:0:0:0:
448,192,31923,1,0,0:0:0:0:
448,192,32090,1,0,0:0:0:0:
320,192,32090,1,0,0:0:0:0:
64,192,32256,1,0,0:0:0:0:
192,192,32256,1,4,0:0:0:0:
320,192,32256,1,0,0:0:0:0:
448,192,32256,1,8,0:0:0:0:
448,192,32590,1,0,0:0:0:0:
192,192,32590,1,0,0:0:0:0:
192,192,32756,1,0,0:0:0:0:
64,192,32756,128,0,33090:0:0:0:0:
320,192,32923,1,0,0:0:0:0:
448,192,33090,1,0,0:0:0:0:
320,192,33090,1,0,0:0:0:0:
64,192,33256,1,0,0:0:0:0:
192,192,33256,128,0,33423:0:0:0:0:
320,192,33423,1,0,0:0:0:0:
448,192,33590,128,0,33923:0:0:0:0:
192,192,33590,1,0,0:0:0:0:
192,192,33756,1,0,0:0:0:0:
320,192,33923,1,0,0:0:0:0:
64,192,34090,1,0,0:0:0:0:
192,192,34090,1,0,0:0:0:0:
64,192,34256,1,0,0:0:0:0:
320,192,34423,1,0,0:0:0:0:
448,192,34423,1,0,0:0:0:0:
320,192,34590,1,0,0:0:0:0:
192,192,34756,1,0,0:0:0:0:
64,192,34923,128,0,35256:0:0:0:0:
448,192,34923,1,0,0:0:0:0:
320,192,35090,1,0,0:0:0:0:
320,192,35256,1,0,0:0:0:0:
192,192,35256,1,0,0:0:0:0:
192,192,35423,1,0,0:0:0:0:
448,192,35590,1,0,0:0:0:0:
448,192,35756,1,0,0:0:0:0:
64,192,35756,1,0,0:0:0:0:
64,192,35923,1,0,0:0:0:0:
320,192,36090,1,0,0:0:0:0:
320,192,36256,1,0,0:0:0:0:
192,192,36256,128,0,36590:0:0:0:0:
64,192,36423,1,0,0:0:0:0:
448,192,36590,1,0,0:0:0:0:
448,192,36756,1,0,0:0:0:0:
64,192,36756,1,0,0:0:0:0:
64,192,36923,1,0,0:0:0:0:
320,192,37090,1,0,0:0:0:0:
192,192,37090,1,0,0:0:0:0:
448,192,37256,1,0,0:0:0:0:
192,192,37256,1,0,0:0:0:0:
64,192,37423,1,0,0:0:0:0:
320,192,37590,1,0,0:0:0:0:
448,192,37590,1,0,0:0:0:0:
64,192,37756,1,0,0:0:0:0:
64,192,37923,1,0,0:0:0:0:
192,192,37923,1,0,0:0:0:0:
320,192,38090,1,0,0:0:0:0:
448,192,38090,128,0,38423:0:0:0:0:
192,192,38256,1,0,0:0:0:0:
320,192,38423,1,0,0:0:0:0:
64,192,38423,1,0,0:0:0:0:
64,192,38590,1,0,0:0:0:0:
448,192,38590,128,0,38756:0:0:0:0:
192,192,38756,1,0,0:0:0:0:
64,192,38923,128,0,39256:0:0:0:0:
320,192,38923,1,0,0:0:0:0:
320,192,39090,1,0,0:0:0:0:
192,192,39256,1,0,0:0:0:0:
448,192,39423,1,0,0:0:0:0:
320,192,39423,1,0,0:0:0:0:
448,192,39590,1,0,0:0:0:0:
192,192,39756,1,0,0:0:0:0:
64,192,39756,1,0,0:0:0:0:
192,192,39923,1,0,0:0:0:0:
320,192,40090,1,0,0:0:0:0:
448,192,40256,128,0,40590:0:0:0:0:
64,192,40256,1,0,0:0:0:0:
192,192,40423,1,0,0:0:0:0:
192,192,40590,1,0,0:0:0:0:
320,192,40590,1,0,0:0:0:0:
320,192,40756,1,0,0:0:0:0:
64,192,40923,1,0,0:0:0:0:
64,192,41090,1,0,0:0:0:0:
448,192,41090,1,0,0:0:0:0:
448,192,41256,1,0,0:0:0:0:
192,192,41423,1,0,0:0:0:0:
192,192,41590,1,0,0:0:0:0:
448,192,41590,128,0,41923:0:0:0:0:
320,192,41756,1,0,0:0:0:0:
64,192,41923,1,0,0:0:0:0:
64,192,42090,1,0,0:0:0:0:
448,192,42090,1,0,0:0:0:0:
448,192,42256,1,0,0:0:0:0:
192,192,42423,1,0,0:0:0:0:
320,192,42423,1,0,0:0:0:0:
64,192,42590,1,0,0:0:0:0:
320,192,42590,1,0,0:0:0:0:
192,192,42756,1,0,0:0:0:0:
448,192,42923,5,0,0:0:0:0:
320,192,42923,1,8,0:0:0:0:
192,192,42923,1,4,0:0:0:0:
64,192,42923,1,0,0:0:0:0:
320,192,43090,1,0,0:0:0:0:
192,192,43256,1,0,0:0:0:0:
64,192,43256,1,0,0:0:0:0:
320,192,43423,1,0,0:0:0:0:
192,192,43423,1,0,0:0:0:0:
64,192,43423,1,8,0:0:0:0:
448,192,43423,1,0,0:0:0:0:
192,192,43590,1,0,0:0:0:0:
320,192,43756,1,0,0:0:0:0:
448,192,43756,1,0,0:0:0:0:
192,192,43923,1,0,0:0:0:0:
64,192,43923,1,0,0:0:0:0:
448,192,43923,1,0,0:0:0:0:
320,192,43923,1,8,0:0:0:0:
448,192,44090,1,0,0:0:0:0:
448,192,44256,1,0,0:0:0:0:
320,192,44256,1,0,0:0:0:0:
192,192,44256,1,0,0:0:0:0:
64,192,44256,1,8,0:0:0:0:
64,192,44423,1,0,0:0:0:0:
320,192,44590,1,0,0:0:0:0:
448,192,44590,1,0,0:0:0:0:
64,192,44756,1,0,0:0:0:0:
192,192,44756,1,8,0:0:0:0:
320,192,44756,1,0,0:0:0:0:
448,192,44756,1,0,0:0:0:0:
192,192,44923,1,0,0:0:0:0:
448,192,45090,1,0,0:0:0:0:
320,192,45090,1,0,0:0:0:0:
64,192,45256,1,0,0:0:0:0:
192,192,45256,1,8,0:0:0:0:
448,192,45256,1,0,0:0:0:0:
192,192,45423,1,8,0:0:0:0:
64,192,45423,1,0,0:0:0:0:
320,192,45423,1,0,0:0:0:0:
448,192,45590,1,0,0:0:0:0:
64,192,45590,1,0,0:0:0:0:
320,192,45756,1,0,0:0:0:0:
448,192,45923,1,0,0:0:0:0:
192,192,45923,1,0,0:0:0:0:
192,192,46090,1,0,0:0:0:0:
64,192,46090,1,0,0:0:0:0:
320,192,46090,1,0,0:0:0:0:
448,192,46090,1,8,0:0:0:0:
320,192,46256,1,0,0:0:0:0:
64,192,46423,1,0,0:0:0:0:
192,192,46423,1,0,0:0:0:0:
64,192,46590,1,0,0:0:0:0:
192,192,46590,1,0,0:0:0:0:
320,192,46590,1,8,0:0:0:0:
448,192,46590,1,0,0:0:0:0:
64,192,46756,1,0,0:0:0:0:
448,192,46923,1,0,0:0:0:0:
320,192,46923,1,0,0:0:0:0:
64,192,46923,1,8,0:0:0:0:
192,192,46923,1,0,0:0:0:0:
320,192,47090,1,0,0:0:0:0:
448,192,47256,1,0,0:0:0:0:
192,192,47256,1,0,0:0:0:0:
192,192,47423,1,0,0:0:0:0:
320,192,47423,1,8,0:0:0:0:
448,192,47423,1,0,0:0:0:0:
64,192,47423,1,0,0:0:0:0:
320,192,47590,1,0,0:0:0:0:
64,192,47756,1,0,0:0:0:0:
192,192,47756,1,0,0:0:0:0:
192,192,47923,1,0,0:0:0:0:
320,192,47923,1,0,0:0:0:0:
448,192,47923,1,0,0:0:0:0:
64,192,47923,1,8,0:0:0:0:
448,192,48090,1,8,0:0:0:0:
320,192,48173,1,8,0:0:0:0:
64,192,48256,1,0,0:0:0:0:
448,192,48256,1,4,0:0:0:0:
192,192,48256,1,8,0:0:0:0:
320,192,48423,1,0,0:0:0:0:
64,192,48590,1,0,0:0:0:0:
448,192,48590,1,0,0:0:0:0:
448,192,48756,1,0,0:0:0:0:
320,192,48756,1,0,0:0:0:0:
192,192,48756,1,0,0:0:0:0:
64,192,48756,1,8,0:0:0:0:
192,192,48923,1,0,0:0:0:0:
64,192,49090,1,0,0:0:0:0:
320,192,49090,1,0,0:0:0:0:
448,192,49256,1,0,0:0:0:0:
320,192,49256,1,0,0:0:0:0:
64,192,49256,1,8,0:0:0:0:
192,192,49256,1,0,0:0:0:0:
320,192,49423,1,0,0:0:0:0:
192,192,49590,1,0,0:0:0:0:
448,192,49590,1,0,0:0:0:0:
64,192,49590,1,8,0:0:0:0:
320,192,49590,1,0,0:0:0:0:
192,192,49756,1,0,0:0:0:0:
320,192,49923,1,0,0:0:0:0:
64,192,49923,1,0,0:0:0:0:
448,192,50090,1,0,0:0:0:0:
320,192,50090,1,0,0:0:0:0:
192,192,50090,1,0,0:0:0:0:
64,192,50090,1,8,0:0:0:0:
192,192,50256,1,0,0:0:0:0:
448,192,50423,1,0,0:0:0:0:
320,192,50423,1,0,0:0:0:0:
320,192,50590,1,0,0:0:0:0:
64,192,50590,1,8,0:0:0:0:
192,192,50590,1,0,0:0:0:0:
448,192,50756,1,0,0:0:0:0:
64,192,50756,1,0,0:0:0:0:
192,192,50756,1,8,0:0:0:0:
448,192,50923,1,0,0:0:0:0:
320,192,50923,1,0,0:0:0:0:
192,192,51090,1,0,0:0:0:0:
448,192,51256,1,0,0:0:0:0:
64,192,51256,1,0,0:0:0:0:
320,192,51423,1,0,0:0:0:0:
192,192,51423,1,0,0:0:0:0:
64,192,51423,1,8,0:0:0:0:
448,192,51423,1,0,0:0:0:0:
320,192,51590,1,0,0:0:0:0:
448,192,51756,1,0,0:0:0:0:
192,192,51756,1,0,0:0:0:0:
448,192,51923,1,0,0:0:0:0:
320,192,51923,1,0,0:0:0:0:
64,192,51923,1,0,0:0:0:0:
192,192,51923,1,8,0:0:0:0:
192,192,52090,1,0,0:0:0:0:
448,192,52256,1,0,0:0:0:0:
320,192,52256,1,0,0:0:0:0:
192,192,52256,1,8,0:0:0:0:
64,192,52256,1,0,0:0:0:0:
320,192,52423,1,0,0:0:0:0:
448,192,52590,1,0,0:0:0:0:
64,192,52590,1,0,0:0:0:0:
320,192,52756,1,0,0:0:0:0:
448,192,52756,1,8,0:0:0:0:
64,192,52756,1,0,0:0:0:0:
192,192,52756,1,0,0:0:0:0:
192,192,52923,1,0,0:0:0:0:
320,192,53090,1,0,0:0:0:0:
448,192,53090,1,0,0:0:0:0:
192,192,53256,1,0,0:0:0:0:
448,192,53256,1,0,0:0:0:0:
320,192,53256,1,8,0:0:0:0:
64,192,53256,1,0,0:0:0:0:
64,192,53423,1,0,0:0:0:0:
192,192,53423,1,0,0:0:0:0:
448,192,53590,128,0,53923:0:0:0:0:
192,192,53756,1,0,0:0:0:0:
64,192,53923,128,0,54256:0:0:0:0:
320,192,53923,1,0,0:0:0:0:
320,192,54256,1,0,0:0:0:0:
448,192,54423,128,0,54756:0:0:0:0:
192,192,54423,1,0,0:0:0:0:
64,192,54756,1,0,0:0:0:0:
192,192,54923,128,0,55256:0:0:0:0:
448,192,54923,1,0,0:0:0:0:
320,192,55256,1,0,0:0:0:0:
64,192,55423,128,0,55756:0:0:0:0:
192,192,55423,1,0,0:0:0:0:
448,192,55756,128,0,55923:0:0:0:0:
320,192,55756,1,0,0:0:0:0:
192,192,55923,1,0,0:0:0:0:
64,192,56090,1,0,0:0:0:0:
320,192,56256,128,0,56423:0:0:0:0:
192,192,56423,1,0,0:0:0:0:
448,192,56590,128,0,56923:0:0:0:0:
64,192,56590,1,0,0:0:0:0:
320,192,56923,1,0,0:0:0:0:
64,192,57090,128,0,57423:0:0:0:0:
448,192,57090,1,0,0:0:0:0:
448,192,57423,1,0,0:0:0:0:
320,192,57590,128,0,57923:0:0:0:0:
192,192,57590,1,0,0:0:0:0:
64,192,57923,1,0,0:0:0:0:
192,192,58090,128,0,58423:0:0:0:0:
320,192,58090,1,0,0:0:0:0:
64,192,58423,1,0,0:0:0:0:
448,192,58423,128,0,58590:0:0:0:0:
320,192,58590,128,0,58756:0:0:0:0:
192,192,58756,1,0,0:0:0:0:
64,192,58923,128,0,59256:0:0:0:0:
320,192,59090,1,0,0:0:0:0:
448,192,59256,128,0,59590:0:0:0:0:
192,192,59256,1,0,0:0:0:0:
192,192,59590,1,0,0:0:0:0:
64,192,59756,128,0,60090:0:0:0:0:
320,192,59756,1,0,0:0:0:0:
448,192,60090,1,0,0:0:0:0:
320,192,60256,128,0,60590:0:0:0:0:
64,192,60256,1,0,0:0:0:0:
192,192,60590,1,0,0:0:0:0:
448,192,60756,128,0,61090:0:0:0:0:
320,192,60756,1,0,0:0:0:0:
64,192,61090,128,0,61256:0:0:0:0:
192,192,61090,1,0,0:0:0:0:
320,192,61256,1,0,0:0:0:0:
448,192,61423,1,0,0:0:0:0:
192,192,61590,128,0,61756:0:0:0:0:
320,192,61756,1,0,0:0:0:0:
64,192,61923,128,0,62256:0:0:0:0:
448,192,61923,1,0,0:0:0:0:
192,192,62256,1,0,0:0:0:0:
448,192,62423,128,0,62756:0:0:0:0:
64,192,62423,1,0,0:0:0:0:
64,192,62756,1,0,0:0:0:0:
192,192,62923,128,0,63256:0:0:0:0:
320,192,62923,1,0,0:0:0:0:
448,192,63256,1,0,0:0:0:0:
320,192,63423,128,0,63756:0:0:0:0:
192,192,63423,1,0,0:0:0:0:
448,192,63756,1,0,0:0:0:0:
64,192,63756,128,0,63923:0:0:0:0:
192,192,63923,128,0,64090:0:0:0:0:
320,192,64090,1,0,0:0:0:0:
448,192,64256,1,0,0:0:0:0:
64,192,64256,128,0,64590:0:0:0:0:
