osu file format v14

[General]
AudioFilename: audio.mp3
AudioLeadIn: 0
PreviewTime: 109967
Countdown: 0
SampleSet: Soft
StackLeniency: 0.7
Mode: 0
LetterboxInBreaks: 0
WidescreenStoryboard: 1

[Editor]
Bookmarks: 11139,23482,34453,45424,56396,67367,78339,89310,100282,111253,122224,133196,144167,157882,166110,177082,188053
DistanceSpacing: 1.7
BeatDivisor: 4
GridSize: 32
TimelineZoom: 0.8999999

[Metadata]
Title:Skyless
TitleUnicode:Skyless
Artist:garlagan
ArtistUnicode:garlagan
Creator:Hinsvar
Version:Normal
Source:
Tags:Electronic English drum and bass DnB pop electropop Impulse Featured Artist FA Mappers' Guild MG MPG
BeatmapID:4345671
BeatmapSetID:2075039

[Difficulty]
HPDrainRate:3
CircleSize:3
OverallDifficulty:4
ApproachRate:5
SliderMultiplier:1.04
SliderTickRate:1

[Events]
//Background and Video events
0,0,"BG.jpg",0,0
//Break Periods
2,89510,98567
2,158082,164396
//Storyboard Layer 0 (Background)
//Storyboard Layer 1 (Fail)
//Storyboard Layer 2 (Pass)
//Storyboard Layer 3 (Foreground)
//Storyboard Layer 4 (Overlay)
//Storyboard Sound Samples

[TimingPoints]
168,342.857142857143,4,2,1,60,1,0
23482,342.857142857143,4,2,1,60,1,0
23482,-111.111111111111,4,2,1,60,0,0
45424,-90.9090909090909,4,2,1,75,0,1
56396,-111.111111111111,4,2,1,60,0,0
78339,-90.9090909090909,4,2,1,75,0,1
89310,-111.111111111111,4,2,1,60,0,0
111253,-90.9090909090909,4,2,1,75,0,1
122224,-90.9090909090909,4,2,1,80,0,1
133196,-111.111111111111,4,2,1,65,0,0
157882,-111.111111111111,4,2,1,5,0,0
165596,-111.111111111111,4,2,1,65,0,0
166110,-90.9090909090909,4,2,1,75,0,1
177082,-90.9090909090909,4,2,1,80,0,1
188053,-111.111111111111,4,2,1,60,0,0

[Colours]
Combo1 : 75,211,130
Combo2 : 128,174,232
Combo3 : 245,137,56
Combo4 : 64,255,203

[HitObjects]
397,363,11139,5,4,3:2:0:0:
478,298,11482,2,0,L|454:188,1,104,0|0,1:0|3:0,0:0:0:0:
413,165,11996,2,0,L|303:189,1,104,0|0,1:0|0:0,0:0:0:0:
280,230,12510,1,0,3:0:0:0:
207,305,12853,2,0,P|163:321|112:293,1,104,0|0,1:0|3:0,0:0:0:0:
92,248,13368,2,0,P|69:235|45:243,2,52,0|0|0,1:0|0:0|0:0,0:0:0:0:
116,201,13882,1,0,3:0:0:0:
32,138,14225,6,0,L|23:35,1,104,0|0,1:0|3:0,0:0:0:0:
74,29,14739,2,0,L|177:20,1,104,0|0,1:0|0:0,0:0:0:0:
183,71,15253,1,0,3:0:0:0:
281,38,15596,2,0,P|332:37|383:71,1,104,0|0,1:0|3:0,0:0:0:0:
428,59,16110,2,0,P|427:33|444:8,2,52,0|0|0,1:0|0:0|0:0,0:0:0:0:
464,96,16625,1,0,3:0:0:0:
489,196,16968,6,0,L|381:210,1,104,2|0,1:2|3:0,0:0:0:0:
367,160,17482,2,0,L|259:174,1,104,2|0,1:2|0:0,0:0:0:0:
224,207,17996,1,2,3:2:0:0:
137,149,18339,2,0,P|90:142|52:188,1,104,0|0,1:0|3:0,0:0:0:0:
63,231,18853,2,0,P|43:245|46:274,2,52,2|0|0,1:2|0:0|0:0,0:0:0:0:
114,240,19368,1,0,3:0:0:0:
205,288,19710,6,0,L|316:320,1,104,0|0,1:0|3:0,0:0:0:0:
355,302,20225,2,0,L|327:189,1,104,0|0,1:0|0:0,0:0:0:0:
293,166,20739,1,0,3:0:0:0:
190,180,21082,2,0,P|175:140|193:82,1,104,0|0,1:0|3:0,0:0:0:0:
243,64,21596,1,0,1:0:0:0:
243,64,21768,2,0,P|263:56|292:65,2,52,0|0|2,0:0|0:0|0:0,0:0:0:0:
36,261,22968,2,0,B|61:284|58:305|51:309|53:334|80:364,1,104,2|2,0:0|0:0,0:0:0:0:
119,360,23482,5,0,3:0:0:0:
217,324,23824,1,8,0:0:0:0:
217,324,23996,1,0,3:0:0:0:
317,348,24339,2,0,L|467:358,1,140.399995715332,8|0,0:0|3:0,0:0:0:0:
507,270,25196,1,8,0:0:0:0:
507,270,25367,1,0,3:0:0:0:
477,171,25710,2,2,B|489:129|489:129|463:84,1,93.5999971435548,8|0,0:0|0:0,0:0:0:0:
431,45,26224,5,0,3:0:0:0:
330,22,26567,1,8,0:0:0:0:
330,22,26739,1,0,3:0:0:0:
357,121,27082,2,0,P|350:194|339:269,1,140.399995715332,8|0,0:0|3:0,0:0:0:0:
244,289,27939,1,8,0:0:0:0:
244,289,28110,2,0,P|237:242|232:196,1,93.5999971435548,0|8,3:0|0:0,0:0:0:0:
225,144,28624,1,0,3:0:0:0:
164,61,28967,5,0,3:0:0:0:
61,72,29310,1,8,0:0:0:0:
61,72,29482,1,0,3:0:0:0:
19,166,29824,2,0,P|78:189|137:245,1,140.399995715332,8|0,0:0|3:0,0:0:0:0:
197,329,30682,1,8,0:0:0:0:
197,329,30853,1,0,3:0:0:0:
293,365,31196,2,2,B|340:370|340:370|381:341,1,93.5999971435548,8|0,0:0|0:0,0:0:0:0:
418,311,31710,5,0,3:0:0:0:
490,237,32053,1,8,0:0:0:0:
490,237,32224,1,0,3:0:0:0:
390,212,32567,2,0,B|347:236|321:210|326:206|300:180|249:193,1,140.399995715332,8|0,0:0|3:0,0:0:0:0:
173,143,33424,1,8,0:0:0:0:
173,143,33596,2,0,L|167:40,1,93.5999971435548,0|8,3:0|0:0,0:0:0:0:
212,24,34110,2,0,L|263:21,1,46.7999985717774,0|0,3:0|3:0,0:0:0:0:
310,17,34453,5,0,3:0:0:0:
414,45,34796,1,8,0:0:0:0:
414,45,34967,1,0,3:0:0:0:
485,118,35310,2,0,P|505:160|506:261,1,140.399995715332,8|0,0:0|3:0,0:0:0:0:
452,339,36167,1,8,0:0:0:0:
452,339,36339,1,0,3:0:0:0:
370,276,36682,2,2,B|354:233|354:233|359:178,1,93.5999971435548,8|0,0:0|0:0,0:0:0:0:
362,134,37196,5,0,3:0:0:0:
325,43,37539,1,8,0:0:0:0:
325,43,37710,1,0,3:0:0:0:
222,29,38053,2,0,P|154:30|71:53,1,140.399995715332,8|0,0:0|3:0,0:0:0:0:
23,131,38910,1,8,0:0:0:0:
23,131,39082,2,0,P|68:142|114:143,1,93.5999971435548,0|8,3:0|0:0,0:0:0:0:
166,143,39596,1,0,3:0:0:0:
267,158,39939,5,0,3:0:0:0:
308,256,40282,1,8,0:0:0:0:
308,256,40453,1,0,3:0:0:0:
243,340,40796,2,0,P|213:336|101:378,1,140.399995715332,8|0,0:0|3:0,0:0:0:0:
37,306,41653,1,8,0:0:0:0:
37,306,41824,1,0,3:0:0:0:
62,205,42167,2,2,B|109:212|109:212|147:185,1,93.5999971435548,8|0,0:0|0:0,0:0:0:0:
161,135,42682,5,0,3:0:0:0:
267,128,43024,1,8,0:0:0:0:
267,128,43196,1,0,3:0:0:0:
369,118,43539,1,8,0:0:0:0:
369,118,43710,2,0,L|465:109,1,93.5999971435548,0|0,3:0|3:0,0:0:0:0:
477,211,44396,2,0,L|481:259,2,46.7999985717774,8|8|8,0:0|0:0|3:0,0:0:0:0:
374,222,45082,2,0,L|378:270,1,46.7999985717774,4|0,3:0|1:0,0:0:0:0:
382,325,45424,5,4,3:2:0:0:
271,356,45767,2,0,P|217:355|176:307,1,114.400003491211,2|0,1:2|3:0,0:0:0:0:
184,255,46282,2,0,P|238:254|279:206,1,114.400003491211,2|0,1:2|0:0,0:0:0:0:
260,156,46796,1,2,3:2:0:0:
208,53,47139,1,0,1:0:0:0:
208,53,47310,2,0,L|91:32,1,114.400003491211,2|2,0:0|1:2,0:0:0:0:
50,68,47824,2,0,L|39:126,2,57.2000017456055,2|2|0,0:0|0:0|3:0,0:0:0:0:
135,144,48510,6,0,B|161:182|154:199|149:198|141:215|170:252,1,114.400003491211,2|0,1:2|3:0,0:0:0:0:
175,306,49024,2,0,B|213:280|230:287|229:292|246:300|283:271,1,114.400003491211,2|0,1:2|0:0,0:0:0:0:
337,266,49539,1,2,3:2:0:0:
295,164,49882,1,0,1:0:0:0:
295,164,50053,2,0,P|327:120|395:116,1,114.400003491211,2|2,0:0|1:2,0:0:0:0:
437,93,50567,2,0,P|464:95|482:124,1,57.2000017456055,2|2,0:0|0:0,0:0:0:0:
492,174,50910,1,0,3:0:0:0:
504,287,51253,6,0,L|402:350,1,114.400003491211,2|0,1:2|3:0,0:0:0:0:
351,362,51767,2,0,L|249:299,1,114.400003491211,2|0,1:2|0:0,0:0:0:0:
203,273,52282,1,2,3:2:0:0:
116,347,52624,1,0,1:0:0:0:
116,347,52796,2,0,P|53:347|18:307,1,114.400003491211,2|2,0:0|1:2,0:0:0:0:
5,256,53310,2,0,P|5:224|25:207,2,57.2000017456055,2|2|0,0:0|0:0|3:0,0:0:0:0:
119,243,53996,6,0,B|157:221|173:229|177:229|192:238|226:207,1,114.400003491211,2|0,1:2|3:0,0:0:0:0:
278,188,54510,2,0,B|239:166|238:148|236:144|237:127|193:113,1,114.400003491211,2|0,1:2|0:0,0:0:0:0:
151,78,55024,1,2,3:2:0:0:
48,27,55367,1,0,1:0:0:0:
48,27,55539,2,0,P|37:83|34:152,1,114.400003491211,2|2,0:0|1:2,0:0:0:0:
37,197,56053,2,0,P|46:223|62:254,1,57.2000017456055,2|2,0:0|0:0,0:0:0:0:
85,294,56396,5,0,3:0:0:0:
162,225,56739,1,8,0:0:0:0:
162,225,56910,1,0,3:0:0:0:
258,189,57253,2,0,B|303:183|323:213|319:219|342:244|397:236,1,140.399995715332,8|0,0:0|3:0,0:0:0:0:
479,288,58110,1,8,0:0:0:0:
479,288,58282,1,0,3:0:0:0:
386,332,58624,2,2,B|342:332|342:332|291:355,1,93.5999971435548,8|0,0:0|0:0,0:0:0:0:
249,373,59139,5,0,3:0:0:0:
146,363,59482,1,8,0:0:0:0:
146,363,59653,1,0,3:0:0:0:
43,353,59996,2,0,P|41:281|25:206,1,140.399995715332,8|0,0:0|3:0,0:0:0:0:
124,173,60853,1,8,0:0:0:0:
124,173,61024,2,0,P|125:220|135:270,1,93.5999971435548,0|8,3:0|0:0,0:0:0:0:
185,276,61539,1,0,3:0:0:0:
287,273,61882,5,0,3:0:0:0:
355,196,62224,1,8,0:0:0:0:
355,196,62396,1,0,3:0:0:0:
457,193,62739,2,0,B|446:146|469:126|476:126|497:106|480:43,1,140.399995715332,8|0,0:0|3:0,0:0:0:0:
395,18,63596,1,8,0:0:0:0:
395,18,63767,1,0,3:0:0:0:
293,32,64110,2,2,B|284:78|284:78|313:123,1,93.5999971435548,8|0,0:0|0:0,0:0:0:0:
333,163,64624,5,0,3:0:0:0:
379,260,64967,1,8,0:0:0:0:
379,260,65139,1,0,3:0:0:0:
322,346,65482,2,0,P|252:339|177:322,1,140.399995715332,8|0,0:0|3:0,0:0:0:0:
143,235,66339,1,8,0:0:0:0:
143,235,66510,2,0,P|188:224|235:220,1,93.5999971435548,0|8,3:0|0:0,0:0:0:0:
286,215,67024,2,0,P|280:192|278:168,1,46.7999985717774,0|0,3:0|3:0,0:0:0:0:
273,117,67367,5,0,3:0:0:0:
205,46,67710,1,8,0:0:0:0:
205,46,67882,1,0,3:0:0:0:
104,68,68224,2,0,B|106:116|75:134|74:130|45:147|52:205,1,140.399995715332,8|0,0:0|3:0,0:0:0:0:
155,222,69082,1,8,0:0:0:0:
155,222,69253,1,0,3:0:0:0:
248,264,69596,2,2,B|272:304|272:304|250:363,1,93.5999971435548,8|0,0:0|0:0,0:0:0:0:
206,362,70110,5,0,3:0:0:0:
107,369,70453,1,8,0:0:0:0:
107,369,70624,1,0,3:0:0:0:
100,270,70967,2,0,P|110:217|192:183,1,140.399995715332,8|0,0:0|3:0,0:0:0:0:
281,226,71824,1,8,0:0:0:0:
281,226,71996,2,0,P|287:261|342:283,1,93.5999971435548,0|0,3:0|0:0,0:0:0:0:
387,281,72510,1,0,3:0:0:0:
475,229,72853,5,0,3:0:0:0:
473,126,73196,1,8,0:0:0:0:
473,126,73367,1,0,3:0:0:0:
382,76,73710,2,0,B|329:80|317:57|323:57|302:27|251:28,1,140.399995715332,8|0,0:0|3:0,0:0:0:0:
156,26,74567,1,8,0:0:0:0:
156,26,74739,1,0,3:0:0:0:
53,33,75082,2,2,B|22:66|22:66|31:136,1,93.5999971435548,8|0,0:0|0:0,0:0:0:0:
33,165,75596,5,0,3:0:0:0:
138,187,75939,1,8,0:0:0:0:
138,187,76110,1,0,3:0:0:0:
243,209,76453,1,8,0:0:0:0:
243,209,76624,2,0,P|281:183|293:130,1,93.5999971435548,0|0,3:0|3:0,0:0:0:0:
380,82,77310,2,0,P|386:59|405:47,2,46.7999985717774,8|8|8,0:0|0:0|3:0,0:0:0:0:
474,124,77996,2,0,P|467:146|448:158,1,46.7999985717774,4|0,3:0|1:0,0:0:0:0:
397,185,78339,5,4,3:2:0:0:
494,245,78682,2,0,L|502:361,1,114.400003491211,2|0,1:2|3:0,0:0:0:0:
445,367,79196,2,0,L|329:375,1,114.400003491211,2|0,1:2|0:0,0:0:0:0:
323,318,79710,1,2,3:2:0:0:
221,278,80053,1,0,1:0:0:0:
221,278,80224,2,0,B|174:277|166:294|170:299|157:318|105:313,1,114.400003491211,2|2,0:0|1:2,0:0:0:0:
65,287,80739,2,0,B|41:287|37:279|39:276|33:267|7:269,2,57.2000017456055,2|2|0,0:0|0:0|3:0,0:0:0:0:
66,172,81424,6,0,P|64:115|98:66,1,114.400003491211,2|0,1:2|3:0,0:0:0:0:
133,26,81939,2,0,P|183:52|208:106,1,114.400003491211,2|0,1:2|0:0,0:0:0:0:
225,157,82453,1,2,3:2:0:0:
282,262,82796,1,0,1:0:0:0:
282,262,82967,2,0,L|403:252,1,114.400003491211,2|2,0:0|1:2,0:0:0:0:
421,200,83482,2,0,L|481:205,1,57.2000017456055,2|2,0:0|0:0,0:0:0:0:
511,158,83824,1,0,3:0:0:0:
415,94,84167,6,0,P|361:77|340:17,1,114.400003491211,2|0,1:2|3:0,0:0:0:0:
281,30,84682,2,0,P|264:84|204:105,1,114.400003491211,2|0,1:2|0:0,0:0:0:0:
156,110,85196,1,2,3:2:0:0:
57,167,85539,1,0,1:0:0:0:
57,167,85710,2,0,L|27:290,1,114.400003491211,2|2,0:0|1:2,0:0:0:0:
75,313,86224,2,0,L|90:374,2,57.2000017456055,2|2|0,0:0|0:0|3:0,0:0:0:0:
154,230,86910,6,0,P|211:240|244:291,1,114.400003491211,2|0,1:2|3:0,0:0:0:0:
275,330,87424,2,0,P|332:320|365:269,1,114.400003491211,2|0,1:2|0:0,0:0:0:0:
378,220,87939,1,2,3:2:0:0:
292,153,88282,1,0,1:0:0:0:
292,153,88453,2,0,P|282:102|285:38,1,114.400003491211,2|2,0:0|1:2,0:0:0:0:
341,36,88967,2,0,P|366:31|398:32,1,57.2000017456055,2|0,0:0|0:0,0:0:0:0:
401,88,89310,1,0,3:0:0:0:
111,296,99767,5,8,0:0:0:0:
111,296,99939,2,0,P|92:290|53:283,2,46.7999985717774,0|0|2,3:0|3:0|3:2,0:0:0:0:
212,276,100624,5,8,0:0:0:0:
212,276,100796,1,0,3:0:0:0:
142,200,101139,2,0,B|159:145|132:130|133:135|109:111|126:56,1,140.399995715332,8|2,0:0|3:2,0:0:0:0:
221,29,101996,1,8,0:0:0:0:
221,29,102167,1,0,3:0:0:0:
314,71,102510,2,2,B|320:120|320:120|297:165,1,93.5999971435548,8|0,0:0|0:0,0:0:0:0:
272,203,103024,5,2,3:2:0:0:
377,222,103367,1,8,0:0:0:0:
377,222,103539,1,0,3:0:0:0:
428,311,103882,2,0,B|377:306|366:335|368:341|352:372|296:364,1,140.399995715332,8|2,0:0|3:2,0:0:0:0:
226,309,104739,1,8,0:0:0:0:
226,309,104910,2,0,P|178:318|133:339,1,93.5999971435548,0|8,3:0|0:0,0:0:0:0:
88,353,105424,1,0,3:0:0:0:
9,286,105767,5,2,3:2:0:0:
103,241,106110,1,8,0:0:0:0:
103,241,106282,1,0,3:0:0:0:
52,151,106624,2,0,B|68:108|45:84|38:87|18:63|43:8,1,140.399995715332,8|2,0:0|3:2,0:0:0:0:
138,46,107482,1,8,0:0:0:0:
138,46,107653,1,0,3:0:0:0:
236,77,107996,2,2,B|280:91|280:91|327:62,1,93.5999971435548,8|0,0:0|0:0,0:0:0:0:
361,34,108510,5,2,3:2:0:0:
467,30,108853,1,8,0:0:0:0:
467,30,109024,1,0,3:0:0:0:
471,136,109367,1,8,0:0:0:0:
471,136,109539,2,0,P|440:166|443:221,1,93.5999971435548,0|2,3:0|3:2,0:0:0:0:
338,194,110224,2,0,P|318:205|296:199,2,46.7999985717774,8|8|8,0:2|0:0|3:0,0:0:0:0:
370,291,110910,2,0,P|389:302|396:324,1,46.7999985717774,4|0,3:0|1:0,0:0:0:0:
385,380,111253,5,4,3:2:0:0:
270,374,111596,2,0,P|212:370|147:347,1,114.400003491211,2|0,1:2|3:0,0:0:0:0:
182,300,112110,2,0,P|124:304|59:327,1,114.400003491211,2|0,1:2|0:0,0:0:0:0:
16,341,112624,1,2,3:2:0:0:
13,230,112967,1,0,1:0:0:0:
13,230,113139,2,0,L|68:120,1,114.400003491211,2|2,0:0|1:2,0:0:0:0:
116,150,113653,2,0,L|171:177,2,57.2000017456055,2|2|0,0:0|0:0|3:0,0:0:0:0:
137,37,114339,6,0,P|186:51|245:20,1,114.400003491211,2|0,1:2|3:0,0:0:0:0:
288,56,114853,2,0,P|274:105|305:164,1,114.400003491211,2|0,1:2|0:0,0:0:0:0:
269,207,115367,1,2,3:2:0:0:
360,275,115710,1,0,1:0:0:0:
360,275,115882,2,0,B|397:301|395:317|399:316|397:333|448:361,1,114.400003491211,2|2,0:0|1:2,0:0:0:0:
491,332,116396,2,0,P|491:303|496:273,1,57.2000017456055,2|2,0:0|0:0,0:0:0:0:
501,218,116739,1,0,3:0:0:0:
485,104,117082,6,0,L|391:14,1,114.400003491211,2|0,1:2|3:0,0:0:0:0:
344,24,117596,2,0,L|254:118,1,114.400003491211,2|0,1:2|0:0,0:0:0:0:
264,165,118110,1,2,3:2:0:0:
338,259,118453,1,0,1:0:0:0:
338,259,118624,2,0,B|303:261|284:278|286:282|268:300|233:303,1,114.400003491211,2|2,0:0|1:2,0:0:0:0:
180,323,119139,2,0,B|181:340|189:350|191:349|200:358|202:375,2,57.2000017456055,2|2|0,0:0|0:0|3:0,0:0:0:0:
76,372,119824,6,0,P|69:319|90:244,1,114.400003491211,2|0,1:2|3:0,0:0:0:0:
58,207,120339,2,0,P|51:154|72:79,1,114.400003491211,2|0,1:2|0:0,0:0:0:0:
40,42,120853,1,2,3:2:0:0:
157,28,121196,1,0,1:0:0:0:
157,28,121367,2,0,P|216:28|242:74,1,114.400003491211,2|2,0:0|1:2,0:0:0:0:
245,128,121882,2,0,P|260:150|287:149,1,57.2000017456055,2|2,0:0|0:0,0:0:0:0:
344,146,122224,5,4,3:2:0:0:
323,258,122567,2,0,L|398:351,1,114.400003491211,2|0,1:2|3:0,0:0:0:0:
444,376,123082,2,0,L|487:264,1,114.400003491211,2|0,1:2|0:0,0:0:0:0:
486,213,123596,1,2,3:2:0:0:
489,98,123939,1,0,1:0:0:0:
489,98,124110,2,0,P|444:76|405:13,1,114.400003491211,2|2,0:0|1:2,0:0:0:0:
350,21,124624,2,0,P|339:43|307:63,1,57.2000017456055,2|2,0:0|0:0,0:0:0:0:
258,80,124967,1,0,3:0:0:0:
225,189,125310,6,0,B|236:232|218:246|215:242|195:256|211:300,1,114.400003491211,2|0,1:2|3:0,0:0:0:0:
162,329,125824,2,0,B|119:317|116:294|121:293|118:269|72:261,1,114.400003491211,2|0,1:2|0:0,0:0:0:0:
72,204,126339,1,2,3:2:0:0:
6,116,126682,1,0,1:0:0:0:
6,116,126853,1,2,0:0:0:0:
84,32,127196,1,2,1:2:0:0:
84,32,127367,2,0,P|112:48|127:81,1,57.2000017456055,2|2,0:0|0:0,0:0:0:0:
150,120,127710,1,0,3:0:0:0:
201,222,128053,6,0,L|318:210,1,114.400003491211,2|0,1:2|3:0,0:0:0:0:
297,265,128567,2,0,L|414:277,1,114.400003491211,2|0,1:2|0:0,0:0:0:0:
450,318,129082,1,2,3:2:0:0:
503,216,129424,1,0,1:0:0:0:
503,216,129596,2,0,B|473:196|473:170|479:165|479:136|453:116,1,114.400003491211,2|2,0:0|1:2,0:0:0:0:
399,100,130110,2,0,B|397:117|386:124|382:123|370:130|368:146,1,57.2000017456055,2|2,0:0|0:0,0:0:0:0:
353,201,130453,1,0,3:0:0:0:
263,129,130796,6,0,P|208:115|145:111,1,114.400003491211,2|0,1:2|3:0,0:0:0:0:
100,82,131310,2,0,P|86:137|82:200,1,114.400003491211,2|2,1:2|0:0,0:0:0:0:
53,245,131824,1,2,3:2:0:0:
78,361,132167,1,0,1:0:0:0:
78,361,132339,1,2,0:0:0:0:
194,336,132682,1,2,1:2:0:0:
194,336,132853,2,0,L|181:280,1,57.2000017456055,2|2,0:0|0:0,0:0:0:0:
169,220,133196,5,0,3:0:0:0:
236,25,133882,2,0,P|286:22|321:64,1,93.5999971435548,8|2,0:0|0:0,0:0:0:0:
313,152,134567,2,0,L|369:162,1,46.7999985717774,0|0,3:0|0:0,0:0:0:0:
390,201,134910,2,0,P|424:230|470:225,1,93.5999971435548,2|8,0:0|0:0,0:0:0:0:
503,323,135596,1,2,0:0:0:0:
410,368,135939,6,0,L|395:315,1,46.7999985717774,0|0,3:0|0:0,0:0:0:0:
350,300,136282,2,0,L|244:330,1,93.5999971435548,2|8,0:0|0:0,0:0:0:0:
164,364,136967,1,2,0:0:0:0:
68,324,137310,2,0,P|59:297|61:263,1,46.7999985717774,0|0,3:0|0:0,0:0:0:0:
44,228,137653,2,0,P|92:211|153:215,1,93.5999971435548,0|8,0:0|0:0,0:0:0:0:
237,223,138339,1,2,0:0:0:0:
338,203,138682,6,0,B|365:169|345:138|336:144|316:110|336:56,1,140.399995715332,2|0,3:2|0:0,0:0:0:0:
335,18,139367,1,8,0:0:0:0:
238,52,139710,1,2,0:0:0:0:
136,34,140053,2,0,P|112:45|80:50,1,46.7999985717774,0|0,3:0|0:0,0:0:0:0:
41,58,140396,2,0,P|59:98|68:153,1,93.5999971435548,2|8,0:0|0:0,0:0:0:0:
166,177,141082,1,2,0:0:0:0:
248,238,141424,6,0,L|213:279,1,46.7999985717774,0|0,3:0|0:0,0:0:0:0:
220,325,141767,2,0,L|112:333,1,93.5999971435548,2|8,0:0|0:0,0:0:0:0:
54,257,142453,1,2,0:0:0:0:
47,154,142796,2,0,L|43:100,2,46.7999985717774,0|0|0,3:0|0:0|0:0,0:0:0:0:
144,121,143482,2,0,B|159:116|167:97|164:94|173:74|198:65,2,70.1999978576661,8|8|8,0:0|0:3|0:3,0:0:0:0:
150,171,144167,5,2,3:2:0:0:
277,332,144853,2,0,L|387:346,1,93.5999971435548,8|2,0:0|0:0,0:0:0:0:
472,354,145539,2,0,P|474:330|464:301,1,46.7999985717774,0|0,3:0|0:0,0:0:0:0:
498,266,145882,2,0,P|502:218|482:160,1,93.5999971435548,2|8,0:0|0:0,0:0:0:0:
453,78,146567,1,2,0:0:0:0:
365,24,146910,6,0,L|320:13,1,46.7999985717774,0|0,3:0|0:0,0:0:0:0:
269,23,147253,2,0,L|247:113,1,93.5999971435548,2|8,0:0|0:0,0:0:0:0:
336,165,147939,1,2,0:0:0:0:
401,244,148282,2,0,P|394:263|360:292,1,46.7999985717774,0|0,3:0|0:0,0:0:0:0:
327,296,148624,2,0,P|294:284|245:226,1,93.5999971435548,0|8,0:0|0:0,0:0:0:0:
169,182,149310,1,2,0:0:0:0:
246,113,149653,6,0,P|187:63|122:71,1,140.399995715332,2|0,3:2|0:0,0:0:0:0:
78,81,150339,1,8,0:0:0:0:
21,167,150682,1,2,0:0:0:0:
52,264,151024,2,0,L|106:269,1,46.7999985717774,0|0,3:0|0:0,0:0:0:0:
122,314,151367,2,0,L|230:304,1,93.5999971435548,2|8,0:0|0:0,0:0:0:0:
307,351,152053,1,2,0:0:0:0:
359,262,152396,6,0,P|346:244|337:216,1,46.7999985717774,0|0,3:0|0:0,0:0:0:0:
302,183,152739,2,0,P|320:142|359:98,1,93.5999971435548,2|8,0:0|0:0,0:0:0:0:
430,39,153424,1,2,0:0:0:0:
483,127,153767,2,0,P|490:149|504:168,2,46.7999985717774,0|0|0,3:0|0:0|0:0,0:0:0:0:
404,194,154453,1,8,0:0:0:0:
465,276,154796,2,0,P|487:280|511:278,2,46.7999985717774,2|2|2,0:0|0:0|0:0,0:0:0:0:
256,192,155310,12,0,157882,0:0:0:0:
29,181,165596,5,0,3:0:0:0:
29,181,165767,2,0,L|84:187,1,46.7999985717774,0|0,3:0|3:0,0:0:0:0:
132,194,166110,5,4,3:2:0:0:
109,306,166453,2,0,P|175:306|214:266,1,114.400003491211,2|0,1:2|3:0,0:0:0:0:
265,287,166967,2,0,P|298:230|283:176,1,114.400003491211,2|0,1:2|0:0,0:0:0:0:
326,142,167482,1,2,3:2:0:0:
387,47,167824,1,0,1:0:0:0:
387,47,167996,2,0,L|508:96,1,114.400003491211,2|2,0:0|1:2,0:0:0:0:
504,146,168510,2,0,L|513:211,2,57.2000017456055,2|2|0,0:0|0:0|3:0,0:0:0:0:
390,160,169196,6,0,P|370:206|377:281,1,114.400003491211,2|0,1:2|3:0,0:0:0:0:
335,312,169710,2,0,P|289:292|214:299,1,114.400003491211,2|0,1:2|0:0,0:0:0:0:
183,257,170224,1,2,3:2:0:0:
124,357,170567,1,0,1:0:0:0:
124,357,170739,2,0,L|8:327,1,114.400003491211,2|2,0:0|1:2,0:0:0:0:
4,271,171253,2,0,L|19:213,1,57.2000017456055,2|2,0:0|0:0,0:0:0:0:
34,160,171596,1,0,3:0:0:0:
3,49,171939,6,0,P|55:28|121:43,1,114.400003491211,2|0,1:2|3:0,0:0:0:0:
132,91,172453,2,0,P|184:112|250:97,1,114.400003491211,2|0,1:2|0:0,0:0:0:0:
288,71,172967,1,2,3:2:0:0:
395,30,173310,1,0,1:0:0:0:
395,30,173482,2,0,L|500:77,1,114.400003491211,2|2,0:0|1:2,0:0:0:0:
459,118,173996,2,0,L|412:152,2,57.2000017456055,2|2|0,0:0|0:0|3:0,0:0:0:0:
506,222,174682,6,0,P|482:264|471:335,1,114.400003491211,2|0,1:2|3:0,0:0:0:0:
432,371,175196,2,0,P|408:329|352:284,1,114.400003491211,2|0,1:2|0:0,0:0:0:0:
339,232,175710,1,2,3:2:0:0:
301,123,176053,1,0,1:0:0:0:
301,123,176224,2,0,B|281:114|248:139|249:143|214:160|176:154,1,114.400003491211,2|2,0:0|1:2,0:0:0:0:
144,125,176739,2,0,B|134:130|118:117|118:115|100:106|82:110,1,57.2000017456055,2|2,0:0|0:0,0:0:0:0:
33,116,177082,5,4,3:2:0:0:
5,226,177424,2,0,P|9:280|58:321,1,114.400003491211,2|0,1:2|3:0,0:0:0:0:
85,365,177939,2,0,P|139:361|180:312,1,114.400003491211,2|0,1:2|0:0,0:0:0:0:
224,285,178453,1,2,3:2:0:0:
136,220,178796,1,0,1:0:0:0:
136,220,178967,2,0,P|137:168|148:100,1,114.400003491211,2|2,0:0|1:2,0:0:0:0:
187,65,179482,2,0,P|213:66|247:71,1,57.2000017456055,2|2,0:0|0:0,0:0:0:0:
299,81,179824,1,0,3:0:0:0:
262,189,180167,6,0,L|375:171,1,114.400003491211,2|0,1:2|3:0,0:0:0:0:
429,189,180682,2,0,L|411:76,1,114.400003491211,2|0,1:2|0:0,0:0:0:0:
429,22,181196,1,2,3:2:0:0:
319,15,181539,1,0,1:0:0:0:
319,15,181710,1,2,0:0:0:0:
219,66,182053,1,2,1:2:0:0:
219,66,182224,2,0,L|159:75,1,57.2000017456055,2|2,0:0|0:0,0:0:0:0:
105,82,182567,1,0,3:0:0:0:
29,167,182910,6,0,B|58:172|76:198|73:203|94:229|128:229,1,114.400003491211,2|0,1:2|3:0,0:0:0:0:
169,260,183424,2,0,B|198:255|216:229|213:224|234:198|268:198,1,114.400003491211,2|0,1:2|0:0,0:0:0:0:
308,231,183939,1,2,3:2:0:0:
351,124,184282,1,0,1:0:0:0:
351,124,184453,2,0,P|401:115|454:162,1,114.400003491211,2|2,0:0|1:2,0:0:0:0:
492,189,184967,2,0,P|496:214|473:240,1,57.2000017456055,2|2,0:0|0:0,0:0:0:0:
455,290,185310,1,0,3:0:0:0:
364,360,185653,6,0,L|326:240,1,114.400003491211,2|0,1:2|3:0,0:0:0:0:
292,206,186167,2,0,L|207:299,1,114.400003491211,2|2,1:2|0:0,0:0:0:0:
194,345,186682,1,2,3:2:0:0:
86,374,187024,1,0,1:0:0:0:
86,374,187196,1,2,0:0:0:0:
6,294,187539,1,2,1:2:0:0:
6,294,187710,2,0,P|-1:264|1:230,1,57.2000017456055,2|2,0:0|0:0,0:0:0:0:
12,182,188053,1,0,3:0:0:0:
256,192,188224,12,8,193196,3:2:0:0:
