osu file format v14

[General]
AudioFilename: audio.mp3
AudioLeadIn: 0
PreviewTime: 43793
Countdown: 0
SampleSet: Normal
StackLeniency: 0.7
Mode: 1
LetterboxInBreaks: 0
WidescreenStoryboard: 1

[Editor]
Bookmarks: 22748,70859,120302,130992
DistanceSpacing: 0.9
BeatDivisor: 4
GridSize: 32
TimelineZoom: 2.2

[Metadata]
Title:PPaper PPlanes
TitleUnicode:PPaper PPlanes
Artist:garlagan
ArtistUnicode:garlagan
Creator:Phob
Version:Muzukashii
Source:
Tags:electronic dance music instrumental edm 00 zero apopopop paper planes melodic atmospheric vocal
BeatmapID:2851393
BeatmapSetID:1379854

[Difficulty]
HPDrainRate:7
CircleSize:4
OverallDifficulty:5
ApproachRate:10
SliderMultiplier:2.8
SliderTickRate:1

[Events]
//Background and Video events
0,0,"bg.jpg",0,20
//Break Periods
//Storyboard Layer 0 (Background)
//Storyboard Layer 1 (Fail)
//Storyboard Layer 2 (Pass)
//Storyboard Layer 3 (Foreground)
//Storyboard Layer 4 (Overlay)
//Storyboard Sound Samples

[TimingPoints]
12056,668.15144766147,4,1,0,70,1,0
44127,-90.9090909090909,4,1,0,100,0,1
46799,-100,4,1,0,70,0,0
48136,-90.9090909090909,4,1,0,100,0,1
51811,-93.7207122774133,4,1,0,100,0,1
51978,-96.8054211035818,4,1,0,100,0,1
52145,-100,4,1,0,70,0,0
57490,-90.9090909090909,4,1,0,100,0,1
60162,-100,4,1,0,50,0,0
70853,-100,4,1,0,70,0,0
96243,-90.9090909090909,4,1,0,100,0,1
99917,-93.7207122774133,4,1,0,100,0,1
100084,-96.8054211035818,4,1,0,100,0,1
100251,-100,4,1,0,70,0,0
105597,-90.9090909090909,4,1,0,100,0,1
108269,-100,4,1,0,70,0,0
109606,668.15144766147,4,1,0,70,1,0
133659,-100,4,1,0,60,0,0
136332,-100,4,1,0,50,0,0
139004,-100,4,1,0,40,0,0
141677,-100,4,1,0,30,0,0
144349,-100,4,1,0,20,0,0
147022,-100,4,1,0,10,0,0

[HitObjects]
256,192,12056,5,8,0:0:0:0:
256,192,12223,1,0,0:0:0:0:
256,192,12390,1,8,0:0:0:0:
256,192,12724,1,0,0:0:0:0:
256,192,12891,1,0,0:0:0:0:
256,192,13058,1,8,0:0:0:0:
256,192,13392,1,0,0:0:0:0:
256,192,13559,1,0,0:0:0:0:
256,192,13726,1,8,0:0:0:0:
256,192,13893,1,0,0:0:0:0:
256,192,14060,1,8,0:0:0:0:
256,192,14394,1,0,0:0:0:0:
256,192,14728,1,8,0:0:0:0:
256,192,14895,1,8,0:0:0:0:
256,192,15062,1,0,0:0:0:0:
256,192,15229,1,0,0:0:0:0:
256,192,15396,1,8,0:0:0:0:
256,192,15730,1,0,0:0:0:0:
256,192,16064,1,8,0:0:0:0:
256,192,16231,1,0,0:0:0:0:
256,192,16315,1,0,0:0:0:0:
256,192,16398,1,0,0:0:0:0:
256,192,16733,1,12,0:0:0:0:
256,192,17401,1,8,0:0:0:0:
256,192,17568,1,8,0:0:0:0:
256,192,17735,1,0,0:0:0:0:
256,192,18069,1,8,0:0:0:0:
256,192,18236,1,0,0:0:0:0:
256,192,18403,1,8,0:0:0:0:
256,192,18737,1,0,0:0:0:0:
256,192,18904,1,8,0:0:0:0:
256,192,19071,1,8,0:0:0:0:
256,192,19238,1,0,0:0:0:0:
256,192,19405,1,8,0:0:0:0:
256,192,19739,1,0,0:0:0:0:
256,192,20073,1,8,0:0:0:0:
256,192,20240,1,8,0:0:0:0:
256,192,20407,1,0,0:0:0:0:
256,192,20574,1,0,0:0:0:0:
256,192,20741,1,8,0:0:0:0:
256,192,21076,1,0,0:0:0:0:
256,192,21410,1,8,0:0:0:0:
256,192,21577,1,0,0:0:0:0:
256,192,21660,1,0,0:0:0:0:
256,192,21744,1,0,0:0:0:0:
256,192,22078,1,12,0:0:0:0:
256,192,22746,1,8,0:0:0:0:
256,192,22913,1,0,0:0:0:0:
256,192,23080,1,8,0:0:0:0:
256,192,23247,1,8,0:0:0:0:
256,192,23414,1,0,0:0:0:0:
256,192,23581,1,0,0:0:0:0:
256,192,23748,1,8,0:0:0:0:
256,192,24082,1,0,0:0:0:0:
256,192,24249,1,8,0:0:0:0:
256,192,24333,1,8,0:0:0:0:
256,192,24416,1,8,0:0:0:0:
256,192,24583,1,0,0:0:0:0:
256,192,24750,1,8,0:0:0:0:
256,192,25084,1,0,0:0:0:0:
256,192,25419,1,8,0:0:0:0:
256,192,25586,1,8,0:0:0:0:
256,192,25753,1,0,0:0:0:0:
256,192,25920,1,0,0:0:0:0:
256,192,26087,1,8,0:0:0:0:
256,192,26421,1,0,0:0:0:0:
256,192,26755,1,8,0:0:0:0:
256,192,26922,1,0,0:0:0:0:
256,192,27005,1,0,0:0:0:0:
256,192,27089,1,0,0:0:0:0:
256,192,27423,1,12,0:0:0:0:
256,192,28091,1,8,0:0:0:0:
256,192,28258,1,8,0:0:0:0:
256,192,28425,1,0,0:0:0:0:
256,192,28592,1,8,0:0:0:0:
256,192,28759,1,0,0:0:0:0:
256,192,28926,1,0,0:0:0:0:
256,192,29093,1,8,0:0:0:0:
256,192,29427,1,0,0:0:0:0:
256,192,29594,1,8,0:0:0:0:
256,192,29678,1,8,0:0:0:0:
256,192,29762,1,8,0:0:0:0:
256,192,29929,1,0,0:0:0:0:
256,192,30096,1,8,0:0:0:0:
256,192,30430,1,0,0:0:0:0:
256,192,30764,1,8,0:0:0:0:
256,192,30931,1,8,0:0:0:0:
256,192,31098,1,0,0:0:0:0:
256,192,31265,1,0,0:0:0:0:
256,192,31432,1,8,0:0:0:0:
256,192,31766,1,0,0:0:0:0:
256,192,32100,1,8,0:0:0:0:
256,192,32267,1,0,0:0:0:0:
256,192,32351,1,0,0:0:0:0:
256,192,32434,1,0,0:0:0:0:
256,192,32768,1,12,0:0:0:0:
256,192,33436,1,8,0:0:0:0:
256,192,33603,1,0,0:0:0:0:
256,192,33770,1,8,0:0:0:0:
256,192,33937,1,8,0:0:0:0:
256,192,34104,1,0,0:0:0:0:
256,192,34272,1,0,0:0:0:0:
256,192,34439,1,8,0:0:0:0:
256,192,34773,1,0,0:0:0:0:
256,192,34940,1,8,0:0:0:0:
256,192,35023,1,8,0:0:0:0:
256,192,35107,1,8,0:0:0:0:
256,192,35274,1,0,0:0:0:0:
256,192,35441,1,8,0:0:0:0:
256,192,35775,1,0,0:0:0:0:
256,192,36109,1,8,0:0:0:0:
256,192,36276,1,8,0:0:0:0:
256,192,36443,1,0,0:0:0:0:
256,192,36610,1,0,0:0:0:0:
256,192,36777,1,8,0:0:0:0:
256,192,37111,1,0,0:0:0:0:
256,192,37445,1,8,0:0:0:0:
256,192,37612,1,0,0:0:0:0:
256,192,37696,1,0,0:0:0:0:
256,192,37779,1,0,0:0:0:0:
256,192,38113,1,12,0:0:0:0:
256,192,38782,1,8,0:0:0:0:
256,192,38949,1,8,0:0:0:0:
256,192,39116,1,0,0:0:0:0:
256,192,39283,1,8,0:0:0:0:
256,192,39450,1,0,0:0:0:0:
256,192,39617,1,0,0:0:0:0:
256,192,39784,1,8,0:0:0:0:
256,192,40118,1,0,0:0:0:0:
256,192,40285,1,8,0:0:0:0:
256,192,40368,1,8,0:0:0:0:
256,192,40452,1,8,0:0:0:0:
256,192,40619,1,0,0:0:0:0:
256,192,40786,1,8,0:0:0:0:
256,192,41120,1,0,0:0:0:0:
256,192,41454,1,8,0:0:0:0:
256,192,41621,1,8,0:0:0:0:
256,192,41788,1,0,0:0:0:0:
256,192,41955,1,0,0:0:0:0:
256,192,42122,1,8,0:0:0:0:
256,192,42456,1,0,0:0:0:0:
256,192,42790,1,8,0:0:0:0:
256,192,42958,1,0,0:0:0:0:
256,192,43041,1,0,0:0:0:0:
256,192,43125,1,0,0:0:0:0:
256,192,43459,1,12,0:0:0:0:
256,192,44127,1,4,0:0:0:0:
256,192,44294,1,12,0:0:0:0:
256,192,44628,1,12,0:0:0:0:
256,192,44795,1,4,0:0:0:0:
256,192,45463,1,4,0:0:0:0:
256,192,45630,1,12,0:0:0:0:
256,192,45964,1,12,0:0:0:0:
256,192,46131,1,4,0:0:0:0:
256,192,46799,1,0,0:0:0:0:
256,192,47133,1,0,0:0:0:0:
256,192,47300,1,0,0:0:0:0:
256,192,47468,1,8,0:0:0:0:
256,192,47635,1,8,0:0:0:0:
256,192,47802,1,0,0:0:0:0:
256,192,48136,1,4,0:0:0:0:
256,192,48303,1,12,0:0:0:0:
256,192,48637,1,12,0:0:0:0:
256,192,48804,1,4,0:0:0:0:
256,192,49138,1,8,0:0:0:0:
256,192,49472,1,4,0:0:0:0:
256,192,49639,1,12,0:0:0:0:
256,192,49973,1,12,0:0:0:0:
256,192,50140,1,4,0:0:0:0:
256,192,50808,1,12,0:0:0:0:
256,192,50975,1,4,0:0:0:0:
256,192,51309,1,12,0:0:0:0:
256,192,51476,1,4,0:0:0:0:
256,192,51811,1,0,0:0:0:0:
256,192,51978,1,8,0:0:0:0:
256,192,52145,1,4,0:0:0:0:
256,192,52479,1,8,0:0:0:0:
256,192,52813,1,0,0:0:0:0:
256,192,53147,1,8,0:0:0:0:
256,192,53481,1,0,0:0:0:0:
256,192,53815,1,8,0:0:0:0:
256,192,53982,1,8,0:0:0:0:
256,192,54149,1,0,0:0:0:0:
256,192,54817,1,0,0:0:0:0:
256,192,55151,1,8,0:0:0:0:
256,192,55485,1,0,0:0:0:0:
256,192,55819,1,8,0:0:0:0:
256,192,56153,1,0,0:0:0:0:
256,192,56321,1,0,0:0:0:0:
256,192,56488,1,0,0:0:0:0:
256,192,56822,1,8,0:0:0:0:
256,192,57156,1,8,0:0:0:0:
256,192,57490,1,4,0:0:0:0:
256,192,57657,1,12,0:0:0:0:
256,192,57991,1,4,0:0:0:0:
256,192,58158,1,12,0:0:0:0:
256,192,58826,1,12,0:0:0:0:
256,192,58993,1,4,0:0:0:0:
256,192,59327,1,12,0:0:0:0:
256,192,59494,1,4,0:0:0:0:
256,192,60162,1,8,0:0:0:0:
256,192,60496,1,0,0:0:0:0:
256,192,60664,1,0,0:0:0:0:
256,192,60831,1,8,0:0:0:0:
256,192,61165,1,0,0:0:0:0:
256,192,61499,1,8,0:0:0:0:
256,192,61666,1,0,0:0:0:0:
256,192,61833,1,8,0:0:0:0:
256,192,62167,1,8,0:0:0:0:
256,192,62501,1,0,0:0:0:0:
256,192,62835,1,8,0:0:0:0:
256,192,63169,1,0,0:0:0:0:
256,192,63336,1,0,0:0:0:0:
256,192,63503,1,8,0:0:0:0:
256,192,63837,1,0,0:0:0:0:
256,192,64171,1,0,0:0:0:0:
256,192,64338,1,8,0:0:0:0:
256,192,64505,1,0,0:0:0:0:
256,192,64839,1,8,0:0:0:0:
256,192,65508,1,8,0:0:0:0:
256,192,65842,1,0,0:0:0:0:
256,192,66009,1,0,0:0:0:0:
256,192,66176,1,8,0:0:0:0:
256,192,66510,1,0,0:0:0:0:
256,192,66844,1,8,0:0:0:0:
256,192,67011,1,8,0:0:0:0:
256,192,67178,1,8,0:0:0:0:
256,192,67512,1,8,0:0:0:0:
256,192,67846,1,0,0:0:0:0:
256,192,68180,1,8,0:0:0:0:
256,192,68514,1,0,0:0:0:0:
256,192,68681,1,0,0:0:0:0:
256,192,68848,1,8,0:0:0:0:
256,192,69182,1,0,0:0:0:0:
256,192,69517,1,0,0:0:0:0:
256,192,69684,1,0,0:0:0:0:
256,192,69851,1,8,0:0:0:0:
256,192,70018,1,0,0:0:0:0:
256,192,70185,1,12,0:0:0:0:
256,192,70853,1,8,0:0:0:0:
256,192,71020,1,0,0:0:0:0:
256,192,71187,1,8,0:0:0:0:
256,192,71354,1,8,0:0:0:0:
256,192,71521,1,0,0:0:0:0:
256,192,71688,1,0,0:0:0:0:
256,192,71855,1,8,0:0:0:0:
256,192,72189,1,0,0:0:0:0:
256,192,72356,1,8,0:0:0:0:
256,192,72440,1,8,0:0:0:0:
256,192,72523,1,8,0:0:0:0:
256,192,72690,1,0,0:0:0:0:
256,192,72857,1,8,0:0:0:0:
256,192,73191,1,0,0:0:0:0:
256,192,73525,1,8,0:0:0:0:
256,192,73692,1,8,0:0:0:0:
256,192,73860,1,0,0:0:0:0:
256,192,74027,1,0,0:0:0:0:
256,192,74194,1,8,0:0:0:0:
256,192,74528,1,0,0:0:0:0:
256,192,74862,1,8,0:0:0:0:
256,192,75029,1,0,0:0:0:0:
256,192,75112,1,0,0:0:0:0:
256,192,75196,1,0,0:0:0:0:
256,192,75530,1,12,0:0:0:0:
256,192,76198,1,8,0:0:0:0:
256,192,76365,1,8,0:0:0:0:
256,192,76532,1,0,0:0:0:0:
256,192,76699,1,8,0:0:0:0:
256,192,76866,1,0,0:0:0:0:
256,192,77033,1,0,0:0:0:0:
256,192,77200,1,8,0:0:0:0:
256,192,77534,1,0,0:0:0:0:
256,192,77701,1,8,0:0:0:0:
256,192,77785,1,8,0:0:0:0:
256,192,77868,1,8,0:0:0:0:
256,192,78035,1,0,0:0:0:0:
256,192,78202,1,8,0:0:0:0:
256,192,78537,1,0,0:0:0:0:
256,192,78871,1,8,0:0:0:0:
256,192,79038,1,8,0:0:0:0:
256,192,79205,1,0,0:0:0:0:
256,192,79372,1,0,0:0:0:0:
256,192,79539,1,8,0:0:0:0:
256,192,79873,1,0,0:0:0:0:
256,192,80207,1,8,0:0:0:0:
256,192,80374,1,0,0:0:0:0:
256,192,80458,1,0,0:0:0:0:
256,192,80541,1,0,0:0:0:0:
256,192,80875,1,12,0:0:0:0:
256,192,81543,1,8,0:0:0:0:
256,192,81710,1,0,0:0:0:0:
256,192,81877,1,8,0:0:0:0:
256,192,82044,1,8,0:0:0:0:
256,192,82211,1,0,0:0:0:0:
256,192,82378,1,0,0:0:0:0:
256,192,82545,1,8,0:0:0:0:
256,192,82880,1,0,0:0:0:0:
256,192,83047,1,8,0:0:0:0:
256,192,83130,1,8,0:0:0:0:
256,192,83214,1,8,0:0:0:0:
256,192,83381,1,0,0:0:0:0:
256,192,83548,1,8,0:0:0:0:
256,192,83882,1,0,0:0:0:0:
256,192,84216,1,8,0:0:0:0:
256,192,84383,1,8,0:0:0:0:
256,192,84550,1,0,0:0:0:0:
256,192,84717,1,0,0:0:0:0:
256,192,84884,1,8,0:0:0:0:
256,192,85218,1,0,0:0:0:0:
256,192,85552,1,8,0:0:0:0:
256,192,85719,1,0,0:0:0:0:
256,192,85803,1,0,0:0:0:0:
256,192,85886,1,0,0:0:0:0:
256,192,86220,1,12,0:0:0:0:
256,192,86888,1,8,0:0:0:0:
256,192,87056,1,8,0:0:0:0:
256,192,87223,1,0,0:0:0:0:
256,192,87390,1,8,0:0:0:0:
256,192,87557,1,0,0:0:0:0:
256,192,87724,1,0,0:0:0:0:
256,192,87891,1,8,0:0:0:0:
256,192,88225,1,0,0:0:0:0:
256,192,88392,1,8,0:0:0:0:
256,192,88475,1,8,0:0:0:0:
256,192,88559,1,8,0:0:0:0:
256,192,88726,1,0,0:0:0:0:
256,192,88893,1,8,0:0:0:0:
256,192,89227,1,0,0:0:0:0:
256,192,89561,1,8,0:0:0:0:
256,192,89728,1,8,0:0:0:0:
256,192,89895,1,0,0:0:0:0:
256,192,90062,1,0,0:0:0:0:
256,192,90229,1,8,0:0:0:0:
256,192,90563,1,0,0:0:0:0:
256,192,90897,1,8,0:0:0:0:
256,192,91064,1,0,0:0:0:0:
256,192,91148,1,0,0:0:0:0:
256,192,91231,1,0,0:0:0:0:
256,192,91566,1,12,0:0:0:0:
256,192,92234,1,0,0:0:0:0:
256,192,92735,1,0,0:0:0:0:
256,192,92902,1,8,0:0:0:0:
256,192,93570,1,8,0:0:0:0:
256,192,93737,1,0,0:0:0:0:
256,192,94071,1,0,0:0:0:0:
256,192,94238,1,12,0:0:0:0:
256,192,94906,1,0,0:0:0:0:
256,192,95240,1,0,0:0:0:0:
256,192,95407,1,0,0:0:0:0:
256,192,95574,1,8,0:0:0:0:
256,192,95741,1,8,0:0:0:0:
256,192,95909,1,0,0:0:0:0:
256,192,96243,1,4,0:0:0:0:
256,192,96410,1,12,0:0:0:0:
256,192,96744,1,12,0:0:0:0:
256,192,96911,1,4,0:0:0:0:
256,192,97245,1,8,0:0:0:0:
256,192,97579,1,4,0:0:0:0:
256,192,97746,1,12,0:0:0:0:
256,192,98080,1,12,0:0:0:0:
256,192,98247,1,4,0:0:0:0:
256,192,98915,1,12,0:0:0:0:
256,192,99082,1,4,0:0:0:0:
256,192,99416,1,12,0:0:0:0:
256,192,99583,1,4,0:0:0:0:
256,192,99917,1,0,0:0:0:0:
256,192,100084,1,8,0:0:0:0:
256,192,100251,1,4,0:0:0:0:
256,192,100586,1,8,0:0:0:0:
256,192,100920,1,0,0:0:0:0:
256,192,101254,1,8,0:0:0:0:
256,192,101588,1,0,0:0:0:0:
256,192,101922,1,8,0:0:0:0:
256,192,102089,1,8,0:0:0:0:
256,192,102256,1,0,0:0:0:0:
256,192,102924,1,0,0:0:0:0:
256,192,103258,1,8,0:0:0:0:
256,192,103592,1,0,0:0:0:0:
256,192,103926,1,8,0:0:0:0:
256,192,104260,1,0,0:0:0:0:
256,192,104427,1,0,0:0:0:0:
256,192,104594,1,0,0:0:0:0:
256,192,104929,1,8,0:0:0:0:
256,192,105263,1,8,0:0:0:0:
256,192,105597,1,4,0:0:0:0:
256,192,105764,1,12,0:0:0:0:
256,192,106098,1,4,0:0:0:0:
256,192,106265,1,12,0:0:0:0:
256,192,106933,1,12,0:0:0:0:
256,192,107100,1,4,0:0:0:0:
256,192,107434,1,12,0:0:0:0:
256,192,107601,1,4,0:0:0:0:
256,192,108269,1,0,0:0:0:0:
256,192,108603,1,8,0:0:0:0:
256,192,108770,1,0,0:0:0:0:
256,192,108937,1,8,0:0:0:0:
256,192,109104,1,8,0:0:0:0:
256,192,109272,1,0,0:0:0:0:
256,192,109606,1,8,0:0:0:0:
256,192,109940,1,0,0:0:0:0:
256,192,110107,1,8,0:0:0:0:
256,192,110608,1,8,0:0:0:0:
256,192,110942,1,0,0:0:0:0:
256,192,111276,1,0,0:0:0:0:
256,192,111443,1,8,0:0:0:0:
256,192,111610,1,0,0:0:0:0:
256,192,111944,1,0,0:0:0:0:
256,192,112278,1,8,0:0:0:0:
256,192,112612,1,0,0:0:0:0:
256,192,112779,1,8,0:0:0:0:
256,192,113280,1,8,0:0:0:0:
256,192,113614,1,0,0:0:0:0:
256,192,113948,1,8,0:0:0:0:
256,192,114116,1,8,0:0:0:0:
256,192,114283,1,0,0:0:0:0:
256,192,114617,1,0,0:0:0:0:
256,192,114951,1,8,0:0:0:0:
256,192,115285,1,0,0:0:0:0:
256,192,115452,1,8,0:0:0:0:
256,192,115953,1,8,0:0:0:0:
256,192,116287,1,0,0:0:0:0:
256,192,116621,1,0,0:0:0:0:
256,192,116788,1,8,0:0:0:0:
256,192,116955,1,0,0:0:0:0:
256,192,117289,1,0,0:0:0:0:
256,192,117623,1,8,0:0:0:0:
256,192,117957,1,0,0:0:0:0:
256,192,118124,1,8,0:0:0:0:
256,192,118626,1,8,0:0:0:0:
256,192,118960,1,0,0:0:0:0:
256,192,119294,1,8,0:0:0:0:
256,192,119461,1,8,0:0:0:0:
256,192,119628,1,0,0:0:0:0:
256,192,119795,1,8,0:0:0:0:
256,192,119962,1,0,0:0:0:0:
256,192,120296,1,12,0:0:0:0:
256,192,120630,1,0,0:0:0:0:
256,192,120797,1,0,0:0:0:0:
256,192,120964,1,8,0:0:0:0:
256,192,121131,1,0,0:0:0:0:
256,192,121298,1,8,0:0:0:0:
256,192,121632,1,0,0:0:0:0:
256,192,121966,1,8,0:0:0:0:
256,192,122133,1,0,0:0:0:0:
256,192,122300,1,8,0:0:0:0:
256,192,122969,1,8,0:0:0:0:
256,192,123136,1,0,0:0:0:0:
256,192,123303,1,0,0:0:0:0:
256,192,123470,1,8,0:0:0:0:
256,192,123804,1,0,0:0:0:0:
256,192,123971,1,8,0:0:0:0:
256,192,124054,1,8,0:0:0:0:
256,192,124138,1,8,0:0:0:0:
256,192,124305,1,0,0:0:0:0:
256,192,124639,1,0,0:0:0:0:
256,192,124806,1,0,0:0:0:0:
256,192,124973,1,12,0:0:0:0:
256,192,125641,1,12,0:0:0:0:
256,192,125975,1,0,0:0:0:0:
256,192,126142,1,0,0:0:0:0:
256,192,126309,1,8,0:0:0:0:
256,192,126476,1,0,0:0:0:0:
256,192,126643,1,8,0:0:0:0:
256,192,126977,1,0,0:0:0:0:
256,192,127312,1,8,0:0:0:0:
256,192,127479,1,0,0:0:0:0:
256,192,127646,1,8,0:0:0:0:
256,192,128314,1,8,0:0:0:0:
256,192,128481,1,0,0:0:0:0:
256,192,128648,1,0,0:0:0:0:
256,192,128815,1,8,0:0:0:0:
256,192,129149,1,0,0:0:0:0:
256,192,129316,1,8,0:0:0:0:
256,192,129399,1,8,0:0:0:0:
256,192,129483,1,8,0:0:0:0:
256,192,129650,1,0,0:0:0:0:
256,192,129984,1,0,0:0:0:0:
256,192,130151,1,0,0:0:0:0:
256,192,130318,1,12,0:0:0:0:
256,192,130986,1,12,0:0:0:0:
256,192,131487,1,0,0:0:0:0:
256,192,131654,1,8,0:0:0:0:
256,192,131822,1,8,0:0:0:0:
256,192,131989,1,8,0:0:0:0:
256,192,132323,1,0,0:0:0:0:
256,192,132657,1,8,0:0:0:0:
256,192,132824,1,0,0:0:0:0:
256,192,132991,1,8,0:0:0:0:
256,192,133325,1,0,0:0:0:0:
256,192,133659,1,8,0:0:0:0:
256,192,134160,1,8,0:0:0:0:
256,192,134327,1,0,0:0:0:0:
256,192,134661,1,8,0:0:0:0:
256,192,134995,1,0,0:0:0:0:
256,192,135162,1,8,0:0:0:0:
256,192,135329,1,0,0:0:0:0:
256,192,135663,1,12,0:0:0:0:
256,192,136332,1,0,0:0:0:0:
256,192,136833,1,0,0:0:0:0:
256,192,137000,1,8,0:0:0:0:
256,192,137167,1,8,0:0:0:0:
256,192,137334,1,8,0:0:0:0:
256,192,137668,1,0,0:0:0:0:
256,192,138002,1,8,0:0:0:0:
256,192,138169,1,0,0:0:0:0:
256,192,138336,1,8,0:0:0:0:
256,192,138670,1,0,0:0:0:0:
256,192,139004,1,8,0:0:0:0:
256,192,139505,1,8,0:0:0:0:
256,192,139672,1,0,0:0:0:0:
256,192,140006,1,8,0:0:0:0:
256,192,140340,1,0,0:0:0:0:
256,192,140508,1,8,0:0:0:0:
256,192,140675,1,0,0:0:0:0:
256,192,141009,1,12,0:0:0:0:
256,192,141343,1,0,0:0:0:0:
256,192,141677,12,0,147022,0:0:0:0:
