osu file format v14

[General]
AudioFilename: audio.mp3
AudioLeadIn: 0
PreviewTime: 90
Countdown: 0
SampleSet: Soft
StackLeniency: 0.9
Mode: 0
LetterboxInBreaks: 0
WidescreenStoryboard: 1

[Editor]
Bookmarks: 19270,38542,48178,57817,77113,86761,96409,101234,115706
DistanceSpacing: 1.12
BeatDivisor: 3
GridSize: 32
TimelineZoom: 3.299997

[Metadata]
Title:except for you
TitleUnicode:except for you
Artist:gail
ArtistUnicode:gail
Creator:Mimari
Version:insane
Source:
Tags:<3 hyperpop english dnb pop electronic breakcore i love ganyu lugu maiden VISIONARY werent
BeatmapID:3691377
BeatmapSetID:1766212

[Difficulty]
HPDrainRate:4.5
CircleSize:3.3
OverallDifficulty:8
ApproachRate:9
SliderMultiplier:1.7
SliderTickRate:1

[Events]
//Background and Video events
0,0,"xo its over2.png",0,0
//Break Periods
2,96589,100609
//Storyboard Layer 0 (Background)
//Storyboard Layer 1 (Fail)
//Storyboard Layer 2 (Pass)
//Storyboard Layer 3 (Foreground)
//Storyboard Layer 4 (Overlay)
//Storyboard Sound Samples
Sample,96333,0,"we love u mimari.wav",35

[TimingPoints]
-8,301.242625831555,4,2,1,40,1,0
530,-200,4,2,1,40,0,0
3843,-400,4,2,1,40,0,0
5064,-200,4,2,1,40,0,0
17456,-166.666666666667,4,2,1,40,0,0
18061,-142.857142857143,4,2,1,40,0,0
18363,-111.111111111111,4,2,1,40,0,0
19270,-133.333333333333,4,2,1,50,0,0
22281,-166.666666666667,4,2,1,50,0,0
22732,-222.222222222222,4,2,1,50,0,0
24088,-133.333333333333,4,2,1,50,0,0
31917,-166.666666666667,4,2,1,50,0,0
32369,-222.222222222222,4,2,1,50,0,0
33724,-133.333333333333,4,2,1,50,0,0
38542,-181.818181818182,4,2,1,45,0,0
39144,-250,4,2,1,45,0,0
39746,-200,4,2,1,45,0,0
40349,-153.846153846154,4,2,1,45,0,0
41252,-200,4,2,1,45,0,0
43661,-153.846153846154,4,2,1,45,0,0
46070,-133.333333333333,4,2,1,45,0,0
48178,-133.333333333333,4,2,1,50,0,0
49382,-111.111111111111,4,2,1,55,0,0
50587,-111.111111111111,4,2,1,60,0,0
51791,-111.111111111111,4,2,1,65,0,0
52996,-111.111111111111,4,2,1,70,0,0
57817,-83.3333333333333,4,2,2,85,0,0
58268,-83.3333333333333,4,2,1,85,0,0
58344,-83.3333333333333,4,2,3,85,0,0
58420,-83.3333333333333,4,2,2,85,0,0
58570,-83.3333333333333,4,2,3,85,0,0
58721,-83.3333333333333,4,2,2,85,0,0
58871,-83.3333333333333,4,2,1,85,0,0
59023,-83.3333333333333,4,2,3,85,0,0
59324,-83.3333333333333,4,2,2,85,0,0
59474,-83.3333333333333,4,2,1,85,0,0
59550,-83.3333333333333,4,2,3,85,0,0
59626,-83.3333333333333,4,2,2,85,0,0
59701,-83.3333333333333,4,2,3,85,0,0
59927,-83.3333333333333,4,2,4,85,0,0
60077,-83.3333333333333,4,2,1,85,0,0
60229,-83.3333333333333,4,2,2,85,0,0
60680,-83.3333333333333,4,2,1,85,0,0
60756,-83.3333333333333,4,2,3,85,0,0
60832,-83.3333333333333,4,2,2,85,0,0
60982,-83.3333333333333,4,2,3,85,0,0
61133,-83.3333333333333,4,2,2,85,0,0
61283,-83.3333333333333,4,2,1,85,0,0
61435,-83.3333333333333,4,2,5,85,0,0
61736,-83.3333333333333,4,2,2,85,0,0
61886,-83.3333333333333,4,2,1,85,0,0
61962,-83.3333333333333,4,2,3,85,0,0
62038,-83.3333333333333,4,2,2,85,0,0
62188,-83.3333333333333,4,2,3,85,0,0
62339,-83.3333333333333,4,2,2,85,0,0
63092,-83.3333333333333,4,2,1,85,0,0
63168,-83.3333333333333,4,2,3,85,0,0
63244,-83.3333333333333,4,2,2,85,0,0
63394,-83.3333333333333,4,2,3,85,0,0
63545,-83.3333333333333,4,2,2,85,0,0
63695,-83.3333333333333,4,2,1,85,0,0
63847,-83.3333333333333,4,2,3,85,0,0
64148,-83.3333333333333,4,2,2,85,0,0
64298,-83.3333333333333,4,2,1,85,0,0
64374,-83.3333333333333,4,2,3,85,0,0
64450,-83.3333333333333,4,2,2,85,0,0
64525,-83.3333333333333,4,2,3,85,0,0
64751,-83.3333333333333,4,2,4,85,0,0
64901,-83.3333333333333,4,2,1,85,0,0
65053,-83.3333333333333,4,2,2,85,0,0
65504,-83.3333333333333,4,2,1,85,0,0
65555,-83.3333333333333,4,2,3,85,0,0
65631,-83.3333333333333,4,2,2,85,0,0
65781,-83.3333333333333,4,2,3,85,0,0
65932,-83.3333333333333,4,2,2,85,0,0
66082,-83.3333333333333,4,2,1,85,0,0
66234,-83.3333333333333,4,2,6,85,0,0
66686,-83.3333333333333,4,2,2,85,0,0
66836,-83.3333333333333,4,2,1,85,0,0
66912,-83.3333333333333,4,2,2,85,0,0
66987,-83.3333333333333,4,2,3,85,0,0
67138,-83.3333333333333,4,2,2,85,0,0
67440,-83.3333333333333,4,2,7,85,0,0
67741,-83.3333333333333,4,2,2,85,0,0
67891,-83.3333333333333,4,2,1,85,0,0
67967,-83.3333333333333,4,2,3,85,0,0
68043,-83.3333333333333,4,2,2,85,0,0
68193,-83.3333333333333,4,2,3,85,0,0
68344,-83.3333333333333,4,2,2,85,0,0
68494,-83.3333333333333,4,2,1,85,0,0
68646,-83.3333333333333,4,2,3,85,0,0
68947,-83.3333333333333,4,2,2,85,0,0
69097,-83.3333333333333,4,2,1,85,0,0
69173,-83.3333333333333,4,2,3,85,0,0
69249,-83.3333333333333,4,2,2,85,0,0
69324,-83.3333333333333,4,2,3,85,0,0
69550,-83.3333333333333,4,2,4,85,0,0
69700,-83.3333333333333,4,2,1,85,0,0
69852,-83.3333333333333,4,2,2,85,0,0
70303,-83.3333333333333,4,2,1,85,0,0
70379,-83.3333333333333,4,2,3,85,0,0
70455,-83.3333333333333,4,2,2,85,0,0
70530,-83.3333333333333,4,2,3,85,0,0
70756,-83.3333333333333,4,2,2,85,0,0
70906,-83.3333333333333,4,2,1,85,0,0
71058,-83.3333333333333,4,2,5,85,0,0
71359,-83.3333333333333,4,2,2,85,0,0
71509,-83.3333333333333,4,2,1,85,0,0
71585,-83.3333333333333,4,2,3,85,0,0
71661,-83.3333333333333,4,2,2,85,0,0
72715,-83.3333333333333,4,2,1,85,0,0
72791,-83.3333333333333,4,2,3,85,0,0
72867,-83.3333333333333,4,2,2,85,0,0
73017,-83.3333333333333,4,2,3,85,0,0
73168,-83.3333333333333,4,2,2,85,0,0
73318,-83.3333333333333,4,2,1,85,0,0
73470,-83.3333333333333,4,2,3,85,0,0
73771,-83.3333333333333,4,2,2,85,0,0
73921,-83.3333333333333,4,2,1,85,0,0
73997,-83.3333333333333,4,2,3,85,0,0
74073,-83.3333333333333,4,2,2,85,0,0
74148,-83.3333333333333,4,2,3,85,0,0
74374,-83.3333333333333,4,2,4,85,0,0
74524,-83.3333333333333,4,2,1,85,0,0
74676,-83.3333333333333,4,2,2,85,0,0
75127,-83.3333333333333,4,2,1,85,0,0
75203,-83.3333333333333,4,2,3,85,0,0
75279,-83.3333333333333,4,2,2,85,0,0
75429,-83.3333333333333,4,2,3,85,0,0
75580,-83.3333333333333,4,2,2,85,0,0
75730,-83.3333333333333,4,2,1,85,0,0
75807,-83.3333333333333,4,2,2,85,0,0
76183,-83.3333333333333,4,2,1,60,0,0
76334,-133.333333333333,4,2,2,60,0,0
77110,-80,4,2,8,90,0,1
77376,-80,4,2,2,90,0,1
77526,-80,4,2,1,90,0,1
77603,-80,4,2,3,90,0,1
77678,-80,4,2,2,90,0,1
77829,-80,4,2,3,90,0,1
77980,-80,4,2,2,90,0,1
78130,-80,4,2,1,90,0,1
78206,-80,4,2,2,90,0,1
78281,-80,4,2,9,90,0,1
78583,-80,4,2,2,90,0,1
78733,-80,4,2,1,90,0,1
78883,-80,4,2,2,90,0,1
79035,-80,4,2,3,90,0,1
79186,-80,4,2,4,90,0,1
79336,-80,4,2,1,90,0,1
79413,-80,4,2,2,90,0,1
79789,-80,4,2,10,90,0,1
79939,-80,4,2,1,90,0,1
80090,-80,4,2,2,90,0,1
80165,-80,4,2,3,90,0,1
80241,-80,4,2,2,90,0,1
80392,-80,4,2,10,90,0,1
80542,-80,4,2,1,90,0,1
80693,-80,4,2,11,90,0,1
80844,-80,4,2,1,90,0,1
80995,-80,4,2,10,90,0,1
81145,-80,4,2,1,90,0,1
81221,-80,4,2,3,90,0,1
81296,-80,4,2,2,90,0,1
81598,-80,4,2,10,90,0,1
81673,-80,4,2,1,90,0,1
81899,-80,4,2,8,90,0,1
82049,-80,4,2,1,90,0,1
82201,-80,4,2,10,90,0,1
82351,-80,4,2,1,90,0,1
82428,-80,4,2,3,90,0,1
82502,-80,4,2,2,90,0,1
82803,-80,4,2,10,90,0,1
82954,-80,4,2,1,90,0,1
83105,-80,4,2,9,90,0,1
83255,-80,4,2,1,90,0,1
83407,-80,4,2,10,90,0,1
83557,-80,4,2,1,90,0,1
83708,-80,4,2,2,90,0,1
84010,-80,4,2,12,90,0,1
84160,-80,4,2,1,90,0,1
84236,-80,4,2,2,90,0,1
84613,-80,4,2,10,90,0,1
84763,-80,4,2,1,90,0,1
84913,-80,4,2,2,90,0,1
84990,-80,4,2,3,90,0,1
85216,-80,4,2,10,90,0,1
85366,-80,4,2,1,90,0,1
85517,-80,4,2,13,90,0,1
85667,-80,4,2,1,90,0,1
85819,-80,4,2,10,90,0,1
85969,-80,4,2,1,90,0,1
86120,-80,4,2,2,90,0,1
86196,-80,4,2,3,90,0,1
86422,-80,4,2,10,90,0,1
86572,-80,4,2,1,90,0,1
86749,-90.9090909090909,4,2,2,75,0,0
87025,-90.9090909090909,4,2,10,75,0,0
87175,-90.9090909090909,4,2,1,75,0,0
87326,-90.9090909090909,4,2,2,75,0,0
87476,-90.9090909090909,4,2,14,75,0,0
87628,-90.9090909090909,4,2,2,75,0,0
87929,-90.9090909090909,4,2,1,75,0,0
88231,-90.9090909090909,4,2,10,75,0,0
88381,-90.9090909090909,4,2,1,75,0,0
88533,-90.9090909090909,4,2,2,75,0,0
88683,-90.9090909090909,4,2,10,75,0,0
89135,-90.9090909090909,4,2,1,75,0,0
89437,-90.9090909090909,4,2,10,75,0,0
89587,-90.9090909090909,4,2,1,75,0,0
89889,-90.9090909090909,4,2,10,75,0,0
90040,-90.9090909090909,4,2,2,75,0,0
90191,-90.9090909090909,4,2,10,75,0,0
90341,-90.9090909090909,4,2,1,75,0,0
90643,-90.9090909090909,4,2,10,75,0,0
90793,-90.9090909090909,4,2,2,75,0,0
90869,-90.9090909090909,4,2,14,75,0,0
91094,-90.9090909090909,4,2,1,75,0,0
91246,-90.9090909090909,4,2,10,75,0,0
91547,-90.9090909090909,4,2,1,75,0,0
91849,-90.9090909090909,4,2,10,75,0,0
91999,-90.9090909090909,4,2,1,75,0,0
92075,-90.9090909090909,4,2,3,75,0,0
92150,-90.9090909090909,4,2,2,75,0,0
92300,-90.9090909090909,4,2,14,75,0,0
92452,-90.9090909090909,4,2,2,75,0,0
92753,-90.9090909090909,4,2,1,75,0,0
93055,-90.9090909090909,4,2,10,75,0,0
93205,-90.9090909090909,4,2,1,75,0,0
93356,-90.9090909090909,4,2,2,75,0,0
93506,-90.9090909090909,4,2,10,75,0,0
93959,-90.9090909090909,4,2,1,75,0,0
94261,-90.9090909090909,4,2,10,75,0,0
94411,-90.9090909090909,4,2,1,75,0,0
94713,-90.9090909090909,4,2,10,75,0,0
94864,-90.9090909090909,4,2,2,75,0,0
95014,-90.9090909090909,4,2,10,75,0,0
95467,-90.9090909090909,4,2,10,75,0,0
95618,-90.9090909090909,4,2,2,75,0,0
95768,-90.9090909090909,4,2,3,75,0,0
95844,-90.9090909090909,4,2,1,75,0,0
96070,-181.818181818181,4,2,1,75,0,0
96371,-181.818181818181,4,2,1,50,0,0
101196,-200,4,2,1,50,0,0
114745,-166.666666666667,4,2,1,50,0,0

[Colours]
Combo1 : 140,189,213
Combo2 : 218,186,163
Combo3 : 118,201,153

[HitObjects]
391,236,594,6,1,L|397:133,1,85,2|2,0:0|0:0,0:0:0:0:
315,146,1046,2,1,L|308:230,1,85,2|2,0:0|0:0,0:0:0:0:
430,316,1648,6,1,P|471:307|512:317,1,85,2|2,0:0|0:0,0:0:0:0:
298,363,2251,2,1,P|257:373|215:364,2,85,2|2|2,0:0|0:0|0:0,0:0:0:0:
298,363,3908,2,1,P|257:373|215:364,1,85,0|0,0:0|0:0,0:0:0:0:
256,290,4661,5,0,0:0:0:0:
121,236,5113,6,1,L|114:133,1,85,2|2,0:0|0:0,0:0:0:0:
195,164,5564,2,1,L|199:209,1,42.5,2|2,0:0|0:0,0:0:0:0:
82,316,6016,6,1,P|41:307|0:317,1,85,2|2,0:0|0:0,0:0:0:0:
215,364,6518,2,1,P|256:374|298:365,2,85,2|2|2,0:0|0:0|0:0,0:0:0:0:
429,316,7372,2,1,P|471:307|512:317,1,85,2|2,0:0|0:0,0:0:0:0:
393,142,8125,6,1,L|387:194,1,42.5,2|2,0:0|0:0,0:0:0:0:
335,244,8426,6,1,P|255:267|172:235,2,170,2|2|0,0:0|0:0|0:0,0:0:0:0:
100,148,10234,6,1,L|94:251,1,85,2|2,0:0|0:0,0:0:0:0:
176,238,10686,2,1,L|183:154,1,85,2|2,0:0|0:0,0:0:0:0:
82,68,11288,6,1,P|41:77|0:67,1,85,2|2,0:0|0:0,0:0:0:0:
211,22,11891,2,1,P|252:12|303:23,2,92.0833333333333,2|2|2,0:0|0:0|0:0,0:0:0:0:
296,19,13246,2,1,P|254:11|214:21,1,85,0|0,0:0|0:0,0:0:0:0:
260,96,13848,5,2,0:0:0:0:
260,96,13999,1,2,0:0:0:0:
408,160,14451,6,1,L|414:263,1,85,2|0,0:0|0:0,0:0:0:0:
335,268,14903,2,1,L|329:132,1,127.5,2|0,0:0|0:0,0:0:0:0:
386,80,15505,6,1,P|448:98|517:75,1,127.5,2|2,0:0|0:0,0:0:0:0:
448,10,16108,2,1,P|386:-8|317:15,1,127.5,2|2,0:0|0:0,0:0:0:0:
189,218,17464,6,1,P|204:243|213:266,1,50.9999984436036,2|0,0:0|0:0,0:0:0:0:
266,120,17765,6,1,P|237:121|213:117,1,50.9999984436036,2|0,0:0|0:0,0:0:0:0:
312,237,18066,6,1,P|326:211|349:184,1,59.4999981842042,2|0,0:0|0:0,0:0:0:0:
187,218,18367,6,1,P|202:243|216:296,1,76.4999976654053,2|0,0:0|0:0,0:0:0:0:
259,32,18669,5,2,2:2:0:0:
259,32,19271,6,1,P|151:17|84:109,1,223.125008511544,2|0,2:2|0:0,0:0:0:0:
21,143,19874,6,1,L|35:219,1,63.7500024318696,2|2,2:2|2:2,0:0:0:0:
160,206,20175,2,1,L|174:282,1,63.7500024318696,2|2,2:2|2:2,0:0:0:0:
75,286,20476,2,1,L|89:362,1,63.7500024318696,2|0,2:2|0:0,0:0:0:0:
228,363,20777,1,2,2:2:0:0:
228,363,21078,6,1,P|267:323|338:331,1,127.500004863739,2|2,2:2|2:2,0:0:0:0:
391,384,21530,2,1,L|410:182,1,191.250007295609,2|0,2:2|0:0,0:0:0:0:
512,103,22284,6,1,P|457:110|419:83,1,101.999996887207,2|2,2:2|2:2,0:0:0:0:
342,120,22735,2,1,L|330:-7,1,114.749996498108,2|0,2:2|0:0,0:0:0:0:
331,5,23488,5,2,2:2:0:0:
331,5,23639,1,2,2:2:0:0:
259,180,24091,6,1,L|270:308,1,127.500004863739,0|0,0:0|0:0,0:0:0:0:
182,256,24543,6,1,B|154:242|154:242|108:241,1,63.7500024318696,2|0,2:2|0:0,0:0:0:0:
237,95,24844,2,1,B|263:78|263:78|287:39,1,63.7500024318696,2|0,2:2|0:0,0:0:0:0:
348,224,25145,2,1,B|349:255|349:255|372:295,1,63.7500024318696,2|0,2:2|0:0,0:0:0:0:
259,180,25447,6,1,P|186:168|67:162,1,191.250007295609,2|2,2:2|2:2,0:0:0:0:
22,96,26049,1,2,2:2:0:0:
22,96,26350,6,1,L|14:14,1,63.7500024318696,2|0,2:2|0:0,0:0:0:0:
156,134,26651,2,1,L|148:54,1,63.7500024318696,2|0,2:2|0:0,0:0:0:0:
70,257,26953,2,1,L|62:175,1,63.7500024318696,2|0,2:2|0:0,0:0:0:0:
199,287,27253,1,2,2:2:0:0:
199,287,27555,6,1,B|323:245|303:342|402:324,1,191.250007295609,2|0,2:2|0:0,0:0:0:0:
376,326,28308,6,1,L|452:343,1,63.7500024318696,2|2,2:2|2:2,0:0:0:0:
451,263,28610,2,1,L|388:249,1,63.7500024318696,2|2,2:2|2:2,0:0:0:0:
292,363,28911,6,1,P|285:318|266:293,1,63.7500024318696,2|0,2:2|0:0,0:0:0:0:
125,152,29212,2,1,P|167:168|198:164,1,63.7500024318696,2|0,2:2|0:0,0:0:0:0:
369,69,29513,2,1,P|333:97|259:227,1,191.250007295609,2|0,2:2|0:0,0:0:0:0:
192,260,30116,5,0,0:0:0:0:
192,260,30417,2,1,P|155:246|121:245,1,63.7500024318696,2|2,2:2|2:2,0:0:0:0:
121,166,30718,2,1,P|183:173|253:201,1,127.500004863739,2|2,2:2|2:2,0:0:0:0:
317,164,31170,6,1,P|411:153|453:7,1,255.000009727478,2|2,2:2|2:2,0:0:0:0:
377,3,31923,6,1,P|327:16|271:25,1,101.999996887207,2|2,2:2|2:2,0:0:0:0:
236,94,32375,2,1,P|186:81|109:73,1,114.749996498108,2|0,2:2|0:0,0:0:0:0:
130,74,33128,5,2,2:2:0:0:
130,74,33279,1,2,2:2:0:0:
11,191,33731,6,1,P|64:191|115:257,1,127.500004863739,0|2,0:0|2:2,0:0:0:0:
199,230,34183,2,1,P|189:271|188:296,1,63.7500024318696,2|0,2:2|0:0,0:0:0:0:
271,302,34484,2,1,P|281:261|282:236,1,63.7500024318696,2|0,2:2|0:0,0:0:0:0:
277,126,34785,6,1,P|223:141|139:150,2,127.500004863739,2|2|2,2:2|2:2|2:2,0:0:0:0:
323,59,35538,1,2,2:2:0:0:
323,59,35689,1,2,2:2:0:0:
501,191,35990,6,1,P|448:191|397:257,2,127.500004863739,2|2|2,2:2|2:2|2:2,0:0:0:0:
338,313,36894,2,1,P|314:284|314:231,1,63.7500024318696,2|0,2:2|0:0,0:0:0:0:
342,173,37195,6,1,B|202:139|228:294|90:248,1,255.000009727478,2|2,2:2|2:2,0:0:0:0:
47,297,37948,1,2,2:2:0:0:
47,297,38551,6,1,L|35:141,1,140.25000428009,0|2,0:0|2:2,0:0:0:0:
89,98,39153,2,1,P|137:108|192:96,1,102,2|2,2:2|2:2,0:0:0:0:
265,50,39756,6,1,L|277:194,1,127.5,0|2,0:0|2:2,0:0:0:0:
353,199,40358,2,1,P|435:173|520:204,1,165.749992412568,2|2,2:2|2:2,0:0:0:0:
499,277,40961,5,8,2:2:0:0:
499,277,41262,6,1,L|491:318,1,42.5,8|2,2:2|2:2,0:0:0:0:
412,300,41563,2,1,L|404:341,1,42.5,10|0,2:2|0:0,0:0:0:0:
326,323,41864,2,1,L|318:364,1,42.5,10|2,2:2|2:2,0:0:0:0:
255,269,42166,5,8,2:2:0:0:
13,277,42467,6,1,L|20:318,1,42.5,8|2,2:2|2:2,0:0:0:0:
100,300,42768,2,1,L|107:341,1,42.5,10|0,2:2|0:0,0:0:0:0:
186,323,43069,2,1,L|193:364,1,42.5,10|2,2:2|2:2,0:0:0:0:
255,269,43370,5,8,2:2:0:0:
426,136,43672,6,1,L|416:197,1,55.2499974708558,8|2,2:2|2:2,0:0:0:0:
309,101,43973,2,1,L|366:79,1,55.2499974708558,10|0,2:2|0:0,0:0:0:0:
340,222,44274,2,1,L|292:182,1,55.2499974708558,10|2,2:2|2:2,0:0:0:0:
254,36,44575,5,8,2:2:0:0:
85,135,44877,6,1,L|95:196,1,55.2499974708558,8|2,2:2|2:2,0:0:0:0:
203,101,45178,2,1,L|145:79,1,55.2499974708558,10|0,2:2|0:0,0:0:0:0:
172,222,45479,2,1,L|219:182,1,55.2499974708558,10|2,2:2|2:2,0:0:0:0:
254,36,45780,5,8,2:2:0:0:
426,136,46082,6,1,P|450:115|489:99,1,63.7500024318696,8|2,2:2|2:2,0:0:0:0:
396,220,46383,2,1,P|427:222|466:238,1,63.7500024318696,10|0,2:2|0:0,0:0:0:0:
331,275,46684,2,1,P|351:298|367:337,1,63.7500024318696,10|2,2:2|2:2,0:0:0:0:
255,382,46985,5,8,2:2:0:0:
254,188,47287,5,8,2:2:0:0:
254,188,47437,1,2,2:2:0:0:
116,220,47588,2,1,P|84:222|45:238,1,63.7500024318696,10|0,2:2|0:0,0:0:0:0:
181,275,47889,2,1,P|160:298|144:337,1,63.7500024318696,10|2,2:2|2:2,0:0:0:0:
120,133,48191,5,8,2:2:0:0:
120,133,48341,1,8,2:2:0:0:
211,34,48492,6,1,L|197:112,1,63.7500024318696,8|10,2:2|2:2,0:0:0:0:
392,133,48793,5,10,2:2:0:0:
392,133,48943,1,8,2:2:0:0:
301,34,49094,6,1,L|315:112,1,63.7500024318696,10|10,2:2|2:2,0:0:0:0:
197,201,49395,6,1,P|154:207|124:223,1,76.4999976654053,8|8,2:2|2:2,0:0:0:0:
144,353,49697,2,1,P|156:317|180:288,1,76.4999976654053,8|10,2:2|2:2,0:0:0:0:
315,201,49998,6,1,P|358:207|388:223,1,76.4999976654053,10|8,2:2|2:2,0:0:0:0:
367,353,50299,2,1,P|355:317|332:288,1,76.4999976654053,10|10,2:2|2:2,0:0:0:0:
257,137,50600,5,8,2:2:0:0:
257,137,50752,1,8,2:2:0:0:
186,85,50902,6,1,L|100:100,1,76.4999976654053,8|10,2:2|2:2,0:0:0:0:
258,271,51203,5,10,2:2:0:0:
258,271,51354,1,8,2:2:0:0:
329,219,51504,6,1,L|415:234,1,76.4999976654053,10|10,2:2|2:2,0:0:0:0:
185,347,51805,6,1,P|146:362|99:362,1,76.4999976654053,8|8,2:2|2:2,0:0:0:0:
327,347,52106,2,1,P|366:362|413:362,1,76.4999976654053,8|10,2:2|2:2,0:0:0:0:
361,106,52408,5,10,2:2:0:0:
329,219,52558,1,8,2:2:0:0:
151,106,52709,5,10,2:2:0:0:
183,219,52860,1,10,2:2:0:0:
261,48,53010,6,1,L|267:7,15,38.2499988327027,8|8|8|8|8|8|10|8|10|8|8|8|10|8|10|8,2:2|2:2|2:2|2:2|2:2|2:2|2:2|2:2|2:2|2:2|2:2|2:2|2:2|2:2|2:2|2:2,0:0:0:0:
259,129,54215,6,1,L|265:170,15,38.2499988327027,8|8|8|8|8|8|10|8|10|8|8|8|10|8|10|8,2:2|2:2|2:2|2:2|2:2|2:2|2:2|2:2|2:2|2:2|2:2|2:2|2:2|2:2|2:2|2:2,0:0:0:0:
256,42,55420,6,1,L|261:13,14,19.1249994163513,8|8|8|8|8|8|8|8|8|8|8|8|8|8|8,2:2|2:2|2:2|2:2|2:2|2:2|2:2|2:2|2:2|2:2|2:2|2:2|2:2|2:2|2:2,0:0:0:0:
265,129,56023,6,1,L|270:158,14,19.1249994163513,10|8|8|8|8|8|8|8|8|8|8|8|8|8|8,2:2|2:2|2:2|2:2|2:2|2:2|2:2|2:2|2:2|2:2|2:2|2:2|2:2|2:2|2:2,0:0:0:0:
253,44,56625,6,1,L|258:15,14,19.1249994163513,8|8|8|8|8|8|8|8|8|8|8|8|8|8|8,2:2|2:2|2:2|2:2|2:2|2:2|2:2|2:2|2:2|2:2|2:2|2:2|2:2|2:2|2:2,0:0:0:0:
267,127,57228,5,8,2:2:0:0:
449,46,57830,6,1,L|442:164,1,101.999996887207,2|0,1:2|1:1,0:0:0:0:
283,213,58131,2,1,P|332:201|395:221,1,101.999996887207,8|0,2:2|3:3,0:0:0:0:
387,218,58357,1,8,2:2:0:0:
393,222,58433,2,1,P|442:234|505:214,1,101.999996887207,0|0,3:3|1:1,0:0:0:0:
338,384,58733,2,1,L|331:266,1,101.999996887207,8|0,2:2|3:3,0:0:0:0:
315,117,59035,5,2,1:2:0:0:
206,254,59185,1,0,1:1:0:0:
181,94,59336,2,1,P|131:82|82:94,1,101.999996887207,8|0,2:2|3:3,0:0:0:0:
77,98,59562,1,8,2:2:0:0:
71,102,59638,2,1,L|66:167,2,50.9999984436036,0|8|0,3:3|3:2|1:1,0:0:0:0:
227,19,59939,2,1,P|276:7|325:19,1,101.999996887207,10|0,2:2|3:3,0:0:0:0:
450,141,60240,5,0,1:1:0:0:
402,0,60390,1,0,1:1:0:0:
280,98,60541,2,1,L|296:205,1,101.999996887207,8|0,2:2|3:3,0:0:0:0:
298,208,60767,1,8,2:2:0:0:
301,215,60843,2,1,P|350:203|399:215,1,101.999996887207,0|0,3:3|1:1,0:0:0:0:
449,339,61144,2,1,P|399:351|350:339,1,101.999996887207,8|0,2:2|3:3,0:0:0:0:
207,209,61445,5,2,1:2:0:0:
170,353,61595,1,0,1:1:0:0:
70,241,61746,2,1,L|82:126,1,101.999996887207,8|0,2:2|3:3,0:0:0:0:
82,132,61972,1,8,2:2:0:0:
83,124,62047,1,0,3:3:0:0:
51,44,62197,1,0,1:1:0:0:
166,94,62348,2,1,P|215:105|264:93,1,101.999996887207,8|8,2:2|2:2,0:0:0:0:
295,73,62574,5,8,2:2:0:0:
327,48,62650,6,1,L|316:160,1,101.999996887207,2|0,1:2|1:1,0:0:0:0:
478,213,62950,2,1,P|429:201|366:221,1,101.999996887207,8|0,2:2|3:3,0:0:0:0:
374,218,63176,1,8,2:2:0:0:
368,222,63252,2,1,P|319:234|256:214,1,101.999996887207,0|0,3:3|1:1,0:0:0:0:
166,94,63553,2,1,L|177:206,1,101.999996887207,8|0,2:2|3:3,0:0:0:0:
271,314,63855,5,2,1:2:0:0:
317,149,64005,1,0,1:1:0:0:
188,280,64156,2,1,P|139:268|76:288,1,101.999996887207,8|0,2:2|3:3,0:0:0:0:
84,284,64382,1,8,2:2:0:0:
78,288,64458,2,1,L|73:353,2,50.9999984436036,0|8|0,3:3|3:2|1:1,0:0:0:0:
27,180,64759,2,1,P|76:191|125:179,1,101.999996887207,10|0,2:2|3:3,0:0:0:0:
231,29,65061,5,0,1:1:0:0:
74,99,65211,1,0,1:1:0:0:
233,161,65361,2,1,L|353:148,1,101.999996887207,8|0,2:2|3:3,0:0:0:0:
341,148,65587,1,8,2:2:0:0:
348,147,65663,2,1,P|360:98|348:49,1,101.999996887207,0|0,3:3|1:1,0:0:0:0:
159,114,65964,2,1,P|147:163|159:212,1,101.999996887207,8|0,2:2|3:3,0:0:0:0:
331,245,66265,5,2,1:2:0:0:
164,324,66415,1,0,1:1:0:0:
233,161,66566,1,0,1:1:0:0:
285,329,66717,2,1,P|334:340|383:328,1,101.999996887207,8|0,2:2|3:3,0:0:0:0:
391,324,66943,1,0,3:3:0:0:
396,319,67018,1,8,2:2:0:0:
493,182,67168,2,1,L|373:169,1,101.999996887207,8|8,2:2|2:2,0:0:0:0:
354,164,67394,5,8,2:2:0:0:
313,159,67470,6,1,P|303:113|320:58,1,101.999996887207,2|0,1:2|1:1,0:0:0:0:
186,3,67771,2,1,P|196:49|179:104,1,101.999996887207,8|0,2:2|3:3,0:0:0:0:
177,108,67996,1,8,2:2:0:0:
173,115,68072,2,1,P|126:102|60:118,1,101.999996887207,0|0,3:3|1:1,0:0:0:0:
113,286,68373,2,1,L|119:183,1,101.999996887207,8|0,2:2|3:3,0:0:0:0:
62,27,68675,5,2,1:2:0:0:
34,187,68825,1,0,1:1:0:0:
177,108,68976,2,1,P|224:95|290:111,1,101.999996887207,8|0,2:2|3:3,0:0:0:0:
282,108,69201,1,8,2:2:0:0:
288,112,69277,2,1,L|282:178,2,50.9999984436036,0|8|0,3:3|3:2|1:1,0:0:0:0:
444,221,69578,2,1,P|394:208|345:220,1,101.999996887207,10|0,2:2|3:3,0:0:0:0:
248,371,69880,5,0,1:1:0:0:
200,208,70030,1,0,1:1:0:0:
346,317,70181,2,1,P|395:329|444:316,1,101.999996887207,8|0,2:2|3:3,0:0:0:0:
454,315,70407,1,8,2:2:0:0:
460,311,70483,2,1,L|456:361,2,50.9999984436036,0|8|0,3:3|3:2|1:1,0:0:0:0:
345,220,70784,2,1,L|356:117,1,101.999996887207,8|0,2:2|3:3,0:0:0:0:
206,0,71084,5,2,1:2:0:0:
274,148,71234,1,0,1:1:0:0:
357,5,71385,2,1,P|406:-7|455:5,1,101.999996887207,8|0,2:2|3:3,0:0:0:0:
461,9,71611,1,8,2:2:0:0:
466,14,71687,1,0,3:3:0:0:
427,166,71837,1,8,2:2:0:0:
300,69,71988,6,1,P|276:64|238:73,1,50.9999984436036,8|8,2:2|2:2,0:0:0:0:
161,77,72139,5,8,2:2:0:0:
169,117,72214,5,8,2:2:0:0:
178,160,72290,6,1,L|170:271,1,101.999996887207,2|0,1:2|1:1,0:0:0:0:
7,324,72591,2,1,P|56:312|119:332,1,101.999996887207,8|0,2:2|3:3,0:0:0:0:
111,329,72816,1,8,2:2:0:0:
117,333,72892,2,1,P|166:345|229:325,1,101.999996887207,0|0,3:3|1:1,0:0:0:0:
366,202,73193,2,1,L|242:207,1,101.999996887207,8|0,2:2|3:3,0:0:0:0:
97,237,73495,5,2,1:2:0:0:
285,289,73645,1,0,1:1:0:0:
178,160,73796,2,1,P|166:110|178:61,1,101.999996887207,8|0,2:2|3:3,0:0:0:0:
183,56,74021,1,8,2:2:0:0:
188,51,74097,2,1,L|253:63,2,50.9999984436036,0|8|0,3:3|3:2|1:1,0:0:0:0:
298,119,74398,2,1,P|347:131|396:119,1,101.999996887207,10|0,2:2|3:3,0:0:0:0:
492,0,74700,5,0,1:1:0:0:
347,48,74849,1,0,1:1:0:0:
489,118,75000,2,1,L|479:231,1,101.999996887207,8|0,2:2|3:3,0:0:0:0:
480,227,75226,1,8,2:2:0:0:
480,235,75302,2,1,P|431:223|382:235,1,101.999996887207,0|0,3:3|1:1,0:0:0:0:
275,346,75603,2,1,L|265:233,1,101.999996887207,8|0,2:2|3:3,0:0:0:0:
265,236,75829,1,0,3:3:0:0:
264,228,75905,1,0,1:1:0:0:
40,304,76356,6,1,P|71:306|102:314,1,63.7500024318696,2|2,2:3|2:3,0:0:0:0:
116,230,76658,6,1,P|84:227|53:219,1,63.7500024318696,2|2,2:3|2:3,0:0:0:0:
206,19,77110,6,1,P|257:8|316:23,1,106.25,2|0,1:2|1:1,0:0:0:0:
273,240,77410,2,1,L|261:129,1,106.25,8|0,2:2|3:3,0:0:0:0:
260,113,77637,1,8,2:2:0:0:
259,97,77712,1,2,3:3:0:0:
402,0,77863,1,0,1:1:0:0:
471,178,78013,2,1,P|419:189|367:178,1,106.25,8|2,2:2|3:3,0:0:0:0:
352,169,78239,1,2,3:3:0:0:
343,159,78314,5,2,1:2:0:0:
512,86,78465,1,0,1:1:0:0:
456,269,78616,1,8,2:2:0:0:
390,84,78766,2,1,P|338:72|286:83,1,106.25,2|0,3:3|3:3,0:0:0:0:
101,110,79068,1,0,1:1:0:0:
214,209,79219,2,1,L|202:98,1,106.25,10|0,2:2|3:3,0:0:0:0:
201,82,79444,1,0,3:3:0:0:
200,66,79520,1,0,1:1:0:0:
109,212,79670,6,1,B|117:281,1,53.125,2|0,1:3|0:0,0:0:0:0:
178,315,79821,2,1,P|229:304|281:316,1,106.25,10|2,2:2|3:3,0:0:0:0:
445,245,80122,5,2,3:3:0:0:
445,245,80197,1,8,3:2:0:0:
445,245,80273,1,2,1:3:0:0:
358,370,80423,2,1,P|368:318|356:266,1,106.25,10|2,2:2|3:3,0:0:0:0:
209,155,80724,5,2,1:2:0:0:
281,316,80875,1,2,1:3:0:0:
357,154,81026,2,1,B|469:149,1,106.25,10|2,2:2|3:3,0:0:0:0:
485,147,81252,1,8,2:2:0:0:
506,145,81327,2,1,P|519:100|497:31,1,106.25,2|2,3:3|1:3,0:0:0:0:
338,59,81629,1,10,2:2:0:0:
338,59,81704,1,2,2:3:0:0:
338,59,81779,1,2,3:3:0:0:
427,201,81929,6,1,L|418:320,1,106.25,2|2,1:2|1:3,0:0:0:0:
221,331,82231,2,1,P|272:320|324:332,1,106.25,10|2,2:2|3:3,0:0:0:0:
342,343,82456,1,8,2:2:0:0:
357,359,82532,1,2,3:3:0:0:
277,217,82683,2,1,P|225:228|173:218,1,106.25,2|10,1:3|2:2,0:0:0:0:
49,111,82984,1,2,3:3:0:0:
231,36,83134,6,1,L|222:161,1,106.25,2|2,1:2|1:3,0:0:0:0:
66,292,83436,1,10,2:2:0:0:
138,132,83586,1,2,3:3:0:0:
221,293,83737,2,1,P|272:304|324:294,1,106.25,2|2,3:3|1:3,0:0:0:0:
405,129,84038,2,1,P|353:118|301:130,1,106.25,10|2,2:2|3:3,0:0:0:0:
285,141,84264,1,0,3:3:0:0:
268,157,84339,5,2,1:3:0:0:
407,239,84490,1,2,1:3:0:0:
340,70,84641,1,10,2:2:0:0:
288,241,84791,2,1,L|300:350,1,106.25,2|0,3:3|3:3,0:0:0:0:
302,362,85017,1,8,3:2:0:0:
304,381,85092,1,0,1:1:0:0:
493,290,85243,2,1,P|457:252|393:240,1,106.25,10|2,2:2|3:3,0:0:0:0:
224,158,85544,6,1,L|351:144,1,106.25,2|2,1:2|1:3,0:0:0:0:
482,128,85845,1,10,2:2:0:0:
309,42,85995,1,2,3:3:0:0:
415,197,86146,1,0,3:3:0:0:
415,197,86222,1,8,3:2:0:0:
415,197,86297,1,0,1:1:0:0:
498,35,86448,2,1,P|446:24|394:36,1,106.25,10|2,2:2|3:3,0:0:0:0:
308,186,86749,6,1,L|317:289,1,93.5000028533936,2|2,1:3|1:3,0:0:0:0:
229,239,87051,2,1,L|238:342,1,93.5000028533936,10|2,2:2|1:3,0:0:0:0:
148,278,87352,2,1,L|157:381,1,93.5000028533936,2|10,3:3|2:2,0:0:0:0:
39,190,87653,2,1,P|29:151|49:87,1,93.5000028533936,2|2,3:3|3:3,0:0:0:0:
150,0,87954,5,2,1:3:0:0:
131,149,88105,1,2,1:3:0:0:
252,40,88256,2,1,L|243:143,1,93.5000028533936,10|2,2:2|1:3,0:0:0:0:
331,93,88557,2,1,L|322:196,1,93.5000028533936,2|10,3:3|2:2,0:0:0:0:
410,136,88858,2,1,L|401:239,1,93.5000028533936,10|10,2:2|2:2,0:0:0:0:
395,270,89084,5,8,2:2:0:0:
384,308,89159,6,1,P|337:299|279:313,1,93.5000028533936,2|2,1:3|1:3,0:0:0:0:
217,358,89460,2,1,P|170:367|112:353,1,93.5000028533936,10|2,2:2|1:3,0:0:0:0:
27,215,89761,5,2,1:3:0:0:
174,275,89912,1,10,2:2:0:0:
34,332,90063,1,2,3:3:0:0:
128,198,90214,2,1,P|174:190|220:199,1,93.5000028533936,10|2,2:2|3:3,0:0:0:0:
298,334,90515,5,2,1:3:0:0:
418,228,90666,2,1,P|372:219|326:228,1,93.5000028533936,10|2,2:2|3:3,0:0:0:0:
311,236,90892,1,8,2:2:0:0:
298,247,90967,2,1,L|304:125,1,93.5000028533936,10|2,2:2|3:3,0:0:0:0:
429,5,91268,2,1,L|424:67,1,46.7500014266968,10|8,2:2|2:2,0:0:0:0:
505,72,91419,5,10,2:2:0:0:
491,108,91494,5,8,2:2:0:0:
467,127,91569,6,1,P|421:135|369:121,1,93.5000028533936,2|2,1:3|1:3,0:0:0:0:
302,22,91871,2,1,P|256:13|210:22,1,93.5000028533936,10|2,2:2|1:3,0:0:0:0:
202,28,92096,1,8,2:2:0:0:
191,36,92171,2,1,L|183:147,1,93.5000028533936,2|10,3:3|2:2,0:0:0:0:
103,67,92473,2,1,L|95:178,1,93.5000028533936,2|2,3:3|3:3,0:0:0:0:
24,243,92774,6,1,P|69:234|115:243,1,93.5000028533936,2|2,1:3|1:3,0:0:0:0:
124,249,92999,1,0,0:0:0:0:
135,257,93075,2,1,L|143:368,1,93.5000028533936,10|2,2:2|1:3,0:0:0:0:
214,228,93376,2,1,L|222:339,1,93.5000028533936,2|10,3:3|2:2,0:0:0:0:
296,201,93678,2,1,L|304:312,1,93.5000028533936,10|10,2:2|2:2,0:0:0:0:
307,331,93903,5,8,2:2:0:0:
311,381,93978,6,1,P|356:372|402:381,1,93.5000028533936,2|2,1:3|1:3,0:0:0:0:
479,241,94280,2,1,P|433:249|387:241,1,93.5000028533936,10|2,2:2|1:3,0:0:0:0:
307,88,94581,1,2,1:3:0:0:
307,88,94657,1,0,3:3:0:0:
307,88,94732,1,10,2:2:0:0:
210,241,94882,2,1,P|255:249|301:241,1,93.5000028533936,2|10,3:3|2:2,0:0:0:0:
417,109,95183,5,2,3:3:0:0:
256,162,95334,1,2,1:3:0:0:
378,20,95485,1,10,2:2:0:0:
388,199,95636,2,1,L|378:309,1,93.5000028533936,2|8,3:3|2:2,0:0:0:0:
377,313,95862,1,0,3:3:0:0:
375,339,95937,1,0,3:3:0:0:
253,372,96088,6,1,P|205:364|157:373,1,93.5000028533936,0|2,0:0|2:2,0:0:0:0:
345,265,101209,6,1,L|335:360,2,85,2|2|2,2:2|2:2|2:2,0:0:0:0:
421,293,101962,2,1,L|416:335,1,42.5,2|2,2:2|2:2,0:0:0:0:
502,191,102414,6,1,P|476:173|416:159,1,85,2|2,2:2|2:2,0:0:0:0:
428,73,102866,2,1,P|396:78|344:111,1,85,2|2,2:2|2:2,0:0:0:0:
346,184,103318,1,2,2:2:0:0:
258,8,104824,6,1,L|268:103,1,85,2|2,2:2|2:2,0:0:0:0:
328,145,105275,1,2,2:2:0:0:
395,101,105426,2,1,L|453:113,1,42.5,2|2,2:2|2:2,0:0:0:0:
167,265,106029,6,1,L|177:360,2,85,2|2|2,2:2|2:2|2:2,0:0:0:0:
91,293,106782,1,2,2:2:0:0:
10,191,107234,6,1,P|36:173|96:159,1,85,2|2,2:2|2:2,0:0:0:0:
84,73,107686,2,1,P|115:78|167:111,1,85,2|2,2:2|2:2,0:0:0:0:
166,184,108138,1,2,2:2:0:0:
254,8,109644,6,1,L|244:103,1,85,2|2,2:2|2:2,0:0:0:0:
184,145,110096,1,0,0:0:0:0:
117,101,110247,1,0,0:0:0:0:
10,216,110547,2,1,L|64:206,1,42.5,2|2,2:2|2:2,0:0:0:0:
116,265,110849,6,1,L|211:280,2,85,2|2|2,2:2|2:2|2:2,0:0:0:0:
51,320,111752,1,2,2:2:0:0:
285,347,112054,6,1,P|296:309|291:245,1,85,2|2,2:2|2:2,0:0:0:0:
387,247,112506,2,1,P|367:212|319:170,1,85,2|2,2:2|2:2,0:0:0:0:
254,190,112957,1,2,2:2:0:0:
254,190,114464,5,2,2:2:0:0:
168,170,114765,6,1,P|182:146|191:122,1,50.9999984436036,0|0,0:0|0:0,0:0:0:0:
283,275,115066,2,1,P|255:274|229:279,1,50.9999984436036,0|0,0:0|0:0,0:0:0:0:
314,121,115367,2,1,P|327:145|344:164,1,50.9999984436036,0|0,0:0|0:0,0:0:0:0:
254,190,115669,5,0,0:0:0:0:
