osu file format v14

[General]
AudioFilename: audio.mp3
AudioLeadIn: 0
PreviewTime: 32087
Countdown: 1
SampleSet: None
StackLeniency: 0.7
Mode: 0
LetterboxInBreaks: 0
WidescreenStoryboard: 0

[Editor]
Bookmarks: 75661,77551,107787,115346,138023
DistanceSpacing: 0.5
BeatDivisor: 4
GridSize: 4
TimelineZoom: 1.6

[Metadata]
Title:Blush feat. MYLK (Moe Shop Remix)
TitleUnicode:Blush feat. MYLK (Moe Shop Remix)
Artist:fusq
ArtistUnicode:fusq
Creator:Veridian
Version:Insane
Source:
Tags:
BeatmapID:1968420
BeatmapSetID:942633

[Difficulty]
HPDrainRate:5
CircleSize:4
OverallDifficulty:5
ApproachRate:9
SliderMultiplier:2.6
SliderTickRate:2

[Events]
//Background and Video events
0,0,"imadedis.png",0,0
//Break Periods
//Storyboard Layer 0 (Background)
//Storyboard Layer 1 (Fail)
//Storyboard Layer 2 (Pass)
//Storyboard Layer 3 (Foreground)
//Storyboard Sound Samples

[TimingPoints]
119,472.44094488189,4,2,0,100,1,0
2008,-166.666666666667,4,2,0,100,0,0
17126,-125,4,2,0,100,0,0
24213,-83.3333333333333,4,2,0,100,0,0
24607,-125,4,2,0,100,0,0
47363,-90.9090909090909,4,2,0,100,0,1
49016,-76.9230769230769,4,2,0,100,0,1
49252,-90.9090909090909,4,2,0,100,0,1
50670,-76.9230769230769,4,2,0,100,0,1
50906,-90.9090909090909,4,2,0,100,0,1
52796,-76.9230769230769,4,2,0,100,0,1
53032,-90.9090909090909,4,2,0,100,0,1
54213,-76.9230769230769,4,2,0,100,0,1
54449,-90.9090909090909,4,2,0,100,0,1
54685,-66.6666666666667,4,2,0,100,0,1
54918,472.44094488189,4,2,0,100,1,1
54918,-90.9090909090909,4,2,0,100,0,1
56571,-76.9230769230769,4,2,0,100,0,1
56807,-90.9090909090909,4,2,0,100,0,1
58303,-76.9230769230769,4,2,0,100,0,1
58540,-90.9090909090909,4,2,0,100,0,1
60193,-76.9230769230769,4,2,0,100,0,1
60429,-66.6666666666667,4,2,0,100,0,1
61059,-76.9230769230769,4,2,0,100,0,1
61532,-90.9090909090909,4,2,0,100,0,1
62004,-100,4,2,0,100,0,1
62477,-90.9090909090909,4,2,0,100,0,0
76650,-125,4,2,0,100,0,0
77122,-83.3333333333333,4,2,0,100,0,0
77595,-90.9090909090909,4,2,0,100,0,0
141803,-90.9090909090909,4,2,0,100,0,1
156921,-90.9090909090909,4,2,0,100,0,0

[Colours]
Combo1 : 255,128,128
Combo2 : 0,210,255
Combo3 : 255,128,255
Combo4 : 255,255,128

[HitObjects]
308,208,2009,6,0,P|344:198|384:209,1,77.999997619629
232,300,2481,2,0,P|192:328|168:204,1,233.999992858887
216,68,3426,2,0,L|233:166,1,77.999997619629
320,300,3898,2,0,L|349:130,1,155.999995239258
384,52,4607,2,0,P|416:70|437:106,1,77.999997619629
229,144,5079,2,0,P|196:162|175:198,1,77.999997619629
272,240,5552,1,0,0:0:0:0:
81,246,5788,6,0,L|92:324,1,77.999997619629
176,196,6260,2,0,L|207:14,1,155.999995239258
104,88,6969,2,0,P|84:54|51:35,2,77.999997619629
176,196,7678,2,0,P|195:162|228:143,2,77.999997619629
344,248,8386,2,0,L|266:237,1,77.999997619629
404,148,8859,2,0,L|481:137,1,77.999997619629
344,248,9331,1,0,0:0:0:0:
456,380,9568,6,0,P|437:347|404:328,1,77.999997619629
256,220,10040,2,0,L|283:373,1,155.999995239258
168,332,10749,2,0,L|90:321,2,77.999997619629
256,220,11457,2,0,L|333:209,2,77.999997619629
432,248,12166,6,0,P|412:281|379:300,1,77.999997619629
380,96,12638,2,0,P|399:129|432:148,1,77.999997619629
256,220,13111,2,0,P|264:119|165:139,1,233.999992858887
56,184,14056,2,0,L|45:106,2,77.999997619629
148,252,14764,2,0,L|137:329,1,77.999997619629
136,343,15119,1,0,0:0:0:0:
134,357,15237,1,0,0:0:0:0:
408,192,16181,5,0,0:0:0:0:
104,192,16418,1,0,0:0:0:0:
328,104,16654,2,0,L|318:159,1,38.9999988098145
190,142,16890,2,0,L|184:104,1,38.9999988098145
432,76,17126,6,0,P|476:96|500:176,1,104
400,290,17520,1,0,0:0:0:0:
389,274,17599,2,0,L|412:149,1,104
496,260,18071,1,0,0:0:0:0:
368,368,18307,2,0,P|324:348|300:268,1,104
200,220,18701,1,0,0:0:0:0:
209,233,18780,2,0,L|195:307,1,69.3333333333333
96,172,19016,6,0,P|140:152|164:72,1,104
344,120,19410,1,0,0:0:0:0:
333,134,19489,2,0,L|255:147,1,69.3333333333333
252,158,19725,1,0,0:0:0:0:
324,232,19882,2,0,P|374:255|402:347,1,138.666666666667
504,292,20433,5,0,0:0:0:0:
499,319,20552,1,0,0:0:0:0:
494,343,20670,1,0,0:0:0:0:
490,366,20788,1,0,0:0:0:0:
492,276,20906,6,0,L|514:146,1,104
412,96,21300,1,0,0:0:0:0:
424,108,21378,2,0,P|468:88|492:8,1,104
344,152,21772,1,0,0:0:0:0:
328,141,21851,2,0,L|246:156,1,69.3333333333333
247,141,22087,1,0,0:0:0:0:
288,56,22323,1,0,0:0:0:0:
228,232,22481,2,0,P|184:212|160:132,1,104
146,152,22796,6,0,L|164:33,1,104
64,232,23268,2,0,L|80:334,1,104
146,152,23741,2,0,L|164:33,1,104
63,232,24213,6,0,P|80:312|88:385,1,155.999995239258
176,332,24607,1,0,0:0:0:0:
176,314,24685,6,0,P|196:270|276:246,1,104
324,156,25079,1,0,0:0:0:0:
309,165,25158,2,0,L|203:146,1,104
284,64,25630,1,0,0:0:0:0:
347,242,25867,6,0,P|392:218|414:172,1,104
484,56,26260,2,0,L|381:74,1,104
369,61,26575,1,0,0:0:0:0:
312,164,26733,1,0,0:0:0:0:
312,148,26812,2,0,P|292:109|253:91,1,69.3333333333333
258,83,27048,2,0,P|234:128|188:150,1,104
56,52,27441,1,0,0:0:0:0:
68,41,27519,2,0,L|193:64,1,104
98,224,27993,2,0,L|80:125,1,69.3333333333333
96,144,28229,1,0,0:0:0:0:
30,292,28465,5,0,0:0:0:0:
122,344,28623,2,0,P|146:299|192:277,1,104
204,289,28938,2,0,L|318:308,1,104
478,264,29331,1,0,0:0:0:0:
465,251,29410,2,0,L|375:267,1,69.3333333333333
384,251,29646,1,0,0:0:0:0:
484,152,29883,5,0,0:0:0:0:
457,147,30040,1,0,0:0:0:0:
433,142,30119,1,0,0:0:0:0:
410,138,30276,1,0,0:0:0:0:
392,48,30355,6,0,P|345:69|321:115,1,104
256,192,30749,1,0,0:0:0:0:
243,204,30827,2,0,L|221:81,1,104
256,304,31300,1,0,0:0:0:0:
156,260,31457,1,0,0:0:0:0:
143,273,31536,2,0,L|53:257,1,69.3333333333333
62,273,31772,1,0,0:0:0:0:
108,360,32009,1,0,0:0:0:0:
348,192,32245,5,0,0:0:0:0:
256,88,34134,5,0,0:0:0:0:
164,192,36024,5,0,0:0:0:0:
256,296,38859,5,0,0:0:0:0:
416,124,39804,5,0,0:0:0:0:
256,12,41693,5,0,0:0:0:0:
96,124,43583,5,0,0:0:0:0:
320,192,45473,5,0,0:0:0:0:
256,256,45945,1,0,0:0:0:0:
192,192,46418,1,0,0:0:0:0:
328,128,46890,2,0,L|337:183,1,52
174,179,47126,2,0,L|184:128,1,52
316,28,47363,6,0,P|376:36|418:129,1,143.000004364014
508,276,47757,1,0,0:0:0:0:
494,256,47835,2,0,L|514:146,1,95.3333362426759
494,145,48072,2,0,L|512:50,1,71.5000021820069
404,204,48308,2,0,P|367:245|304:236,1,95.3333362426759
305,247,48544,1,0,0:0:0:0:
233,72,48780,2,0,L|343:52,1,71.5000021820069
229,184,49016,6,0,P|152:168|91:159,1,140.833326886495
84,164,49252,6,0,L|96:234,1,71.5000021820069
192,376,49489,2,0,L|204:305,1,71.5000021820069
12,248,49725,2,0,P|28:296|128:320,1,143.000004364014
292,212,50119,2,0,P|224:228|194:290,1,143.000004364014
204,305,50433,2,0,L|290:289,1,71.5000021820069
392,140,50670,6,0,P|296:120|221:109,1,168.999992263794
412,236,51142,6,0,P|474:206|490:138,1,143.000004364014
400,16,51536,1,0,0:0:0:0:
383,32,51615,2,0,L|408:152,1,95.3333362426759
392,140,51851,1,0,0:0:0:0:
276,284,52008,2,0,L|303:130,1,143.000004364014
292,128,52323,2,0,P|264:88|212:72,1,95.3333362426759
208,72,52559,1,0,0:0:0:0:
48,168,52717,1,0,0:0:0:0:
67,187,52796,6,0,P|144:171|204:162,1,140.833326886495
212,164,53032,6,0,L|200:264,1,71.5000021820069
352,332,53268,2,0,L|331:217,1,95.3333362426759
352,221,53504,1,0,0:0:0:0:
252,32,53741,1,0,0:0:0:0:
292,108,53859,1,0,0:0:0:0:
352,52,53977,2,0,L|438:67,1,47.6666681213379
501,207,54213,6,0,P|417:219|334:237,1,168.999992263794
152,312,54607,1,0,0:0:0:0:
176,336,54685,2,0,P|234:338|224:248,1,162.500006198883
232,240,54922,6,0,L|258:90,1,143.000004364014
100,48,55311,1,0,0:0:0:0:
86,62,55390,2,0,L|109:187,1,95.3333362426759
85,173,55626,2,0,L|102:273,1,71.5000021820069
172,96,55862,2,0,P|202:33|269:18,1,143.000004364014
364,252,56335,2,0,L|474:232,1,95.3333362426759
476,236,56571,6,0,P|406:225|337:210,1,140.833326886495
328,208,56807,6,0,P|276:184|260:100,1,143.000004364014
60,56,57201,1,0,0:0:0:0:
83,56,57280,2,0,P|131:74|151:150,1,95.3333362426759
169,127,57516,2,0,L|148:237,1,71.5000021820069
128,336,57752,1,0,0:0:0:0:
40,296,57988,2,0,L|28:232,1,47.6666681213379
220,300,58225,1,0,0:0:0:0:
239,280,58303,6,0,P|323:292|406:310,1,168.999992263794
500,184,58697,6,0,L|366:207,1,95.3333362426759
389,183,58933,1,0,0:0:0:0:
280,80,59091,1,0,0:0:0:0:
296,63,59170,2,0,L|402:82,1,95.3333362426759
404,64,59406,1,0,0:0:0:0:
280,168,59563,1,0,0:0:0:0:
256,176,59642,6,0,P|204:152|188:68,1,143.000004364014
68,276,60114,1,0,0:0:0:0:
87,295,60193,6,0,P|169:277|253:265,1,168.999992263794
344,360,60587,5,0,0:0:0:0:
496,180,60823,5,0,0:0:0:0:
420,228,60941,1,0,0:0:0:0:
480,300,61059,2,0,L|462:398,1,84.4999961318971
316,112,61295,5,0,0:0:0:0:
392,148,61413,1,0,0:0:0:0:
332,212,61532,2,0,L|349:310,1,71.5000021820069
465,30,61768,5,0,0:0:0:0:
396,68,61886,1,0,0:0:0:0:
464,108,62004,1,0,0:0:0:0:
180,212,62477,6,0,L|211:34,1,143.000004364014
0,52,62870,1,0,0:0:0:0:
16,68,62949,2,0,P|64:100|64:200,1,143.000004364014
40,352,63303,1,0,0:0:0:0:
8,256,63421,2,0,L|129:280,1,95.3333362426759
118,291,63658,2,0,L|239:315,1,95.3333362426759
228,326,63894,1,0,0:0:0:0:
424,260,64051,2,0,P|368:288|344:376,1,143.000004364014
324,376,64366,6,0,L|294:206,1,143.000004364014
284,112,64760,1,0,0:0:0:0:
284,135,64839,2,0,P|268:192|188:228,1,143.000004364014
156,44,65193,1,0,0:0:0:0:
60,112,65311,2,0,L|217:139,1,143.000004364014
200,320,65784,2,0,L|97:338,1,71.5000021820069
160,240,66020,1,0,0:0:0:0:
260,384,66138,1,0,0:0:0:0:
328,320,66256,6,0,P|349:253|410:219,1,143.000004364014
484,88,66650,1,0,0:0:0:0:
470,106,66729,2,0,L|333:128,1,95.3333362426759
358,138,66965,2,0,L|281:150,1,47.6666681213379
240,100,67201,1,0,0:0:0:0:
226,184,67319,1,0,0:0:0:0:
157,87,67437,1,0,0:0:0:0:
145,172,67555,1,0,0:0:0:0:
152,0,67673,6,0,P|88:34|70:100,1,143.000004364014
68,276,68028,1,0,0:0:0:0:
4,196,68146,2,0,L|173:166,1,143.000004364014
236,240,68500,1,0,0:0:0:0:
468,196,68618,2,0,L|298:166,1,143.000004364014
236,240,68973,1,0,0:0:0:0:
272,368,69091,6,0,P|289:320|330:298,1,95.3333362426759
343,282,69327,2,0,P|372:332|476:328,1,143.000004364014
432,136,69721,1,0,0:0:0:0:
444,154,69799,2,0,L|421:283,1,95.3333362426759
424,264,70036,6,0,P|404:212|296:204,1,143.000004364014
184,288,70390,1,0,0:0:0:0:
92,212,70508,2,0,L|257:182,1,143.000004364014
268,16,70862,1,0,0:0:0:0:
188,41,70980,2,0,P|205:79|278:94,1,95.3333362426759
269,116,71217,2,0,L|391:95,1,95.3333362426759
379,117,71453,1,0,0:0:0:0:
268,304,71689,2,0,L|146:283,1,95.3333362426759
156,304,71925,6,0,P|136:252|28:244,1,143.000004364014
44,36,72319,1,0,0:0:0:0:
44,63,72398,6,0,P|64:115|172:123,1,143.000004364014
228,200,72752,1,0,0:0:0:0:
200,40,72870,2,0,L|85:60,1,71.5000021820069
288,112,73106,2,0,L|402:91,1,71.5000021820069
368,224,73343,2,0,L|205:195,1,143.000004364014
84,304,73697,1,0,0:0:0:0:
167,293,73815,6,0,P|147:241|39:233,1,143.000004364014
167,293,74288,2,0,P|147:241|39:233,1,143.000004364014
24,356,74760,1,0,0:0:0:0:
59,362,74878,1,0,0:0:0:0:
94,368,74996,1,0,0:0:0:0:
130,374,75114,1,0,0:0:0:0:
167,293,75232,2,0,P|147:241|39:233,1,143.000004364014
68,72,75587,1,0,0:0:0:0:
4,132,75705,6,0,L|169:102,1,143.000004364014
68,72,76059,1,0,0:0:0:0:
4,132,76177,2,0,L|169:102,1,143.000004364014
68,72,76532,1,0,0:0:0:0:
152,192,76650,2,0,P|204:172|212:64,1,156
216,56,77122,6,0,P|331:75|445:100,1,233.999992858887
512,196,77595,6,0,L|366:221,1,143.000004364014
512,196,78067,2,0,L|366:221,1,143.000004364014
400,352,78540,1,0,0:0:0:0:
450,356,78658,1,0,0:0:0:0:
493,329,78776,1,0,0:0:0:0:
510,281,78894,1,0,0:0:0:0:
512,196,79012,2,0,L|366:221,1,143.000004364014
236,316,79366,1,0,0:0:0:0:
316,308,79484,6,0,P|296:256|188:248,1,143.000004364014
236,316,79839,1,0,0:0:0:0:
316,308,79957,2,0,P|296:256|188:248,1,143.000004364014
236,316,80311,1,0,0:0:0:0:
316,308,80429,2,0,P|296:256|188:248,1,143.000004364014
48,292,80902,2,0,L|65:390,1,71.5000021820069
128,232,81138,2,0,L|140:161,1,71.5000021820069
72,96,81374,5,0,0:0:0:0:
72,96,82555,5,0,0:0:0:0:
128,40,82792,1,0,0:0:0:0:
200,76,83028,1,0,0:0:0:0:
188,152,83264,1,0,0:0:0:0:
111,168,83736,1,0,0:0:0:0:
