osu file format v14

[General]
AudioFilename: audio.mp3
AudioLeadIn: 0
PreviewTime: 125982
Countdown: 0
SampleSet: Normal
StackLeniency: 0.3
Mode: 0
LetterboxInBreaks: 1
WidescreenStoryboard: 0

[Editor]
DistanceSpacing: 0.8
BeatDivisor: 4
GridSize: 4
TimelineZoom: 1.099999

[Metadata]
Title:Happy Nostalgia
TitleUnicode:Happy Nostalgia
Artist:fusq + Sian
ArtistUnicode:fusq + Sian
Creator:Mchi
Version:Memory
Source:
Tags:Future Bass
BeatmapID:1357380
BeatmapSetID:640083

[Difficulty]
HPDrainRate:5.3
CircleSize:4
OverallDifficulty:8.3
ApproachRate:9.2
SliderMultiplier:2
SliderTickRate:1

[Events]
//Background and Video events
0,0,"osu beatmap bg.jpg",0,0
//Break Periods
2,33370,35600
2,66182,71506
2,90370,113975
2,186182,203600
//Storyboard Layer 0 (Background)
//Storyboard Layer 1 (Fail)
//Storyboard Layer 2 (Pass)
//Storyboard Layer 3 (Foreground)
//Storyboard Sound Samples

[TimingPoints]
170,375,4,1,0,100,1,0
170,-100,4,2,0,35,0,0
5513,-200,4,2,0,35,0,0
11420,-100,4,2,0,50,0,0
16576,-100,4,2,0,50,0,0
41045,-76.9230769230769,4,2,0,35,0,0
42076,-50,4,1,0,60,0,1
43576,-50,4,1,0,60,0,1
47701,-50,4,1,0,60,0,1
52295,-100,4,1,0,60,0,1
54076,-50,4,1,0,60,0,1
62326,-50,4,1,0,60,0,1
64763,-100,4,2,0,40,0,0
72076,-200,4,2,0,35,0,0
72451,-100,4,2,0,5,0,0
72828,-100,4,2,0,35,0,0
73576,-200,4,2,0,35,0,0
73763,-200,4,2,0,5,0,0
74326,-66.6666666666667,4,2,0,35,0,0
76200,-200,4,2,0,35,0,0
83127,-100,4,2,0,5,0,0
83324,-100,4,2,0,35,0,0
88106,-50,4,2,0,35,0,0
88574,-200,4,2,0,25,0,0
114357,-100,4,2,0,35,0,0
115670,-100,4,2,0,45,0,0
125982,-50,4,1,0,60,0,1
133010,-50,4,1,0,60,0,1
136670,-50,4,2,0,60,0,0
143323,-50,4,2,0,60,0,0
161323,-200,4,2,0,20,0,0
162167,-100,4,2,0,60,0,0
173701,-50,4,1,0,40,0,1
177076,-200,4,2,0,40,0,0
209888,-50,4,1,0,35,0,1
211104,-50,4,1,0,35,0,1
213076,-200,4,2,0,35,0,0
215417,-100,4,2,0,50,0,0
218701,-50,4,2,0,50,0,0
221698,-200,4,2,0,50,0,0
227698,-50,4,2,0,50,0,0
234823,-200,4,2,0,50,0,0
239701,-200,4,2,0,35,0,0
252545,-200,4,2,0,35,0,0
256198,-50,4,2,0,5,0,0

[Colours]
Combo1 : 255,0,0
Combo2 : 0,255,255

[HitObjects]
70,60,170,5,0,0:0:0:0:
149,155,1670,5,0,0:0:0:0:
270,149,3170,5,0,0:0:0:0:
230,248,4670,5,0,0:0:0:0:
252,327,5607,2,0,P|313:283|310:212,1,150
219,149,7670,5,0,0:0:0:0:
352,62,9170,5,0,0:0:0:0:
218,5,10670,5,0,0:0:0:0:
174,127,11607,1,0,0:0:0:0:
60,285,11795,1,0,0:0:0:0:
32,182,12170,5,0,0:0:0:0:
253,250,13670,5,0,0:0:0:0:
463,84,15170,5,0,0:0:0:0:
271,54,16670,5,0,0:0:0:0:
215,203,17045,2,0,L|203:102,1,100
271,54,17420,2,0,P|216:20|150:49,1,100
96,70,17795,1,0,0:0:0:0:
281,137,18170,5,0,0:0:0:0:
120,275,19670,5,0,0:0:0:0:
53,342,20045,2,0,P|159:353|210:280,1,200
196,207,20795,1,0,0:0:0:0:
275,142,21170,1,0,0:0:0:0:
398,197,22670,5,0,0:0:0:0:
289,341,23045,2,0,L|289:240,1,100
386,327,23420,1,0,0:0:0:0:
493,264,23607,1,0,0:0:0:0:
398,197,23795,1,0,0:0:0:0:
193,42,24170,6,0,P|140:38|98:67,1,100
101,62,24545,1,0,0:0:0:0:
57,208,24732,6,0,P|53:261|81:303,1,100
77,299,25107,1,0,0:0:0:0:
218,353,25295,2,0,P|271:357|313:328,1,100
309,332,25670,1,0,0:0:0:0:
384,219,25857,5,0,0:0:0:0:
449,142,26045,1,0,0:0:0:0:
384,77,26420,2,0,L|182:78,1,200
100,180,26982,1,0,0:0:0:0:
24,85,27170,1,0,0:0:0:0:
224,13,27545,6,0,L|330:15,1,100
285,125,28107,1,0,0:0:0:0:
331,222,28482,1,0,0:0:0:0:
396,146,28670,1,0,0:0:0:0:
309,325,29045,6,0,P|248:304|237:251,1,100
331,222,29420,1,0,0:0:0:0:
367,104,29607,2,0,P|428:125|439:178,1,100
187,17,30170,6,0,L|397:16,1,200
482,144,30920,6,0,L|260:146,1,200
125,196,31670,1,0,0:0:0:0:
134,65,32045,2,0,P|27:87|13:205,1,200
81,336,32795,5,0,0:0:0:0:
207,378,32982,1,0,0:0:0:0:
254,255,33170,1,0,0:0:0:0:
256,192,36170,12,0,40670,0:0:0:0:
215,62,41232,6,0,L|292:62,4,64.9999970245363
186,144,42170,6,0,L|104:328,1,200
49,275,42544,1,0,0:0:0:0:
73,230,42638,1,0,0:0:0:0:
94,184,42732,1,0,0:0:0:0:
294,92,42920,6,0,L|334:1,1,100
213,286,43107,2,0,L|162:398,1,100
363,231,43295,2,0,L|512:314,1,100
137,136,43482,2,0,L|19:80,1,100
1,27,43670,6,0,B|127:24|127:24|188:65,1,200
244,196,44045,1,0,0:0:0:0:
445,34,44420,1,0,0:0:0:0:
368,212,44795,2,0,P|442:183|393:250,1,200
300,280,45170,1,0,0:0:0:0:
192,152,45545,5,0,0:0:0:0:
167,110,45638,1,0,0:0:0:0:
145,71,45732,1,0,0:0:0:0:
118,282,45920,2,0,B|72:382|72:382|212:339|237:327,1,200
259,190,46295,1,0,0:0:0:0:
132,288,46482,1,0,0:0:0:0:
137,107,46670,6,0,L|119:90,1,25
370,281,46857,2,0,L|388:298,1,25
365,80,47045,2,0,L|386:65,1,25
132,288,47232,2,0,L|98:312,1,25
445,154,47420,1,0,0:0:0:0:
251,196,47607,1,0,0:0:0:0:
430,262,47795,2,0,L|407:269,9,25
288,312,48170,6,0,B|252:277|252:277|251:279|251:279|208:329|208:329|188:293|188:293|136:294,2,200
288,312,48732,1,0,0:0:0:0:
358,137,48920,1,0,0:0:0:0:
147,293,49107,1,0,0:0:0:0:
358,137,49295,1,0,0:0:0:0:
131,141,49482,5,0,0:0:0:0:
131,141,49576,1,0,0:0:0:0:
161,58,49670,2,0,L|194:79,1,25
224,153,49857,2,0,L|211:178,1,25
124,229,50045,2,0,L|102:218,1,25
49,112,50232,2,0,L|66:89,1,25
131,141,50420,2,0,P|306:109|382:156,1,200
394,151,50795,6,0,L|378:169,11,25
403,279,51170,2,0,B|340:248|340:248|202:268,1,200
206,302,51545,2,0,B|269:333|269:333|407:313,1,200
295,252,51920,1,0,0:0:0:0:
95,327,52107,1,0,0:0:0:0:
295,252,52295,1,0,0:0:0:0:
95,327,52482,2,0,P|135:252|105:230,1,100
75,147,52857,5,0,0:0:0:0:
60,102,52951,1,0,0:0:0:0:
79,59,53045,1,0,0:0:0:0:
116,27,53138,1,0,0:0:0:0:
161,17,53232,1,0,0:0:0:0:
158,149,53420,5,0,0:0:0:0:
226,113,53607,1,0,0:0:0:0:
245,154,53701,1,0,0:0:0:0:
241,203,53794,1,0,0:0:0:0:
218,244,53888,1,0,0:0:0:0:
173,259,53982,1,0,0:0:0:0:
158,149,54170,6,0,B|181:239|332:163|325:330,1,200
336,344,54545,1,0,0:0:0:0:
312,380,54638,1,0,0:0:0:0:
265,384,54732,1,0,0:0:0:0:
162,292,54920,6,0,L|76:343,1,100
346,192,55107,2,0,L|443:134,1,100
187,136,55295,1,0,0:0:0:0:
272,328,55482,1,0,0:0:0:0:
259,173,55670,6,0,B|291:245|341:246|341:179|341:159|402:160|436:237,1,200
187,136,56045,1,0,0:0:0:0:
444,130,56420,1,0,0:0:0:0:
431,187,56795,6,0,B|404:214|404:214|420:230|420:230|407:253|407:253|441:269|441:269|401:302|401:302|433:325,1,200
346,341,57170,2,0,L|138:344,1,200
145,261,57545,1,0,0:0:0:0:
192,261,57638,1,0,0:0:0:0:
239,261,57732,1,0,0:0:0:0:
346,261,57920,5,0,0:0:0:0:
73,262,58107,1,0,0:0:0:0:
348,210,58295,1,0,0:0:0:0:
96,315,58482,1,0,0:0:0:0:
341,158,58670,1,0,0:0:0:0:
129,355,58857,1,0,0:0:0:0:
316,111,59045,1,0,0:0:0:0:
169,380,59232,1,0,0:0:0:0:
292,319,59420,6,0,B|187:256|232:169|125:129,1,200
112,56,59795,1,0,0:0:0:0:
93,98,59888,1,0,0:0:0:0:
71,139,59982,1,0,0:0:0:0:
49,181,60076,1,0,0:0:0:0:
37,223,60170,6,0,B|64:328|118:245|174:273|191:370,1,200
277,264,60545,1,0,0:0:0:0:
305,220,60638,1,0,0:0:0:0:
331,179,60732,1,0,0:0:0:0:
359,139,60826,1,0,0:0:0:0:
380,71,60920,2,0,P|292:112|268:206,1,200
430,125,61295,2,0,P|340:240|236:209,1,200
254,238,61576,5,0,0:0:0:0:
171,72,61670,2,0,L|155:54,1,25
383,257,61857,2,0,L|402:272,1,25
128,288,62045,2,0,L|110:305,1,25
395,56,62232,2,0,L|412:38,1,25
252,149,62420,2,0,B|195:166|178:230|220:284|289:284|329:235|311:166,1,200
300,94,62795,2,0,L|333:72,10,25
348,44,63170,6,0,P|240:128|352:48,1,400
385,265,63732,2,0,L|405:363,1,100
382,63,63920,1,0,0:0:0:0:
244,279,64107,1,0,0:0:0:0:
333,21,64295,1,0,0:0:0:0:
112,132,64482,1,0,0:0:0:0:
317,87,64670,1,0,0:0:0:0:
357,267,64857,5,0,0:0:0:0:
315,286,64951,1,0,0:0:0:0:
279,251,65045,1,0,0:0:0:0:
306,206,65138,1,0,0:0:0:0:
353,217,65232,1,0,0:0:0:0:
243,23,65420,5,0,0:0:0:0:
66,156,65607,1,0,0:0:0:0:
19,154,65701,1,0,0:0:0:0:
2,107,65795,1,0,0:0:0:0:
46,78,65888,1,0,0:0:0:0:
84,109,65982,1,0,0:0:0:0:
139,333,72076,5,0,0:0:0:0:
174,287,72170,2,0,L|238:207,1,100
296,125,72920,5,0,0:0:0:0:
329,89,73013,1,0,0:0:0:0:
378,86,73107,1,0,0:0:0:0:
418,114,73201,1,0,0:0:0:0:
432,161,73295,1,0,0:0:0:0:
412,206,73388,1,0,0:0:0:0:
367,225,73482,1,0,0:0:0:0:
322,208,73576,1,0,0:0:0:0:
282,176,73669,6,0,L|229:177,1,50
216,125,74420,2,0,B|188:57|91:56|44:126|43:200|87:253|156:268,1,300.000011444092
244,246,74981,1,0,0:0:0:0:
348,165,75169,1,0,0:0:0:0:
186,76,75544,1,0,0:0:0:0:
159,188,75731,1,0,0:0:0:0:
258,128,76106,1,0,0:0:0:0:
123,31,76295,2,0,B|166:59|166:59|289:6|289:6|400:45,1,300
397,44,77606,5,0,0:0:0:0:
451,161,77794,1,0,0:0:0:0:
430,205,77888,1,0,0:0:0:0:
394,237,77981,1,0,0:0:0:0:
355,252,78075,1,0,0:0:0:0:
314,259,78169,6,0,P|235:242|204:177,1,150
204,185,78919,1,0,0:0:0:0:
133,112,79294,6,0,L|189:112,1,50
247,26,79670,1,0,0:0:0:0:
291,53,79857,2,0,P|310:94|304:117,1,50
292,143,80419,1,0,0:0:0:0:
204,322,80794,5,0,0:0:0:0:
204,322,80981,1,0,0:0:0:0:
186,139,81170,2,0,P|166:193|113:220,1,100
21,205,81731,1,0,0:0:0:0:
18,121,81919,1,0,0:0:0:0:
78,65,82106,1,0,0:0:0:0:
199,78,82294,2,0,L|249:78,1,50
299,159,82857,5,0,0:0:0:0:
383,203,83045,2,0,P|424:200|436:178,1,50
342,81,83420,2,0,B|380:0|503:6|531:96,1,200
341,166,84170,2,0,B|286:135|286:135|208:173|208:173|131:127|131:127|40:152,1,300
72,143,84920,1,0,0:0:0:0:
140,25,85295,6,0,L|234:108,1,100
303,25,85670,2,0,P|391:85|393:102,1,100
243,144,86045,1,0,0:0:0:0:
367,124,86420,1,0,0:0:0:0:
241,212,86795,6,0,P|317:252|355:232,1,100
394,199,87170,1,0,0:0:0:0:
497,63,87732,2,0,P|449:33|402:62,1,100
343,105,88106,1,0,0:0:0:0:
253,42,88295,2,0,L|227:43,1,25
131,101,88670,6,0,L|98:141,8,50
145,181,114545,5,0,0:0:0:0:
145,157,114638,1,0,0:0:0:0:
144,134,114732,1,0,0:0:0:0:
143,53,114920,1,0,0:0:0:0:
352,85,115857,6,0,L|289:167,1,100
291,276,116232,1,0,0:0:0:0:
192,200,116420,1,0,0:0:0:0:
211,116,116607,2,0,P|125:150|124:189,1,100
47,205,116982,2,0,P|28:151|61:103,1,100
105,17,117732,6,0,P|178:33|195:74,1,100
227,116,118107,2,0,P|266:154|312:146,1,100
359,74,118482,2,0,L|255:46,1,100
383,246,119232,5,0,0:0:0:0:
428,164,119420,2,0,P|488:256|431:325,1,200
131,192,120170,2,0,B|193:269|248:269|249:226|248:176|319:173|396:259,1,300
145,322,121482,5,0,0:0:0:0:
151,154,122232,2,0,L|272:81,1,100
352,21,122795,1,0,0:0:0:0:
468,264,123170,2,0,B|399:337|399:337|324:258|324:258|233:316|156:226,1,400
325,102,124670,6,0,B|219:125|130:34|130:34|64:93,1,300
74,102,125982,5,0,0:0:0:0:
209,150,126170,2,0,P|347:184|209:197,1,400
393,53,126920,2,0,L|417:44,1,25
378,256,127107,2,0,L|412:281,1,25
185,307,127295,2,0,L|159:341,1,25
84,169,127482,5,0,0:0:0:0:
222,92,127670,1,0,0:0:0:0:
329,13,127857,2,0,L|354:-1,1,25
222,92,128045,1,0,0:0:0:0:
243,25,128420,2,0,P|222:164|196:26,1,400
273,27,128888,5,0,0:0:0:0:
285,27,128982,1,0,0:0:0:0:
296,27,129076,1,0,0:0:0:0:
352,35,129170,2,0,B|447:99|447:99|69:99,1,400
257,191,129920,5,0,0:0:0:0:
341,129,130107,1,0,0:0:0:0:
356,182,130201,1,0,0:0:0:0:
342,238,130295,1,0,0:0:0:0:
174,310,130482,5,0,0:0:0:0:
492,193,130670,1,0,0:0:0:0:
162,284,130857,1,0,0:0:0:0:
497,219,131045,1,0,0:0:0:0:
150,250,131232,1,0,0:0:0:0:
497,248,131420,1,0,0:0:0:0:
152,223,131607,1,0,0:0:0:0:
407,309,131795,5,0,0:0:0:0:
356,340,131888,1,0,0:0:0:0:
310,302,131982,1,0,0:0:0:0:
332,246,132076,1,0,0:0:0:0:
392,250,132170,6,0,P|432:200|416:65,1,200
283,77,132545,1,0,0:0:0:0:
248,28,132638,1,0,0:0:0:0:
190,47,132732,1,0,0:0:0:0:
190,107,132826,1,0,0:0:0:0:
248,126,132920,1,0,0:0:0:0:
145,11,133107,2,0,L|121:0,4,25
276,188,133482,5,0,0:0:0:0:
360,44,133670,2,0,L|376:12,1,25
188,328,133857,2,0,L|168:360,1,25
384,84,134045,2,0,L|420:60,1,25
152,284,134232,2,0,L|120:312,1,25
400,124,134420,2,0,L|440:120,1,25
140,248,134607,2,0,L|96:256,1,25
268,170,134795,2,0,P|248:243|291:180,1,200
156,112,135170,6,0,B|24:32,1,100
376,252,135357,2,0,L|508:328,1,100
316,92,135545,2,0,L|376:-20,1,100
192,280,135732,2,0,L|116:412,1,100
200,136,135920,5,0,0:0:0:0:
256,113,136013,1,0,0:0:0:0:
311,136,136107,1,0,0:0:0:0:
334,191,136201,1,0,0:0:0:0:
311,247,136295,1,0,0:0:0:0:
256,270,136388,1,0,0:0:0:0:
200,247,136482,1,0,0:0:0:0:
177,191,136576,1,0,0:0:0:0:
256,192,136670,12,0,137795,0:0:0:0:
244,264,138170,6,0,B|340:376|360:332|286:196,1,200
296,144,138545,1,0,0:0:0:0:
164,212,138732,1,0,0:0:0:0:
296,144,138920,2,0,B|363:56|411:61|352:193,1,200
176,112,139295,5,0,0:0:0:0:
176,112,139388,1,0,0:0:0:0:
176,112,139482,1,0,0:0:0:0:
124,228,139670,1,0,0:0:0:0:
68,104,139857,2,0,L|40:88,1,25
112,160,140045,2,0,B|20:192|56:284|140:300,1,200
296,132,140420,2,0,B|400:136|344:224|436:168|452:252,1,200
424,288,140795,5,0,0:0:0:0:
372,310,140888,1,0,0:0:0:0:
337,267,140982,1,0,0:0:0:0:
282,291,141076,1,0,0:0:0:0:
244,254,141170,2,0,B|162:144|138:186|182:286,1,200
316,144,141545,2,0,L|348:124,1,25
252,124,141732,2,0,B|204:96|204:96|192:140|192:140|152:124|152:124|132:204,1,200
224,220,142107,5,0,0:0:0:0:
158,283,142295,2,0,B|91:370|43:366|102:236,1,200
236,344,142670,1,0,0:0:0:0:
72,204,142857,2,0,L|48:176,1,25
148,352,143045,2,0,B|168:272|244:236|316:296,1,200
412,240,143420,6,0,L|448:224,1,25
368,372,143607,2,0,L|376:396,1,25
320,288,143795,1,0,0:0:0:0:
280,244,143888,1,0,0:0:0:0:
298,187,143982,1,0,0:0:0:0:
270,139,144076,1,0,0:0:0:0:
293,97,144170,2,0,B|268:-10|303:-44|369:91,1,200
215,196,144545,2,0,L|183:204,1,25
156,282,144732,2,0,B|68:218|112:122|184:106,1,200
336,240,145107,5,0,0:0:0:0:
288,120,145295,1,0,0:0:0:0:
288,120,145388,1,0,0:0:0:0:
288,120,145482,1,0,0:0:0:0:
183,91,145670,2,0,B|119:-30|89:7|110:112,1,200
44,164,146045,2,0,L|12:176,1,25
100,248,146232,2,0,B|78:334|204:347|188:174|117:201,1,200
228,276,146607,5,0,0:0:0:0:
312,316,146795,1,0,0:0:0:0:
344,262,146888,1,0,0:0:0:0:
395,293,146982,1,0,0:0:0:0:
426,243,147076,1,0,0:0:0:0:
482,248,147170,2,0,B|572:145|526:130|443:204,1,200
449,352,147545,2,0,L|476:371,1,25
344,262,147732,5,0,0:0:0:0:
245,183,147920,1,0,0:0:0:0:
344,262,148107,1,0,0:0:0:0:
159,103,148295,2,0,L|133:80,1,25
245,183,148482,1,0,0:0:0:0:
383,43,148670,6,0,L|405:25,1,25
101,303,149045,2,0,L|78:321,1,25
358,206,149420,1,0,0:0:0:0:
230,295,149607,1,0,0:0:0:0:
256,128,149795,1,0,0:0:0:0:
208,172,149888,1,0,0:0:0:0:
232,228,149982,1,0,0:0:0:0:
292,224,150076,1,0,0:0:0:0:
307,162,150170,6,0,B|423:89|383:62|278:99,1,200
292,26,150545,1,0,0:0:0:0:
116,44,150732,2,0,L|96:28,1,25
172,92,150920,1,0,0:0:0:0:
160,220,151107,1,0,0:0:0:0:
84,272,151295,1,0,0:0:0:0:
84,272,151388,1,0,0:0:0:0:
84,272,151482,1,0,0:0:0:0:
152,318,151670,6,0,B|217:438|246:399|221:291,1,200
228,224,152045,1,0,0:0:0:0:
264,180,152138,1,0,0:0:0:0:
320,172,152232,1,0,0:0:0:0:
440,88,152420,2,0,L|464:72,1,25
180,36,152607,2,0,L|88:100,1,100
128,144,152795,2,0,L|236:72,1,100
260,28,152982,1,0,0:0:0:0:
97,234,153170,6,0,B|8:338|54:351|145:290,1,200
428,288,153545,1,0,0:0:0:0:
376,50,153732,2,0,L|396:30,1,25
146,60,153920,1,0,0:0:0:0:
218,278,154107,1,0,0:0:0:0:
420,160,154295,1,0,0:0:0:0:
420,160,154388,1,0,0:0:0:0:
420,160,154482,1,0,0:0:0:0:
224,36,154670,5,0,0:0:0:0:
96,204,154857,2,0,L|72:216,1,25
232,320,155045,1,0,0:0:0:0:
300,144,155232,1,0,0:0:0:0:
477,60,155420,6,0,L|501:44,1,25
422,332,155607,2,0,L|442:356,1,25
300,144,155795,1,0,0:0:0:0:
246,156,155888,1,0,0:0:0:0:
222,106,155982,1,0,0:0:0:0:
170,119,156076,1,0,0:0:0:0:
136,80,156170,6,0,B|5:37|10:85|101:143,1,200
285,76,156545,1,0,0:0:0:0:
285,76,156638,1,0,0:0:0:0:
285,76,156732,1,0,0:0:0:0:
488,118,156920,2,0,L|518:107,1,25
301,200,157107,1,0,0:0:0:0:
191,66,157295,2,0,B|148:4|61:10|48:117|149:89,1,200
301,200,157670,5,0,0:0:0:0:
400,108,157857,2,0,L|424:90,1,25
512,4,158045,1,0,0:0:0:0:
301,191,158232,1,0,0:0:0:0:
512,4,158420,1,0,0:0:0:0:
400,108,158795,6,0,B|372:93|372:93|397:156|326:97|349:165|349:165|308:152|308:152|317:215|266:176|266:176|267:235,1,300
168,332,159170,2,0,B|104:244|204:224|348:448|176:472|-20:316|92:240|248:224,1,400
74,229,159732,1,0,0:0:0:0:
91,128,160107,2,0,P|176:52|266:62,1,200
246,208,160482,1,0,0:0:0:0:
415,66,160670,2,0,L|435:46,1,25
105,337,161045,2,0,L|78:359,1,25
230,62,161420,2,0,L|282:62,3,50
229,213,162170,5,0,0:0:0:0:
197,258,162263,1,0,0:0:0:0:
216,310,162357,1,0,0:0:0:0:
259,331,162451,1,0,0:0:0:0:
307,308,162545,1,0,0:0:0:0:
316,264,162638,1,0,0:0:0:0:
356,231,162732,1,0,0:0:0:0:
403,251,162826,1,0,0:0:0:0:
429,296,162920,2,0,P|478:277|449:156,1,200
229,213,163482,5,0,0:0:0:0:
126,201,163670,1,0,0:0:0:0:
88,171,163763,1,0,0:0:0:0:
81,114,163857,1,0,0:0:0:0:
121,85,163951,1,0,0:0:0:0:
168,80,164045,1,0,0:0:0:0:
212,103,164138,1,0,0:0:0:0:
224,147,164232,1,0,0:0:0:0:
268,170,164326,1,0,0:0:0:0:
317,150,164420,1,0,0:0:0:0:
241,273,164982,5,0,0:0:0:0:
153,323,165170,2,0,P|241:369|332:319,1,200
388,208,165920,1,0,0:0:0:0:
251,200,166295,6,0,P|272:94|371:53,1,200
421,58,167045,1,0,0:0:0:0:
290,159,167232,1,0,0:0:0:0:
433,93,167420,1,0,0:0:0:0:
266,130,167607,1,0,0:0:0:0:
432,124,167795,1,0,0:0:0:0:
270,94,167982,1,0,0:0:0:0:
434,166,168170,6,0,P|419:250|340:347,1,200
213,334,168920,2,0,P|114:236|141:165,1,200
211,104,169670,2,0,P|351:68|414:120,1,200
451,189,170420,6,0,L|384:266,1,100
360,290,170795,1,0,0:0:0:0:
360,290,170888,1,0,0:0:0:0:
360,290,170982,1,0,0:0:0:0:
312,189,171170,6,0,L|191:30,1,200
68,103,171920,1,0,0:0:0:0:
47,243,172295,1,0,0:0:0:0:
168,332,172670,5,0,0:0:0:0:
213,352,172763,1,0,0:0:0:0:
258,345,172857,1,0,0:0:0:0:
296,315,172951,1,0,0:0:0:0:
323,276,173045,1,0,0:0:0:0:
329,223,173138,1,0,0:0:0:0:
302,180,173232,1,0,0:0:0:0:
265,141,173326,1,0,0:0:0:0:
221,138,173420,5,0,0:0:0:0:
185,169,173513,1,0,0:0:0:0:
139,147,173607,1,0,0:0:0:0:
122,102,173701,1,0,0:0:0:0:
121,54,173795,2,0,L|136:33,1,25
276,39,173982,2,0,L|252:65,1,25
442,67,174170,5,0,0:0:0:0:
463,109,174263,1,0,0:0:0:0:
462,158,174357,1,0,0:0:0:0:
424,193,174451,1,0,0:0:0:0:
385,163,174545,1,0,0:0:0:0:
339,180,174638,1,0,0:0:0:0:
321,228,174732,1,0,0:0:0:0:
348,274,174826,1,0,0:0:0:0:
377,321,174920,5,0,0:0:0:0:
338,360,175013,1,0,0:0:0:0:
288,367,175107,1,0,0:0:0:0:
245,338,175201,1,0,0:0:0:0:
216,300,175295,1,0,0:0:0:0:
176,265,175388,1,0,0:0:0:0:
124,271,175482,1,0,0:0:0:0:
98,311,175576,1,0,0:0:0:0:
53,290,175670,5,0,0:0:0:0:
19,252,175763,1,0,0:0:0:0:
14,200,175857,1,0,0:0:0:0:
29,154,175951,1,0,0:0:0:0:
64,122,176045,1,0,0:0:0:0:
105,106,176138,1,0,0:0:0:0:
147,130,176232,1,0,0:0:0:0:
165,176,176326,1,0,0:0:0:0:
167,223,176420,1,0,0:0:0:0:
190,265,176513,1,0,0:0:0:0:
244,267,176607,1,0,0:0:0:0:
285,248,176701,1,0,0:0:0:0:
308,207,176795,5,0,0:0:0:0:
301,156,176888,1,0,0:0:0:0:
272,116,176982,1,0,0:0:0:0:
232,87,177076,1,0,0:0:0:0:
184,67,177170,2,0,P|206:14|253:36,1,100
319,52,177732,5,0,0:0:0:0:
389,17,177826,1,0,0:0:0:0:
382,94,177920,2,0,P|440:121|434:169,1,100
397,210,178388,5,0,0:0:0:0:
477,227,178482,1,0,0:0:0:0:
389,337,178670,2,0,P|355:382|226:359,1,200
106,243,179607,1,0,0:0:0:0:
320,110,179795,1,0,0:0:0:0:
98,59,179982,1,0,0:0:0:0:
225,162,180170,6,0,P|272:211|247:291,1,150
115,380,180920,1,0,0:0:0:0:
22,260,181482,6,0,P|49:227|63:221,1,50
208,203,182232,2,0,P|253:205|259:226,1,50
315,303,182795,1,0,0:0:0:0:
404,380,183170,2,0,L|438:329,2,50
436,130,184670,6,0,P|355:93|257:139,1,200
205,265,185607,1,0,0:0:0:0:
94,174,185795,1,0,0:0:0:0:
46,314,185982,1,0,0:0:0:0:
256,192,204170,12,0,209045,0:0:0:0:
259,144,209982,6,0,L|263:112,1,25
371,169,210170,5,0,0:0:0:0:
393,214,210263,1,0,0:0:0:0:
438,221,210357,1,0,0:0:0:0:
479,187,210451,1,0,0:0:0:0:
479,136,210545,1,0,0:0:0:0:
447,96,210638,1,0,0:0:0:0:
406,83,210732,1,0,0:0:0:0:
367,56,210826,1,0,0:0:0:0:
384,16,210920,1,0,0:0:0:0:
484,20,211107,2,0,L|507:3,1,25
256,191,211482,5,0,0:0:0:0:
185,283,211670,2,0,B|109:248|74:340|102:359|156:382|203:335|187:314,1,200
256,191,212045,1,0,0:0:0:0:
181,79,212232,2,0,B|209:13|115:-16|98:12|77:67|127:112|155:90,1,200
256,191,212607,1,0,0:0:0:0:
382,110,212795,2,0,B|447:113|454:15|422:5|363:0|332:58|360:92,1,200
451,272,213170,6,0,P|422:346|405:358,1,100
407,356,213732,1,0,0:0:0:0:
282,359,214107,1,0,0:0:0:0:
282,359,214295,1,0,0:0:0:0:
262,260,214670,6,0,P|199:261|166:306,1,100
174,284,215232,1,0,0:0:0:0:
75,349,215607,1,0,0:0:0:0:
51,148,215795,2,0,P|40:110|16:147,1,100
211,33,216170,5,0,0:0:0:0:
463,73,216545,1,0,0:0:0:0:
222,227,216920,1,0,0:0:0:0:
386,268,217107,1,0,0:0:0:0:
219,95,217482,5,0,0:0:0:0:
293,242,217670,1,0,0:0:0:0:
91,256,218045,5,0,0:0:0:0:
242,164,218232,1,0,0:0:0:0:
74,72,218795,2,0,L|54:53,1,25
294,113,219170,5,0,0:0:0:0:
502,207,219545,1,0,0:0:0:0:
287,263,219920,1,0,0:0:0:0:
397,323,220107,1,0,0:0:0:0:
184,57,220670,5,0,0:0:0:0:
323,331,221232,1,0,0:0:0:0:
152,277,221795,2,0,P|127:310|71:323,1,100
72,323,222545,1,0,0:0:0:0:
225,221,222920,5,0,0:0:0:0:
285,159,223107,1,0,0:0:0:0:
240,248,223295,1,0,0:0:0:0:
268,132,223482,1,0,0:0:0:0:
262,265,223670,1,0,0:0:0:0:
242,116,223857,1,0,0:0:0:0:
285,279,224045,1,0,0:0:0:0:
216,102,224232,1,0,0:0:0:0:
311,290,224420,1,0,0:0:0:0:
189,109,224607,1,0,0:0:0:0:
341,289,224795,1,0,0:0:0:0:
159,117,224982,1,0,0:0:0:0:
216,30,225170,6,0,P|149:34|113:70,1,100
124,52,225732,1,0,0:0:0:0:
11,155,226107,1,0,0:0:0:0:
124,52,226295,1,0,0:0:0:0:
45,31,226670,6,0,P|48:79|96:125,1,100
80,117,227232,1,0,0:0:0:0:
165,175,227420,1,0,0:0:0:0:
80,117,227607,1,0,0:0:0:0:
118,280,227795,2,0,B|51:252|16:344|44:363|98:386|145:339|128:303,1,200
261,304,228170,6,0,P|407:285|267:233,1,400
333,272,228732,1,0,0:0:0:0:
492,363,228920,1,0,0:0:0:0:
333,272,229107,2,0,B|261:145|158:101|95:192|169:252|271:297|369:336,1,400
425,73,229670,6,0,L|448:50,1,25
222,281,230232,2,0,L|196:308,1,25
490,250,230795,2,0,L|517:262,1,25
356,197,231170,6,0,B|282:-22|93:36|332:219,1,400
356,197,231920,1,0,0:0:0:0:
442,73,232107,2,0,L|462:49,1,25
468,306,232670,2,0,L|492:326,1,25
225,339,233232,2,0,L|205:358,1,25
333,204,233607,5,0,0:0:0:0:
333,204,233795,1,0,0:0:0:0:
333,204,233982,1,0,0:0:0:0:
204,206,234170,5,0,0:0:0:0:
155,194,234263,1,0,0:0:0:0:
111,172,234357,1,0,0:0:0:0:
78,132,234451,1,0,0:0:0:0:
77,84,234545,1,0,0:0:0:0:
107,43,234638,1,0,0:0:0:0:
161,27,234732,1,0,0:0:0:0:
213,53,234826,1,0,0:0:0:0:
225,93,234920,6,0,L|276:96,1,50
302,124,235201,1,0,0:0:0:0:
335,160,235295,1,0,0:0:0:0:
382,163,235388,1,0,0:0:0:0:
420,137,235482,1,0,0:0:0:0:
432,89,235576,1,0,0:0:0:0:
420,53,235670,6,0,L|308:47,1,100
272,139,236232,2,0,P|222:166|233:209,1,100
412,254,236795,6,0,P|433:287|401:334,1,100
354,353,237263,1,0,0:0:0:0:
304,352,237357,1,0,0:0:0:0:
260,329,237451,1,0,0:0:0:0:
236,287,237545,1,0,0:0:0:0:
236,237,237638,1,0,0:0:0:0:
270,203,237732,1,0,0:0:0:0:
313,189,237826,1,0,0:0:0:0:
348,219,237920,6,0,P|384:204|389:177,1,50
395,146,238201,1,0,0:0:0:0:
384,97,238295,1,0,0:0:0:0:
339,73,238388,1,0,0:0:0:0:
291,70,238482,1,0,0:0:0:0:
251,93,238576,1,0,0:0:0:0:
231,132,238670,6,0,P|211:159|209:160,1,25
183,254,238857,2,0,L|156:264,1,25
84,205,239045,2,0,L|68:179,1,25
89,103,239232,2,0,L|105:78,1,25
175,30,239420,2,0,L|197:20,1,25
270,7,239607,1,0,0:0:0:0:
331,41,239795,6,0,P|385:52|382:101,1,100
318,117,240545,2,0,P|307:167|353:170,1,100
424,169,241107,2,0,P|462:205|398:254,1,150
328,304,242232,6,0,P|290:323|217:263,1,150
306,214,243170,2,0,P|325:147|289:131,1,100
310,135,243920,1,0,0:0:0:0:
262,62,244107,2,0,P|192:55|154:117,1,150
241,140,245232,2,0,P|226:181|209:194,1,50
133,189,245795,6,0,P|144:231|199:271,1,100
229,289,246263,1,0,0:0:0:0:
279,288,246357,1,0,0:0:0:0:
320,264,246451,1,0,0:0:0:0:
349,223,246545,1,0,0:0:0:0:
351,176,246638,1,0,0:0:0:0:
336,130,246732,1,0,0:0:0:0:
308,90,246826,1,0,0:0:0:0:
268,69,246920,6,0,L|224:103,1,50
199,134,247201,1,0,0:0:0:0:
221,179,247295,1,0,0:0:0:0:
258,209,247388,1,0,0:0:0:0:
301,223,247482,1,0,0:0:0:0:
349,223,247576,1,0,0:0:0:0:
391,216,247670,6,0,P|415:228|439:299,1,100
341,339,248232,2,0,P|331:366|262:373,1,100
331,244,248795,6,0,P|289:257|241:226,1,100
219,180,249263,1,0,0:0:0:0:
228,133,249357,1,0,0:0:0:0:
269,107,249451,1,0,0:0:0:0:
317,97,249545,1,0,0:0:0:0:
359,114,249638,1,0,0:0:0:0:
383,154,249732,1,0,0:0:0:0:
373,205,249826,1,0,0:0:0:0:
337,238,249920,6,0,P|309:242|315:263,1,50
332,303,250201,1,0,0:0:0:0:
364,341,250295,1,0,0:0:0:0:
409,356,250388,1,0,0:0:0:0:
455,341,250482,1,0,0:0:0:0:
484,302,250576,1,0,0:0:0:0:
473,255,250670,6,0,P|484:200|443:162,1,100
302,76,251232,1,0,0:0:0:0:
226,250,251795,2,0,P|246:270|317:256,1,100
191,144,252732,5,0,0:0:0:0:
340,39,253107,1,0,0:0:0:0:
349,194,253482,5,0,0:0:0:0:
239,54,253857,1,0,0:0:0:0:
263,232,254232,2,0,P|219:272|132:258,1,150
275,143,255170,6,0,P|225:80|101:201,1,300
