osu file format v14

[General]
AudioFilename: audio.mp3
AudioLeadIn: 0
PreviewTime: -1
Countdown: 0
SampleSet: Normal
StackLeniency: 0.5
Mode: 0
LetterboxInBreaks: 1
WidescreenStoryboard: 1

[Editor]
Bookmarks: 41232,100670
DistanceSpacing: 1.2
BeatDivisor: 4
GridSize: 4
TimelineZoom: 0.6999998

[Metadata]
Title:Happy Nostalgia
TitleUnicode:Happy Nostalgia
Artist:fusq + Sian
ArtistUnicode:fusq + Sian
Creator:Mchi
Version:Easy
Source:
Tags:Future Bass
BeatmapID:1360560
BeatmapSetID:640083

[Difficulty]
HPDrainRate:3
CircleSize:3
OverallDifficulty:3
ApproachRate:4.6
SliderMultiplier:0.800000005960464
SliderTickRate:2

[Events]
//Background and Video events
0,0,"osu beatmap bg.jpg",0,0
//Break Periods
2,33370,36797
2,65995,70828
2,90370,100547
2,162182,172922
2,186182,197672
//Storyboard Layer 0 (Background)
//Storyboard Layer 1 (Fail)
//Storyboard Layer 2 (Pass)
//Storyboard Layer 3 (Foreground)
//Storyboard Sound Samples

[TimingPoints]
0,-100,4,1,0,34,0,0
170,375,4,1,0,100,1,0

[Colours]
Combo1 : 255,255,255
Combo2 : 0,0,0

[HitObjects]
219,97,170,5,0,0:0:0:0:
196,311,1670,1,0,0:0:0:0:
30,171,3170,1,0,0:0:0:0:
237,230,4670,6,0,P|310:177|236:126,1,200.000001490116
161,155,6170,1,0,0:0:0:0:
336,28,7670,5,0,0:0:0:0:
445,214,9170,1,0,0:0:0:0:
306,379,10670,1,0,0:0:0:0:
200,294,11607,5,0,0:0:0:0:
200,294,11795,2,0,L|142:236,1,80.0000005960464
235,48,13670,5,0,0:0:0:0:
313,249,15170,1,0,0:0:0:0:
153,66,16670,5,0,0:0:0:0:
60,35,17045,2,0,P|67:122|139:161,1,160.000001192093
140,260,18170,5,0,0:0:0:0:
387,320,19670,1,0,0:0:0:0:
437,238,20045,6,0,L|448:143,1,80.0000005960464
395,79,20795,2,0,L|338:10,1,80.0000005960464
90,165,22670,5,0,0:0:0:0:
32,252,23045,2,0,P|115:272|180:219,1,160.000001192093
330,91,26045,5,0,0:0:0:0:
401,131,26420,2,0,P|415:164|398:205,1,80.0000005960464
342,259,27170,1,0,0:0:0:0:
246,148,29045,6,0,P|168:114|87:135,1,160.000001192093
69,253,30170,2,0,L|72:334,1,80.0000005960464
167,325,30920,2,0,L|249:315,1,80.0000005960464
342,312,31670,6,0,L|335:224,1,80.0000005960464
340,136,32420,2,0,L|255:135,1,80.0000005960464
189,200,33170,1,0,0:0:0:0:
256,192,38045,12,0,41232,0:0:0:0:
110,48,42170,6,0,P|70:75|66:118,1,80.0000005960464
124,178,42920,1,0,0:0:0:0:
297,96,43670,6,0,P|328:121|312:165,1,80.0000005960464
259,231,44420,1,0,0:0:0:0:
167,201,44795,1,0,0:0:0:0:
91,260,45170,6,0,P|90:299|125:318,1,80.0000005960464
212,352,45920,1,0,0:0:0:0:
389,302,46670,5,0,0:0:0:0:
389,302,47045,1,0,0:0:0:0:
389,302,47420,1,0,0:0:0:0:
452,120,48170,6,0,P|465:82|439:59,1,80.0000005960464
346,87,48920,1,0,0:0:0:0:
167,158,49670,6,0,P|164:189|200:219,1,80.0000005960464
293,203,50420,1,0,0:0:0:0:
385,228,50795,1,0,0:0:0:0:
473,264,51170,6,0,P|415:323|331:300,1,160.000001192093
247,342,52295,1,0,0:0:0:0:
212,257,52670,5,0,0:0:0:0:
132,366,53045,1,0,0:0:0:0:
103,269,53420,1,0,0:0:0:0:
182,166,53795,1,0,0:0:0:0:
55,109,54170,6,0,P|43:76|60:34,1,80.0000005960464
137,75,54920,1,0,0:0:0:0:
278,192,55670,6,0,P|312:207|363:185,1,80.0000005960464
316,111,56420,1,0,0:0:0:0:
410,95,56795,5,0,0:0:0:0:
484,155,57170,2,0,P|475:197|442:214,1,80.0000005960464
360,259,57920,1,0,0:0:0:0:
179,324,58670,5,0,0:0:0:0:
179,324,59045,1,0,0:0:0:0:
179,324,59420,1,0,0:0:0:0:
36,269,60170,6,0,P|0:191|28:127,1,160.000001192093
219,136,61670,5,0,0:0:0:0:
219,136,62045,1,0,0:0:0:0:
219,136,62420,1,0,0:0:0:0:
363,262,63170,6,0,P|441:229|452:156,1,160.000001192093
369,113,64295,1,0,0:0:0:0:
347,19,64670,5,0,0:0:0:0:
282,110,65045,1,0,0:0:0:0:
188,78,65420,1,0,0:0:0:0:
228,199,65795,1,0,0:0:0:0:
157,232,72076,6,0,P|152:144|223:102,1,180.000001341104
250,292,73670,2,0,P|311:332|364:280,1,160.000001192093
469,119,75170,5,0,0:0:0:0:
347,196,75732,1,0,0:0:0:0:
363,52,76295,1,0,0:0:0:0:
157,61,78170,6,0,P|82:46|33:116,1,160.000001192093
165,244,79670,6,0,P|213:302|288:287,1,160.000001192093
470,198,81170,5,0,0:0:0:0:
458,334,81732,1,0,0:0:0:0:
356,231,82295,1,0,0:0:0:0:
167,268,83045,5,0,0:0:0:0:
70,224,83420,2,0,P|49:179|64:143,1,80.0000005960464
120,79,84170,1,0,0:0:0:0:
376,42,85670,5,0,0:0:0:0:
438,323,86795,5,0,0:0:0:0:
343,337,87170,2,0,P|273:305|264:265,1,120.00000089407
344,149,88295,1,0,0:0:0:0:
256,192,88670,12,0,90170,0:0:0:0:
79,272,101795,5,0,0:0:0:0:
47,182,102170,2,0,P|43:96|100:57,1,160.000001192093
286,22,103670,1,0,0:0:0:0:
433,145,104420,1,0,0:0:0:0:
342,314,105170,6,0,P|265:307|233:237,1,160.000001192093
177,54,106670,5,0,0:0:0:0:
51,199,107420,1,0,0:0:0:0:
178,342,108170,1,0,0:0:0:0:
369,343,108920,5,0,0:0:0:0:
500,203,109670,1,0,0:0:0:0:
370,60,110420,1,0,0:0:0:0:
181,25,111170,5,0,0:0:0:0:
64,177,111920,1,0,0:0:0:0:
255,169,112670,5,0,0:0:0:0:
211,306,113232,2,0,P|251:339|294:333,1,80.0000005960464
421,320,114170,1,0,0:0:0:0:
376,214,114545,6,0,L|325:203,2,40.0000002980232
490,118,115857,2,0,P|381:38|238:-1,1,280.000002086162
104,35,117732,2,0,P|3:105|31:150,1,200.000001490116
176,233,119232,5,0,0:0:0:0:
207,269,119420,2,0,P|239:303|282:302,1,80.0000005960464
290,211,120170,2,0,P|350:217|370:272,1,120.00000089407
138,345,121482,5,0,0:0:0:0:
52,172,122232,1,0,0:0:0:0:
44,124,122420,2,0,P|32:79|62:46,1,80.0000005960464
145,53,123170,2,0,L|313:50,1,160.000001192093
490,100,124670,2,0,L|409:210,1,120.00000089407
261,306,125982,5,0,0:0:0:0:
213,300,126170,2,0,P|164:294|133:263,1,80.0000005960464
128,180,126920,2,0,L|74:186,2,40.0000002980232
198,114,127670,2,0,L|178:76,2,40.0000002980232
278,61,128420,1,0,0:0:0:0:
373,66,128795,5,0,0:0:0:0:
405,156,129170,2,0,P|323:206|264:179,1,160.000001192093
97,268,130670,5,0,0:0:0:0:
182,312,131045,1,0,0:0:0:0:
277,305,131420,1,0,0:0:0:0:
352,245,131795,1,0,0:0:0:0:
415,173,132170,5,0,0:0:0:0:
391,80,132545,2,0,P|360:51|309:43,1,80.0000005960464
222,67,133295,1,0,0:0:0:0:
131,13,133670,2,0,P|118:99|176:156,1,160.000001192093
260,136,135170,6,0,L|504:353,1,320.000002384186
414,193,138170,5,0,0:0:0:0:
419,97,138545,2,0,P|372:99|341:114,1,80.0000005960464
270,176,139295,1,0,0:0:0:0:
200,109,139670,5,0,0:0:0:0:
200,109,140045,1,0,0:0:0:0:
200,109,140420,1,0,0:0:0:0:
85,53,141170,5,0,0:0:0:0:
0,98,141545,2,0,P|25:137|54:156,1,80.0000005960464
144,185,142295,1,0,0:0:0:0:
123,279,142670,5,0,0:0:0:0:
123,279,143045,1,0,0:0:0:0:
123,279,143420,2,0,L|178:281,2,40.0000002980232
248,336,144170,5,0,0:0:0:0:
340,308,144545,2,0,P|322:264|297:240,1,80.0000005960464
215,195,145295,1,0,0:0:0:0:
254,107,145670,5,0,0:0:0:0:
254,107,146045,1,0,0:0:0:0:
254,107,146420,1,0,0:0:0:0:
326,44,146795,6,0,P|364:67|362:104,1,80.0000005960464
311,179,147545,1,0,0:0:0:0:
243,247,147920,2,0,P|218:272|232:322,1,80.0000005960464
311,344,148670,1,0,0:0:0:0:
311,344,149045,1,0,0:0:0:0:
299,56,150170,5,0,0:0:0:0:
213,13,150545,2,0,P|196:57|198:91,1,80.0000005960464
227,181,151295,1,0,0:0:0:0:
138,220,151670,5,0,0:0:0:0:
138,220,152045,1,0,0:0:0:0:
138,220,152420,1,0,0:0:0:0:
296,111,153170,5,0,0:0:0:0:
291,206,153545,2,0,P|338:204|369:189,1,80.0000005960464
440,128,154295,1,0,0:0:0:0:
510,195,154670,5,0,0:0:0:0:
510,195,155045,1,0,0:0:0:0:
510,195,155420,2,0,L|454:194,2,40.0000002980232
409,121,156170,5,0,0:0:0:0:
320,159,156545,2,0,P|342:200|369:221,1,80.0000005960464
457,258,157295,1,0,0:0:0:0:
427,350,157670,5,0,0:0:0:0:
427,350,158045,1,0,0:0:0:0:
427,350,158420,1,0,0:0:0:0:
332,364,158795,6,0,P|304:329|291:287,1,80.0000005960464
256,202,159545,1,0,0:0:0:0:
309,122,159920,2,0,P|326:76|320:47,1,80.0000005960464
230,80,160670,5,0,0:0:0:0:
230,80,161045,1,0,0:0:0:0:
135,65,161420,2,0,L|146:104,3,40.0000002980232
297,62,174170,6,0,P|346:65|380:96,1,80.0000005960464
298,154,174920,2,0,P|311:193|347:216,1,80.0000005960464
381,302,175670,2,0,P|360:339|324:354,1,80.0000005960464
233,332,176420,2,0,P|202:286|205:246,1,80.0000005960464
147,183,177170,5,0,0:0:0:0:
217,117,177545,2,0,P|247:85|290:85,1,80.0000005960464
366,125,178295,1,0,0:0:0:0:
333,215,178670,1,0,0:0:0:0:
231,277,179420,2,0,L|267:308,3,40.0000002980232
298,333,180170,5,0,0:0:0:0:
393,343,180545,2,0,P|435:317|439:286,1,80.0000005960464
281,181,181670,5,0,0:0:0:0:
294,85,182045,2,0,P|238:74|202:88,1,80.0000005960464
75,210,183170,5,0,0:0:0:0:
14,284,183545,2,0,P|59:311|98:313,1,80.0000005960464
249,213,184670,5,0,0:0:0:0:
315,310,185420,2,0,L|354:269,3,40.0000002980232
256,192,198920,12,0,207170,0:0:0:0:
255,190,209420,5,0,0:0:0:0:
382,123,209982,1,0,0:0:0:0:
424,145,210170,2,0,P|456:173|460:220,1,80.0000005960464
408,287,210920,5,0,0:0:0:0:
370,317,211107,2,0,P|312:341|262:319,1,120.00000089407
129,263,212232,1,0,0:0:0:0:
241,173,212795,1,0,0:0:0:0:
323,124,213170,5,0,0:0:0:0:
403,71,213545,2,0,P|451:114|441:173,1,120.00000089407
377,291,214670,5,0,0:0:0:0:
333,376,215045,2,0,P|299:347|286:301,1,80.0000005960464
241,229,215795,1,0,0:0:0:0:
255,134,216170,6,0,P|215:119|175:137,1,80.0000005960464
124,208,216920,1,0,0:0:0:0:
84,120,217295,1,0,0:0:0:0:
27,197,217670,6,0,P|8:240|15:273,1,80.0000005960464
105,301,218420,1,0,0:0:0:0:
197,274,218795,1,0,0:0:0:0:
235,186,219170,6,0,P|281:199|298:236,1,80.0000005960464
292,321,219920,1,0,0:0:0:0:
381,285,220295,1,0,0:0:0:0:
453,222,220670,6,0,P|473:172|462:146,1,80.0000005960464
433,113,221232,1,0,0:0:0:0:
292,81,221795,5,0,0:0:0:0:
216,165,222170,1,0,0:0:0:0:
112,149,222545,1,0,0:0:0:0:
52,240,222920,6,0,P|79:276|111:284,1,80.0000005960464
207,285,223670,1,0,0:0:0:0:
281,354,224045,1,0,0:0:0:0:
329,267,224420,1,0,0:0:0:0:
399,347,224795,1,0,0:0:0:0:
467,261,225170,6,0,P|496:183|468:110,1,160.000001192093
281,85,226670,2,0,P|217:150|223:225,1,160.000001192093
267,296,227795,1,0,0:0:0:0:
171,307,228170,5,0,0:0:0:0:
85,263,228545,2,0,P|50:217|45:179,1,80.0000005960464
192,72,229670,5,0,0:0:0:0:
190,167,230045,2,0,P|238:166|275:140,1,80.0000005960464
451,196,231170,5,0,0:0:0:0:
470,290,231545,2,0,P|422:296|389:279,1,80.0000005960464
203,260,232670,5,0,0:0:0:0:
106,367,233232,1,0,0:0:0:0:
43,150,234170,6,0,P|94:72|165:38,1,160.000001192093
343,53,235670,2,0,P|418:105|451:178,1,160.000001192093
345,326,237170,2,0,P|264:359|191:335,1,160.000001192093
155,152,238670,2,0,P|238:125|305:149,1,160.000001192093
489,98,240170,5,0,0:0:0:0:
410,273,240920,1,0,0:0:0:0:
273,138,241670,5,0,0:0:0:0:
418,12,242420,1,0,0:0:0:0:
367,197,243170,5,0,0:0:0:0:
193,278,243920,1,0,0:0:0:0:
104,107,244670,5,0,0:0:0:0:
287,48,245420,1,0,0:0:0:0:
371,93,246170,2,0,L|431:149,1,80.0000005960464
448,241,246920,1,0,0:0:0:0:
282,338,247670,6,0,L|228:277,1,80.0000005960464
266,189,248420,1,0,0:0:0:0:
201,8,249170,6,0,L|109:33,1,80.0000005960464
60,101,249920,1,0,0:0:0:0:
73,292,250670,6,0,L|134:367,1,80.0000005960464
207,307,251420,1,0,0:0:0:0:
320,151,252170,5,0,0:0:0:0:
237,269,252732,1,0,0:0:0:0:
201,179,253107,2,0,P|161:183|127:205,1,80.0000005960464
38,240,253857,1,0,0:0:0:0:
96,315,254232,6,0,P|164:313|205:360,1,120.00000089407
293,327,255170,1,0,0:0:0:0:
