osu file format v14

[General]
AudioFilename: audio.mp3
AudioLeadIn: 0
PreviewTime: 31290
Countdown: 1
SampleSet: Normal
StackLeniency: 0.7
Mode: 0
LetterboxInBreaks: 0
WidescreenStoryboard: 1

[Editor]
Bookmarks: 967,11612,21612,29677,31290,32258,42580,52903
DistanceSpacing: 0.6
BeatDivisor: 4
GridSize: 4
TimelineZoom: 1

[Metadata]
Title:Mizuoto to Curtain
TitleUnicode:Mizuoto to Curtain
Artist:furuu ,
ArtistUnicode:furuu ,
Creator:Stand Jush
Version:Surplus
Source:
Tags:mimi
BeatmapID:2147866
BeatmapSetID:1026465

[Difficulty]
HPDrainRate:5
CircleSize:4
OverallDifficulty:8
ApproachRate:9
SliderMultiplier:1.6
SliderTickRate:1

[Events]
//Background and Video events
0,0,"Konachan.com - 282782 blue_eyes blue_hair building city clouds hatsune_miku long_hair phone scarf stars sunset twintails vocaloid yue_yue.jpg",0,0
//Break Periods
//Storyboard Layer 0 (Background)
//Storyboard Layer 1 (Fail)
//Storyboard Layer 2 (Pass)
//Storyboard Layer 3 (Foreground)
//Storyboard Layer 4 (Overlay)
//Storyboard Sound Samples

[TimingPoints]
0,322.58064516129,4,1,0,100,1,0
967,-133.333333333333,4,1,0,50,0,0
11612,-133.333333333333,4,1,0,50,0,0
21612,-133.333333333333,4,1,0,50,0,0
30161,-117.647058823529,4,1,0,50,0,0
31290,-100,4,1,0,50,0,0
31612,-92.5925925925926,4,1,0,50,0,0
31935,-85.4700854700855,4,1,0,50,0,0
32258,-80,4,1,0,50,0,1
42580,-80,4,1,0,50,0,1
52903,-80,4,1,0,50,0,0

[HitObjects]
229,147,967,5,0,0:0:0:0:
165,73,1129,1,0,0:0:0:0:
165,73,1290,2,0,P|130:127|137:206,1,120.000004577637
302,230,1774,1,0,0:0:0:0:
302,230,1935,2,0,P|281:282|237:248,1,120.000004577637
212,70,2419,1,0,0:0:0:0:
212,70,2580,2,0,B|286:51|286:51|380:69|380:69|470:50,1,240.000009155274
265,130,3387,5,0,0:0:0:0:
216,236,3548,1,0,0:0:0:0:
216,236,3709,2,0,P|253:253|279:249,1,60.0000022888184
426,302,4032,1,0,0:0:0:0:
426,302,4193,2,0,P|389:319|362:315,1,60.0000022888184
324,195,4516,2,0,P|307:138|265:96,1,120.000004577637
192,182,4999,1,0,0:0:0:0:
192,182,5161,2,0,P|64:174|115:57,1,300.000011444092
259,58,6129,5,0,0:0:0:0:
257,258,6290,1,0,0:0:0:0:
204,141,6451,2,0,P|227:137|268:157,1,60.0000022888184
141,253,6774,2,0,P|117:257|76:236,1,60.0000022888184
24,346,7096,2,0,B|66:321|104:372|160:331,1,120.000004577637
286,273,7580,1,0,0:0:0:0:
286,273,7741,2,0,B|336:195|336:195|445:204|445:204|509:119,1,300.000011444092
276,35,8709,5,0,0:0:0:0:
362,112,8870,1,0,0:0:0:0:
451,37,9032,2,0,P|463:81|451:112,1,60.0000022888184
330,185,9354,2,0,P|318:229|330:260,1,60.0000022888184
439,274,9677,2,0,P|406:323|331:341,1,120.000004577637
220,210,10161,1,0,0:0:0:0:
220,210,10322,2,0,P|139:281|100:181,1,240.000009155274
233,132,11129,5,0,0:0:0:0:
108,59,11290,1,0,0:0:0:0:
250,39,11451,1,0,0:0:0:0:
91,152,11612,2,0,P|86:231|55:272,1,120.000004577637
16,175,12096,1,0,0:0:0:0:
166,301,12258,1,0,0:0:0:0:
434,333,12903,6,0,P|391:292|333:278,1,120.000004577637
336,356,13387,1,0,0:0:0:0:
498,245,13549,1,0,0:0:0:0:
187,59,14193,2,0,P|158:111|160:170,1,120.000004577637
234,147,14677,1,0,0:0:0:0:
85,20,14839,1,0,0:0:0:0:
214,305,15483,5,0,0:0:0:0:
405,125,15645,1,0,0:0:0:0:
230,185,15967,1,0,0:0:0:0:
230,185,16129,2,0,B|166:173|166:173|130:131,1,120.000004577637
246,286,16774,6,0,P|212:327|139:335,1,120.000004577637
165,256,17258,1,0,0:0:0:0:
347,378,17419,1,0,0:0:0:0:
377,38,18064,2,0,P|361:88|394:154,1,120.000004577637
446,89,18548,1,0,0:0:0:0:
244,3,18709,1,0,0:0:0:0:
166,340,19354,6,0,P|161:286|207:229,1,120.000004577637
244,303,19838,1,0,0:0:0:0:
29,346,19999,1,0,0:0:0:0:
292,189,20645,2,0,B|254:168|254:168|223:125|223:125|180:99,1,120.000004577637
363,64,21129,1,0,0:0:0:0:
154,221,21290,1,0,0:0:0:0:
108,87,21612,6,0,P|91:99|77:143,1,60.0000022888184
79,166,21935,2,0,P|115:144|242:193,1,180.000006866455
152,207,22580,2,0,P|159:193|209:185,1,60.0000022888184
301,111,22903,1,0,0:0:0:0:
301,111,23064,2,0,P|320:155|303:239,1,120.000004577637
174,328,23548,6,0,P|164:306|173:264,1,60.0000022888184
88,232,23870,2,0,P|96:209|132:186,1,60.0000022888184
98,101,24193,2,0,P|120:91|162:99,1,60.0000022888184
237,192,24516,2,0,B|248:174|266:208|292:183,1,60.0000022888184
275,328,24838,2,0,B|266:310|304:311|295:276,1,60.0000022888184
340,93,25161,2,0,B|361:93|341:126|378:137,1,60.0000022888184
441,238,25483,1,0,0:0:0:0:
441,238,25645,2,0,P|431:293|275:351,1,240.000009155274
70,197,26612,5,0,0:0:0:0:
233,241,26774,1,0,0:0:0:0:
109,292,26935,1,0,0:0:0:0:
194,146,27096,2,0,P|213:124|343:146,1,180.000006866455
338,54,27741,2,0,P|362:69|386:95,1,60.0000022888184
269,178,28064,1,0,0:0:0:0:
269,178,28225,6,0,B|251:225|188:213|174:258,1,120.000004577637
96,193,28709,2,0,P|119:153|190:120,1,120.000004577637
320,77,29193,1,0,0:0:0:0:
282,213,29354,2,0,P|270:240|276:269,1,60.0000022888184
434,254,29677,2,0,B|401:247|372:259,1,60.0000022888184
168,313,29999,1,0,0:0:0:0:
236,135,30161,6,0,P|264:103|360:82,1,136.000002593994
148,59,30645,1,0,0:0:0:0:
329,156,30806,1,0,0:0:0:0:
168,313,30967,2,0,P|117:318|80:295,1,68.0000012969971
141,190,31290,6,0,P|202:180|244:199,1,80
471,165,31612,2,0,P|434:136|389:125,1,86.4000021093751
135,59,31935,2,0,P|169:26|213:9,1,93.6000003570557
306,96,32258,2,0,P|261:198|260:310,1,200
358,211,32741,2,0,P|306:188|250:188,1,100
34,286,33064,5,0,0:0:0:0:
169,63,33225,1,0,0:0:0:0:
204,184,33387,2,0,P|245:233|311:249,1,100
441,309,33709,1,0,0:0:0:0:
220,336,33870,1,0,0:0:0:0:
330,203,34032,2,0,P|361:147|354:80,1,100
128,193,34354,5,0,0:0:0:0:
351,44,34516,1,0,0:0:0:0:
41,127,34677,5,0,0:0:0:0:
308,144,34839,1,0,0:0:0:0:
147,26,34999,5,0,0:0:0:0:
130,293,35161,1,0,0:0:0:0:
415,117,35322,5,0,0:0:0:0:
161,159,35483,1,0,0:0:0:0:
447,267,35645,5,0,0:0:0:0:
193,309,35806,1,0,0:0:0:0:
141,121,35967,5,0,0:0:0:0:
297,353,36129,1,0,0:0:0:0:
210,30,36290,5,0,0:0:0:0:
193,309,36452,1,0,0:0:0:0:
344,54,36612,5,0,0:0:0:0:
292,361,36773,1,0,0:0:0:0:
163,15,36935,5,0,0:0:0:0:
111,323,37096,1,0,0:0:0:0:
271,23,37258,1,0,0:0:0:0:
292,3,37338,1,0,0:0:0:0:
328,3,37419,6,0,P|386:23|448:154,1,200,0|0,2:0|2:0,2:0:0:0:
356,271,37903,2,0,P|319:240|270:243,1,100
93,294,38225,1,0,0:0:0:0:
321,238,38387,1,0,0:0:0:0:
244,325,38548,2,0,B|188:355|188:355|126:355,1,100
197,148,38870,5,0,0:0:0:0:
363,317,39032,1,0,0:0:0:0:
392,183,39193,2,0,B|408:142|408:142|493:91,1,100
329,245,39516,2,0,P|270:253|227:204,1,100
437,346,39838,1,0,0:0:0:0:
399,200,39999,6,0,L|366:80,1,100
256,341,40322,1,0,0:0:0:0:
178,229,40483,2,0,B|151:171|151:171|151:91|151:91|121:21,1,200
73,234,40967,2,0,P|108:290|254:300,1,200
327,139,41451,1,0,0:0:0:0:
156,62,41612,6,0,P|220:51|265:71,1,100
322,247,41934,2,0,P|283:217|235:205,1,100
461,331,42257,2,0,P|415:349|380:384,1,100
262,323,42580,2,0,P|170:287|100:217,1,200
254,213,43064,2,0,P|302:226|352:219,1,100
312,127,43387,5,0,0:0:0:0:
432,330,43548,1,0,0:0:0:0:
456,217,43709,2,0,P|448:185|379:145,1,100
187,147,44032,1,0,0:0:0:0:
236,335,44193,1,0,0:0:0:0:
134,283,44354,2,0,P|98:248|96:199,1,100
128,80,44677,5,0,0:0:0:0:
172,342,44839,1,0,0:0:0:0:
283,48,45000,5,0,0:0:0:0:
327,309,45162,1,0,0:0:0:0:
188,65,45322,5,0,0:0:0:0:
206,372,45484,1,0,0:0:0:0:
302,17,45644,5,0,0:0:0:0:
130,272,45806,1,0,0:0:0:0:
188,65,45968,5,0,0:0:0:0:
467,112,46129,1,0,0:0:0:0:
152,230,46290,5,0,0:0:0:0:
432,277,46451,1,0,0:0:0:0:
118,83,46613,5,0,0:0:0:0:
147,358,46775,1,0,0:0:0:0:
327,236,46935,5,0,0:0:0:0:
9,257,47096,1,0,0:0:0:0:
378,355,47258,5,0,0:0:0:0:
112,178,47419,1,0,0:0:0:0:
357,302,47580,1,0,0:0:0:0:
384,315,47661,1,0,0:0:0:0:
412,307,47741,6,0,P|446:245|351:194,1,200
129,220,48225,2,0,P|112:251|159:277,1,100
368,125,48548,1,0,0:0:0:0:
258,272,48709,1,0,0:0:0:0:
240,134,48870,2,0,B|233:84|233:84|202:43,1,100
113,187,49193,5,0,0:0:0:0:
308,149,49354,1,0,0:0:0:0:
342,265,49516,2,0,B|349:315|349:315|332:362,1,100
451,184,49838,2,0,P|440:132|403:92,1,100
188,170,50161,1,0,0:0:0:0:
303,280,50322,6,0,L|402:360,1,100
187,348,50645,1,0,0:0:0:0:
114,242,50806,2,0,B|87:184|87:184|87:104|87:104|57:34,1,200
224,202,51290,1,0,0:0:0:0:
326,127,51451,2,0,P|404:89|365:276,1,400
256,192,52258,12,0,52903,0:0:0:0:
