osu file format v14

[General]
AudioFilename: Umikaze no Brave (TV Size).mp3
AudioLeadIn: 0
PreviewTime: 55238
Countdown: 0
SampleSet: Soft
StackLeniency: 0.7
Mode: 0
LetterboxInBreaks: 0
WidescreenStoryboard: 0

[Editor]
Bookmarks: 4853,29468,35622,41776,47930,89276
DistanceSpacing: 0.8
BeatDivisor: 4
GridSize: 4
TimelineZoom: 2.3

[Metadata]
Title:Umikaze no Brave (TV Anime Ending Size)
TitleUnicode:海風のブレイブ (TVアニメエンディングサイズ)
Artist:fumika
ArtistUnicode:fumika
Creator:Cellina
Version:Habi's Insane
Source:ROBOTICS;NOTES
Tags:habiholic enon doyak 光井芙美香 mitsui
BeatmapID:897741
BeatmapSetID:411509

[Difficulty]
HPDrainRate:6.5
CircleSize:4
OverallDifficulty:7
ApproachRate:8
SliderMultiplier:1.7
SliderTickRate:2

[Events]
//Background and Video events
0,0,"3.jpg",0,0
//Break Periods
//Storyboard Layer 0 (Background)
//Storyboard Layer 1 (Fail)
//Storyboard Layer 2 (Pass)
//Storyboard Layer 3 (Foreground)
//Storyboard Sound Samples

[TimingPoints]
234,384.615384615385,4,2,0,75,1,0
29464,-133.333333333333,4,2,0,75,0,0
30234,-100,4,2,0,75,0,0
32541,-133.333333333333,4,2,0,75,0,0
33310,-100,4,2,0,75,0,0
41772,-133.333333333333,4,2,0,75,0,0
42541,-100,4,2,0,75,0,0
44849,-133.333333333333,4,2,0,75,0,0
45234,-100,4,2,0,75,0,0
55618,-100,4,2,0,75,0,1
80234,-100,4,2,0,75,0,0
83310,-100,4,2,0,75,0,1
89272,-100,4,2,0,75,0,0

[Colours]
Combo1 : 0,64,128
Combo2 : 255,255,0
Combo3 : 38,191,0
Combo4 : 0,128,255

[HitObjects]
112,148,1772,6,0,P|76:124|36:124,1,85,0|0,1:0|0:0,0:0:0:0:
184,256,2157,2,0,P|220:280|260:280,1,85,0|0,1:0|0:0,0:0:0:0:
252,184,2541,1,0,1:0:0:0:
48,220,2734,1,0,0:0:0:0:
184,368,2926,1,0,1:0:0:0:
252,184,3118,1,0,0:0:0:0:
96,320,3310,5,0,1:0:0:0:
116,112,3503,1,0,0:0:0:0:
264,220,3695,2,0,L|352:212,1,85,0|0,1:0|0:0,0:0:0:0:
368,228,3984,1,0,0:0:0:0:
368,228,4080,1,0,1:0:0:0:
392,32,4272,1,0,1:0:0:0:
392,32,4849,5,4,0:0:0:0:
136,124,6003,5,0,0:0:0:0:
60,176,6195,1,0,0:0:0:0:
56,84,6387,1,4,0:0:0:0:
220,304,7541,5,0,0:0:0:0:
220,304,7637,1,0,0:0:0:0:
220,304,7734,1,0,0:0:0:0:
240,92,7926,1,4,0:0:0:0:
392,264,8887,6,0,P|440:260|472:280,1,85
416,356,9272,1,0,0:0:0:0:
320,328,9464,6,0,B|288:292|300:236|300:236|280:164,1,170,4|0,0:0|0:0,0:0:0:0:
336,80,10041,2,0,P|376:68|420:84,1,85,4|0,0:0|0:0,0:0:0:0:
180,160,10426,2,0,P|140:172|96:156,1,85,0|2,0:0|0:0,0:0:0:0:
232,76,10810,5,0,1:0:0:0:
232,76,10907,1,0,1:0:0:0:
232,76,11003,2,0,P|278:143|259:223,1,170,4|0,0:0|1:0,0:0:0:0:
132,300,11580,1,0,0:0:0:0:
132,300,11772,2,0,L|40:288,1,85,0|0,1:0|0:0,0:0:0:0:
100,208,12157,1,0,1:0:0:0:
200,360,12349,6,0,L|372:344,1,170,2|0,0:0|0:0,0:0:0:0:
472,288,12926,2,0,P|484:248|472:208,1,85,0|2,1:0|0:0,0:0:0:0:
471,207,13214,1,0,0:0:0:0:
471,207,13310,1,0,1:0:0:0:
372,80,13503,2,0,P|359:120|372:160,1,85,0|0,1:0|1:0,0:0:0:0:
448,120,13887,1,0,0:0:0:0:
296,208,14080,6,0,P|272:132|296:40,1,170,0|0,1:0|1:0,0:0:0:0:
388,20,14657,2,0,L|472:28,1,85,0|0,0:0|1:0,0:0:0:0:
472,28,14945,1,0,0:0:0:0:
472,28,15041,1,0,0:0:0:0:
404,208,15234,2,0,L|396:256,2,42.5,0|0|0,1:0|0:0|0:0,0:0:0:0:
332,136,15618,6,0,P|291:123|251:134,1,85,0|0,1:0|1:0,0:0:0:0:
55,215,16003,2,0,P|96:228|136:217,1,85,0|0,1:0|1:0,0:0:0:0:
168,28,16580,1,0,1:0:0:0:
372,224,16964,5,0,1:0:0:0:
372,224,17060,1,0,1:0:0:0:
372,224,17157,2,0,P|424:176|412:84,1,170,4|0,0:0|1:0,0:0:0:0:
348,140,17734,1,0,0:0:0:0:
252,272,17926,2,0,P|208:280|168:264,1,85,0|0,1:0|0:0,0:0:0:0:
12,180,18310,2,0,P|52:168|92:180,1,85,0|0,1:0|0:0,0:0:0:0:
124,256,18695,6,0,L|140:84,1,170,0|0,1:0|1:0,0:0:0:0:
72,32,19272,1,0,0:0:0:0:
232,128,19464,1,0,1:0:0:0:
232,128,19560,1,0,0:0:0:0:
232,128,19657,2,0,P|272:136|316:120,1,85,0|0,0:0|1:0,0:0:0:0:
264,40,20041,1,0,0:0:0:0:
136,132,20234,6,0,B|136:184|180:212|180:212|160:292,1,170,0|0,1:0|1:0,0:0:0:0:
264,268,20810,1,0,0:0:0:0:
72,340,21003,2,0,L|64:252,1,85,0|0,1:0|0:0,0:0:0:0:
160,168,21387,1,0,1:0:0:0:
0,144,21580,1,0,0:0:0:0:
104,240,21772,6,0,P|185:251|242:192,1,170,0|0,1:0|1:0,0:0:0:0:
312,124,22349,2,0,B|344:164|332:220|332:220|380:272,1,170
316,352,22926,2,0,L|228:340,1,85,0|0,1:0|0:0,0:0:0:0:
212,352,23214,1,0,0:0:0:0:
192,364,23310,2,0,P|212:283|192:201,1,170,4|0,0:0|1:0,0:0:0:0:
144,60,24080,5,2,0:0:0:0:
68,124,24272,1,0,0:0:0:0:
56,24,24464,1,0,1:0:0:0:
168,160,24657,2,0,L|256:152,1,85
336,212,25041,1,0,0:0:0:0:
372,60,25234,2,0,L|284:52,1,85,0|0,1:0|0:0,0:0:0:0:
268,68,25522,1,0,0:0:0:0:
268,68,25618,1,0,1:0:0:0:
144,24,25810,5,0,1:0:0:0:
128,120,26003,1,0,1:0:0:0:
108,224,26195,1,0,1:0:0:0:
192,184,26387,6,0,P|236:184|268:208,1,85,0|0,1:0|0:0,0:0:0:0:
48,160,26772,1,0,1:0:0:0:
72,308,26964,1,0,0:0:0:0:
212,168,27157,2,0,L|220:80,1,85,0|0,1:0|0:0,0:0:0:0:
132,16,27541,1,0,1:0:0:0:
308,28,27734,1,0,0:0:0:0:
376,104,27926,6,0,P|420:112|460:96,1,85,0|0,1:0|0:0,0:0:0:0:
219,83,28310,2,0,P|175:75|139:95,1,85,0|0,1:0|0:0,0:0:0:0:
192,160,28695,1,0,1:0:0:0:
368,136,28887,1,0,0:0:0:0:
368,136,28984,1,0,0:0:0:0:
368,136,29080,1,0,1:0:0:0:
252,248,29272,1,0,0:0:0:0:
440,196,29464,6,0,P|464:140|440:76,1,127.500004863739,2|4,0:0|0:0,0:0:0:0:
248,32,30234,5,2,0:0:0:0:
248,32,30426,2,0,P|164:16|100:72,1,170,2|0,0:0|0:0,0:0:0:0:
188,264,31003,2,0,P|216:184|192:104,1,170,4|0,0:0|0:0,0:0:0:0:
112,172,31580,1,2,0:0:0:0:
304,148,31772,1,0,1:0:0:0:
208,304,31964,1,0,0:0:0:0:
208,304,32060,1,0,0:0:0:0:
208,304,32157,1,0,1:0:0:0:
184,112,32349,1,0,0:0:0:0:
367,208,32541,6,0,P|392:150|372:92,1,127.500004863739,0|4,0:0|0:0,0:0:0:0:
279,235,33310,5,0,0:0:0:0:
279,235,33503,2,0,P|339:292|419:275,1,170,4|0,0:0|0:0,0:0:0:0:
296,144,34080,2,0,P|233:144|189:188,1,127.5,4|0,0:0|0:0,0:0:0:0:
184,224,34464,1,0,1:0:0:0:
156,72,34657,1,0,0:0:0:0:
28,176,34849,5,0,1:0:0:0:
25,159,34945,1,0,0:0:0:0:
23,142,35041,1,0,0:0:0:0:
21,125,35137,1,0,0:0:0:0:
18,108,35233,1,0,1:0:0:0:
104,260,35426,1,0,1:0:0:0:
240,108,35618,6,0,P|252:64|236:24,1,85,0|0,1:0|0:0,0:0:0:0:
164,164,36003,2,0,P|196:192|236:200,1,85,0|0,1:0|0:0,0:0:0:0:
396,172,36387,2,0,P|360:152|312:156,1,85,0|0,1:0|0:0,0:0:0:0:
272,280,36772,1,0,1:0:0:0:
272,280,36964,1,0,0:0:0:0:
428,248,37157,6,0,L|448:72,1,170,0|0,1:0|1:0,0:0:0:0:
368,20,37734,1,0,0:0:0:0:
296,88,37926,2,0,P|252:96|212:84,1,85,0|0,1:0|0:0,0:0:0:0:
40,184,38310,2,0,P|80:172|128:184,1,85,0|0,1:0|0:0,0:0:0:0:
216,280,38695,6,0,L|224:192,1,85,0|0,1:0|0:0,0:0:0:0:
152,128,39080,1,0,1:0:0:0:
152,128,39272,1,0,0:0:0:0:
312,216,39464,2,0,L|320:128,1,85,0|0,1:0|0:0,0:0:0:0:
248,64,39849,1,0,1:0:0:0:
248,64,40041,1,0,0:0:0:0:
412,164,40234,5,0,1:0:0:0:
212,188,40426,1,0,0:0:0:0:
396,264,40618,1,0,1:0:0:0:
288,124,40810,1,0,0:0:0:0:
288,124,40907,1,0,0:0:0:0:
288,124,41003,1,0,1:0:0:0:
256,328,41195,2,0,L|172:320,1,85,0|0,0:0|1:0,0:0:0:0:
76,356,41580,1,0,0:0:0:0:
20,200,41772,6,0,L|156:192,1,127.500004863739,0|4,1:0|0:0,0:0:0:0:
360,224,42541,5,0,0:0:0:0:
360,224,42734,2,0,P|396:152|360:72,1,170,4|0,0:0|0:0,0:0:0:0:
272,260,43310,2,0,P|334:313|415:296,1,170,4|0,0:0|1:0,0:0:0:0:
284,156,43887,1,2,0:0:0:0:
112,216,44080,1,0,1:0:0:0:
112,216,44176,1,0,0:0:0:0:
112,216,44272,2,0,P|156:220|196:200,1,85,0|0,0:0|1:0,0:0:0:0:
144,124,44657,1,0,0:0:0:0:
28,192,44849,6,0,B|16:240|48:276|48:276|36:320,1,127.500004863739,0|4,0:0|0:0,0:0:0:0:
303,251,45618,5,0,0:0:0:0:
303,251,45810,2,0,P|241:199|161:218,1,170,4|0,0:0|0:0,0:0:0:0:
300,344,46387,2,0,P|375:312|391:231,1,170,4|0,0:0|1:0,0:0:0:0:
332,160,46964,1,0,0:0:0:0:
216,288,47157,2,0,L|120:276,1,85,0|0,1:0|0:0,0:0:0:0:
32,328,47541,1,0,1:0:0:0:
32,328,47637,1,0,0:0:0:0:
32,328,47734,1,0,0:0:0:0:
32,328,47830,1,0,0:0:0:0:
32,328,47926,6,0,L|8:160,1,170,4|0,0:0|1:0,0:0:0:0:
64,76,48503,1,0,0:0:0:0:
180,164,48695,2,0,P|140:172|100:152,1,85,0|0,1:0|0:0,0:0:0:0:
336,116,49080,2,0,P|376:108|416:128,1,85,0|0,1:0|0:0,0:0:0:0:
260,236,49464,6,0,B|248:180|248:180|264:128|264:128|248:56,1,170,0|0,1:0|1:0,0:0:0:0:
168,128,50041,1,0,0:0:0:0:
340,188,50234,2,0,L|424:200,1,85,0|0,1:0|0:0,0:0:0:0:
184,280,50618,2,0,L|100:292,1,85,0|0,1:0|0:0,0:0:0:0:
16,160,51003,6,0,P|56:176|100:176,1,85,0|0,1:0|0:0,0:0:0:0:
320,96,51387,2,0,P|280:80|236:80,1,85,0|0,1:0|0:0,0:0:0:0:
260,172,51772,1,0,1:0:0:0:
260,172,51964,1,0,0:0:0:0:
412,136,52157,2,0,L|420:48,1,85,0|0,1:0|0:0,0:0:0:0:
368,220,52541,5,0,1:0:0:0:
369,232,52637,1,0,1:0:0:0:
370,245,52733,1,0,1:0:0:0:
372,257,52829,1,0,1:0:0:0:
373,270,52925,1,0,1:0:0:0:
223,272,53118,6,0,P|185:287|144:280,1,85,4|0,0:0|0:0,0:0:0:0:
32,288,53503,2,0,P|29:246|54:213,1,85,4|0,0:0|0:0,0:0:0:0:
104,108,53887,2,0,P|140:128|159:165,1,85,4|0,0:0|0:0,0:0:0:0:
160,344,54464,5,0,1:0:0:0:
198,361,54560,1,0,1:0:0:0:
240,360,54656,1,0,1:0:0:0:
277,341,54752,1,0,1:0:0:0:
301,306,54849,1,0,1:0:0:0:
331,276,54945,1,0,1:0:0:0:
371,264,55041,1,0,1:0:0:0:
412,273,55137,1,0,1:0:0:0:
444,300,55234,5,0,1:0:0:0:
447,249,55330,1,0,1:0:0:0:
451,198,55426,1,0,1:0:0:0:
454,147,55522,1,0,1:0:0:0:
458,96,55618,6,0,P|380:71|317:123,1,170,4|0,0:0|1:0,0:0:0:0:
244,192,56195,1,0,0:0:0:0:
244,192,56291,1,0,0:0:0:0:
244,192,56387,2,0,P|200:200|160:184,1,85
16,112,56772,2,0,P|60:104|100:120,1,85,0|0,1:0|0:0,0:0:0:0:
300,124,57157,6,0,P|332:199|291:269,1,170,0|0,0:0|1:0,0:0:0:0:
200,280,57734,2,0,P|152:280|116:260,1,85
364,324,58118,2,0,P|408:320|448:348,1,85,0|0,0:0|1:0,0:0:0:0:
288,368,58503,1,0,0:0:0:0:
331,236,58695,6,0,P|414:223|489:261,1,170,0|0,0:0|1:0,0:0:0:0:
244,280,59272,1,0,0:0:0:0:
244,280,59368,1,0,0:0:0:0:
244,280,59464,2,0,L|236:196,1,85
324,56,59849,2,0,L|316:156,1,85,0|0,1:0|0:0,0:0:0:0:
144,244,60234,6,0,L|128:72,1,170,0|0,0:0|1:0,0:0:0:0:
204,20,60810,1,0,0:0:0:0:
204,20,60907,1,0,0:0:0:0:
204,20,61003,2,0,P|252:16|288:32,1,85
396,148,61387,2,0,L|484:136,1,85,0|0,1:0|0:0,0:0:0:0:
335,224,61772,6,0,P|255:241|195:186,1,170,4|0,0:0|1:0,0:0:0:0:
132,120,62349,1,0,0:0:0:0:
132,120,62445,1,0,0:0:0:0:
132,120,62541,2,0,P|91:107|51:118,1,85
276,156,62926,2,0,P|324:156|360:140,1,85,0|0,1:0|0:0,0:0:0:0:
472,104,63310,6,0,B|456:188|456:188|488:216|488:264,1,170,0|0,0:0|1:0,0:0:0:0:
396,264,63887,1,0,0:0:0:0:
396,264,63984,1,0,0:0:0:0:
396,264,64080,2,0,L|312:256,1,85
176,308,64464,5,0,1:0:0:0:
172,286,64560,1,0,1:0:0:0:
169,265,64656,1,0,1:0:0:0:
166,244,64752,1,0,1:0:0:0:
163,223,64848,5,0,1:0:0:0:
236,88,65041,1,0,0:0:0:0:
280,284,65234,1,4,0:0:0:0:
280,284,65618,5,0,0:0:0:0:
432,200,65810,1,0,0:0:0:0:
240,128,66003,1,4,0:0:0:0:
208,360,66387,5,0,1:0:0:0:
368,324,66580,1,0,1:0:0:0:
144,284,66772,1,0,1:0:0:0:
336,232,66964,2,0,P|424:236|468:308,1,170,4|4,0:0|0:0,0:0:0:0:
268,308,67541,1,0,1:0:0:0:
208,180,67734,1,0,1:0:0:0:
208,180,67830,1,0,1:0:0:0:
208,180,67926,6,0,B|188:124|188:124|224:76|200:20,1,170,4|0,0:0|1:0,0:0:0:0:
40,52,68503,1,0,0:0:0:0:
40,52,68599,1,0,0:0:0:0:
40,52,68695,2,0,P|76:72|124:64,1,85
368,144,69080,2,0,P|332:124|284:132,1,85,0|0,1:0|0:0,0:0:0:0:
124,220,69464,6,0,P|189:269|268:247,1,170,0|0,0:0|1:0,0:0:0:0:
352,204,70041,1,0,0:0:0:0:
352,204,70137,1,0,0:0:0:0:
352,204,70234,2,0,L|444:212,1,85
236,328,70618,2,0,L|144:336,1,85,0|0,1:0|0:0,0:0:0:0:
52,284,71003,6,0,P|101:218|93:135,1,170,0|0,0:0|1:0,0:0:0:0:
40,44,71580,1,0,0:0:0:0:
40,44,71676,1,0,0:0:0:0:
40,44,71772,2,0,L|132:32,1,85
296,116,72157,2,0,P|256:124|208:104,1,85,0|0,1:0|0:0,0:0:0:0:
360,52,72541,6,0,P|382:131|335:198,1,170,0|0,0:0|1:0,0:0:0:0:
248,196,73118,1,0,0:0:0:0:
316,312,73310,2,0,L|400:300,1,85
236,368,73695,2,0,L|144:356,1,85,0|0,1:0|0:0,0:0:0:0:
56,296,74080,5,0,1:0:0:0:
160,192,74272,1,0,0:0:0:0:
8,132,74464,1,0,1:0:0:0:
72,264,74657,1,0,0:0:0:0:
60,52,74849,1,0,1:0:0:0:
256,148,75041,1,0,0:0:0:0:
20,156,75234,2,0,L|116:148,1,85,0|0,1:0|0:0,0:0:0:0:
312,80,75618,6,0,P|343:155|302:226,1,170,0|0,1:0|1:0,0:0:0:0:
212,228,76195,1,0,0:0:0:0:
212,228,76291,1,0,0:0:0:0:
212,228,76387,2,0,P|168:220|128:232,1,85,0|0,1:0|0:0,0:0:0:0:
340,292,76772,2,0,P|384:296|424:284,1,85,0|0,1:0|0:0,0:0:0:0:
376,208,77157,5,0,1:0:0:0:
220,112,77349,1,0,0:0:0:0:
260,340,77541,1,0,0:0:0:0:
352,240,77734,2,0,L|264:232,1,85,0|0,1:0|0:0,0:0:0:0:
96,272,78118,2,0,L|192:276,1,85,0|0,1:0|0:0,0:0:0:0:
464,188,78503,6,0,P|408:128|320:144,1,170,0|0,1:0|0:0,0:0:0:0:
308,164,78984,1,0,0:0:0:0:
287,191,79080,1,0,1:0:0:0:
267,218,79176,1,0,0:0:0:0:
247,245,79272,1,0,0:0:0:0:
226,273,79368,1,0,0:0:0:0:
206,300,79464,1,0,1:0:0:0:
92,368,79657,6,0,L|68:200,1,170,4|0,1:2|0:0,0:0:0:0:
120,124,80234,1,4,0:0:0:0:
380,48,81772,5,0,1:0:0:0:
400,144,81964,1,0,0:0:0:0:
420,240,82157,1,8,0:0:0:0:
276,192,82349,2,0,L|232:184,2,42.5,0|0|8,0:0|0:0|0:0,0:0:0:0:
356,316,82734,1,0,0:0:0:0:
356,316,82830,1,0,0:0:0:0:
356,316,82926,2,0,L|264:312,1,85,8|0,0:0|0:0,0:0:0:0:
156,284,83310,6,0,L|168:376,2,85,0|0|0,1:0|0:0|1:0,0:0:0:0:
212,204,83887,1,0,0:0:0:0:
56,128,84080,2,0,L|44:220,2,85,0|0|0,1:0|0:0|1:0,0:0:0:0:
16,40,84657,1,0,0:0:0:0:
156,108,84849,5,0,1:0:0:0:
156,108,85041,1,0,0:0:0:0:
316,40,85234,2,0,L|224:32,1,85,0|0,1:0|0:0,0:0:0:0:
184,208,85618,1,0,1:0:0:0:
184,208,85810,1,0,0:0:0:0:
344,140,86003,2,0,L|252:132,1,85,0|0,1:0|0:0,0:0:0:0:
80,184,86387,6,0,L|92:268,2,85,0|0|0,1:0|0:0|1:0,0:0:0:0:
144,120,86964,1,0,0:0:0:0:
280,268,87157,2,0,L|268:352,2,85,0|0|0,1:0|0:0|1:0,0:0:0:0:
216,204,87734,1,0,0:0:0:0:
300,184,87926,2,0,P|344:176|380:192,1,85,0|0,1:0|0:0,0:0:0:0:
192,292,88310,2,0,P|152:296|112:276,1,85,0|0,1:0|0:0,0:0:0:0:
32,168,88695,5,0,1:0:0:0:
244,116,88887,1,0,1:0:0:0:
124,256,89080,1,0,1:0:0:0:
88,40,89272,1,4,1:2:0:0:
