osu file format v14

[General]
AudioFilename: Umikaze no Brave (TV Size).mp3
AudioLeadIn: 0
PreviewTime: 55238
Countdown: 0
SampleSet: Soft
StackLeniency: 0.7
Mode: 0
LetterboxInBreaks: 0
WidescreenStoryboard: 0

[Editor]
Bookmarks: 4853,29468,35622,41776,47930,89276
DistanceSpacing: 1
BeatDivisor: 2
GridSize: 8
TimelineZoom: 2.2

[Metadata]
Title:Umikaze no Brave (TV Anime Ending Size)
TitleUnicode:海風のブレイブ (TVアニメエンディングサイズ)
Artist:fumika
ArtistUnicode:fumika
Creator:Cellina
Version:Easy
Source:ROBOTICS;NOTES
Tags:habiholic enon doyak 光井芙美香 mitsui
BeatmapID:893785
BeatmapSetID:411509

[Difficulty]
HPDrainRate:3
CircleSize:2.5
OverallDifficulty:2
ApproachRate:3.5
SliderMultiplier:0.999999999999999
SliderTickRate:1

[Events]
//Background and Video events
0,0,"2.jpg",0,0
//Break Periods
//Storyboard Layer 0 (Background)
//Storyboard Layer 1 (Fail)
//Storyboard Layer 2 (Pass)
//Storyboard Layer 3 (Foreground)
//Storyboard Sound Samples

[TimingPoints]
234,384.615384615385,4,2,1,75,1,0
4849,-100,4,2,1,45,0,0
9464,-100,4,2,1,60,0,0
55618,-100,4,2,1,75,0,1
80234,-100,4,2,1,50,0,0
83310,-100,4,2,1,75,0,0

[Colours]
Combo1 : 0,64,128
Combo2 : 255,255,0
Combo3 : 38,191,0
Combo4 : 0,128,255

[HitObjects]
63,317,234,6,0,L|272:329,1,200,0|0,0:0|0:0,0:0:0:0:
359,354,1387,1,0,0:0:0:0:
427,281,1772,6,0,P|432:184|439:154,1,99.9999999999999,4|8,0:0|0:0,0:0:0:0:
341,141,2541,2,0,P|335:90|323:29,1,99.9999999999999,0|8,0:0|0:0,0:0:0:0:
238,90,3310,2,0,B|133:124|155:44|30:80,1,200,0|4,0:0|0:0,0:0:0:0:
33,276,4849,6,0,L|165:270,1,99.9999999999999,4|0,0:0|0:0,0:0:0:0:
212,331,5618,2,0,B|262:337|262:337|351:315,1,99.9999999999999,0|8,0:0|0:3,0:0:0:0:
369,244,6387,2,0,P|354:149|427:126,2,150,4|0|8,0:0|0:0|0:3,0:0:0:0:
456,293,7926,6,0,P|470:193|497:87,1,200,0|0,0:0|0:0,0:0:0:0:
327,208,9464,2,0,L|137:198,1,150,4|4,0:0|0:0,0:0:0:0:
88,246,10426,1,4,0:0:0:0:
31,107,11003,6,0,P|89:98|137:80,1,99.9999999999999,2|8,0:0|0:0,0:0:0:0:
219,44,11772,2,0,P|277:53|325:71,1,99.9999999999999,0|10,0:0|0:0,0:0:0:0:
388,135,12541,1,0,0:0:0:0:
312,200,12926,1,8,0:0:0:0:
405,235,13310,2,0,L|512:224,1,99.9999999999999,0|8,0:0|0:0,0:0:0:0:
495,324,14080,6,0,L|321:337,2,150,2|2|8,0:0|0:0|0:0,0:0:0:0:
504,224,15618,2,0,P|402:170|367:185,1,150,4|4,0:0|0:0,0:0:0:0:
303,245,16580,2,0,P|201:299|166:284,1,150,4|4,0:0|0:0,0:0:0:0:
96,231,17541,5,10,0:0:0:0:
33,152,17926,1,0,0:0:0:0:
90,70,18310,1,8,0:0:0:0:
176,119,18695,2,0,P|237:109|281:98,1,99.9999999999999,0|8,0:0|0:0,0:0:0:0:
369,128,19464,1,0,0:0:0:0:
295,196,19849,1,8,0:0:0:0:
389,228,20234,6,0,L|490:217,1,99.9999999999999,0|8,0:0|0:0,0:0:0:0:
468,119,21003,1,0,0:0:0:0:
369,128,21387,1,8,0:0:0:0:
295,196,21772,2,0,B|288:296|288:296|232:341,1,150,4|4,0:0|0:0,0:0:0:0:
158,370,22734,2,0,B|125:307|185:286|148:212,1,150,4|4,0:0|0:0,0:0:0:0:
76,160,23695,5,10,0:0:0:0:
12,82,24080,1,0,0:0:0:0:
107,53,24464,1,10,0:0:0:0:
176,126,24849,2,0,P|226:97|280:92,1,99.9999999999999,0|8,0:0|0:0,0:0:0:0:
365,108,25618,2,0,L|359:218,1,99.9999999999999,0|10,0:0|0:0,0:0:0:0:
453,241,26387,5,6,0:0:0:0:
407,330,26772,1,8,0:0:0:0:
306,331,27157,2,0,P|247:348|189:359,1,99.9999999999999,2|10,0:0|0:0,0:0:0:0:
142,281,27926,5,0,0:0:0:0:
158,182,28310,1,10,0:0:0:0:
239,123,28695,2,0,P|229:69|225:17,1,99.9999999999999,0|10,0:0|0:0,0:0:0:0:
126,5,29464,5,0,0:0:0:0:
94,99,29849,2,0,P|52:140|53:231,1,150,12|2,0:0|0:0,0:0:0:0:
184,295,31003,2,0,P|261:280|368:270,1,150,2|2,0:0|0:0,0:0:0:0:
408,336,31964,2,0,P|434:265|370:184,1,150,2|0,0:0|0:0,0:0:0:0:
306,171,32926,6,0,L|317:11,1,150,12|2,0:0|0:0,0:0:0:0:
212,130,34080,2,0,B|131:124|146:169|55:164,2,150,2|2|8,0:0|0:0|0:0,0:0:0:0:
306,171,35618,6,0,P|292:238|288:286,1,99.9999999999999,2|8,0:0|0:0,0:0:0:0:
304,368,36387,2,0,P|250:356|168:346,1,99.9999999999999,0|8,0:0|0:0,0:0:0:0:
105,359,37157,1,2,0:0:0:0:
140,265,37541,1,10,0:0:0:0:
92,177,37926,2,0,P|39:158|-6:138,1,99.9999999999999,0|8,0:0|0:0,0:0:0:0:
51,55,38695,5,2,0:0:0:0:
147,30,39080,1,10,0:0:0:0:
192,118,39464,2,0,P|255:147|336:98,1,150,0|2,0:0|0:0,0:0:0:0:
411,65,40426,6,0,P|364:138|354:221,1,150,0|0,0:0|0:0,0:0:0:0:
436,254,41387,1,10,0:0:0:0:
347,299,41772,5,0,0:0:0:0:
264,242,42157,2,0,B|170:226|198:289|87:264,1,150,12|2,0:0|0:0,0:0:0:0:
15,162,43310,2,0,P|97:143|142:210,1,150,2|2,0:0|0:0,0:0:0:0:
190,99,44272,2,0,P|289:120|356:125,1,150,2|0,0:0|0:0,0:0:0:0:
422,71,45234,6,0,P|369:157|388:205,1,150,12|2,0:0|0:0,0:0:0:0:
444,333,46387,2,0,B|386:334|386:334|357:319|357:319|264:323,1,150,2|2,0:0|0:0,0:0:0:0:
230,187,47541,1,8,0:0:0:0:
182,274,47926,6,0,P|127:293|66:285,1,99.9999999999999,4|10,0:0|0:0,0:0:0:0:
19,216,48695,2,0,P|0:161|8:100,1,99.9999999999999,0|8,0:0|0:0,0:0:0:0:
66,43,49464,1,0,0:0:0:0:
100,137,49849,1,8,0:0:0:0:
160,57,50234,2,0,P|215:48|275:35,1,99.9999999999999,0|8,0:0|0:0,0:0:0:0:
323,114,51003,6,0,P|422:126|501:141,2,150,0|0|10,0:0|0:0|0:0,0:0:0:0:
249,181,52541,2,0,P|226:236|298:293,1,150,2|8,0:0|0:0,0:0:0:0:
370,343,53503,2,0,P|379:282|390:225,1,99.9999999999999,8|8,0:0|0:0,0:0:0:0:
249,181,54464,6,0,P|221:186|104:205,2,99.9999999999999,0|0|0,0:0|0:0|0:0,0:0:0:0:
344,212,55618,6,0,P|357:146|377:99,1,99.9999999999999,4|8,0:0|0:0,0:0:0:0:
300,42,56387,2,0,P|251:26|189:34,1,99.9999999999999,0|8,0:0|0:0,0:0:0:0:
104,46,57157,1,2,0:0:0:0:
170,120,57541,1,10,0:0:0:0:
113,202,57926,2,0,P|60:192|-1:182,1,99.9999999999999,0|8,0:0|0:0,0:0:0:0:
31,283,58695,6,0,P|80:292|129:299,1,99.9999999999999,0|8,0:0|0:0,0:0:0:0:
202,229,59464,2,0,P|259:203|321:203,1,99.9999999999999,0|10,0:0|0:0,0:0:0:0:
387,241,60234,1,0,0:0:0:0:
470,184,60618,1,10,0:1:0:0:
448,86,61003,2,0,P|396:78|316:57,1,99.9999999999999,0|8,0:0|0:0,0:0:0:0:
257,104,61772,6,0,P|197:84|134:77,1,99.9999999999999,4|8,0:0|0:0,0:0:0:0:
67,115,62541,2,0,P|79:181|82:238,1,99.9999999999999,0|8,0:0|0:0,0:0:0:0:
36,303,63310,1,2,0:0:0:0:
125,348,63695,1,10,0:0:0:0:
214,302,64080,2,0,P|207:242|203:174,1,99.9999999999999,2|10,0:0|0:0,0:0:0:0:
181,106,64849,6,0,L|194:5,1,99.9999999999999,0|4,0:0|0:0,0:0:0:0:
270,71,65618,2,0,P|320:100|378:93,1,99.9999999999999,0|4,0:0|0:0,0:0:0:0:
454,62,66387,2,0,P|393:112|407:191,1,150,4|4,0:0|0:0,0:0:0:0:
444,265,67349,1,4,0:0:0:0:
311,335,67926,6,0,P|306:277|300:205,1,99.9999999999999,4|8,0:0|0:0,0:0:0:0:
219,179,68695,2,0,P|224:121|230:49,1,99.9999999999999,0|8,0:0|0:0,0:0:0:0:
160,5,69464,1,2,0:0:0:0:
63,32,69849,1,10,0:0:0:0:
41,129,70234,2,0,P|47:189|57:242,1,99.9999999999999,0|8,0:0|0:0,0:0:0:0:
6,316,71003,6,0,P|79:262|188:298,1,200,0|0,0:0|0:0,0:0:0:0:
251,356,72157,1,8,0:0:0:0:
327,291,72541,2,0,P|318:233|314:176,1,99.9999999999999,2|8,0:1|0:0,0:0:0:0:
381,117,73310,1,2,0:1:0:0:
282,98,73695,1,10,0:1:0:0:
220,176,74080,5,12,0:0:0:0:
130,132,74464,2,0,L|7:126,2,99.9999999999999,8|8|8,0:0|0:0|0:0,0:0:0:0:
132,232,75618,5,12,0:0:0:0:
220,279,76003,2,0,L|343:273,2,99.9999999999999,8|8|8,0:0|0:0|0:0,0:0:0:0:
156,356,77157,6,0,P|177:282|115:227,1,150,12|12,0:0|0:0,0:0:0:0:
43,277,78118,2,0,P|38:217|43:137,1,99.9999999999999,12|4,0:0|0:0,0:0:0:0:
128,133,78887,2,0,L|348:148,1,200,0|4,0:0|0:0,0:0:0:0:
457,71,80234,6,0,B|393:118|429:190|429:190|385:274|285:251,1,300,6|2,0:0|0:0,0:0:0:0:
197,217,81772,2,0,P|157:175|147:119,1,99.9999999999999,8|8,0:0|0:0,0:0:0:0:
159,36,82541,2,0,L|281:48,1,99.9999999999999,2|8,0:3|0:3,0:0:0:0:
323,121,83310,6,0,L|445:109,1,99.9999999999999,4|8,0:0|0:0,0:0:0:0:
493,181,84080,1,0,0:0:0:0:
397,210,84464,1,8,0:0:0:0:
469,279,84849,2,0,P|459:343|457:384,2,99.9999999999999,0|8|0,0:0|0:0|0:0,0:0:0:0:
493,181,86003,1,8,0:0:0:0:
397,210,86387,6,0,L|287:197,1,99.9999999999999,4|8,0:0|0:0,0:0:0:0:
233,121,87157,1,0,0:0:0:0:
197,214,87541,1,8,0:0:0:0:
258,292,87926,2,0,P|193:315|135:318,1,99.9999999999999,0|8,0:0|0:0,0:0:0:0:
72,274,88695,6,0,L|84:116,1,150,14|14,0:1|0:1,0:0:0:0:
