osu file format v14

[General]
AudioFilename: Umikaze no Brave (TV Size).mp3
AudioLeadIn: 0
PreviewTime: 55238
Countdown: 0
SampleSet: Soft
StackLeniency: 0.7
Mode: 0
LetterboxInBreaks: 0
WidescreenStoryboard: 1

[Editor]
Bookmarks: 4853,29468,35622,41776,47930,89276
DistanceSpacing: 1
BeatDivisor: 4
GridSize: 4
TimelineZoom: 2.2

[Metadata]
Title:Umikaze no Brave (TV Anime Ending Size)
TitleUnicode:海風のブレイブ (TVアニメエンディングサイズ)
Artist:fumika
ArtistUnicode:fumika
Creator:Cellina
Version:Doyak's Normal
Source:ROBOTICS;NOTES
Tags:habiholic enon doyak 光井芙美香 mitsui
BeatmapID:910813
BeatmapSetID:411509

[Difficulty]
HPDrainRate:4
CircleSize:3.5
OverallDifficulty:4
ApproachRate:5
SliderMultiplier:1.2
SliderTickRate:1

[Events]
//Background and Video events
0,0,"5.jpg",0,0
//Break Periods
//Storyboard Layer 0 (Background)
//Storyboard Layer 1 (Fail)
//Storyboard Layer 2 (Pass)
//Storyboard Layer 3 (Foreground)
//Storyboard Sound Samples

[TimingPoints]
234,384.615384615385,4,2,1,50,1,0
1772,-100,4,2,1,80,0,0
4849,-100,4,2,1,60,0,0
11003,-100,4,2,1,70,0,0
55618,-100,4,2,1,85,0,1
67830,-100,4,2,1,85,0,0
67926,-100,4,2,1,85,0,1
80234,-100,4,2,1,85,0,0
83310,-100,4,2,1,85,0,1
89272,-100,4,2,1,85,0,0

[Colours]
Combo1 : 0,64,128
Combo2 : 255,255,0
Combo3 : 38,191,0
Combo4 : 0,128,255

[HitObjects]
89,192,234,6,0,L|149:192,1,60,2|0,0:0|0:0,0:0:0:0:
189,148,618,2,0,L|249:148,1,60,2|0,0:0|0:0,0:0:0:0:
289,104,1003,2,0,L|349:104,1,60,2|0,0:0|0:0,0:0:0:0:
389,60,1387,1,2,0:0:0:0:
462,155,1772,6,0,L|445:273,1,120,8|0,0:0|0:0,0:0:0:0:
491,312,2349,2,0,L|373:295,1,120,8|0,0:0|0:0,0:0:0:0:
334,341,2926,2,0,L|351:223,1,120,8|0,0:0|0:0,0:0:0:0:
305,184,3503,2,0,L|423:201,1,120,8|0,0:0|0:0,0:0:0:0:
462,155,4080,1,8,0:0:0:0:
462,155,4272,2,0,L|283:129,1,180,8|4,0:0|0:0,0:0:0:0:
182,64,5234,6,0,P|162:120|173:178,1,120,2|2,0:0|0:0,0:0:0:0:
210,225,5810,1,2,0:0:0:0:
283,129,6195,2,0,L|342:120,2,60,2|4|2,0:0|0:0|0:0,0:0:0:0:
210,225,6964,2,0,L|227:343,1,120,2|2,0:0|0:0,0:0:0:0:
346,325,7734,1,2,0:0:0:0:
346,325,7926,6,0,L|329:207,1,120,4|0,0:0|0:0,0:0:0:0:
187,94,8887,2,0,L|128:103,2,60,2|2|0,0:0|0:0|0:0,0:0:0:0:
230,52,9464,2,0,P|285:32|344:43,1,120,6|2,0:0|0:0,0:0:0:0:
395,74,10041,1,6,0:0:0:0:
378,193,10426,2,0,L|361:311,1,120,6|0,0:0|0:0,0:0:0:0:
353,371,11003,5,4,0:0:0:0:
242,326,11387,2,0,P|182:317|127:340,1,120,10|2,0:0|0:0,0:0:0:0:
78,305,11964,2,0,L|69:246,1,60,2|8,0:0|0:0,0:0:0:0:
113,205,12349,2,0,P|172:213|227:190,1,120,2|0,0:0|0:0,0:0:0:0:
264,145,12926,1,8,0:0:0:0:
156,91,13310,2,0,L|97:100,2,60,0|2|8,0:0|0:0|0:0,0:0:0:0:
215,84,13887,1,2,0:0:0:0:
215,84,14080,6,0,L|232:202,1,120,2|8,0:0|0:0,0:0:0:0:
282,236,14657,1,2,0:0:0:0:
317,188,14849,2,0,L|308:129,2,60,0|0|8,0:0|0:0|0:0,0:0:0:0:
426,236,15618,6,0,L|435:177,1,60,8|0,0:0|0:0,0:0:0:0:
444,117,16003,1,8,0:0:0:0:
444,117,16195,1,8,0:0:0:0:
348,43,16580,2,0,P|293:65|234:56,1,120,8|8,0:0|0:0,0:0:0:0:
179,31,17157,5,4,0:0:0:0:
61,56,17541,2,0,L|78:174,1,120,10|2,0:0|0:0,0:0:0:0:
89,233,18118,1,2,0:0:0:0:
201,191,18503,2,0,L|319:208,1,120,2|2,0:0|0:0,0:0:0:0:
299,326,19272,2,0,L|181:309,1,120,2|2,0:0|0:0,0:0:0:0:
89,233,20041,1,2,0:0:0:0:
89,233,20234,6,0,P|80:173|103:118,1,120,0|8,0:0|0:0,0:0:0:0:
222,130,21003,2,0,L|213:71,2,60,0|2|8,0:0|0:0|0:0,0:0:0:0:
231,189,21580,1,2,0:0:0:0:
231,189,21772,2,0,L|349:172,1,120,2|8,0:0|0:0,0:0:0:0:
409,163,22349,1,2,0:0:0:0:
333,69,22734,2,0,L|215:86,1,120,2|0,0:0|0:0,0:0:0:0:
154,94,23310,5,0,0:0:0:0:
231,189,23695,2,0,P|240:247|217:302,1,120,10|2,0:0|0:0,0:0:0:0:
166,334,24272,2,0,L|107:325,1,60,2|10,0:0|0:0,0:0:0:0:
67,279,24657,1,2,0:0:0:0:
67,279,24849,2,0,P|57:220|80:165,1,120,0|8,0:0|0:0,0:0:0:0:
170,86,25618,2,2,L|179:27,2,60,0|2|10,0:0|0:0|0:0,0:0:0:0:
161,145,26195,1,2,0:0:0:0:
161,145,26387,6,0,L|221:145,2,60,8|0|8,0:0|0:0|0:0,0:0:0:0:
161,265,27157,2,0,L|221:265,2,60,8|0|8,0:0|0:0|0:0,0:0:0:0:
161,384,27926,2,0,L|221:384,1,60,8|0,0:0|0:0,0:0:0:0:
260,338,28310,2,0,L|320:338,1,60,8|0,0:0|0:0,0:0:0:0:
359,292,28695,2,0,L|359:232,2,60,8|0|8,0:0|0:0|0:0,0:0:0:0:
476,267,29464,5,0,0:0:0:0:
428,156,29849,2,0,L|310:139,1,120,4|0,0:0|0:0,0:0:0:0:
317,79,30426,2,0,L|206:123,1,120,4|0,0:0|0:0,0:0:0:0:
182,67,31003,2,0,L|108:160,1,120,4|0,0:0|0:0,0:0:0:0:
59,124,31580,2,0,L|42:242,1,120,4|0,0:0|0:0,0:0:0:0:
89,280,32157,2,0,L|98:339,2,60,8|0|0,0:0|0:0|0:0,0:0:0:0:
188,212,32926,6,0,P|246:203|301:226,1,120,4|0,0:0|0:0,0:0:0:0:
328,280,33503,2,0,P|386:288|441:265,1,120,4|0,0:0|0:0,0:0:0:0:
451,206,34080,2,0,L|463:116,2,90,4|0|4,0:0|0:0|0:0,0:0:0:0:
441,265,34849,2,0,L|500:274,2,60,8|0|8,0:0|0:0|0:0,0:0:0:0:
326,229,35618,6,0,P|268:220|213:243,1,120,2|10,0:0|0:0,0:0:0:0:
182,295,36195,2,0,L|165:177,1,120,2|2,0:0|0:0,0:0:0:0:
118,65,36964,1,2,0:0:0:0:
118,65,37157,2,0,P|176:56|231:79,1,120,2|10,0:0|0:0,0:0:0:0:
262,131,37734,2,0,L|279:13,1,120,2|2,0:0|0:0,0:0:0:0:
398,24,38503,1,2,0:0:0:0:
398,24,38695,6,0,L|457:33,2,60,8|0|8,0:0|0:0|0:0,0:0:0:0:
377,142,39464,2,0,L|436:151,2,60,8|0|8,0:0|0:0|0:0,0:0:0:0:
356,260,40234,2,0,L|297:251,1,60,8|0,0:0|0:0,0:0:0:0:
251,290,40618,2,0,L|192:281,1,60,8|0,0:0|0:0,0:0:0:0:
155,233,41003,2,0,L|164:174,2,60,8|0|8,0:0|0:0|0:0,0:0:0:0:
137,351,41772,5,0,0:0:0:0:
43,276,42157,2,0,L|60:158,1,120,4|0,0:0|0:0,0:0:0:0:
120,158,42734,2,0,L|137:276,1,120,4|0,0:0|0:0,0:0:0:0:
197,276,43310,2,0,L|214:158,1,120,4|0,0:0|0:0,0:0:0:0:
274,158,43887,2,0,L|291:276,1,120,4|0,0:0|0:0,0:0:0:0:
338,313,44464,2,0,L|397:304,2,60,8|0|0,0:0|0:0|0:0,0:0:0:0:
218,300,45234,6,0,P|194:245|203:186,1,120,4|0,0:0|0:0,0:0:0:0:
256,157,45810,2,0,P|279:102|270:43,1,120,4|0,0:0|0:0,0:0:0:0:
222,7,46387,2,0,L|104:24,1,120,4|0,0:0|0:0,0:0:0:0:
69,73,46964,1,4,0:0:0:0:
69,73,47157,2,0,L|10:64,2,60,8|0|8,0:0|0:0|0:0,0:0:0:0:
187,92,47926,5,4,0:0:0:0:
269,178,48310,2,0,L|387:161,1,120,10|2,0:0|0:0,0:0:0:0:
447,154,48887,1,2,0:0:0:0:
405,266,49272,2,0,L|287:283,1,120,2|2,0:0|0:0,0:0:0:0:
171,248,50041,1,2,0:0:0:0:
189,129,50426,2,0,L|198:70,2,60,2|10|2,0:0|0:0|0:0,0:0:0:0:
229,173,51003,6,0,L|347:190,2,120,0|8|0,0:0|0:0|0:0,0:0:0:0:
110,154,52157,1,8,0:0:0:0:
153,265,52541,2,0,P|206:290|265:285,1,120,10|0,0:0|0:0,0:0:0:0:
318,255,53118,1,10,0:0:0:0:
318,134,53503,1,10,0:0:0:0:
318,13,53887,1,10,0:0:0:0:
149,76,54464,6,0,L|148:135,1,60,8|0,0:0|0:0,0:0:0:0:
101,173,54849,2,0,L|100:232,1,60,8|0,0:0|0:0,0:0:0:0:
149,269,55233,2,0,L|148:328,1,60,8|0,0:0|0:0,0:0:0:0:
192,369,55618,6,0,P|245:343|304:349,1,120,6|8,0:0|0:0,0:0:0:0:
360,373,56195,1,2,0:0:0:0:
360,373,56387,2,0,L|343:255,1,120,0|8,0:0|0:0,0:0:0:0:
380,139,57157,2,0,P|320:133|267:158,1,120,2|8,0:0|0:0,0:0:0:0:
253,217,57734,2,0,P|199:242|140:236,1,120,2|2,0:0|0:0,0:0:0:0:
28,191,58503,1,2,0:0:0:0:
28,191,58695,6,0,L|45:309,1,120,0|8,0:0|0:0,0:0:0:0:
155,356,59464,1,0,0:0:0:0:
155,356,59657,2,0,L|214:347,2,60,2|10|2,0:0|0:0|0:0,0:0:0:0:
143,296,60234,2,0,L|126:178,1,120,0|8,0:0|0:0,0:0:0:0:
110,58,61003,1,2,0:0:0:0:
220,104,61387,1,10,0:0:0:0:
315,31,61772,6,0,P|369:6|428:12,1,120,2|8,0:0|0:0,0:0:0:0:
475,48,62349,1,2,0:0:0:0:
475,48,62541,2,0,L|458:166,1,120,0|8,0:0|0:0,0:0:0:0:
442,285,63310,2,0,P|382:290|329:265,1,120,2|10,0:0|0:0,0:0:0:0:
311,208,63887,2,0,P|257:183|198:188,1,120,2|2,0:0|0:0,0:0:0:0:
82,221,64657,1,2,0:0:0:0:
82,221,64849,6,0,L|82:161,1,60,8|0,0:0|0:0,0:0:0:0:
80,100,65234,1,8,0:0:0:0:
199,100,65618,2,0,L|199:160,1,60,8|0,0:0|0:0,0:0:0:0:
197,221,66003,1,8,0:0:0:0:
316,221,66387,2,0,L|316:161,1,60,8|0,0:0|0:0,0:0:0:0:
314,100,66772,1,8,0:0:0:0:
314,100,66964,1,8,0:0:0:0:
434,100,67349,2,0,L|434:220,1,120,8|8,0:0|0:0,0:0:0:0:
387,258,67926,6,0,P|328:251|274:277,1,120,6|8,0:0|0:0,0:0:0:0:
252,334,68503,1,2,0:0:0:0:
252,334,68695,2,0,L|134:317,1,120,0|8,0:0|0:0,0:0:0:0:
22,270,69464,2,0,P|15:211|41:157,1,120,2|10,0:0|0:0,0:0:0:0:
99,143,70041,2,0,P|124:89|117:30,1,120,2|2,0:0|0:0,0:0:0:0:
4,70,70810,1,2,0:0:0:0:
4,70,71003,6,0,L|21:188,1,120,0|8,0:0|0:0,0:0:0:0:
123,252,71772,1,0,0:0:0:0:
123,252,71964,2,0,L|114:193,2,60,2|10|2,0:0|0:0|0:0,0:0:0:0:
130,311,72541,1,0,0:0:0:0:
248,294,72926,1,8,0:0:0:0:
360,278,73310,2,0,L|369:337,2,60,0|0|8,0:0|0:0|0:0,0:0:0:0:
289,180,74080,5,10,0:0:0:0:
289,60,74464,2,0,L|289:0,2,60,10|2|8,0:0|0:0|0:0,0:0:0:0:
168,59,75234,2,0,L|108:59,1,60,10|2,0:0|0:0,0:0:0:0:
48,60,75618,1,8,0:0:0:0:
48,180,76003,1,10,0:0:0:0:
48,180,76195,2,0,L|48:240,1,60,2|8,0:0|0:0,0:0:0:0:
96,275,76580,2,0,L|96:335,1,60,2|8,0:0|0:0,0:0:0:0:
144,370,76964,1,2,0:0:0:0:
190,331,77157,6,0,L|190:271,1,60,8|0,0:0|0:0,0:0:0:0:
190,211,77541,1,8,0:0:0:0:
190,211,77734,1,8,0:0:0:0:
309,211,78118,1,8,0:0:0:0:
429,211,78503,2,0,L|429:91,1,120,8|0,0:0|0:0,0:0:0:0:
429,30,79080,2,0,L|489:30,2,60,8|0|0,0:0|0:0|0:0,0:0:0:0:
368,30,79657,1,8,0:0:0:0:
283,189,80234,6,0,P|229:213|170:209,1,120,6|2,0:0|0:0,0:0:0:0:
114,185,80810,1,2,0:0:0:0:
270,96,81387,2,0,L|329:105,1,60,2|2,0:0|0:0,0:0:0:0:
379,72,81772,2,0,L|388:13,2,60,4|0|10,0:0|0:0|0:0,0:0:0:0:
413,121,82349,2,0,L|430:239,1,120,2|0,0:0|0:0,0:0:0:0:
441,298,82926,1,10,0:0:0:0:
336,357,83310,6,0,P|282:381|223:377,1,120,12|8,0:0|0:0,0:0:0:0:
260,262,84080,2,0,P|206:237|147:241,1,120,8|8,0:0|0:0,0:0:0:0:
52,316,84849,2,0,L|35:198,1,120,8|8,0:0|0:0,0:0:0:0:
147,241,85618,2,0,L|164:123,1,120,8|8,0:0|0:0,0:0:0:0:
275,77,86387,6,0,L|284:18,2,60,8|0|8,0:0|0:0|0:0,0:0:0:0:
320,188,87157,2,0,L|379:197,2,60,8|0|8,0:0|0:0|0:0,0:0:0:0:
209,233,87926,2,0,L|200:292,2,60,8|0|8,0:0|0:0|0:0,0:0:0:0:
164,122,88695,6,0,L|105:113,1,60,8|8,0:0|0:0,0:0:0:0:
45,105,89080,1,8,0:0:0:0:
45,105,89272,1,8,0:0:0:0:
