osu file format v14

[General]
AudioFilename: audio.mp3
AudioLeadIn: 0
PreviewTime: 40907
Countdown: 0
SampleSet: Soft
StackLeniency: 0.7
Mode: 0
LetterboxInBreaks: 0
WidescreenStoryboard: 0

[Editor]
Bookmarks: 11223,31433,41539,61749,66802,87012,97118,117328,127433,137539,137696,137854,138012,138170,138328,138486,138644,138802,138960,139117,139275,139433,139591,139749,139907,140065,140223,140381,140539,140696,140854,141012,141170,141328,141486,141644,141802,141960,142117,142275,142433,142591,142749,142907,143065,143223,143381,143539,143696,143854,144012,144170,144328,144486,144644,144802,144960,145117,155223,175433
DistanceSpacing: 1.2
BeatDivisor: 4
GridSize: 32
TimelineZoom: 1.1

[Metadata]
Title:Hanataba ni Komete
TitleUnicode:花束に込めて
Artist:fumika
ArtistUnicode:fumika
Creator:Iceluin
Version:Suou's Hard
Source:
Tags:Shirahane Suou japanese VARIOUSELF christmas xmas jpop pop j-pop
BeatmapID:2731344
BeatmapSetID:1318438

[Difficulty]
HPDrainRate:5
CircleSize:4
OverallDifficulty:6
ApproachRate:8
SliderMultiplier:2.1
SliderTickRate:1

[Events]
//Background and Video events
0,0,"hanataba.png",0,0
//Break Periods
2,137581,144368
//Storyboard Layer 0 (Background)
//Storyboard Layer 1 (Fail)
//Storyboard Layer 2 (Pass)
//Storyboard Layer 3 (Foreground)
//Storyboard Layer 4 (Overlay)
//Storyboard Sound Samples

[TimingPoints]
1118,631.578947368421,4,2,1,45,1,0
1118,-111.111111111111,4,2,1,45,0,0
11223,-111.111111111111,4,2,1,55,0,0
18486,-111.111111111111,4,2,3,55,0,0
18802,-111.111111111111,4,2,1,55,0,0
31433,-111.111111111111,4,2,1,65,0,0
41539,-100,4,2,2,75,0,1
61433,-100,4,2,1,75,0,1
61749,-111.111111111111,4,2,1,45,0,0
66802,-111.111111111111,4,2,1,60,0,0
87012,-111.111111111111,4,2,1,65,0,0
94591,-111.111111111111,4,2,1,45,0,0
95933,-111.111111111111,4,2,1,5,0,0
96012,-111.111111111111,4,2,1,45,0,0
97118,-100,4,2,2,75,0,1
117012,-100,4,2,1,75,0,1
117328,-133.333333333333,4,2,1,45,0,0
127433,-111.111111111111,4,2,1,50,0,0
137539,-111.111111111111,4,2,1,35,0,0
145117,-111.111111111111,4,2,1,45,0,0
155144,-111.111111111111,4,2,1,5,0,0
155223,-100,4,2,2,75,0,1
175117,-100,4,2,1,75,0,1
175433,-133.333333333333,4,2,1,55,0,0
178117,-133.333333333333,4,2,1,5,0,0

[Colours]
Combo1 : 255,255,119
Combo2 : 255,72,72
Combo3 : 0,225,0
Combo4 : 253,147,232

[HitObjects]
187,182,1118,6,0,L|136:182,2,47.2499985580445,2|2|2,0:0|0:0|0:0,0:0:0:0:
258,136,1591,2,0,P|272:178|254:227,1,94.499997116089
189,276,2065,1,2,0:0:0:0:
189,276,2223,1,2,0:0:0:0:
324,379,2539,1,0,0:0:0:0:
482,312,2854,1,0,0:0:0:0:
482,312,3012,2,0,B|496:269|496:269|476:201,1,94.499997116089,0|2,3:0|0:0,0:0:0:0:
393,81,3644,5,2,0:0:0:0:
393,81,3802,2,0,P|388:106|399:143,1,47.2499985580445,2|0,0:0|0:0,0:0:0:0:
340,195,4118,2,0,P|296:178|253:194,1,94.499997116089,2|2,0:0|0:0,0:0:0:0:
184,243,4591,1,2,0:0:0:0:
29,172,4907,2,0,L|29:118,1,47.2499985580445,0|0,0:0|0:0,0:0:0:0:
29,39,5223,2,0,L|76:39,1,47.2499985580445,0|0,0:0|0:0,0:0:0:0:
161,39,5539,1,2,3:2:0:0:
244,186,5854,1,2,0:0:0:0:
367,67,6170,6,0,P|342:62|305:73,2,47.2499985580445,2|2|2,0:0|0:0|0:0,0:0:0:0:
442,26,6644,2,0,P|457:70|436:118,1,94.499997116089,0|0,0:0|0:0,0:0:0:0:
374,164,7118,1,2,0:0:0:0:
374,164,7275,1,2,0:0:0:0:
510,265,7591,1,0,0:0:0:0:
374,366,7907,1,0,0:0:0:0:
374,366,8065,2,0,B|329:350|329:350|279:368,1,94.499997116089,0|2,3:0|0:0,0:0:0:0:
146,275,8696,5,2,0:0:0:0:
146,275,8854,1,2,0:0:0:0:
288,180,9170,1,2,0:0:0:0:
288,180,9328,1,2,3:2:0:0:
169,65,9644,1,2,0:0:0:0:
169,65,9802,2,0,P|114:76|203:149,1,236.249992790222,2|8,0:0|0:0,0:0:0:0:
311,56,10907,1,0,3:0:0:0:
438,168,11223,6,0,P|440:191|438:214,2,47.2499985580445,6|2|2,1:2|0:0|0:0,0:0:0:0:
453,87,11696,1,2,1:2:0:0:
453,87,11854,2,0,P|429:84|406:86,1,47.2499985580445,10|0,0:0|0:0,0:0:0:0:
337,137,12170,2,0,P|313:139|290:137,1,47.2499985580445,2|2,0:0|0:0,0:0:0:0:
215,94,12486,2,0,P|199:139|224:193,1,94.499997116089,2|2,0:0|1:2,0:0:0:0:
261,253,12960,2,0,P|215:237|161:262,1,94.499997116089,2|0,0:0|1:0,0:0:0:0:
105,304,13433,1,0,0:0:0:0:
46,144,13749,6,0,P|22:140|0:143,2,47.2499985580445,2|0|0,1:2|0:0|0:0,0:0:0:0:
123,104,14223,1,2,1:2:0:0:
123,104,14381,2,0,P|138:149|113:203,1,94.499997116089,10|2,0:0|0:0,0:0:0:0:
7,316,15012,2,0,L|7:363,1,47.2499985580445,2|0,0:0|3:0,0:0:0:0:
92,363,15328,2,0,L|92:268,1,94.499997116089,0|8,1:0|0:0,0:0:0:0:
256,222,15960,2,0,L|256:288,1,47.2499985580445,2|0,0:0|0:0,0:0:0:0:
278,351,16275,6,0,P|254:354|231:351,2,47.2499985580445,2|2|2,1:2|0:0|0:0,0:0:0:0:
346,298,16749,1,0,1:0:0:0:
346,298,16907,1,10,0:0:0:0:
499,370,17223,2,0,L|499:314,1,47.2499985580445,2|2,0:0|0:0,0:0:0:0:
444,256,17539,2,0,L|444:200,1,47.2499985580445,2|2,0:0|3:2,0:0:0:0:
493,139,17854,1,2,1:2:0:0:
365,26,18170,2,0,L|302:26,2,47.2499985580445,10|0|2,0:0|1:0|0:3,0:0:0:0:
275,171,18802,6,0,L|228:171,1,47.2499985580445,2|0,1:2|0:0,0:0:0:0:
184,102,19118,2,0,L|137:102,1,47.2499985580445,2|0,0:0|1:0,0:0:0:0:
76,161,19433,2,0,L|29:161,1,47.2499985580445,10|2,0:0|0:0,0:0:0:0:
6,255,19749,2,0,P|51:241|95:255,1,94.499997116089,2|2,0:0|3:2,0:0:0:0:
181,235,20223,1,0,3:0:0:0:
181,235,20381,2,0,P|184:259|181:282,1,47.2499985580445,0|0,1:0|3:0,0:0:0:0:
164,323,20618,1,0,3:0:0:0:
164,323,20696,1,8,0:0:0:0:
230,377,20854,2,0,L|295:375,1,47.2499985580445,0|0,1:0|0:0,0:0:0:0:
342,326,21170,1,0,3:0:0:0:
273,229,21328,6,0,P|270:253|273:276,2,47.2499985580445,2|2|2,1:2|0:0|0:0,0:0:0:0:
303,151,21802,1,0,1:0:0:0:
303,151,21960,2,0,P|305:127|302:104,1,47.2499985580445,10|2,0:0|0:0,0:0:0:0:
388,104,22275,2,0,P|384:127|387:150,1,47.2499985580445,2|2,0:0|0:0,0:0:0:0:
435,222,22591,2,0,P|389:206|336:234,1,94.499997116089,2|0,3:2|1:0,0:0:0:0:
390,295,23065,2,0,P|435:310|488:282,1,94.499997116089,2|0,0:0|1:0,0:0:0:0:
512,211,23539,1,0,0:0:0:0:
388,104,23854,6,0,P|391:80|387:57,2,47.2499985580445,2|2|2,1:2|0:0|0:0,0:0:0:0:
318,152,24328,1,0,1:0:0:0:
318,152,24486,2,0,B|272:134|272:134|212:159,1,94.499997116089,10|2,0:0|0:0,0:0:0:0:
75,221,25118,2,0,L|122:221,1,47.2499985580445,2|0,3:2|3:0,0:0:0:0:
188,275,25433,2,0,L|188:370,1,94.499997116089,0|8,1:0|0:0,0:0:0:0:
358,375,26065,2,0,L|358:327,1,47.2499985580445,2|0,0:0|0:0,0:0:0:0:
336,244,26381,6,0,P|359:240|383:244,2,47.2499985580445,2|2|2,1:2|0:0|0:0,0:0:0:0:
254,250,26854,1,2,1:2:0:0:
254,250,27012,1,10,0:0:0:0:
103,321,27328,2,0,P|99:344|103:368,1,47.2499985580445,2|2,0:0|0:0,0:0:0:0:
188,369,27644,2,0,P|191:345|187:321,1,47.2499985580445,2|2,3:2|0:0,0:0:0:0:
147,247,27960,1,2,1:2:0:0:
273,133,28275,2,0,L|216:133,1,47.2499985580445,10|0,0:0|1:0,0:0:0:0:
157,80,28591,2,0,L|109:80,1,47.2499985580445,2|0,0:0|0:0,0:0:0:0:
46,138,28907,6,0,L|-1:138,2,47.2499985580445,2|2|2,1:2|0:0|0:0,0:0:0:0:
107,204,29381,1,2,1:2:0:0:
107,204,29539,2,0,P|110:228|107:251,1,47.2499985580445,10|0,0:0|0:0,0:0:0:0:
64,326,29854,1,2,0:0:0:0:
64,326,30012,2,0,P|108:339|152:325,1,94.499997116089,2|0,0:0|3:0,0:0:0:0:
192,304,30407,1,0,3:0:0:0:
192,304,30486,2,0,L|192:238,1,47.2499985580445,0|0,1:0|1:0,0:0:0:0:
281,261,30802,1,8,0:0:0:0:
281,261,30960,2,0,L|281:308,1,47.2499985580445,2|0,1:2|1:0,0:0:0:0:
232,378,31275,1,2,3:2:0:0:
192,256,31433,6,0,L|193:147,1,94.499997116089,6|0,1:2|0:0,0:0:0:0:
195,79,31907,1,2,1:2:0:0:
195,79,32065,2,0,P|239:92|284:78,1,94.499997116089,8|2,0:0|0:0,0:0:0:0:
352,26,32539,1,2,0:0:0:0:
477,148,32854,1,2,0:0:0:0:
477,148,33012,2,0,L|477:206,1,47.2499985580445,0|2,1:0|0:0,0:0:0:0:
416,254,33328,2,0,P|392:249|369:254,2,47.2499985580445,8|0|0,0:0|1:0|0:0,0:0:0:0:
276,352,33960,6,0,L|162:352,1,94.499997116089,2|2,1:2|0:0,0:0:0:0:
100,348,34433,1,2,1:2:0:0:
100,348,34591,2,0,P|114:303|91:251,1,94.499997116089,10|2,0:0|0:0,0:0:0:0:
34,204,35065,1,2,0:0:0:0:
149,79,35381,1,0,3:0:0:0:
149,79,35539,2,0,B|144:104|144:104|150:135,1,47.2499985580445,0|0,1:0|0:0,0:0:0:0:
211,189,35854,1,8,0:0:0:0:
211,189,36012,2,0,L|263:189,1,47.2499985580445,2|2,1:2|0:0,0:0:0:0:
235,106,36328,1,2,0:0:0:0:
128,204,36486,6,0,L|0:204,1,94.499997116089,0|0,1:0|0:0,0:0:0:0:
33,293,36960,1,2,1:2:0:0:
33,293,37118,2,0,L|127:293,1,94.499997116089,8|2,0:0|0:0,0:0:0:0:
200,336,37591,1,2,0:0:0:0:
331,227,37907,1,2,0:0:0:0:
331,227,38065,2,0,P|327:250|330:273,1,47.2499985580445,0|2,1:0|0:0,0:0:0:0:
399,324,38381,2,0,L|456:324,1,47.2499985580445,8|0,0:0|1:0,0:0:0:0:
498,256,38696,5,2,0:0:0:0:
256,192,39012,12,0,40907,1:0:0:0:
178,85,41539,6,0,B|193:130|193:130|176:189,1,105,6|0,1:2|0:0,0:0:0:0:
117,251,42012,1,2,1:2:0:0:
180,314,42170,2,0,L|329:314,1,105,8|0,0:0|0:0,0:0:0:0:
348,250,42644,2,0,B|355:221|355:221|345:185,1,52.5,2|0,0:0|0:0,0:0:0:0:
281,139,42960,1,2,0:0:0:0:
343,74,43118,2,0,B|371:66|371:66|407:76,1,52.5,0|2,1:0|0:0,0:0:0:0:
466,20,43433,2,0,P|446:68|466:116,1,105,10|2,0:0|0:0,0:0:0:0:
473,292,44065,5,2,1:2:0:0:
473,292,44223,2,0,P|447:297|422:291,1,52.5,2|0,0:0|0:0,0:0:0:0:
348,250,44539,1,2,1:2:0:0:
348,250,44696,2,0,P|322:244|297:250,1,52.5,10|0,0:0|0:0,0:0:0:0:
222,296,45012,1,2,0:0:0:0:
222,296,45170,2,0,P|240:248|221:200,1,105,2|0,0:0|0:0,0:0:0:0:
156,137,45644,2,0,L|87:137,1,52.5,2|2,1:2|0:0,0:0:0:0:
31,188,45960,1,10,0:0:0:0:
31,188,46118,1,2,1:2:0:0:
57,272,46275,2,0,L|56:324,1,52.5,6|2,1:2|0:0,0:0:0:0:
185,384,46591,6,0,L|185:279,1,105,6|0,1:2|0:0,0:0:0:0:
222,201,47065,1,2,1:2:0:0:
297,248,47223,2,0,P|347:262|397:247,1,105,8|0,0:0|0:0,0:0:0:0:
464,189,47696,2,0,L|464:127,1,52.5,2|0,0:0|0:0,0:0:0:0:
406,67,48012,1,2,0:0:0:0:
341,130,48170,2,0,P|315:136|290:131,1,52.5,0|2,1:0|0:0,0:0:0:0:
217,79,48486,2,0,P|169:59|121:79,1,105,10|2,0:0|0:0,0:0:0:0:
6,228,49118,5,2,1:2:0:0:
6,228,49275,2,0,P|36:235|68:224,1,52.5,2|0,0:0|0:0,0:0:0:0:
128,176,49591,1,2,1:2:0:0:
128,176,49749,2,0,P|158:169|190:180,1,52.5,10|0,0:0|0:0,0:0:0:0:
255,230,50065,1,2,0:0:0:0:
255,230,50223,2,0,P|235:278|255:326,1,105,2|0,0:0|0:0,0:0:0:0:
325,377,50696,2,0,L|378:377,1,52.5,2|0,1:2|1:0,0:0:0:0:
434,307,51012,2,0,L|433:235,1,52.5,8|0,0:0|1:0,0:0:0:0:
374,193,51328,1,2,0:0:0:0:
374,193,51486,1,2,0:0:0:0:
506,100,51644,6,0,P|447:114|402:98,1,105,6|0,1:2|0:0,0:0:0:0:
336,43,52118,2,0,P|285:29|236:43,1,105,2|0,1:2|0:0,0:0:0:0:
179,112,52591,2,0,B|201:161|201:161|180:217,1,105,2|0,0:0|0:0,0:0:0:0:
100,245,53065,1,0,0:0:0:0:
169,301,53223,2,0,L|234:301,1,52.5,2|0,1:2|0:0,0:0:0:0:
350,343,53539,6,0,P|331:295|351:248,1,105,8|2,0:0|0:0,0:0:0:0:
410,181,54012,1,2,0:0:0:0:
347,116,54170,6,0,L|239:115,1,105,2|0,1:2|0:0,0:0:0:0:
165,67,54644,2,0,P|185:116|148:173,1,105,2|0,1:2|0:0,0:0:0:0:
217,234,55118,2,0,P|167:254|110:217,1,105,2|0,0:0|0:0,0:0:0:0:
48,176,55591,1,0,0:0:0:0:
1,258,55749,2,0,L|1:332,1,52.5,2|0,1:2|0:0,0:0:0:0:
125,329,56065,6,0,P|144:281|123:234,1,105,8|4,0:0|1:2,0:0:0:0:
189,58,56696,6,0,B|174:103|174:103|191:162,1,105,4|0,1:2|0:0,0:0:0:0:
275,199,57170,1,2,1:2:0:0:
338,136,57328,2,0,L|487:136,1,105,8|0,0:0|0:0,0:0:0:0:
500,212,57802,2,0,P|504:237|502:263,1,52.5,2|4,0:0|0:0,0:0:0:0:
438,325,58118,1,2,0:0:0:0:
356,276,58275,2,0,B|333:269|333:269|305:277,1,52.5,2|2,1:2|0:0,0:0:0:0:
242,348,58591,2,0,P|194:367|147:349,1,105,10|2,0:0|0:0,0:0:0:0:
3,224,59223,6,0,P|50:242|97:222,1,105,6|0,1:2|0:0,0:0:0:0:
161,159,59696,1,2,1:2:0:0:
217,228,59854,2,0,L|217:298,1,52.5,8|0,0:0|0:0,0:0:0:0:
306,277,60170,2,0,L|306:224,1,52.5,2|0,0:0|0:0,0:0:0:0:
370,154,60486,1,2,0:0:0:0:
430,219,60644,2,0,L|506:219,1,52.5,2|0,1:2|1:0,0:0:0:0:
506,316,60960,2,0,P|457:298|408:315,1,105,2|2,1:2|1:2,0:0:0:0:
340,373,61433,1,2,3:2:0:0:
216,255,61749,6,0,L|216:207,2,47.2499985580445,2|2|2,0:0|0:0|0:0,0:0:0:0:
217,340,62223,2,0,P|166:324|124:345,1,94.499997116089,0|0,0:0|0:0,0:0:0:0:
55,377,62696,1,2,0:0:0:0:
55,377,62854,1,2,0:0:0:0:
1,215,63170,1,0,0:0:0:0:
148,127,63486,1,0,0:0:0:0:
148,127,63644,2,0,L|242:127,1,94.499997116089,0|2,3:0|0:0,0:0:0:0:
355,260,64275,5,2,0:0:0:0:
355,260,64433,2,0,P|331:256|308:259,1,47.2499985580445,2|0,0:0|0:0,0:0:0:0:
235,214,64749,2,0,P|252:256|238:300,1,94.499997116089,2|2,0:0|0:0,0:0:0:0:
177,360,65223,1,2,0:0:0:0:
8,175,65696,1,0,3:0:0:0:
8,175,65775,2,0,L|8:104,1,70.8749978370667,0|0,3:0|3:0,0:0:0:0:
8,20,66170,1,8,0:0:0:0:
282,214,66802,6,0,P|259:216|236:214,2,47.2499985580445,6|2|2,1:2|0:0|0:0,0:0:0:0:
347,159,67275,1,2,1:2:0:0:
347,159,67433,2,0,P|371:156|394:158,1,47.2499985580445,10|0,0:0|0:0,0:0:0:0:
477,177,67749,2,0,P|479:153|477:130,1,47.2499985580445,2|2,0:0|0:0,0:0:0:0:
413,72,68065,2,0,P|368:56|314:81,1,94.499997116089,2|2,0:0|1:2,0:0:0:0:
254,119,68539,2,0,P|208:135|154:110,1,94.499997116089,2|0,0:0|1:0,0:0:0:0:
112,54,69012,1,0,0:0:0:0:
3,185,69328,6,0,L|3:288,1,94.499997116089,2|2,1:2|0:0,0:0:0:0:
82,244,69802,1,2,1:2:0:0:
82,244,69960,2,0,L|82:354,1,94.499997116089,10|2,0:0|0:0,0:0:0:0:
249,370,70591,2,0,B|243:348|243:348|250:320,1,47.2499985580445,2|0,0:0|3:0,0:0:0:0:
306,259,70907,2,0,L|425:259,1,94.499997116089,0|8,1:0|0:0,0:0:0:0:
501,121,71539,2,0,L|453:121,1,47.2499985580445,2|0,0:0|0:0,0:0:0:0:
394,59,71854,6,0,P|397:35|394:12,2,47.2499985580445,2|2|2,1:2|0:0|0:0,0:0:0:0:
336,122,72328,1,0,1:0:0:0:
336,122,72486,1,10,0:0:0:0:
184,45,72802,2,0,L|136:45,1,47.2499985580445,2|2,0:0|0:0,0:0:0:0:
135,130,73118,2,0,L|191:130,1,47.2499985580445,2|2,0:0|3:2,0:0:0:0:
258,91,73433,1,2,1:2:0:0:
394,192,73749,2,0,L|394:255,2,47.2499985580445,10|0|0,0:0|1:0|0:0,0:0:0:0:
288,325,74381,6,0,P|265:328|241:325,1,47.2499985580445,2|0,1:2|0:0,0:0:0:0:
184,261,74696,2,0,P|181:238|184:214,1,47.2499985580445,2|0,0:0|1:0,0:0:0:0:
239,148,75012,2,0,L|286:148,1,47.2499985580445,10|2,0:0|0:0,0:0:0:0:
363,108,75328,1,2,0:0:0:0:
363,108,75486,1,2,0:0:0:0:
333,28,75644,2,0,B|275:19|275:19|248:32|248:32|190:23,1,141.749995674133,0|0,1:0|3:0,0:0:0:0:
158,14,76196,1,0,3:0:0:0:
158,14,76275,1,10,0:0:0:0:
77,40,76433,2,0,P|73:63|76:86,1,47.2499985580445,0|0,3:0|0:0,0:0:0:0:
134,149,76749,1,0,3:0:0:0:
46,235,76907,6,0,P|94:225|157:246,1,94.499997116089,6|2,1:2|0:0,0:0:0:0:
222,212,77381,1,0,1:0:0:0:
222,212,77539,2,0,P|226:235|223:258,1,47.2499985580445,10|2,0:0|0:0,0:0:0:0:
174,328,77854,1,2,0:0:0:0:
337,366,78170,2,0,B|318:323|318:323|346:257,1,94.499997116089,2|2,3:2|1:2,0:0:0:0:
394,216,78644,1,2,0:0:0:0:
394,216,78802,2,0,L|455:216,1,47.2499985580445,8|0,0:0|1:0,0:0:0:0:
438,130,79118,2,0,L|390:130,1,47.2499985580445,0|0,0:0|0:0,0:0:0:0:
316,171,79433,6,0,P|293:176|270:171,1,47.2499985580445,2|2,1:2|0:0,0:0:0:0:
196,128,79749,2,0,P|173:122|150:127,1,47.2499985580445,2|2,0:0|1:2,0:0:0:0:
88,187,80065,1,10,0:0:0:0:
88,187,80223,1,0,0:0:0:0:
33,121,80381,2,0,P|19:76|32:31,1,94.499997116089,2|2,0:0|3:2,0:0:0:0:
116,5,80854,1,0,3:0:0:0:
116,5,81012,1,0,1:0:0:0:
267,93,81328,1,8,0:0:0:0:
267,93,81486,1,0,1:0:0:0:
185,116,81644,2,0,L|185:52,1,47.2499985580445,2|2,0:0|0:0,0:0:0:0:
245,8,81960,6,0,L|339:8,1,94.499997116089,2|2,1:2|0:0,0:0:0:0:
417,52,82433,1,0,1:0:0:0:
417,52,82591,1,10,0:0:0:0:
312,187,82907,1,2,0:0:0:0:
312,187,83065,2,0,B|356:205|356:205|423:174,1,94.499997116089,2|2,0:0|0:0,0:0:0:0:
481,163,83539,2,0,L|481:243,1,47.2499985580445,0|2,1:0|0:0,0:0:0:0:
455,291,83854,2,0,P|477:296|501:292,2,47.2499985580445,8|0|0,0:0|1:0|0:0,0:0:0:0:
310,382,84486,6,0,L|310:326,1,47.2499985580445,2|2,1:2|0:0,0:0:0:0:
333,252,84802,2,0,P|309:248|286:253,1,47.2499985580445,0|2,0:0|1:2,0:0:0:0:
210,293,85118,2,0,L|141:291,2,47.2499985580445,10|2|2,0:0|0:0|0:0,0:0:0:0:
212,207,85591,2,0,L|118:207,1,94.499997116089,2|0,0:0|3:0,0:0:0:0:
78,210,85986,1,0,3:0:0:0:
78,210,86065,2,0,P|75:233|79:256,1,47.2499985580445,0|0,1:0|1:0,0:0:0:0:
162,291,86381,1,8,0:0:0:0:
102,356,86539,2,0,L|36:356,1,47.2499985580445,2|2,1:2|1:2,0:0:0:0:
0,291,86854,1,2,3:2:0:0:
118,207,87012,6,0,L|212:207,1,94.499997116089,6|0,1:2|0:0,0:0:0:0:
285,160,87486,1,2,1:2:0:0:
285,160,87644,2,0,P|272:203|286:249,1,94.499997116089,8|0,0:0|0:0,0:0:0:0:
346,309,88118,1,2,0:0:0:0:
459,183,88433,1,2,0:0:0:0:
459,183,88591,2,0,L|459:125,1,47.2499985580445,0|2,1:0|0:0,0:0:0:0:
511,68,88907,2,0,L|511:10,2,47.2499985580445,8|0|0,0:0|1:0|0:0,0:0:0:0:
352,4,89539,6,0,L|352:118,1,94.499997116089,2|2,1:2|0:0,0:0:0:0:
354,187,90012,1,2,1:2:0:0:
354,187,90170,2,0,P|309:173|257:196,1,94.499997116089,10|2,0:0|0:0,0:0:0:0:
205,249,90644,1,2,0:0:0:0:
72,150,90960,1,2,3:2:0:0:
72,150,91118,2,0,P|69:126|73:103,1,47.2499985580445,2|0,1:2|0:0,0:0:0:0:
133,44,91433,1,8,0:0:0:0:
133,44,91591,2,0,L|185:44,1,47.2499985580445,2|2,1:2|0:0,0:0:0:0:
257,7,91907,1,2,0:0:0:0:
361,93,92065,6,0,B|315:76|315:76|233:108,1,94.499997116089,0|0,1:0|0:0,0:0:0:0:
221,163,92539,1,2,1:2:0:0:
221,163,92696,2,0,L|221:257,1,94.499997116089,8|2,0:0|0:0,0:0:0:0:
221,342,93170,1,2,0:0:0:0:
359,237,93486,1,2,0:0:0:0:
359,237,93644,2,0,P|336:233|313:236,1,47.2499985580445,2|2,1:2|0:0,0:0:0:0:
336,318,93960,2,0,L|393:318,1,47.2499985580445,8|0,0:0|1:0,0:0:0:0:
459,279,94275,5,2,0:0:0:0:
256,192,94591,12,4,96328,0:3:0:0:
369,59,97118,6,0,L|369:170,1,105,6|0,1:2|0:0,0:0:0:0:
301,230,97591,1,2,1:2:0:0:
228,169,97749,2,0,B|179:152|179:152|109:177,1,105,8|0,0:0|0:0,0:0:0:0:
54,228,98223,2,0,L|54:281,1,52.5,2|0,0:0|0:0,0:0:0:0:
108,358,98539,1,2,0:0:0:0:
167,285,98696,2,0,B|193:276|193:276|216:285,1,52.5,0|2,1:0|0:0,0:0:0:0:
300,329,99012,2,0,P|315:275|297:224,1,105,10|2,0:0|0:0,0:0:0:0:
178,91,99644,5,2,1:2:0:0:
178,91,99802,2,0,P|203:96|228:92,1,52.5,2|0,0:0|0:0,0:0:0:0:
313,45,100118,1,2,1:2:0:0:
313,45,100275,2,0,P|338:39|363:43,1,52.5,10|0,0:0|0:0,0:0:0:0:
439,108,100591,1,2,0:0:0:0:
439,108,100749,2,0,B|432:132|415:154|415:154|433:177|439:200,1,105,2|0,0:0|0:0,0:0:0:0:
393,284,101223,2,0,P|367:287|341:282,1,52.5,2|2,1:2|0:0,0:0:0:0:
273,223,101539,1,10,0:0:0:0:
273,223,101696,1,2,1:2:0:0:
200,283,101854,2,0,P|194:308|198:334,1,52.5,6|2,1:2|0:0,0:0:0:0:
56,384,102170,6,0,P|75:334|50:275,1,105,6|0,1:2|0:0,0:0:0:0:
4,209,102644,1,2,1:2:0:0:
64,136,102802,2,0,L|171:136,1,105,8|0,0:0|0:0,0:0:0:0:
236,70,103275,2,0,L|298:70,1,52.5,2|0,0:0|0:0,0:0:0:0:
368,121,103591,1,2,0:0:0:0:
339,211,103749,2,0,P|334:236|340:261,1,52.5,0|2,1:0|0:0,0:0:0:0:
431,284,104065,2,0,P|451:236|431:188,1,105,10|2,0:0|0:0,0:0:0:0:
252,148,104696,5,2,1:2:0:0:
252,148,104854,2,0,L|183:148,1,52.5,2|0,0:0|0:0,0:0:0:0:
141,224,105170,1,2,1:2:0:0:
141,224,105328,2,0,L|72:224,1,52.5,10|0,0:0|0:0,0:0:0:0:
32,153,105644,1,2,0:0:0:0:
32,153,105802,2,0,P|12:105|32:57,1,105,2|0,0:0|0:0,0:0:0:0:
122,36,106275,2,0,P|127:61|121:86,1,52.5,2|0,1:2|1:0,0:0:0:0:
193,148,106591,2,0,P|218:154|243:149,1,52.5,8|0,0:0|1:0,0:0:0:0:
214,63,106907,1,2,0:0:0:0:
214,63,107065,1,2,0:0:0:0:
113,171,107223,6,0,P|99:230|115:275,1,105,6|0,1:2|0:0,0:0:0:0:
73,356,107696,2,0,P|123:342|172:356,1,105,2|0,1:2|0:0,0:0:0:0:
257,313,108170,2,0,P|233:263|283:214,1,105,2|0,0:0|0:0,0:0:0:0:
314,147,108644,1,0,0:0:0:0:
385,209,108802,2,0,L|466:209,1,52.5,2|0,1:2|0:0,0:0:0:0:
490,85,109118,6,0,L|385:85,1,105,8|2,0:0|0:0,0:0:0:0:
314,21,109591,1,2,0:0:0:0:
240,80,109749,6,0,B|191:95|191:95|135:78,1,105,2|0,1:2|0:0,0:0:0:0:
46,61,110223,2,0,B|61:113|61:113|46:161,1,105,2|0,1:2|0:0,0:0:0:0:
27,255,110696,2,0,B|79:239|79:239|127:254,1,105,2|0,0:0|0:0,0:0:0:0:
200,193,111170,1,0,0:0:0:0:
274,251,111328,2,0,P|299:254|325:251,1,52.5,2|0,1:2|0:0,0:0:0:0:
433,171,111644,6,0,P|411:220|432:269,1,105,8|4,0:0|1:2,0:0:0:0:
259,350,112275,6,0,L|140:350,1,105,4|0,1:2|0:0,0:0:0:0:
77,292,112749,1,2,1:2:0:0:
153,236,112907,2,0,B|170:187|170:187|150:130,1,105,8|0,0:0|0:0,0:0:0:0:
177,45,113381,2,0,B|151:37|151:37|126:44,1,52.5,2|4,0:0|0:0,0:0:0:0:
40,6,113696,1,2,0:0:0:0:
4,93,113854,2,0,L|4:171,1,52.5,2|2,1:2|0:0,0:0:0:0:
24,238,114170,2,0,P|73:223|122:239,1,105,10|2,0:0|0:0,0:0:0:0:
257,373,114802,6,0,P|239:326|259:279,1,105,6|0,1:2|0:0,0:0:0:0:
324,209,115275,1,2,1:2:0:0:
251,148,115433,2,0,L|181:148,1,52.5,8|0,0:0|0:0,0:0:0:0:
200,52,115749,2,0,L|252:52,1,52.5,2|0,0:0|0:0,0:0:0:0:
334,100,116065,1,2,0:0:0:0:
415,51,116223,2,0,L|415:-25,1,52.5,0|0,1:0|1:0,0:0:0:0:
512,33,116539,2,0,P|494:82|511:131,1,105,2|0,1:2|1:0,0:0:0:0:
502,224,117012,1,2,3:2:0:0:
377,292,117328,6,0,B|317:282|317:282|290:301|290:301|221:292,1,157.500006008148,4|8,0:0|0:0,0:0:0:0:
108,198,118275,2,0,L|108:140,1,39.3750015020371,2|2,0:0|0:0,0:0:0:0:
191,137,118591,2,0,L|191:227,1,78.7500030040742,2|2,0:0|0:0,0:0:0:0:
120,351,119223,1,10,0:0:0:0:
8,257,119539,6,0,L|7:92,1,157.500006008148,2|2,0:0|0:0,0:0:0:0:
116,0,120486,1,8,0:0:0:0:
239,87,120802,2,0,L|282:87,1,39.3750015020371,2|2,0:0|0:0,0:0:0:0:
301,8,121118,2,0,L|219:8,1,78.7500030040742,2|2,0:0|0:0,0:0:0:0:
106,110,121749,1,10,0:0:0:0:
221,208,122065,6,0,B|260:213|291:237|291:237|319:211|363:204,1,157.500006008148,2|2,0:0|0:0,0:0:0:0:
485,291,123012,1,8,0:0:0:0:
365,378,123328,2,0,B|320:371|292:345|292:345|261:368|222:374,1,157.500006008148,2|0,0:0|0:0,0:0:0:0:
97,287,124275,1,8,0:0:0:0:
221,200,124591,1,2,0:0:0:0:
112,96,124907,6,0,B|100:135|100:135|116:184,1,78.7500030040742,2|2,0:0|0:0,0:0:0:0:
192,288,125539,2,0,L|274:288,1,78.7500030040742,10|2,0:0|0:0,0:0:0:0:
396,190,126170,1,2,0:0:0:0:
282,104,126486,1,2,0:0:0:0:
393,8,126802,2,0,L|471:8,1,78.7500030040742,10|2,0:0|0:0,0:0:0:0:
512,87,127275,1,0,0:0:0:0:
512,87,127433,6,0,L|512:199,2,94.499997116089,6|0|8,0:0|0:0|0:0,0:0:0:0:
351,143,128381,2,0,L|398:143,1,47.2499985580445,0|0,0:0|0:0,0:0:0:0:
424,228,128696,1,2,1:2:0:0:
424,228,128854,2,0,B|377:242|377:242|324:224,1,94.499997116089,2|2,0:0|0:0,0:0:0:0:
262,180,129328,2,0,B|276:226|276:226|258:279,1,94.499997116089,10|2,0:0|0:0,0:0:0:0:
229,351,129802,1,2,0:0:0:0:
229,351,129960,6,0,L|328:351,2,94.499997116089,2|0|8,0:0|0:0|0:0,0:0:0:0:
86,267,130907,1,0,0:0:0:0:
86,267,131065,2,0,L|194:267,1,94.499997116089,2|2,0:0|0:0,0:0:0:0:
250,217,131539,2,0,B|256:193|256:193|245:154,1,47.2499985580445,2|0,0:0|0:0,0:0:0:0:
295,99,131854,2,0,P|250:84|206:98,1,94.499997116089,10|2,0:0|0:0,0:0:0:0:
136,144,132328,1,2,0:0:0:0:
136,144,132486,6,0,L|11:144,2,94.499997116089,2|0|8,0:0|0:0|0:0,0:0:0:0:
292,221,133433,1,0,0:0:0:0:
292,221,133591,2,0,B|276:264|276:264|297:329,1,94.499997116089,0|0,0:0|0:0,0:0:0:0:
352,371,134065,1,2,0:0:0:0:
452,233,134381,2,0,L|452:138,1,94.499997116089,10|2,0:0|0:0,0:0:0:0:
403,75,134854,1,0,0:0:0:0:
403,75,135012,6,0,L|298:75,1,94.499997116089,2|2,1:2|1:2,0:0:0:0:
172,178,135644,2,0,L|272:178,1,94.499997116089,10|2,1:2|1:2,0:0:0:0:
348,147,136118,1,0,0:0:0:0:
348,147,136275,2,0,L|359:209,1,47.2499985580445,2|0,1:2|1:0,0:0:0:0:
441,185,136591,2,0,L|430:247,1,47.2499985580445,2|0,1:2|1:0,0:0:0:0:
405,314,136907,1,10,1:2:0:0:
405,314,137065,1,0,1:0:0:0:
329,274,137223,1,2,1:2:0:0:
266,371,137381,5,0,1:0:0:0:
187,182,145118,6,0,L|136:182,2,47.2499985580445,2|2|2,0:0|0:0|0:0,0:0:0:0:
258,136,145591,2,0,P|272:178|254:227,1,94.499997116089,0|0,0:0|0:0,0:0:0:0:
189,276,146065,1,2,0:0:0:0:
189,276,146223,1,2,0:0:0:0:
46,182,146539,1,0,0:0:0:0:
150,48,146854,1,0,0:0:0:0:
150,48,147012,2,0,B|192:34|192:34|260:54,1,94.499997116089,0|2,3:0|0:0,0:0:0:0:
403,111,147644,5,2,0:0:0:0:
403,111,147802,2,0,P|378:116|341:105,1,47.2499985580445,2|0,0:0|0:0,0:0:0:0:
274,137,148118,2,0,L|274:234,1,94.499997116089,2|2,0:0|0:0,0:0:0:0:
274,316,148591,1,2,0:0:0:0:
427,239,148907,1,0,0:0:0:0:
427,239,149065,2,0,L|427:191,1,47.2499985580445,0|0,0:0|0:0,0:0:0:0:
470,119,149381,1,0,0:0:0:0:
470,119,149539,2,0,B|427:101|427:101|374:120,1,94.499997116089,2|2,3:2|0:0,0:0:0:0:
222,58,150170,6,0,P|197:63|160:52,2,47.2499985580445,2|2|0,0:0|0:0|0:0,0:0:0:0:
296,15,150644,2,0,P|311:59|290:107,1,94.499997116089,0|0,0:0|0:0,0:0:0:0:
232,160,151118,1,2,0:0:0:0:
232,160,151275,1,2,0:0:0:0:
362,269,151591,1,0,0:0:0:0:
231,377,151907,1,0,0:0:0:0:
231,377,152065,2,0,L|131:377,1,94.499997116089,0|2,3:0|0:0,0:0:0:0:
14,267,152696,5,2,0:0:0:0:
14,267,152854,1,2,0:0:0:0:
139,151,153170,2,0,B|157:194|157:194|136:246,1,94.499997116089,2|2,0:0|0:0,0:0:0:0:
90,308,153644,2,0,P|151:282|200:328,1,141.749995674133,2|0,0:0|0:0,0:0:0:0:
272,382,154275,1,2,0:0:0:0:
272,382,154433,2,0,B|288:351|290:321|290:321|272:274|272:274|294:244|296:203,1,188.999994232178,2|0,0:0|0:0,0:0:0:0:
233,132,155223,6,0,L|113:132,1,105,6|0,1:2|0:0,0:0:0:0:
49,78,155696,1,2,1:2:0:0:
129,27,155854,2,0,L|234:27,1,105,8|0,0:0|0:0,0:0:0:0:
313,78,156328,2,0,B|337:85|337:85|372:76,1,52.5,2|0,0:0|0:0,0:0:0:0:
455,55,156644,1,2,0:0:0:0:
499,138,156802,2,0,L|499:207,1,52.5,0|2,1:0|0:0,0:0:0:0:
422,246,157118,2,0,P|400:199|413:149,1,105,10|2,0:0|0:0,0:0:0:0:
490,322,157749,5,2,1:2:0:0:
490,322,157907,2,0,L|438:332,1,52.5,2|0,0:0|0:0,0:0:0:0:
356,377,158223,1,2,1:2:0:0:
356,377,158381,2,0,L|304:367,1,52.5,10|0,0:0|0:0,0:0:0:0:
231,315,158696,1,2,0:0:0:0:
231,315,158854,2,0,P|246:275|222:202,1,105,2|0,0:0|0:0,0:0:0:0:
173,141,159328,2,0,L|104:141,1,52.5,2|2,1:2|0:0,0:0:0:0:
43,194,159644,1,10,0:0:0:0:
43,194,159802,1,2,1:2:0:0:
103,265,159960,2,0,L|102:317,1,52.5,6|2,1:2|0:0,0:0:0:0:
239,384,160275,6,0,B|218:339|218:339|251:275,1,105,6|0,1:2|0:0,0:0:0:0:
298,212,160749,1,2,1:2:0:0:
372,269,160907,2,0,L|484:269,1,105,8|0,0:0|0:0,0:0:0:0:
509,179,161381,2,0,L|448:179,1,52.5,2|0,0:0|0:0,0:0:0:0:
378,126,161696,1,2,0:0:0:0:
448,62,161854,2,0,B|454:35|454:35|443:2,1,52.5,0|2,1:0|0:0,0:0:0:0:
353,34,162170,2,0,L|245:34,1,105,10|2,0:0|0:0,0:0:0:0:
89,136,162802,5,2,1:2:0:0:
89,136,162960,2,0,P|119:129|151:140,1,52.5,2|0,0:0|0:0,0:0:0:0:
211,188,163275,1,2,1:2:0:0:
211,188,163433,2,0,P|241:195|273:184,1,52.5,10|0,0:0|0:0,0:0:0:0:
344,139,163749,1,2,0:0:0:0:
344,139,163907,2,0,B|365:186|365:186|347:234,1,105,2|0,0:0|0:0,0:0:0:0:
265,284,164381,2,0,L|212:284,1,52.5,2|0,1:2|1:0,0:0:0:0:
127,256,164696,2,0,L|127:308,1,52.5,8|0,0:0|1:0,0:0:0:0:
202,371,165012,1,2,0:0:0:0:
202,371,165170,1,2,0:0:0:0:
192,203,165328,6,0,L|192:74,1,105,6|0,1:2|0:0,0:0:0:0:
110,49,165802,2,0,L|110:171,1,105,2|0,1:2|0:0,0:0:0:0:
31,206,166275,2,0,P|50:253|32:301,1,105,2|0,0:0|0:0,0:0:0:0:
94,374,166749,1,0,0:0:0:0:
160,306,166907,2,0,P|185:300|210:306,1,52.5,2|0,1:2|0:0,0:0:0:0:
322,382,167223,6,0,P|303:346|335:276,1,105,8|2,0:0|0:0,0:0:0:0:
382,213,167696,1,2,0:0:0:0:
460,264,167854,6,0,B|477:215|477:215|455:151,1,105,2|0,1:2|0:0,0:0:0:0:
395,101,168328,2,0,L|285:101,1,105,2|0,1:2|0:0,0:0:0:0:
209,60,168802,2,8,B|192:109|192:109|214:173,1,105,2|0,0:2|0:0,0:0:0:0:
237,243,169275,1,0,0:0:0:0:
160,288,169433,2,0,L|103:288,1,52.5,2|0,1:2|0:0,0:0:0:0:
25,168,169749,6,0,P|61:185|127:164,1,105,8|4,0:0|1:2,0:0:0:0:
235,16,170381,6,0,B|220:61|220:61|237:120,1,105,4|0,1:2|0:0,0:0:0:0:
286,196,170854,1,2,1:2:0:0:
334,116,171012,2,0,P|278:100|229:121,1,105,8|0,0:0|0:0,0:0:0:0:
183,195,171486,2,0,P|179:220|181:246,1,52.5,2|4,0:0|0:0,0:0:0:0:
236,323,171802,1,2,0:0:0:0:
321,282,171960,2,0,B|373:282,1,52.5,2|2,1:2|0:0,0:0:0:0:
468,283,172275,2,0,P|449:235|467:188,1,105,10|2,0:0|0:0,0:0:0:0:
494,33,172907,6,0,P|447:51|400:31,1,105,6|0,1:2|0:0,0:0:0:0:
306,13,173381,1,2,1:2:0:0:
258,94,173539,2,0,B|263:120|263:120|254:163,1,52.5,8|0,0:0|0:0,0:0:0:0:
351,152,173854,2,0,B|345:126|345:126|351:100,1,52.5,2|0,0:0|0:0,0:0:0:0:
441,131,174170,1,2,0:0:0:0:
410,220,174328,2,0,P|393:268|411:317,1,105,2|0,1:2|1:0,0:0:0:0:
342,382,174802,2,0,L|290:382,1,52.5,8|0,0:0|1:0,0:0:0:0:
211,328,175118,1,2,3:2:0:0:
272,200,175433,6,0,B|134:152|194:249|74:202|74:202|114:201|137:181,1,275.62501051426,6|0,1:2|0:0,0:0:0:0:
181,104,176696,6,0,B|244:92|302:120|302:120|319:53|319:53|356:69|411:56,1,275.62501051426,4|0,1:2|0:0,0:0:0:0:
473,103,177960,5,0,1:2:0:0:
256,192,178118,12,0,180486,0:0:0:0:
