osu file format v14

[General]
AudioFilename: audio.mp3
AudioLeadIn: 0
PreviewTime: 40907
Countdown: 0
SampleSet: Soft
StackLeniency: 0.7
Mode: 0
LetterboxInBreaks: 0
WidescreenStoryboard: 0

[Editor]
Bookmarks: 11223,31433,41539,61749,66802,87012,97118,117328,117486,117644,117802,117960,118118,118275,118433,118591,118749,118907,119065,119223,119381,119539,119696,119854,120012,120170,120328,120486,120644,120802,120960,121118,121275,121433,121591,121749,121907,122065,122223,122381,122539,122696,122854,123012,123170,123328,123486,123644,123802,123960,124118,124275,124433,124591,124749,124907,125065,125223,125381,125539,125696,125854,126012,126170,126328,126486,126644,126802,126960,127118,127275,127433,137539,137696,137854,138012,138170,138328,138486,138644,138802,138960,139117,139275,139433,139591,139749,139907,140065,140223,140381,140539,140696,140854,141012,141170,141328,141486,141644,141802,141960,142117,142275,142433,142591,145117,155223,175433
DistanceSpacing: 1.2
BeatDivisor: 8
GridSize: 32
TimelineZoom: 1

[Metadata]
Title:Hanataba ni Komete
TitleUnicode:花束に込めて
Artist:fumika
ArtistUnicode:fumika
Creator:Iceluin
Version:Normal
Source:
Tags:Shirahane Suou japanese VARIOUSELF christmas xmas jpop pop j-pop
BeatmapID:2731343
BeatmapSetID:1318438

[Difficulty]
HPDrainRate:4
CircleSize:3
OverallDifficulty:5
ApproachRate:5
SliderMultiplier:1.6
SliderTickRate:1

[Events]
//Background and Video events
0,0,"hanataba.png",0,0
//Break Periods
2,117528,126233
2,137581,141391
//Storyboard Layer 0 (Background)
//Storyboard Layer 1 (Fail)
//Storyboard Layer 2 (Pass)
//Storyboard Layer 3 (Foreground)
//Storyboard Layer 4 (Overlay)
//Storyboard Sound Samples

[TimingPoints]
1118,631.578947368421,4,2,1,45,1,0
1118,-100,4,2,1,45,0,0
11223,-100,4,2,1,55,0,0
18486,-100,4,2,3,55,0,0
18802,-100,4,2,1,55,0,0
31433,-100,4,2,1,65,0,0
41539,-100,4,2,2,75,0,1
61433,-100,4,2,1,75,0,1
61749,-100,4,2,1,45,0,0
66802,-100,4,2,1,60,0,0
87012,-100,4,2,1,65,0,0
94591,-100,4,2,1,45,0,0
95933,-100,4,2,1,5,0,0
96012,-100,4,2,1,45,0,0
97118,-100,4,2,2,75,0,1
117012,-100,4,2,1,75,0,1
117328,-100,4,2,1,45,0,0
127433,-100,4,2,1,50,0,0
137539,-100,4,2,1,35,0,0
145117,-100,4,2,1,45,0,0
155144,-100,4,2,1,5,0,0
155223,-100,4,2,2,75,0,1
175117,-100,4,2,1,75,0,1
175433,-117.647058823529,4,2,1,55,0,0
178117,-117.647058823529,5,2,1,5,0,0

[Colours]
Combo1 : 255,255,119
Combo2 : 255,72,72
Combo3 : 0,225,0
Combo4 : 253,147,232

[HitObjects]
112,320,1118,6,0,L|192:320,1,80,2|2,0:0|0:0,0:0:0:0:
231,286,1591,2,0,P|242:248|230:210,1,80,0|0,0:0|0:0,0:0:0:0:
192,174,2065,2,0,L|152:174,1,40,2|2,0:0|0:0,0:0:0:0:
152,69,2539,2,0,L|232:69,1,80,0|0,0:0|0:0,0:0:0:0:
274,38,3012,1,0,3:0:0:0:
352,105,3328,1,2,0:0:0:0:
431,38,3644,5,2,0:0:0:0:
431,38,3802,2,0,P|468:26|507:37,1,80,2|2,0:0|0:0,0:0:0:0:
470,134,4433,1,2,0:0:0:0:
470,134,4591,2,0,B|433:180|457:237|478:217|501:274|467:320,1,200,2|0,0:0|0:0,0:0:0:0:
428,356,5539,1,2,3:2:0:0:
360,277,5854,1,2,0:0:0:0:
292,356,6170,6,0,L|212:356,1,80,2|2,0:0|0:0,0:0:0:0:
170,324,6644,2,0,B|151:287|151:287|170:253,1,80
212,223,7118,2,0,L|252:223,1,40,2|2,0:0|0:0,0:0:0:0:
252,118,7591,2,0,L|172:118,1,80,0|0,0:0|0:0,0:0:0:0:
134,153,8065,1,0,3:0:0:0:
67,72,8381,1,2,0:0:0:0:
0,153,8696,6,0,L|0:234,1,80,2|0,0:0|0:0,0:0:0:0:
0,285,9170,2,0,P|37:296|75:285,1,80,2|0,0:0|0:0,0:0:0:0:
116,252,9644,2,0,P|153:240|191:251,1,80,2|0,0:0|0:0,0:0:0:0:
232,285,10118,1,2,3:2:0:0:
308,215,10433,1,0,3:0:0:0:
308,215,10591,2,0,B|308:135,1,80,8|0,0:0|3:0,0:0:0:0:
412,135,11223,6,0,B|412:215,1,80,6|2,1:2|0:0,0:0:0:0:
443,256,11696,1,2,1:2:0:0:
443,256,11854,2,0,P|456:292|443:329,1,80,10|2,0:0|0:0,0:0:0:0:
347,370,12486,2,0,L|267:370,1,80,2|2,0:0|1:2,0:0:0:0:
214,370,12960,1,2,0:0:0:0:
214,370,13118,1,8,0:0:0:0:
138,298,13433,1,0,0:0:0:0:
214,227,13749,6,0,B|252:243|252:243|288:228,1,80,2|0,1:2|0:0,0:0:0:0:
330,198,14223,1,2,1:2:0:0:
330,198,14381,2,0,P|367:187|405:197,2,80,10|2|2,0:0|0:0|0:0,0:0:0:0:
248,132,15328,1,0,1:0:0:0:
330,68,15644,2,0,P|367:78|405:68,1,80,8|2,0:0|0:0,0:0:0:0:
452,45,16118,1,0,0:0:0:0:
452,45,16275,6,0,L|452:5,2,40,2|2|2,1:2|0:0|0:0,0:0:0:0:
512,131,16907,2,0,L|512:224,1,80,10|2,0:0|0:0,0:0:0:0:
472,245,17381,1,2,0:0:0:0:
472,245,17539,2,0,L|432:245,2,40,2|2|2,0:0|3:2|1:2,0:0:0:0:
472,349,18170,2,0,L|392:349,1,80,10|2,0:0|0:3,0:0:0:0:
312,281,18802,6,0,B|293:273|293:273|275:280,1,40,2|0,1:2|0:0,0:0:0:0:
231,308,19118,2,0,B|212:316|212:316|194:308,1,40,2|0,0:0|1:0,0:0:0:0:
150,280,19433,2,0,L|70:280,1,80,10|2,0:0|0:0,0:0:0:0:
70,175,20065,2,0,L|150:175,1,80,2|0,3:2|1:0,0:0:0:0:
202,175,20539,1,0,3:0:0:0:
202,175,20696,2,0,L|202:128,1,40,8|0,0:0|1:0,0:0:0:0:
202,82,21012,1,0,0:0:0:0:
299,46,21328,6,0,B|315:83|315:83|299:119,1,80,2|2,1:2|0:0,0:0:0:0:
331,160,21802,1,0,1:0:0:0:
331,160,21960,2,0,L|411:160,1,80,10|2,0:0|0:0,0:0:0:0:
488,229,22591,2,0,B|504:266|504:266|488:302,1,80,2|0,3:2|1:0,0:0:0:0:
460,346,23065,1,2,0:0:0:0:
460,346,23223,1,8,0:0:0:0:
387,271,23539,1,0,0:0:0:0:
315,346,23854,6,0,P|278:357|240:347,1,80,2|2,1:2|0:0,0:0:0:0:
206,305,24328,1,0,1:0:0:0:
206,305,24486,2,0,L|126:305,2,80,10|2|2,0:0|0:0|3:2,0:0:0:0:
278,230,25433,1,0,1:0:0:0:
206,154,25749,2,0,L|126:154,1,80,8|2,0:0|0:0,0:0:0:0:
85,187,26223,1,0,0:0:0:0:
85,187,26381,6,0,B|94:204|94:204|85:224,2,40,2|2|2,1:2|0:0|0:0,0:0:0:0:
44,154,26854,1,2,1:2:0:0:
44,154,27012,1,10,0:0:0:0:
88,59,27328,2,0,L|142:59,1,40,2|2,0:0|0:0,0:0:0:0:
180,59,27644,2,0,B|171:42|171:42|180:22,2,40,2|2|2,3:2|0:0|1:2,0:0:0:0:
274,102,28275,2,0,L|357:102,1,80,10|2,0:0|0:0,0:0:0:0:
449,60,28907,6,0,P|460:98|449:141,1,80,2|2,1:2|0:0,0:0:0:0:
418,177,29381,2,0,P|409:215|420:253,1,80,2|0,1:2|0:0,0:0:0:0:
451,295,29854,2,0,L|371:295,1,80,2|0,0:0|3:0,0:0:0:0:
318,295,30328,1,0,3:0:0:0:
318,295,30486,1,0,1:0:0:0:
235,231,30802,2,0,L|235:191,1,40,8|2,0:0|1:2,0:0:0:0:
235,138,31118,1,0,1:0:0:0:
152,74,31433,6,0,P|114:65|76:76,1,80,6|0,1:2|0:0,0:0:0:0:
27,97,31907,1,2,1:2:0:0:
27,97,32065,2,0,L|27:177,1,80,8|2,0:0|0:0,0:0:0:0:
8,279,32696,1,0,3:0:0:0:
8,279,32854,2,0,B|28:286|28:286|45:278,1,40,2|0,0:0|1:0,0:0:0:0:
119,204,33328,2,0,L|119:164,2,40,8|0|0,0:0|1:0|0:0,0:0:0:0:
192,278,33960,6,0,B|230:293|230:293|266:277,1,80,2|2,1:2|0:0,0:0:0:0:
311,253,34433,1,2,1:2:0:0:
311,253,34591,1,10,0:0:0:0:
404,298,34907,1,2,0:0:0:0:
465,213,35223,1,0,3:0:0:0:
465,213,35381,2,0,B|465:173,1,40,0|0,3:0|1:0,0:0:0:0:
388,102,35854,2,0,B|388:49,2,40,8|2|2,0:0|1:2|0:0,0:0:0:0:
311,173,36486,6,0,L|311:253,1,80,0|0,1:0|0:0,0:0:0:0:
311,305,36960,1,2,1:2:0:0:
311,305,37118,2,0,P|273:316|230:305,1,80,8|2,0:0|0:0,0:0:0:0:
145,253,37749,1,0,3:0:0:0:
145,253,37907,2,0,B|128:245|128:245|108:252,1,40,2|0,0:0|1:0,0:0:0:0:
36,176,38381,2,0,B|16:183|16:183|-1:175,2,40,8|0|2,0:0|1:0|0:0,0:0:0:0:
107,99,39012,6,0,B|180:130|180:130|254:99,1,160,2|2,0:0|0:0,0:0:0:0:
391,254,40275,2,0,B|317:222|317:222|243:253,1,160,2|0,0:0|1:0,0:0:0:0:
38,290,41539,6,0,B|20:253|20:253|36:218,1,80,6|0,1:2|0:0,0:0:0:0:
69,177,42012,1,2,1:2:0:0:
69,177,42170,2,0,L|69:97,1,80,8|0,0:0|0:0,0:0:0:0:
105,59,42644,2,0,P|142:46|179:58,1,80,2|2,0:0|0:0,0:0:0:0:
214,97,43118,1,0,1:0:0:0:
311,60,43433,2,0,B|329:97|329:97|312:131,1,80,10|2,0:0|0:0,0:0:0:0:
266,226,44065,5,2,1:2:0:0:
266,226,44223,1,2,0:0:0:0:
341,299,44539,1,2,1:2:0:0:
341,299,44696,1,10,0:0:0:0:
435,250,45012,1,2,0:0:0:0:
435,250,45170,2,0,B|417:213|417:213|433:178,1,80,2|0,0:0|0:0,0:0:0:0:
458,131,45644,1,2,1:2:0:0:
381,60,45960,2,0,L|341:60,1,40,10|2,0:0|1:2,0:0:0:0:
288,60,46275,1,6,1:2:0:0:
190,23,46591,6,0,P|179:60|190:98,1,80,6|0,1:2|0:0,0:0:0:0:
229,132,47065,1,2,1:2:0:0:
229,132,47223,2,0,P|239:169|228:207,1,80,8|0,0:0|0:0,0:0:0:0:
190,245,47696,2,0,L|190:325,1,80,2|2,0:0|0:0,0:0:0:0:
190,377,48170,1,0,1:0:0:0:
85,377,48486,2,0,L|85:297,1,80,10|2,0:0|0:0,0:0:0:0:
32,203,49118,5,2,1:2:0:0:
32,203,49275,1,2,0:0:0:0:
102,126,49591,1,2,1:2:0:0:
102,126,49749,1,10,0:0:0:0:
199,169,50065,1,2,0:0:0:0:
199,169,50223,2,0,L|279:169,1,80,2|0,0:0|0:0,0:0:0:0:
331,169,50696,1,2,1:2:0:0:
331,64,51012,2,0,L|271:64,1,40,8|0,0:0|1:0,0:0:0:0:
238,64,51328,1,2,0:0:0:0:
143,19,51644,6,0,P|105:8|67:19,1,80,6|0,1:2|0:0,0:0:0:0:
27,53,52118,1,2,1:2:0:0:
27,53,52275,1,8,0:0:0:0:
102,126,52591,2,0,B|127:184|77:184|101:241,1,120,2|0,0:0|0:0,0:0:0:0:
137,279,53223,1,2,1:2:0:0:
221,218,53539,2,0,L|301:218,1,80,8|2,0:0|0:0,0:0:0:0:
378,148,54170,6,0,L|458:148,1,80,2|0,1:2|0:0,0:0:0:0:
510,148,54644,1,2,1:2:0:0:
510,148,54802,1,8,0:0:0:0:
510,252,55118,2,0,B|458:252|458:252|445:264|445:264|394:264,1,120,2|0,0:0|0:0,0:0:0:0:
361,303,55749,1,2,1:2:0:0:
301,218,56065,2,0,L|261:218,1,40,8|0,0:0|1:0,0:0:0:0:
208,218,56381,1,4,1:2:0:0:
149,303,56696,6,0,B|112:321|112:321|77:305,1,80,4|0,1:2|0:0,0:0:0:0:
29,282,57170,1,2,1:2:0:0:
29,282,57328,2,0,L|29:202,1,80,8|0,0:0|0:0,0:0:0:0:
113,141,57960,2,0,L|113:61,1,80,4|2,0:0|1:2,0:0:0:0:
146,21,58433,1,2,0:0:0:0:
146,21,58591,2,0,P|184:10|222:21,1,80,10|2,0:0|0:0,0:0:0:0:
288,101,59223,6,0,B|306:138|306:138|290:173,1,80,6|0,1:2|0:0,0:0:0:0:
261,216,59696,2,0,B|245:251|245:251|263:288,1,80,2|0,1:2|0:0,0:0:0:0:
289,333,60170,2,0,L|369:333,1,80,2|2,0:2|0:0,0:0:0:0:
421,333,60644,1,2,1:2:0:0:
421,333,60802,1,0,1:0:0:0:
488,253,61118,2,0,L|488:213,1,40,8|2,0:0|1:2,0:0:0:0:
488,160,61433,1,2,3:2:0:0:
417,83,61749,6,0,P|379:71|341:81,1,80,2|2,0:0|0:0,0:0:0:0:
303,117,62223,2,0,P|265:128|227:118,1,80,0|0,0:0|0:0,0:0:0:0:
190,81,62696,2,0,L|190:41,1,40,2|2,0:0|0:0,0:0:0:0:
85,41,63170,2,0,L|85:121,1,80,0|0,0:0|0:0,0:0:0:0:
85,173,63644,1,0,3:0:0:0:
11,246,63960,1,2,0:0:0:0:
85,318,64275,5,2,0:0:0:0:
85,318,64433,2,0,P|122:330|161:319,1,80,2|2,0:0|0:0,0:0:0:0:
227,238,65065,1,2,0:0:0:0:
227,238,65223,2,0,B|227:118,1,120,2|0,0:0|3:0,0:0:0:0:
301,44,66012,1,0,3:0:0:0:
301,44,66170,1,8,0:0:0:0:
437,200,66802,6,0,B|453:238|453:238|438:274,1,80,6|2,1:2|0:0,0:0:0:0:
409,317,67275,1,2,1:2:0:0:
409,317,67433,2,0,L|329:317,1,80,10|2,0:0|0:0,0:0:0:0:
239,371,68065,2,0,L|159:371,1,80,2|2,0:0|1:2,0:0:0:0:
106,371,68539,1,2,0:0:0:0:
106,371,68696,1,8,0:0:0:0:
34,295,69012,1,0,0:0:0:0:
110,224,69328,6,0,B|126:186|126:186|111:150,1,80,2|2,1:2|0:0,0:0:0:0:
75,111,69802,1,2,1:2:0:0:
75,111,69960,2,0,P|38:122|0:112,2,80,10|2|2,0:0|0:0|0:0,0:0:0:0:
158,48,70907,1,0,1:0:0:0:
240,111,71223,2,0,P|277:121|315:111,1,80,8|2,0:0|0:0,0:0:0:0:
358,79,71696,1,0,0:0:0:0:
358,79,71854,6,0,L|358:39,2,40,2|2|2,1:2|0:0|0:0,0:0:0:0:
440,142,72486,2,0,B|456:180|456:180|441:216,1,80,10|2,0:0|0:0,0:0:0:0:
413,259,72960,1,2,0:0:0:0:
413,259,73118,2,0,L|373:259,2,40,2|2|2,0:0|3:2|1:2,0:0:0:0:
413,363,73749,2,0,L|333:363,1,80,10|0,0:0|0:0,0:0:0:0:
271,278,74381,6,0,B|263:259|263:259|270:241,1,40,2|0,1:2|0:0,0:0:0:0:
293,194,74696,2,0,B|301:175|301:175|293:157,1,40,2|0,0:0|1:0,0:0:0:0:
270,110,75012,2,0,L|190:110,1,80,10|2,0:0|0:0,0:0:0:0:
99,57,75644,2,0,B|109:79|109:79|92:111|92:111|109:143|109:143|100:163,1,120,0|0,1:0|3:0,0:0:0:0:
70,207,76275,2,0,L|70:247,1,40,10|0,0:0|3:0,0:0:0:0:
70,299,76591,1,0,0:0:0:0:
167,336,76907,6,0,B|183:299|183:299|167:263,1,80,6|2,1:2|0:0,0:0:0:0:
202,224,77381,1,0,1:0:0:0:
202,224,77539,2,0,L|282:224,1,80,10|2,0:0|0:0,0:0:0:0:
379,260,78170,2,0,B|395:223|395:223|379:187,1,80,2|2,3:2|1:2,0:0:0:0:
349,143,78644,1,2,0:0:0:0:
349,143,78802,1,8,0:0:0:0:
420,68,79118,1,0,0:0:0:0:
491,143,79433,6,0,B|475:180|475:180|491:216,1,80,2|2,1:2|0:0,0:0:0:0:
512,264,79907,1,2,1:2:0:0:
512,264,80065,2,0,B|528:301|528:301|512:337,1,80,10|2,0:0|0:0,0:0:0:0:
475,375,80539,1,2,0:0:0:0:
475,375,80696,1,2,3:2:0:0:
399,303,81012,1,0,1:0:0:0:
308,355,81328,2,0,L|228:355,1,80,8|2,0:0|0:0,0:0:0:0:
228,250,81960,6,0,L|308:250,1,80,2|2,1:2|0:0,0:0:0:0:
347,216,82433,1,0,1:0:0:0:
347,216,82591,2,0,P|357:179|347:141,1,80,10|2,0:0|0:0,0:0:0:0:
308,103,83065,2,0,L|228:103,1,80,2|2,0:0|0:0,0:0:0:0:
175,103,83539,1,0,1:0:0:0:
77,68,83854,2,0,B|61:105|61:105|77:141,1,80,8|0,0:0|0:0,0:0:0:0:
35,237,84486,6,0,P|73:248|116:237,1,80,2|0,1:2|0:0,0:0:0:0:
150,204,84960,2,0,P|188:193|231:204,1,80,2|2,1:2|0:0,0:0:0:0:
262,239,85433,2,0,L|262:336,1,80,2|0,0:0|3:0,0:0:0:0:
262,371,85907,1,0,3:0:0:0:
262,371,86065,1,0,1:0:0:0:
366,371,86381,2,0,L|366:331,1,40,8|2,0:0|1:2,0:0:0:0:
366,278,86696,1,2,1:2:0:0:
440,205,87012,6,0,B|456:169|456:169|440:132,1,80,6|0,1:2|0:0,0:0:0:0:
405,90,87486,1,2,1:2:0:0:
405,90,87644,2,0,P|368:79|330:90,1,80,8|0,0:0|0:0,0:0:0:0:
235,131,88275,1,0,3:0:0:0:
235,131,88433,2,0,B|195:131,1,40,2|0,0:0|1:0,0:0:0:0:
124,54,88907,2,0,L|124:14,2,40,8|0|0,0:0|1:0|0:0,0:0:0:0:
54,131,89539,6,0,L|54:211,1,80,2|2,1:2|0:0,0:0:0:0:
54,263,90012,1,2,1:2:0:0:
54,263,90170,1,10,0:0:0:0:
121,342,90486,1,2,0:0:0:0:
222,319,90802,1,0,3:0:0:0:
222,319,90960,2,0,B|262:319,1,40,2|2,3:2|1:2,0:0:0:0:
340,250,91433,2,0,B|359:244|359:244|377:250,2,40,8|2|2,0:0|1:2|0:0,0:0:0:0:
262,180,92065,6,0,P|250:142|261:104,1,80,0|0,1:0|0:0,0:0:0:0:
297,66,92539,1,2,1:2:0:0:
297,66,92696,2,0,L|377:66,1,80,8|2,0:0|0:0,0:0:0:0:
451,138,93328,1,0,3:0:0:0:
451,138,93486,2,0,B|451:178,1,40,2|2,0:0|1:2,0:0:0:0:
377,250,93960,2,0,B|359:244|359:244|340:250,2,40,8|0|2,0:0|1:0|0:0,0:0:0:0:
451,323,94591,5,2,0:0:0:0:
195,131,96012,2,0,L|143:131,1,40,8|8,0:3|0:3,0:0:0:0:
102,131,96328,1,4,0:3:0:0:
31,207,96644,1,4,0:3:0:0:
31,207,96802,1,4,0:3:0:0:
102,282,97118,6,0,B|182:282,1,80,6|0,1:2|0:0,0:0:0:0:
221,315,97591,1,2,1:2:0:0:
221,315,97749,2,0,L|301:315,1,80,8|0,0:0|0:0,0:0:0:0:
353,315,98223,2,0,P|365:277|353:240,1,80,2|2,0:0|0:0,0:0:0:0:
321,199,98696,1,0,1:0:0:0:
358,102,99012,2,0,B|321:84|321:84|287:101,1,80,10|2,0:0|0:0,0:0:0:0:
189,59,99644,5,2,1:2:0:0:
189,59,99802,1,2,0:0:0:0:
120,138,100118,1,2,1:2:0:0:
120,138,100275,1,10,0:0:0:0:
174,229,100591,1,2,0:0:0:0:
174,229,100749,2,0,B|174:325,1,80,2|0,0:0|0:0,0:0:0:0:
174,361,101223,1,2,1:2:0:0:
69,361,101539,2,0,L|69:321,1,40,10|2,0:0|1:2,0:0:0:0:
69,268,101854,1,6,1:2:0:0:
11,181,102170,6,0,P|0:144|11:106,1,80,6|0,1:2|0:0,0:0:0:0:
38,60,102644,1,2,1:2:0:0:
38,60,102802,2,0,B|75:42|75:42|109:59,1,80,8|0,0:0|0:0,0:0:0:0:
154,85,103275,2,0,L|234:85,1,80,2|2,0:0|0:0,0:0:0:0:
286,85,103749,1,0,1:0:0:0:
286,189,104065,2,0,L|206:189,1,80,10|2,0:0|0:0,0:0:0:0:
101,189,104696,5,2,1:2:0:0:
101,189,104854,1,2,0:0:0:0:
68,288,105170,1,2,1:2:0:0:
68,288,105328,1,10,0:0:0:0:
153,350,105644,1,2,0:0:0:0:
153,350,105802,2,0,L|233:350,1,80,2|0,0:0|0:0,0:0:0:0:
285,350,106275,1,2,1:2:0:0:
369,288,106591,2,0,L|429:288,1,40,8|0,0:0|1:0,0:0:0:0:
462,288,106907,1,2,0:0:0:0:
462,183,107223,6,0,L|382:183,1,80,6|0,1:2|0:0,0:0:0:0:
329,183,107696,1,2,1:2:0:0:
329,183,107854,1,8,0:0:0:0:
252,253,108170,2,0,B|222:263|222:263|170:237|170:237|142:250,1,120,2|0,0:0|0:0,0:0:0:0:
102,283,108802,1,2,1:2:0:0:
4,247,109118,2,0,P|-8:209|3:171,1,80,8|2,0:0|0:0,0:0:0:0:
66,90,109749,6,0,B|100:107|100:107|137:89,1,80,2|0,1:2|0:0,0:0:0:0:
182,61,110223,1,2,1:2:0:0:
182,61,110381,1,8,0:0:0:0:
251,137,110696,2,0,B|226:195|276:195|252:252,1,120,2|0,0:0|0:0,0:0:0:0:
238,303,111328,1,2,1:2:0:0:
324,361,111644,2,0,L|364:361,1,40,8|0,0:0|1:0,0:0:0:0:
416,361,111960,1,4,1:2:0:0:
492,291,112275,6,0,B|507:253|507:253|491:217,1,80,4|0,1:2|0:0,0:0:0:0:
465,171,112749,1,2,1:2:0:0:
465,171,112907,2,0,B|450:133|450:133|465:97,1,80,8|0,0:0|0:0,0:0:0:0:
396,18,113539,2,0,L|316:18,1,80,4|2,0:0|1:2,0:0:0:0:
263,18,114012,1,2,0:0:0:0:
263,18,114170,2,0,L|263:98,1,80,10|2,0:0|0:0,0:0:0:0:
300,194,114802,6,0,P|261:204|224:194,1,80,6|0,1:2|0:0,0:0:0:0:
184,160,115275,2,0,P|145:149|107:160,1,80,2|0,1:2|0:0,0:0:0:0:
67,194,115749,2,0,L|67:274,1,80,2|2,0:0|0:0,0:0:0:0:
67,326,116223,1,0,1:0:0:0:
67,326,116381,1,0,1:0:0:0:
158,374,116696,2,0,B|198:374,1,40,10|0,0:0|1:0,0:0:0:0:
250,374,117012,1,2,3:2:0:0:
342,326,117328,5,4,0:0:0:0:
352,64,127433,6,0,B|335:98|335:98|353:135,1,80,6|0,0:0|0:0,0:0:0:0:
388,175,127907,1,0,0:0:0:0:
388,175,128065,2,0,L|388:255,1,80,8|0,0:0|0:0,0:0:0:0:
424,352,128696,1,2,1:2:0:0:
424,352,128854,2,0,P|386:363|349:350,1,80,2|2,0:0|0:0,0:0:0:0:
310,315,129328,2,0,P|272:303|235:316,1,80,10|2,0:0|0:0,0:0:0:0:
144,367,129960,6,0,L|64:367,1,80,2|0,0:0|0:0,0:0:0:0:
11,367,130433,1,0,0:0:0:0:
11,367,130591,2,0,B|-6:333|-6:333|12:296,1,80,8|0,0:0|0:0,0:0:0:0:
90,226,131223,2,0,L|130:226,2,40,2|2|2,1:2|0:0|0:0,0:0:0:0:
12,156,131854,2,0,B|-5:122|-5:122|13:85,1,80,10|2,0:0|0:0,0:0:0:0:
90,14,132486,6,0,L|170:14,1,80,2|0,0:0|0:0,0:0:0:0:
222,14,132960,1,0,0:0:0:0:
222,14,133118,2,0,L|222:94,1,80,8|0,0:0|0:0,0:0:0:0:
298,165,133749,1,0,1:0:0:0:
298,165,133907,2,0,P|335:177|373:166,1,80,0|0,0:0|0:0,0:0:0:0:
421,145,134381,2,0,L|421:225,1,80,10|2,0:0|0:0,0:0:0:0:
499,293,135012,5,2,1:2:0:0:
421,362,135328,1,2,1:2:0:0:
342,293,135644,1,10,1:2:0:0:
263,361,135960,1,2,1:2:0:0:
184,293,136275,2,0,L|184:253,2,40,2|0|2,1:2|1:0|1:2,0:0:0:0:
141,323,136749,1,0,1:0:0:0:
141,323,136907,2,0,L|141:363,2,40,10|0|2,1:2|1:0|1:2,0:0:0:0:
97,293,137381,1,0,1:0:0:0:
352,256,142591,6,0,P|321:184|352:112,1,160,2|2,0:0|0:0,0:0:0:0:
162,25,143854,2,0,P|192:96|161:168,1,160,2|2,0:0|0:0,0:0:0:0:
352,256,145118,6,0,B|432:256,1,80,2|2,0:0|0:0,0:0:0:0:
484,256,145591,2,0,B|501:221|501:221|484:184,1,80,0|0,0:0|0:0,0:0:0:0:
456,139,146065,2,0,L|456:99,1,40,2|2,0:0|0:0,0:0:0:0:
380,26,146539,2,0,P|342:14|304:26,1,80,0|0,0:0|0:0,0:0:0:0:
264,59,147012,1,0,3:0:0:0:
173,8,147328,1,2,0:0:0:0:
82,59,147644,5,2,0:0:0:0:
82,59,147802,2,0,L|82:139,1,80,2|2,0:0|0:0,0:0:0:0:
152,215,148433,1,2,0:0:0:0:
152,215,148591,2,0,B|239:215|239:215|260:200|260:200|348:200,1,200,2|0,0:0|0:0,0:0:0:0:
399,200,149539,1,2,3:2:0:0:
480,264,149854,1,2,0:0:0:0:
399,329,150170,6,0,L|319:329,1,80,2|0,0:0|0:0,0:0:0:0:
270,349,150644,2,0,B|190:349,1,80
144,325,151118,2,0,L|104:325,1,40,2|2,0:0|0:0,0:0:0:0:
16,268,151591,2,0,P|5:230|14:192,1,80,0|0,0:0|0:0,0:0:0:0:
50,154,152065,1,0,3:0:0:0:
126,224,152381,1,2,0:0:0:0:
204,154,152696,5,2,0:0:0:0:
204,154,152854,2,0,L|305:154,1,80,2|2,0:0|0:0,0:0:0:0:
378,197,153486,1,2,0:0:0:0:
378,197,153644,2,0,P|432:153|376:111,1,160,2|2,0:0|0:0,0:0:0:0:
127,11,155223,6,0,B|109:48|109:48|125:83,1,80,6|0,1:2|0:0,0:0:0:0:
153,127,155696,1,2,1:2:0:0:
153,127,155854,2,0,B|169:162|169:162|151:199,1,80,8|0,0:0|0:0,0:0:0:0:
125,245,156328,2,0,L|205:245,1,80,2|2,0:0|0:0,0:0:0:0:
257,245,156802,1,0,1:0:0:0:
353,281,157118,2,0,B|371:244|371:244|354:210,1,80,10|2,0:0|0:0,0:0:0:0:
302,118,157749,5,2,1:2:0:0:
302,118,157907,1,2,0:0:0:0:
374,41,158223,1,2,1:2:0:0:
374,41,158381,1,10,0:0:0:0:
470,85,158696,1,2,0:0:0:0:
470,85,158854,2,0,B|452:122|452:122|468:157,1,80,2|0,0:0|0:0,0:0:0:0:
503,196,159328,1,2,1:2:0:0:
446,282,159644,2,0,L|406:282,1,40,10|2,0:0|1:2,0:0:0:0:
353,282,159960,1,6,1:2:0:0:
271,346,160275,6,0,L|191:346,1,80,6|0,1:2|0:0,0:0:0:0:
148,315,160749,1,2,1:2:0:0:
148,315,160907,2,0,P|110:303|73:316,1,80,8|0,0:0|0:0,0:0:0:0:
30,346,161381,2,0,B|30:266,1,80,2|2,0:0|0:0,0:0:0:0:
30,213,161854,1,0,1:0:0:0:
114,152,162170,2,0,B|151:170|151:170|185:153,1,80,10|2,0:0|0:0,0:0:0:0:
263,81,162802,5,2,1:2:0:0:
263,81,162960,1,2,0:0:0:0:
354,135,163275,1,2,1:2:0:0:
354,135,163433,1,10,0:0:0:0:
331,237,163749,1,2,0:0:0:0:
331,237,163907,2,0,L|331:337,1,80,2|0,0:0|0:0,0:0:0:0:
331,369,164381,1,2,1:2:0:0:
435,369,164696,2,0,L|435:309,1,40,8|0,0:0|1:0,0:0:0:0:
435,276,165012,1,2,0:0:0:0:
506,200,165328,6,0,B|521:162|521:162|505:125,1,80,6|0,1:2|0:0,0:0:0:0:
475,83,165802,1,2,1:2:0:0:
475,83,165960,1,8,0:0:0:0:
385,135,166275,2,0,B|333:135|333:135|320:123|320:123|269:123,1,120,2|0,0:0|0:0,0:0:0:0:
217,123,166907,1,2,1:2:0:0:
156,207,167223,2,0,L|156:287,1,80,8|2,0:0|0:0,0:0:0:0:
51,287,167854,6,0,L|51:207,1,80,2|0,1:2|0:0,0:0:0:0:
51,154,168328,1,2,1:2:0:0:
51,154,168486,1,8,0:0:0:0:
30,51,168802,2,0,B|60:41|60:41|112:67|112:67|140:54,1,120,2|0,0:0|0:0,0:0:0:0:
184,29,169433,1,2,1:2:0:0:
269,88,169749,2,0,L|309:88,1,40,8|0,0:0|1:0,0:0:0:0:
362,88,170065,1,4,1:2:0:0:
458,50,170381,6,0,P|469:88|458:126,1,80,4|0,1:2|0:0,0:0:0:0:
426,167,170854,1,2,1:2:0:0:
426,167,171012,2,0,L|426:247,1,80,8|0,0:0|0:0,0:0:0:0:
460,345,171644,2,0,B|426:362|426:362|389:344,1,80,4|2,0:0|1:2,0:0:0:0:
343,317,172118,1,2,0:0:0:0:
343,317,172275,2,0,L|263:317,1,80,10|2,0:0|0:0,0:0:0:0:
165,353,172907,6,0,B|148:317|148:317|165:280,1,80,6|0,1:2|0:0,0:0:0:0:
188,233,173381,2,0,B|108:233,1,80,2|0,1:2|0:0,0:0:0:0:
55,233,173854,2,0,L|55:153,1,80,2|2,0:0|0:0,0:0:0:0:
55,100,174328,1,2,1:2:0:0:
55,100,174486,1,0,1:0:0:0:
125,23,174802,2,0,L|165:23,1,40,8|0,0:0|1:0,0:0:0:0:
217,23,175118,1,2,3:2:0:0:
289,100,175433,6,0,B|493:100,1,204.000003890991,6|0,1:2|0:0,0:0:0:0:
493,207,176696,2,0,B|289:207,1,204.000003890991,4|0,1:2|0:0,0:0:0:0:
198,152,177960,6,0,B|161:191|182:270|191:260|229:270|194:281|233:319|177:357|139:357|139:357|125:371|125:371|111:357|111:357|73:357|18:319|56:281|21:270|60:260|67:270|89:191|54:151,1,544.000010375977,0|0,1:2|0:0,0:0:0:0:
