osu file format v14

[General]
AudioFilename: audio.mp3
AudioLeadIn: 0
PreviewTime: 40907
Countdown: 0
SampleSet: Soft
StackLeniency: 0.7
Mode: 0
LetterboxInBreaks: 0
WidescreenStoryboard: 0

[Editor]
Bookmarks: 11223,31433,41539,61749,66802,87012,97118,117328,127433,137539,137696,137854,138012,138170,138328,138486,138644,138802,138960,139117,139275,139433,139591,139749,139907,140065,140223,140381,140539,140696,140854,141012,141170,141328,141486,141644,141802,141960,142117,142275,142433,142591,145117,155223,175433
DistanceSpacing: 1.2
BeatDivisor: 16
GridSize: 32
TimelineZoom: 1.5

[Metadata]
Title:Hanataba ni Komete
TitleUnicode:花束に込めて
Artist:fumika
ArtistUnicode:fumika
Creator:Iceluin
Version:Insane
Source:
Tags:Shirahane Suou japanese VARIOUSELF christmas xmas jpop pop j-pop
BeatmapID:2731342
BeatmapSetID:1318438

[Difficulty]
HPDrainRate:6
CircleSize:4.2
OverallDifficulty:8
ApproachRate:9
SliderMultiplier:2.6
SliderTickRate:1

[Events]
//Background and Video events
0,0,"hanataba.png",0,0
//Break Periods
2,137581,141991
//Storyboard Layer 0 (Background)
//Storyboard Layer 1 (Fail)
//Storyboard Layer 2 (Pass)
//Storyboard Layer 3 (Foreground)
//Storyboard Layer 4 (Overlay)
//Storyboard Sound Samples

[TimingPoints]
1118,631.578947368421,4,2,1,45,1,0
1118,-133.333333333333,4,2,1,45,0,0
11223,-117.647058823529,4,2,1,55,0,0
18486,-117.647058823529,4,2,3,55,0,0
18802,-117.647058823529,4,2,1,55,0,0
31433,-100,4,2,1,65,0,0
40907,-227.272727272727,5,2,1,65,0,0
41539,-80,5,2,2,75,0,1
61433,-80,5,2,1,75,0,1
61749,-133.333333333333,5,2,1,45,0,0
66802,-111.111111111111,5,2,1,60,0,0
75644,-153.846153846154,5,2,1,60,0,0
76907,-111.111111111111,5,2,1,60,0,0
87012,-100,5,2,1,65,0,0
94591,-133.333333333333,5,2,1,45,0,0
96012,-133.333333333333,5,2,1,45,0,0
97118,-80,5,2,2,75,0,1
117012,-80,5,2,1,75,0,1
117328,-200,5,2,1,45,0,0
127433,-153.846153846154,5,2,1,50,0,0
137539,-200,5,2,1,35,0,0
145117,-133.333333333333,5,2,1,45,0,0
155144,-133.333333333333,5,2,1,5,0,0
155223,-80,5,2,2,75,0,1
175117,-80,5,2,1,75,0,1
175433,-227.272727272727,5,2,1,55,0,0
178117,-227.272727272727,5,2,1,5,0,0

[Colours]
Combo1 : 255,255,132
Combo2 : 255,83,83
Combo3 : 0,225,0
Combo4 : 253,166,236

[HitObjects]
96,224,1118,5,2,0:0:0:0:
75,248,1275,1,2,0:0:0:0:
156,341,1433,2,0,B|166:318|166:318|156:296,1,48.750001859665,2|0,0:0|0:0,0:0:0:0:
249,176,1749,2,0,B|229:220|229:220|249:264,1,97.50000371933,0|2,3:0|0:0,0:0:0:0:
422,221,2223,2,0,L|325:221,1,97.50000371933,2|0,0:0|0:0,0:0:0:0:
173,131,2696,1,2,0:0:0:0:
173,131,2854,1,0,0:0:0:0:
325,221,3012,1,0,3:0:0:0:
423,61,3328,1,2,0:0:0:0:
423,61,3644,5,2,0:0:0:0:
481,144,3802,1,2,0:0:0:0:
325,221,3960,1,0,0:0:0:0:
280,144,4118,2,0,P|325:129|371:144,1,97.50000371933,2|2,0:0|0:0,0:0:0:0:
370,298,4591,2,0,B|313:332|243:293|275:265|201:225|148:261,1,243.750009298325,2|0,0:0|0:0,0:0:0:0:
1,379,5539,1,2,3:2:0:0:
148,262,5854,1,2,0:0:0:0:
148,262,6170,5,2,0:0:0:0:
129,236,6328,1,2,0:0:0:0:
19,299,6486,2,0,B|68:299,1,48.750001859665,2|0,0:0|0:0,0:0:0:0:
130,146,6802,2,0,P|113:190|129:236,1,97.50000371933,0|2,3:0|0:0,0:0:0:0:
302,192,7275,2,0,L|205:192,1,97.50000371933,2|0,0:0|0:0,0:0:0:0:
67,299,7749,1,2,0:0:0:0:
67,299,7907,1,0,0:0:0:0:
204,192,8065,1,0,3:0:0:0:
54,98,8381,1,2,0:0:0:0:
54,98,8696,5,2,0:0:0:0:
206,33,8854,2,0,B|133:33,1,73.1250027894975,2|0,0:0|0:0,0:0:0:0:
132,33,9170,1,2,0:0:0:0:
54,171,9328,2,0,L|54:88,1,73.1250027894975,2|0,3:2|0:0,0:0:0:0:
54,97,9644,1,2,0:0:0:0:
206,33,9802,2,0,P|223:66|205:101,1,73.1250027894975,2|0,0:0|0:0,0:0:0:0:
218,104,10118,1,0,3:0:0:0:
218,104,10196,2,0,L|291:104,1,73.1250027894975,0|0,3:0|3:0,0:0:0:0:
422,6,10591,1,8,0:0:0:0:
291,104,10907,1,0,3:0:0:0:
449,242,11223,5,6,1:2:0:0:
512,172,11381,1,2,0:0:0:0:
449,101,11539,2,0,L|393:101,1,55.2500010538101,2|2,0:0|1:2,0:0:0:0:
393,242,11854,2,0,L|448:242,2,55.2500010538101,10|0|2,0:0|0:0|0:0,0:0:0:0:
326,175,12328,1,2,0:0:0:0:
231,287,12486,2,0,B|257:240|257:240|231:189,1,110.50000210762,2|2,0:0|1:2,0:0:0:0:
166,127,12960,1,2,0:0:0:0:
0,187,13118,2,0,P|50:206|101:188,1,110.50000210762,8|0,0:0|0:0,0:0:0:0:
230,286,13749,6,0,P|179:268|129:288,1,110.50000210762,2|0,1:2|0:0,0:0:0:0:
181,363,14223,1,2,1:2:0:0:
344,240,14381,2,0,B|319:290|319:290|344:338,2,110.50000210762,10|2|2,0:0|0:0|0:0,0:0:0:0:
404,168,15170,1,0,3:0:0:0:
481,288,15328,2,0,L|426:288,1,55.2500010538101,0|0,1:0|0:0,0:0:0:0:
233,338,15644,2,0,B|343:338,1,110.50000210762,8|2,0:0|0:0,0:0:0:0:
425,288,16118,1,0,0:0:0:0:
284,168,16275,5,2,1:2:0:0:
344,96,16433,1,2,0:0:0:0:
222,18,16591,2,0,P|208:56|222:94,1,82.8750015807152,2|0,0:0|0:0,0:0:0:0:
222,94,16907,2,0,L|105:94,1,110.50000210762,10|2,0:0|0:0,0:0:0:0:
49,165,17381,1,2,0:0:0:0:
157,305,17539,1,2,0:0:0:0:
220,235,17696,1,2,3:2:0:0:
286,381,17854,2,0,P|299:342|285:304,1,82.8750015807152,2|0,1:2|0:0,0:0:0:0:
285,304,18170,2,0,L|395:304,1,110.50000210762,10|2,0:0|0:3,0:0:0:0:
157,305,18802,6,0,L|101:305,1,55.2500010538101,2|0,1:2|0:0,0:0:0:0:
102,165,19118,2,0,L|157:165,1,55.2500010538101,2|0,0:0|1:0,0:0:0:0:
285,304,19433,1,10,0:0:0:0:
220,235,19591,1,2,0:0:0:0:
338,165,19749,2,0,B|283:165,1,55.2500010538101,2|2,0:0|0:0,0:0:0:0:
130,78,20065,1,2,3:2:0:0:
192,12,20223,1,0,3:0:0:0:
338,165,20381,1,0,1:0:0:0:
402,38,20539,1,0,3:0:0:0:
402,38,20618,1,0,3:0:0:0:
402,38,20696,2,0,B|392:63|392:63|400:89,1,55.2500010538101,8|0,0:0|1:0,0:0:0:0:
512,164,21012,2,0,B|485:155|485:155|460:165,1,55.2500010538101,0|0,0:0|3:0,0:0:0:0:
309,248,21328,5,2,1:2:0:0:
379,310,21486,1,2,0:0:0:0:
309,372,21644,2,0,P|282:378|255:371,1,55.2500010538101,2|0,0:0|1:0,0:0:0:0:
255,248,21960,2,0,P|282:241|309:248,2,55.2500010538101,10|2|2,0:0|0:0|0:0,0:0:0:0:
184,310,22433,1,2,0:0:0:0:
82,186,22591,2,0,P|133:204|184:186,1,110.50000210762,2|0,3:2|1:0,0:0:0:0:
255,123,23065,1,2,0:0:0:0:
82,60,23223,2,0,B|133:38|133:38|184:61,1,110.50000210762,8|0,0:0|0:0,0:0:0:0:
327,186,23854,5,2,1:2:0:0:
255,123,24012,1,2,0:0:0:0:
327,4,24170,2,0,L|327:60,1,55.2500010538101,2|0,0:0|1:0,0:0:0:0:
466,168,24486,2,0,B|441:118|441:118|466:70,2,110.50000210762,10|2|2,0:0|0:0|3:2,0:0:0:0:
512,243,25275,1,0,3:0:0:0:
362,243,25433,2,0,L|418:243,1,55.2500010538101,0|2,1:0|0:0,0:0:0:0:
267,341,25749,2,0,B|292:293|292:293|267:243,1,110.50000210762,8|2,0:0|0:0,0:0:0:0:
202,169,26223,1,0,0:0:0:0:
55,281,26381,5,2,1:2:0:0:
122,221,26539,1,2,0:0:0:0:
55,159,26696,2,0,B|29:149|29:149|3:159,1,55.2500010538101,2|2,0:0|1:2,0:0:0:0:
4,350,27012,2,0,B|55:372|55:372|105:349,1,110.50000210762,10|2,0:0|0:0,0:0:0:0:
179,287,27486,1,2,0:0:0:0:
360,354,27644,1,2,3:2:0:0:
435,292,27802,1,2,0:0:0:0:
383,134,27960,2,0,P|370:172|384:211,1,82.8750015807152,2|0,1:2|0:0,0:0:0:0:
383,210,28275,2,0,P|433:191|487:210,1,110.50000210762,10|2,0:0|0:0,0:0:0:0:
360,354,28907,6,0,P|310:373|256:354,1,110.50000210762,2|2,1:2|0:0,0:0:0:0:
103,276,29381,2,0,P|153:257|207:276,1,110.50000210762,2|0,1:2|0:0,0:0:0:0:
383,210,29854,2,0,P|332:228|281:209,1,110.50000210762,2|0,0:0|3:0,0:0:0:0:
332,85,30328,1,0,3:0:0:0:
332,85,30407,1,0,3:0:0:0:
332,85,30486,2,0,B|342:111|342:111|333:137,1,55.2500010538101,0|0,1:0|1:0,0:0:0:0:
205,274,30802,1,8,0:0:0:0:
333,136,30960,1,2,1:2:0:0:
129,236,31118,2,0,P|115:274|128:312,1,82.8750015807152,0|0,1:0|0:0,0:0:0:0:
128,312,31433,6,0,L|128:182,1,130,6|0,1:2|0:0,0:0:0:0:
128,92,31907,1,2,1:2:0:0:
287,30,32065,2,0,B|300:61|300:61|287:90,1,65,8|2,0:0|0:0,0:0:0:0:
209,138,32381,1,2,0:0:0:0:
364,254,32539,2,0,B|336:197|336:197|365:136,1,130,2|2,0:0|0:0,0:0:0:0:
499,195,33012,2,0,L|435:195,1,65,0|2,1:0|0:0,0:0:0:0:
301,316,33328,1,8,0:0:0:0:
235,254,33486,1,0,1:0:0:0:
103,369,33644,2,0,P|58:386|14:368,1,97.5,0|0,0:0|0:0,0:0:0:0:
14,368,33960,6,0,B|27:337|27:337|14:308,1,65,2|2,1:2|0:0,0:0:0:0:
153,194,34275,2,0,B|140:225|140:225|152:253,1,65,2|2,0:0|1:2,0:0:0:0:
0,194,34591,1,10,0:0:0:0:
76,134,34749,1,2,0:0:0:0:
153,194,34907,1,2,0:0:0:0:
229,18,35065,2,0,P|203:75|229:132,1,130,2|0,0:0|3:0,0:0:0:0:
362,75,35539,2,0,L|298:76,1,65,0|0,1:0|0:0,0:0:0:0:
153,194,35854,1,8,0:0:0:0:
229,243,36012,1,2,1:2:0:0:
392,193,36170,2,0,B|349:172|349:172|305:194,1,97.5,2|0,0:0|0:0,0:0:0:0:
304,194,36486,6,0,B|434:194,1,130,0|0,1:0|0:0,0:0:0:0:
508,139,36960,1,2,1:2:0:0:
508,314,37118,2,0,L|508:249,1,65,8|0,0:0|0:0,0:0:0:0:
434,194,37433,1,2,0:0:0:0:
303,305,37591,2,0,B|330:246|330:246|302:187,1,130,2|2,0:0|0:0,0:0:0:0:
170,255,38065,2,0,B|238:255,1,65,0|2,1:0|0:0,0:0:0:0:
371,128,38381,1,8,0:0:0:0:
305,64,38539,1,0,1:0:0:0:
170,166,38696,2,0,P|187:122|169:78,1,97.5,2|0,0:0|0:0,0:0:0:0:
168,77,39012,5,2,0:0:0:0:
147,91,39644,1,2,0:0:0:0:
125,104,40275,1,2,0:0:0:0:
102,116,40907,6,0,P|81:160|103:203,1,100.10000305481,0|0,1:0|0:0,0:0:0:0:
102,202,41539,6,0,B|171:202|171:202|190:214|190:214|260:214,1,162.5,6|0,1:2|0:0,0:0:0:0:
361,215,42012,1,2,1:2:0:0:
232,58,42170,2,0,B|216:96|216:96|233:131,1,81.25,8|2,0:0|0:0,0:0:0:0:
312,293,42486,1,0,0:0:0:0:
433,94,42644,2,0,L|311:94,1,121.875,2|0,0:0|0:0,0:0:0:0:
311,94,42960,2,0,P|324:56|310:19,1,81.25,2|0,0:0|1:0,0:0:0:0:
232,58,43275,1,2,0:0:0:0:
360,215,43433,2,0,B|453:215|453:215|478:193,1,121.875,10|0,0:0|0:0,0:0:0:0:
474,195,43749,2,0,P|460:235|477:277,1,81.25,2|0,0:0|0:0,0:0:0:0:
312,382,44065,5,2,1:2:0:0:
114,326,44223,2,0,B|166:326|166:326|178:336|178:336|235:336,1,121.875,2|0,0:0|0:0,0:0:0:0:
232,336,44539,1,2,1:2:0:0:
233,131,44696,2,0,B|181:131|181:131|169:141|169:141|112:141,1,121.875,10|0,0:0|0:0,0:0:0:0:
114,141,45012,1,2,0:0:0:0:
321,22,45170,2,0,B|300:54|300:54|327:134|327:134|308:167,1,162.5,2|0,0:0|0:0,0:0:0:0:
321,22,45644,1,2,1:2:0:0:
396,72,45802,1,2,0:0:0:0:
512,162,45960,1,10,0:0:0:0:
437,212,46118,1,2,1:2:0:0:
287,332,46275,2,0,P|342:316|380:360,1,121.875,6|0,1:2|0:0,0:0:0:0:
380,360,46591,6,0,B|342:382|296:355|317:337|268:310|233:333,1,162.5,6|0,1:2|0:0,0:0:0:0:
151,379,47065,1,2,1:2:0:0:
0,252,47223,2,0,P|38:263|76:251,1,81.25,8|2,0:0|0:0,0:0:0:0:
233,131,47539,1,0,0:0:0:0:
38,8,47696,2,0,L|38:129,1,121.875,2|0,0:0|0:0,0:0:0:0:
38,129,48012,2,0,P|76:117|114:129,1,81.25,2|0,0:0|1:0,0:0:0:0:
173,212,48328,1,2,0:0:0:0:
344,130,48486,2,0,P|288:108|232:130,1,121.875,10|0,0:0|0:0,0:0:0:0:
232,129,48802,2,0,L|232:48,1,81.25,2|0,0:0|0:0,0:0:0:0:
289,204,49118,5,2,1:2:0:0:
454,131,49275,2,0,B|428:117|428:117|370:142|370:142|344:130,1,121.875,2|0,0:0|0:0,0:0:0:0:
343,129,49591,1,2,1:2:0:0:
204,289,49749,2,0,B|229:275|229:275|287:300|287:300|313:288,1,121.875,10|0,0:0|0:0,0:0:0:0:
314,287,50065,1,2,0:0:0:0:
109,189,50223,2,0,B|142:217|132:269|108:255|97:309|131:335,1,162.5,2|0,0:0|0:0,0:0:0:0:
109,189,50696,1,2,1:2:0:0:
37,243,50854,1,0,1:0:0:0:
0,69,51012,2,0,P|38:56|77:66,1,81.25,8|0,0:0|1:0,0:0:0:0:
255,130,51328,2,0,P|225:82|254:32,1,121.875,2|0,0:0|0:0,0:0:0:0:
255,31,51644,6,0,B|255:159|255:159|235:187,1,162.5,6|0,1:2|0:0,0:0:0:0:
175,264,52118,1,2,1:2:0:0:
355,324,52275,2,0,B|326:269|326:269|355:217,1,121.875,8|0,0:0|0:0,0:0:0:0:
355,216,52591,1,2,0:0:0:0:
406,143,52749,1,0,0:0:0:0:
508,267,52907,2,0,B|426:267,1,81.25,0|0,0:0|0:0,0:0:0:0:
289,378,53223,1,2,1:2:0:0:
225,324,53381,1,0,0:0:0:0:
71,378,53539,2,0,L|153:378,1,81.25,8|0,0:0|1:0,0:0:0:0:
370,378,53854,2,0,L|288:378,1,81.25,2|2,0:0|0:0,0:0:0:0:
225,174,54170,6,0,B|196:206|214:257|235:239|254:292|225:322,1,162.5,2|0,1:2|0:0,0:0:0:0:
144,288,54644,1,2,1:2:0:0:
305,206,54802,2,0,P|362:184|418:211,1,121.875,8|0,0:0|0:0,0:0:0:0:
414,207,55118,1,2,0:0:0:0:
497,255,55275,1,0,0:0:0:0:
497,69,55433,2,0,B|459:83|459:83|421:68,1,81.25,0|0,0:0|0:0,0:0:0:0:
268,6,55749,1,2,1:2:0:0:
197,62,55907,1,0,0:0:0:0:
305,206,56065,2,0,L|305:109,1,81.25,8|0,0:0|1:0,0:0:0:0:
125,8,56381,2,0,P|100:61|123:115,1,121.875,4|0,1:2|0:0,0:0:0:0:
123,115,56696,6,0,B|-10:115|-10:115|17:142,1,162.5,4|0,1:2|0:0,0:0:0:0:
78,204,57170,1,2,1:2:0:0:
197,62,57328,2,0,P|214:97|208:137,1,81.25,8|2,0:0|0:0,0:0:0:0:
141,268,57644,1,0,0:0:0:0:
207,339,57802,1,2,0:0:0:0:
288,137,57960,2,0,L|206:137,1,81.25,4|2,0:0|0:0,0:0:0:0:
207,339,58275,2,0,L|288:339,1,81.25,2|2,1:2|0:0,0:0:0:0:
375,189,58591,2,0,P|350:243|374:297,1,121.875,10|0,0:0|0:0,0:0:0:0:
373,296,58907,1,2,0:0:0:0:
457,344,59065,1,2,0:0:0:0:
512,123,59223,6,0,B|430:123|430:123|396:92|355:103,1,162.5,6|0,1:2|0:0,0:0:0:0:
289,42,59696,1,2,1:2:0:0:
221,251,59854,2,0,B|192:218|211:167|232:185|251:132|220:101,1,162.5,8|2,0:0|0:0,0:0:0:0:
150,42,60328,1,0,0:0:0:0:
5,103,60486,1,2,0:0:0:0:
5,103,60644,2,0,P|44:111|83:101,1,81.25,2|0,1:2|1:0,0:0:0:0:
150,42,60960,1,2,1:2:0:0:
221,251,61118,2,0,P|182:243|143:253,1,81.25,8|2,0:0|1:2,0:0:0:0:
0,367,61433,2,0,P|39:375|78:365,1,81.25,2|0,3:2|3:0,0:0:0:0:
221,251,61749,5,2,0:0:0:0:
247,271,61907,1,2,0:0:0:0:
183,377,62065,2,0,B|183:328,1,48.750001859665,2|0,0:0|0:0,0:0:0:0:
324,225,62381,2,0,P|338:270|323:316,1,97.50000371933,0|2,3:0|0:0,0:0:0:0:
493,316,62854,2,0,P|478:270|493:224,1,97.50000371933,2|0,0:0|0:0,0:0:0:0:
407,91,63328,1,2,0:0:0:0:
407,91,63486,1,0,0:0:0:0:
492,224,63644,1,0,3:0:0:0:
322,316,63960,1,2,0:0:0:0:
322,316,64275,5,2,0:0:0:0:
247,271,64433,1,2,0:0:0:0:
325,113,64591,1,0,0:0:0:0:
370,187,64749,2,0,P|325:202|279:187,1,97.50000371933,2|2,0:0|0:0,0:0:0:0:
132,68,65223,2,0,B|159:91|160:118|160:118|159:91|190:65,1,121.875004649162,2|0,0:0|0:0,0:0:0:0:
196,73,65696,1,0,3:0:0:0:
196,73,65775,2,0,L|196:146,1,73.1250027894975,0|0,3:0|3:0,0:0:0:0:
197,327,66170,1,8,0:0:0:0:
197,327,66802,5,6,1:2:0:0:
267,265,66960,1,2,0:0:0:0:
389,327,67118,2,0,B|364:337|364:337|335:327,1,58.4999982147217,2|2,0:0|1:2,0:0:0:0:
336,203,67433,2,0,B|365:193|365:193|396:206,2,58.4999982147217,10|0|2,0:0|0:0|0:0,0:0:0:0:
267,265,67907,1,2,0:0:0:0:
162,140,68065,2,0,B|214:166|214:166|267:141,1,116.999996429443,2|2,0:0|1:2,0:0:0:0:
342,85,68539,1,2,0:0:0:0:
162,29,68696,2,0,B|214:3|214:3|267:29,1,116.999996429443,8|0,0:0|0:0,0:0:0:0:
446,84,69328,6,0,B|394:110|394:110|341:84,1,116.999996429443,2|2,1:2|0:0,0:0:0:0:
391,4,69802,1,2,1:2:0:0:
510,136,69960,2,0,P|531:83|508:31,2,116.999996429443,10|2|2,0:0|0:0|0:0,0:0:0:0:
446,205,70749,1,0,3:0:0:0:
511,325,70907,2,0,B|524:299|524:299|510:272,1,58.4999982147217,0|0,1:0|0:0,0:0:0:0:
340,207,71223,2,0,P|393:228|445:205,1,116.999996429443,8|2,0:0|0:0,0:0:0:0:
510,136,71696,1,0,0:0:0:0:
510,272,71854,5,2,1:2:0:0:
445,204,72012,1,2,0:0:0:0:
330,325,72170,2,0,B|291:306|291:306|250:325,1,87.7499973220826,2|0,0:0|0:0,0:0:0:0:
250,324,72486,2,0,B|276:272|276:272|250:219,1,116.999996429443,10|2,0:0|0:0,0:0:0:0:
193,143,72960,1,2,0:0:0:0:
40,211,73118,1,2,0:0:0:0:
111,277,73275,1,2,3:2:0:0:
193,143,73433,2,0,P|154:130|110:147,1,87.7499973220826,2|0,1:2|0:0,0:0:0:0:
111,145,73749,2,0,L|111:28,1,116.999996429443,10|0,0:0|0:0,0:0:0:0:
327,28,74381,6,0,L|327:94,1,58.4999982147217,2|0,1:2|0:0,0:0:0:0:
478,86,74696,2,0,L|478:27,1,58.4999982147217,2|0,0:0|1:0,0:0:0:0:
402,142,75012,1,10,0:0:0:0:
478,196,75170,1,2,0:0:0:0:
402,304,75328,2,0,B|391:276|391:276|402:251,1,58.4999982147217,2|2,0:0|0:0,0:0:0:0:
232,219,75644,2,0,B|240:249|240:249|225:274|225:274|241:304|241:304|231:334,1,126.749994197846,0|0,1:0|3:0,0:0:0:0:
237,341,76196,1,0,3:0:0:0:
237,341,76275,2,0,B|194:341,1,42.2499980659486,10|0,0:0|3:0,0:0:0:0:
25,341,76591,2,0,B|67:341,1,42.2499980659486,0|0,0:0|3:0,0:0:0:0:
232,219,76907,6,0,B|180:243|180:243|125:218,1,116.999996429443,6|2,1:2|0:0,0:0:0:0:
51,169,77381,1,0,1:0:0:0:
179,57,77539,1,10,0:0:0:0:
236,130,77696,1,2,0:0:0:0:
361,14,77854,2,0,P|403:1|444:15,1,87.7499973220826,2|0,0:0|0:0,0:0:0:0:
443,14,78170,2,0,L|443:131,1,116.999996429443,2|2,3:2|1:2,0:0:0:0:
443,219,78644,1,2,0:0:0:0:
278,294,78802,2,0,P|331:273|384:295,1,116.999996429443,8|0,0:0|0:0,0:0:0:0:
330,363,79433,5,2,1:2:0:0:
330,363,79591,1,2,0:0:0:0:
330,188,79749,1,2,0:0:0:0:
330,188,79907,1,2,1:2:0:0:
224,294,80065,2,0,B|250:306|250:306|277:294,2,58.4999982147217,10|0|2,0:0|0:0|0:0,0:0:0:0:
144,256,80539,1,2,0:0:0:0:
257,123,80696,1,2,3:2:0:0:
330,188,80854,1,0,3:0:0:0:
461,123,81012,2,0,B|403:123,1,58.4999982147217,0|0,1:0|0:0,0:0:0:0:
258,18,81328,2,0,P|280:70|257:122,1,116.999996429443,8|2,0:0|0:0,0:0:0:0:
194,188,81802,1,2,0:0:0:0:
64,72,81960,6,0,L|180:72,1,116.999996429443,2|2,1:2|0:0,0:0:0:0:
258,18,82433,1,0,1:0:0:0:
384,188,82591,2,0,B|354:177|354:177|329:187,1,58.4999982147217,10|0,0:0|0:0,0:0:0:0:
139,188,82907,2,0,B|164:198|164:198|194:187,1,58.4999982147217,2|2,0:0|0:0,0:0:0:0:
354,274,83223,1,0,3:0:0:0:
301,350,83381,1,2,0:0:0:0:
468,350,83539,2,0,B|410:350,1,58.4999982147217,0|2,1:0|0:0,0:0:0:0:
246,273,83854,2,0,P|300:253|354:274,1,116.999996429443,8|0,0:0|0:0,0:0:0:0:
490,187,84486,6,0,B|435:211|435:211|383:187,1,116.999996429443,2|0,1:2|0:0,0:0:0:0:
218,111,84960,2,0,B|269:87|269:87|324:111,1,116.999996429443,2|2,1:2|0:0,0:0:0:0:
490,38,85433,2,0,B|435:62|435:62|383:38,1,116.999996429443,2|0,0:0|3:0,0:0:0:0:
271,182,85907,1,0,3:0:0:0:
271,182,85986,1,0,3:0:0:0:
271,182,86065,2,0,B|271:240,1,58.4999982147217,0|0,1:0|1:0,0:0:0:0:
401,369,86381,1,8,0:0:0:0:
271,182,86539,1,2,1:2:0:0:
470,228,86696,2,0,P|488:267|471:306,1,87.7499973220826,2|0,1:2|0:0,0:0:0:0:
471,305,87012,6,0,L|471:175,1,130,6|0,1:2|0:0,0:0:0:0:
471,80,87486,1,2,1:2:0:0:
307,36,87644,2,0,B|320:67|320:67|307:96,1,65,8|2,0:0|0:0,0:0:0:0:
271,182,87960,1,0,0:0:0:0:
141,182,88118,2,0,L|271:182,1,130,2|2,0:0|0:0,0:0:0:0:
271,359,88591,2,0,L|207:359,1,65,0|2,1:0|0:0,0:0:0:0:
81,256,88907,1,8,0:0:0:0:
141,182,89065,1,0,1:0:0:0:
271,270,89223,2,0,P|254:225|272:181,1,97.5,0|0,0:0|0:0,0:0:0:0:
271,181,89539,6,0,B|341:181,1,65,2|2,1:2|0:0,0:0:0:0:
408,307,89854,2,0,B|408:242,1,65,2|2,0:0|1:2,0:0:0:0:
480,87,90170,1,10,0:0:0:0:
408,28,90328,1,2,0:0:0:0:
336,87,90486,1,2,0:0:0:0:
141,27,90644,2,0,B|201:-1|201:-1|258:28,1,130,2|2,0:0|3:2,0:0:0:0:
200,163,91118,2,0,L|200:98,1,65,2|0,1:2|0:0,0:0:0:0:
274,224,91433,1,8,0:0:0:0:
200,163,91591,1,2,1:2:0:0:
37,223,91749,2,0,B|81:245|81:245|124:224,1,97.5,2|0,0:0|0:0,0:0:0:0:
124,223,92065,6,0,B|124:278|124:278|104:313|122:349,1,130,0|0,1:0|0:0,0:0:0:0:
208,311,92539,1,2,1:2:0:0:
360,349,92696,2,0,L|295:349,1,65,8|2,0:0|0:0,0:0:0:0:
208,311,93012,1,2,0:0:0:0:
359,231,93170,2,0,B|332:290|332:290|360:349,1,130,2|2,0:0|0:0,0:0:0:0:
497,290,93644,2,0,B|432:290,1,65,2|2,1:2|0:0,0:0:0:0:
294,166,93960,1,8,0:0:0:0:
359,102,94118,1,0,1:0:0:0:
512,167,94275,2,0,B|468:187|468:187|423:166,1,97.5,2|0,0:0|0:0,0:0:0:0:
423,166,94591,5,2,0:0:0:0:
256,192,94670,12,2,95854,0:0:0:0:
92,268,96012,5,8,0:3:0:0:
108,277,96091,1,8,0:3:0:0:
124,286,96170,1,8,0:3:0:0:
256,192,96328,1,4,0:3:0:0:
256,192,96644,1,4,0:3:0:0:
279,353,96802,2,0,P|243:358|211:344,1,73.1250027894975,4|0,0:3|0:0,0:0:0:0:
210,343,97118,6,0,B|247:319|294:345|273:363|322:390|357:366,1,162.5,6|0,1:2|0:0,0:0:0:0:
427,305,97591,1,2,1:2:0:0:
256,192,97749,2,0,B|294:209|294:209|329:192,1,81.25,8|2,0:0|0:0,0:0:0:0:
495,112,98065,1,0,0:0:0:0:
293,0,98223,2,0,P|271:56|291:114,1,121.875,2|0,0:0|0:0,0:0:0:0:
289,112,98539,2,0,P|251:101|213:112,1,81.25,2|0,0:0|1:0,0:0:0:0:
162,190,98854,1,2,0:0:0:0:
0,111,99012,2,0,B|55:86|55:86|111:111,1,121.875,10|0,0:0|0:0,0:0:0:0:
111,111,99328,2,0,P|100:73|114:36,1,81.25,2|0,0:0|0:0,0:0:0:0:
256,192,99644,5,2,1:2:0:0:
98,314,99802,2,0,B|137:314|137:314|155:324|155:324|176:314|176:314|215:314,1,121.875,2|0,0:0|0:0,0:0:0:0:
215,314,100118,1,2,1:2:0:0:
373,192,100275,2,0,B|334:192|334:192|316:202|316:202|295:192|295:192|255:192,1,121.875,10|0,0:0|0:0,0:0:0:0:
255,192,100591,1,2,0:0:0:0:
460,55,100749,2,0,B|474:99|442:129|442:129|476:163|460:204,1,162.5,2|0,0:0|0:0,0:0:0:0:
460,55,101223,1,2,1:2:0:0:
384,7,101381,1,2,0:0:0:0:
264,101,101539,1,10,0:0:0:0:
188,53,101696,1,2,1:2:0:0:
84,217,101854,2,0,B|54:196|54:167|54:167|54:196|21:215,1,121.875,6|0,1:2|0:0,0:0:0:0:
21,214,102170,6,0,B|56:230|56:230|132:192|132:192|167:206,1,162.5,6|0,1:2|0:0,0:0:0:0:
253,256,102644,1,2,1:2:0:0:
135,380,102802,2,0,L|135:284,1,81.25,8|2,0:0|0:0,0:0:0:0:
256,158,103118,1,0,0:0:0:0:
450,288,103275,2,0,P|394:309|338:289,1,121.875,2|0,0:0|0:0,0:0:0:0:
337,288,103591,2,0,B|356:251|356:251|335:216,1,81.25,2|0,0:0|1:0,0:0:0:0:
256,158,103907,1,2,0:0:0:0:
414,48,104065,2,0,B|387:105|387:105|413:157,1,121.875,10|0,0:0|0:0,0:0:0:0:
413,157,104381,2,0,L|494:157,1,81.25,2|0,0:0|0:0,0:0:0:0:
335,216,104696,5,2,1:2:0:0:
276,44,104854,2,0,B|276:137|276:137|255:158,1,121.875,2|0,0:0|0:0,0:0:0:0:
255,157,105170,1,2,1:2:0:0:
171,343,105328,2,0,B|171:250|171:250|192:229,1,121.875,10|0,0:0|0:0,0:0:0:0:
191,229,105644,1,2,0:0:0:0:
404,271,105802,2,0,B|378:300|378:300|255:300,1,162.5,2|0,0:0|0:0,0:0:0:0:
404,271,106275,1,2,1:2:0:0:
335,216,106433,1,0,1:0:0:0:
478,131,106591,2,0,L|478:213,1,81.25,8|0,0:0|1:0,0:0:0:0:
286,129,106907,2,0,P|335:98|383:130,1,121.875,2|0,0:0|0:0,0:0:0:0:
382,129,107223,6,0,B|219:129,1,162.5,6|0,1:2|0:0,0:0:0:0:
152,60,107696,1,2,1:2:0:0:
83,237,107854,2,0,B|54:182|54:182|83:130,1,121.875,8|0,0:0|0:0,0:0:0:0:
83,129,108170,1,2,0:0:0:0:
155,183,108328,1,0,0:0:0:0:
1,237,108486,2,0,B|83:237,1,81.25,0|0,0:0|0:0,0:0:0:0:
181,354,108802,1,2,1:2:0:0:
254,300,108960,1,0,0:0:0:0:
403,354,109118,2,0,P|364:366|326:353,1,81.25,8|0,0:0|1:0,0:0:0:0:
104,353,109433,2,0,P|143:341|181:354,1,81.25,2|2,0:0|0:0,0:0:0:0:
302,183,109749,6,0,B|268:200|268:200|191:166|191:166|156:182,1,162.5,2|0,1:2|0:0,0:0:0:0:
73,228,110223,1,2,1:2:0:0:
17,66,110381,2,0,B|72:92|72:92|126:64,1,121.875,8|0,0:0|0:0,0:0:0:0:
126,63,110696,1,2,0:0:0:0:
204,8,110854,1,0,0:0:0:0:
302,183,111012,2,0,B|302:88,1,81.25,0|0,0:0|0:0,0:0:0:0:
387,6,111328,1,2,1:2:0:0:
457,73,111486,1,0,0:0:0:0:
302,183,111644,2,0,P|264:170|226:182,1,81.25,8|0,0:0|1:0,0:0:0:0:
271,367,111960,2,0,L|392:367,1,121.875,4|0,1:2|0:0,0:0:0:0:
392,367,112275,6,0,B|355:297|355:297|392:222,1,162.5,4|0,1:2|0:0,0:0:0:0:
430,140,112749,1,2,1:2:0:0:
302,8,112907,2,0,B|319:45|319:45|300:81,1,81.25,8|2,0:0|0:0,0:0:0:0:
225,213,113223,1,0,0:0:0:0:
156,141,113381,1,2,0:0:0:0:
302,8,113539,2,0,L|383:8,1,81.25,4|2,0:0|0:0,0:0:0:0:
512,140,113854,2,0,L|430:140,1,81.25,2|2,1:2|0:0,0:0:0:0:
296,267,114170,2,0,P|320:212|296:158,1,121.875,10|0,0:0|0:0,0:0:0:0:
296,158,114486,1,2,0:0:0:0:
225,213,114644,1,2,0:0:0:0:
374,327,114802,6,0,B|342:358|342:358|224:358,1,162.5,6|0,1:2|0:0,0:0:0:0:
131,358,115275,1,2,1:2:0:0:
77,135,115433,2,0,B|60:170|60:170|94:248|94:248|76:282,1,162.5,8|2,0:0|0:0,0:0:0:0:
0,244,115907,1,0,0:0:0:0:
161,182,116065,1,2,0:0:0:0:
161,92,116223,1,0,1:0:0:0:
161,92,116302,1,0,1:0:0:0:
161,92,116381,1,0,1:0:0:0:
77,135,116539,1,2,1:2:0:0:
243,135,116696,2,0,B|258:97|258:97|243:59,1,81.25,10|0,0:0|1:0,0:0:0:0:
77,59,117012,2,0,B|62:97|62:97|77:135,1,81.25,2|0,3:2|3:0,0:0:0:0:
161,272,117328,6,0,L|258:272,1,97.5,4|0,0:0|0:0,0:0:0:0:
357,135,117960,1,8,0:0:0:0:
357,135,118275,2,0,L|401:135,1,32.5,2|2,0:0|0:0,0:0:0:0:
468,167,118591,2,0,P|476:135|468:104,1,65,2|2,0:0|0:0,0:0:0:0:
353,7,119223,1,10,0:0:0:0:
243,135,119539,6,0,B|187:135|187:135|172:125|172:125|116:125,1,130,2|2,0:0|0:0,0:0:0:0:
116,286,120486,1,8,0:0:0:0:
116,286,120802,2,0,L|148:286,1,32.5,2|2,0:0|0:0,0:0:0:0:
148,206,121118,2,0,L|83:206,1,65,2|2,0:0|0:0,0:0:0:0:
83,366,121749,1,10,0:0:0:0:
240,366,122065,6,0,B|216:341|231:298|248:312|263:272|240:245,1,130,2|2,0:0|0:0,0:0:0:0:
116,125,123012,1,8,0:0:0:0:
240,18,123328,2,0,B|267:3|267:3|329:30|329:30|357:17,1,130,2|0,0:0|0:0,0:0:0:0:
461,125,124275,1,8,0:0:0:0:
461,125,124591,2,0,B|451:148|451:148|460:169,1,48.75,2|0,0:0|0:0,0:0:0:0:
460,169,124907,6,0,L|395:169,1,65,2|2,0:0|0:0,0:0:0:0:
266,230,125539,2,0,L|331:230,1,65,10|2,0:0|0:0,0:0:0:0:
460,290,126170,2,0,L|395:290,1,65,2|2,0:0|0:0,0:0:0:0:
266,350,126802,2,0,L|331:350,1,65,10|2,0:0|0:0,0:0:0:0:
395,290,127275,1,0,0:0:0:0:
332,154,127433,6,0,B|312:193|312:193|330:229,1,84.4999961318971,6|0,0:0|0:0,0:0:0:0:
395,290,127907,1,0,0:0:0:0:
498,197,128065,2,0,B|459:177|459:177|423:195,1,84.4999961318971,8|0,0:0|0:0,0:0:0:0:
332,67,128696,1,2,1:2:0:0:
332,67,128854,2,0,L|247:67,1,84.4999961318971,2|2,0:0|0:0,0:0:0:0:
187,177,129328,2,0,B|194:155|194:155|187:138,1,42.2499980659486,10|0,0:0|0:0,0:0:0:0:
92,137,129644,2,0,B|85:159|85:159|92:177,1,42.2499980659486,2|2,0:0|0:0,0:0:0:0:
139,337,129960,6,0,L|139:252,1,84.4999961318971,2|0,0:0|0:0,0:0:0:0:
187,177,130433,1,0,0:0:0:0:
320,252,130591,2,0,P|280:264|241:252,1,84.4999961318971,8|0,0:0|0:0,0:0:0:0:
287,91,131223,1,2,1:2:0:0:
287,91,131381,1,2,0:0:0:0:
287,91,131539,2,0,L|364:91,1,63.3749970989229,2|0,0:0|0:0,0:0:0:0:
350,91,131854,2,0,L|350:140,1,42.2499980659486,10|0,0:0|0:0,0:0:0:0:
443,133,132170,2,0,L|443:87,1,42.2499980659486,2|2,0:0|0:0,0:0:0:0:
396,208,132486,6,0,L|396:292,1,84.4999961318971,2|0,0:0|0:0,0:0:0:0:
328,357,132960,1,0,0:0:0:0:
222,292,133118,2,0,B|241:284|241:284|262:292,2,42.2499980659486,8|0|0,0:0|0:0|0:0,0:0:0:0:
155,357,133591,1,0,0:0:0:0:
44,292,133749,2,0,L|87:292,1,42.2499980659486,0|0,1:0|0:0,0:0:0:0:
222,292,134065,1,2,0:0:0:0:
157,216,134381,1,10,0:0:0:0:
100,140,134696,1,2,0:0:0:0:
100,140,135012,6,0,P|60:155|21:141,1,84.4999961318971,2|2,1:2|1:2,0:0:0:0:
59,65,135486,1,0,1:0:0:0:
214,140,135644,2,0,P|201:101|215:62,1,84.4999961318971,10|2,1:2|1:2,0:0:0:0:
289,4,136117,1,0,0:0:0:0:
382,100,136275,2,0,L|340:100,1,42.2499980659486,2|0,1:2|1:0,0:0:0:0:
214,140,136591,2,0,L|256:140,1,42.2499980659486,2|0,1:2|1:0,0:0:0:0:
382,274,136907,1,10,1:2:0:0:
452,229,137065,1,0,1:0:0:0:
453,144,137223,1,2,1:2:0:0:
382,100,137381,1,0,0:0:0:0:
160,320,142591,5,2,0:0:0:0:
173,298,143223,1,2,0:0:0:0:
186,276,143854,1,2,0:0:0:0:
199,254,144486,1,2,0:0:0:0:
212,232,145118,5,2,0:0:0:0:
193,206,145275,1,2,0:0:0:0:
317,154,145433,2,0,B|255:154,1,48.750001859665,2|0,0:0|0:0,0:0:0:0:
193,10,145749,2,0,P|206:56|191:101,1,97.50000371933,0|2,3:0|0:0,0:0:0:0:
22,55,146223,2,0,L|119:55,1,97.50000371933,2|0,0:0|0:0,0:0:0:0:
268,154,146696,1,2,0:0:0:0:
268,154,146854,1,0,0:0:0:0:
119,55,147012,1,0,3:0:0:0:
119,237,147328,1,2,0:0:0:0:
119,237,147644,5,2,0:0:0:0:
74,160,147802,1,2,0:0:0:0:
223,77,147960,1,0,0:0:0:0:
268,154,148118,2,0,B|224:174|224:174|178:154,1,97.50000371933,2|2,0:0|0:0,0:0:0:0:
178,320,148591,2,0,B|233:290|233:290|338:350|338:350|392:325,1,243.750009298325,2|0,0:0|0:0,0:0:0:0:
512,179,149539,1,2,3:2:0:0:
392,325,149854,1,2,0:0:0:0:
392,325,150170,5,2,0:0:0:0:
368,301,150328,1,2,0:0:0:0:
429,201,150486,2,0,B|440:223|440:223|428:244,1,48.750001859665,0|0,0:0|0:0,0:0:0:0:
251,222,150802,2,0,P|296:206|342:221,1,97.50000371933,0|2,3:0|0:0,0:0:0:0:
474,100,151275,2,0,P|428:115|382:100,1,97.50000371933,2|0,0:0|0:0,0:0:0:0:
227,4,151749,1,2,0:0:0:0:
227,4,151907,1,0,0:0:0:0:
382,100,152065,1,0,3:0:0:0:
251,222,152381,1,2,0:0:0:0:
251,222,152696,5,2,0:0:0:0:
296,301,152854,1,2,0:0:0:0:
158,377,153012,1,2,0:0:0:0:
113,300,153170,2,0,P|158:285|204:300,1,97.50000371933,2|2,0:0|0:0,0:0:0:0:
217,136,153644,2,0,B|187:142|158:178|158:178|129:141|100:136,1,146.250005578995,2|0,0:0|0:0,0:0:0:0:
159,65,154275,1,2,0:0:0:0:
159,65,154433,2,0,L|159:284,1,219.375008368492,2|0,0:0|0:0,0:0:0:0:
159,284,155223,6,0,B|194:297|194:297|269:256|269:256|305:271,1,162.5,6|0,1:2|0:0,0:0:0:0:
389,318,155696,1,2,1:2:0:0:
512,186,155854,2,0,B|477:204|477:204|439:185,1,81.25,8|2,0:0|0:0,0:0:0:0:
275,107,156170,1,0,0:0:0:0:
479,3,156328,2,0,P|505:55|478:107,1,121.875,2|0,0:0|0:0,0:0:0:0:
477,107,156644,2,0,P|439:94|401:106,1,81.25,2|0,0:0|1:0,0:0:0:0:
338,181,156960,1,2,0:0:0:0:
165,106,157118,2,0,B|219:80|219:80|274:106,1,121.875,10|0,0:0|0:0,0:0:0:0:
274,106,157433,2,0,L|274:25,1,81.25,2|0,0:0|0:0,0:0:0:0:
439,185,157749,5,2,1:2:0:0:
395,371,157907,2,0,B|407:344|407:344|378:287|378:287|389:261,1,121.875,2|0,0:0|0:0,0:0:0:0:
389,260,158223,1,2,1:2:0:0:
206,261,158381,2,0,B|218:287|218:287|189:344|189:344|199:371,1,121.875,10|0,0:0|0:0,0:0:0:0:
199,371,158696,1,2,0:0:0:0:
0,222,158854,2,0,B|124:222|124:222|132:204|148:192,1,162.5,2|0,0:0|0:0,0:0:0:0:
0,222,159328,1,2,1:2:0:0:
54,140,159486,1,2,0:0:0:0:
206,261,159644,1,10,0:0:0:0:
260,179,159802,1,2,1:2:0:0:
412,300,159960,2,0,B|445:281|445:252|445:252|445:281|475:302,1,121.875,6|0,1:2|0:0,0:0:0:0:
474,301,160275,6,0,B|437:324|389:299|410:281|361:254|326:279,1,162.5,6|0,1:2|0:0,0:0:0:0:
275,350,160749,1,2,1:2:0:0:
129,262,160907,2,0,P|167:273|205:261,1,81.25,8|2,0:0|0:0,0:0:0:0:
315,98,161223,1,0,0:0:0:0:
412,300,161381,2,0,L|412:179,1,121.875,2|0,0:0|0:0,0:0:0:0:
412,178,161696,2,0,P|451:189|489:177,1,81.25,2|0,0:0|1:0,0:0:0:0:
446,97,162012,1,2,0:0:0:0:
244,154,162170,2,0,P|222:98|244:42,1,121.875,10|0,0:0|0:0,0:0:0:0:
243,42,162486,2,0,L|162:42,1,81.25,2|0,0:0|0:0,0:0:0:0:
26,195,162802,5,2,1:2:0:0:
78,12,162960,2,0,B|55:36|69:74|85:61|99:101|77:124,1,121.875,2|0,0:0|0:0,0:0:0:0:
76,124,163275,1,2,1:2:0:0:
243,266,163433,2,0,B|265:241|251:203|235:216|221:176|243:153,1,121.875,10|0,0:0|0:0,0:0:0:0:
242,153,163749,1,2,0:0:0:0:
116,319,163907,2,0,B|154:299|198:329|176:345|221:376|258:355,1,162.5,2|0,0:0|0:0,0:0:0:0:
116,319,164381,1,2,1:2:0:0:
39,366,164539,1,0,1:0:0:0:
0,190,164696,2,0,P|38:177|77:188,1,81.25,8|0,0:0|1:0,0:0:0:0:
191,42,165012,2,0,B|158:93|158:93|124:42,1,121.875,2|0,0:0|0:0,0:0:0:0:
124,42,165328,6,0,B|193:42|193:42|212:54|212:54|282:54,1,162.5,6|0,1:2|0:0,0:0:0:0:
378,54,165802,1,2,1:2:0:0:
327,247,165960,2,0,P|303:193|327:139,1,121.875,8|0,0:0|0:0,0:0:0:0:
327,138,166275,1,2,0:0:0:0:
378,54,166433,1,0,0:0:0:0:
473,193,166591,2,0,B|435:210|435:210|398:193,1,81.25,0|0,0:0|0:0,0:0:0:0:
265,311,166907,1,2,1:2:0:0:
202,247,167065,1,0,0:0:0:0:
58,311,167223,2,0,L|140:311,1,81.25,8|0,0:0|1:0,0:0:0:0:
347,311,167539,2,0,L|265:311,1,81.25,2|2,0:0|0:0,0:0:0:0:
203,100,167854,6,0,B|221:134|221:134|185:211|185:211|201:246,1,162.5,2|0,1:2|0:0,0:0:0:0:
283,215,168328,1,2,1:2:0:0:
121,134,168486,2,0,P|65:111|10:134,1,121.875,8|0,0:0|0:0,0:0:0:0:
11,133,168802,1,2,0:0:0:0:
65,205,168960,1,0,0:0:0:0:
203,100,169118,2,0,B|287:100,1,81.25,0|0,0:0|0:0,0:0:0:0:
416,174,169433,1,2,1:2:0:0:
470,99,169591,1,0,0:0:0:0:
284,26,169749,2,0,B|267:65|267:65|284:100,1,81.25,8|0,0:0|1:0,0:0:0:0:
418,284,170065,2,0,B|444:231|444:231|417:175,1,121.875,4|0,1:2|0:0,0:0:0:0:
416,174,170381,6,0,B|344:174|344:174|325:186|325:186|256:186,1,162.5,4|0,1:2|0:0,0:0:0:0:
170,190,170854,1,2,1:2:0:0:
208,344,171012,2,0,P|222:306|209:269,1,81.25,8|2,0:0|0:0,0:0:0:0:
283,99,171328,1,0,0:0:0:0:
346,174,171486,1,2,0:0:0:0:
208,268,171644,2,0,B|171:284|171:284|132:269,1,81.25,4|2,0:0|0:0,0:0:0:0:
170,108,171960,2,0,L|170:190,1,81.25,2|2,1:2|0:0,0:0:0:0:
347,281,172275,2,0,P|322:227|346:173,1,121.875,10|0,0:0|0:0,0:0:0:0:
345,173,172591,1,2,0:0:0:0:
413,227,172749,1,2,0:0:0:0:
428,78,172907,6,0,B|406:100|406:100|348:76|348:76|282:98,1,162.5,6|0,1:2|0:0,0:0:0:0:
219,35,173381,1,2,1:2:0:0:
171,251,173539,2,0,B|154:216|154:216|188:138|188:138|170:104,1,162.5,8|2,0:0|0:0,0:0:0:0:
118,35,174012,1,0,0:0:0:0:
49,228,174170,1,2,0:0:0:0:
8,144,174328,2,0,L|89:144,1,81.25,2|0,1:2|1:0,0:0:0:0:
169,103,174644,1,0,1:0:0:0:
324,217,174802,2,0,B|286:200|286:200|248:215,1,81.25,8|0,0:0|1:0,0:0:0:0:
130,333,175118,2,0,B|167:349|167:349|205:334,1,81.25,2|0,3:2|3:0,0:0:0:0:
400,261,175433,6,0,B|435:219|414:157|386:179|365:114|401:76,1,200.200006109619,6|0,1:2|0:0,0:0:0:0:
324,217,176696,6,0,B|216:217|216:217|242:178|215:129,1,200.200006109619,4|0,1:2|0:0,0:0:0:0:
137,129,177960,6,0,B|106:162|124:228|132:220|164:228|134:238|167:270|120:302|88:302|88:302|76:313|76:313|64:302|64:302|32:302|-13:270|18:238|-10:228|22:220|27:228|46:162|17:128,1,457.600013964844,0|0,1:2|0:0,0:0:0:0:
