osu file format v14

[General]
AudioFilename: audio.mp3
AudioLeadIn: 0
PreviewTime: 40907
Countdown: 0
SampleSet: Soft
StackLeniency: 0.7
Mode: 0
LetterboxInBreaks: 0
WidescreenStoryboard: 0

[Editor]
Bookmarks: 11223,31433,41539,61749,66802,87012,97118,117328,117486,117644,117802,117960,118118,118275,118433,118591,118749,118907,119065,119223,119381,119539,119696,119854,120012,120170,120328,120486,120644,120802,120960,121118,121275,121433,121591,121749,121907,122065,122223,122381,122539,122696,122854,123012,123170,123328,123486,123644,123802,123960,124118,124275,124433,124591,124749,124907,125065,125223,125381,125539,125696,125854,126012,126170,126328,126486,126644,126802,126960,127118,127275,127433,137539,137696,137854,138012,138170,138328,138486,138644,138802,138960,139117,139275,139433,139591,139749,139907,140065,140223,140381,140539,140696,140854,141012,141170,141328,141486,141644,141802,141960,142117,142275,142433,142591,145117,155223,175433
DistanceSpacing: 1.5
BeatDivisor: 4
GridSize: 32
TimelineZoom: 0.5999999

[Metadata]
Title:Hanataba ni Komete
TitleUnicode:花束に込めて
Artist:fumika
ArtistUnicode:fumika
Creator:Iceluin
Version:Easy
Source:
Tags:Shirahane Suou japanese VARIOUSELF christmas xmas jpop pop j-pop
BeatmapID:2731340
BeatmapSetID:1318438

[Difficulty]
HPDrainRate:3
CircleSize:3
OverallDifficulty:4
ApproachRate:4
SliderMultiplier:1.2
SliderTickRate:1

[Events]
//Background and Video events
0,0,"hanataba.png",0,0
//Break Periods
2,117528,126113
2,137580,141271
//Storyboard Layer 0 (Background)
//Storyboard Layer 1 (Fail)
//Storyboard Layer 2 (Pass)
//Storyboard Layer 3 (Foreground)
//Storyboard Layer 4 (Overlay)
//Storyboard Sound Samples

[TimingPoints]
1118,631.578947368421,4,2,1,45,1,0
1118,-100,4,2,1,45,0,0
11223,-100,4,2,1,55,0,0
18486,-100,4,2,3,55,0,0
18802,-100,4,2,1,55,0,0
31433,-100,4,2,1,65,0,0
41539,-100,4,2,2,75,0,1
61433,-100,4,2,1,75,0,1
61749,-100,4,2,1,45,0,0
66802,-100,4,2,1,60,0,0
87012,-100,4,2,1,65,0,0
94591,-100,4,2,1,45,0,0
95933,-100,4,2,1,5,0,0
96012,-100,4,2,1,45,0,0
97118,-100,4,2,2,75,0,1
117012,-100,4,2,1,75,0,1
117328,-100,4,2,1,45,0,0
127433,-100,4,2,1,50,0,0
137539,-100,4,2,1,35,0,0
145117,-100,4,2,1,45,0,0
155144,-100,4,2,1,5,0,0
155223,-100,4,2,2,75,0,1
175117,-100,4,2,1,75,0,1
175433,-117.647058823529,4,2,1,55,0,0
178117,-117.647058823529,5,2,1,5,0,0

[Colours]
Combo1 : 255,255,119
Combo2 : 255,72,72
Combo3 : 0,225,0
Combo4 : 253,147,232

[HitObjects]
384,96,1118,6,0,L|384:276,1,180,2|2,0:0|0:0,0:0:0:0:
229,368,2696,1,2,0:0:0:0:
229,187,3328,1,2,0:0:0:0:
175,114,3644,2,0,P|162:71|174:29,1,90,2|2,0:0|0:0,0:0:0:0:
39,28,4591,2,0,B|72:70|50:121|31:103|11:155|41:196,1,180,2|2,0:0|3:2,0:0:0:0:
105,259,5854,1,2,0:0:0:0:
175,203,6170,6,0,B|253:203|253:203|272:216|272:216|350:216,1,180,2|2,0:0|0:0,0:0:0:0:
501,116,7749,1,2,0:0:0:0:
350,17,8381,1,2,0:0:0:0:
260,17,8696,2,0,L|170:17,1,90,2|2,0:0|0:0,0:0:0:0:
89,127,9644,2,0,L|-1:127,1,90,2|2,0:0|3:2,0:0:0:0:
0,262,10591,2,0,B|60:262,1,60,8|0,0:0|3:0,0:0:0:0:
133,208,11223,6,0,P|110:261|131:315,1,120,6|10,1:2|0:0,0:0:0:0:
204,369,12170,1,2,0:0:0:0:
276,316,12486,2,0,L|400:316,1,120,2|8,0:0|0:0,0:0:0:0:
396,135,13749,2,0,L|276:135,2,120,2|10|2,1:2|0:0|0:0,0:0:0:0:
457,68,15328,1,0,1:0:0:0:
396,1,15644,1,8,0:0:0:0:
276,135,16275,6,0,L|276:195,2,60,2|2|10,1:2|0:0|0:0,0:0:0:0:
214,68,17223,1,2,0:0:0:0:
153,135,17539,2,0,L|153:194,2,60,2|2|10,0:0|1:2|0:0,0:0:0:0:
7,29,18802,2,0,P|-18:81|6:134,1,120,2|10,1:2|0:0,0:0:0:0:
65,202,19749,1,2,0:0:0:0:
6,270,20065,2,0,P|-18:322|6:375,1,120,2|8,3:2|0:0,0:0:0:0:
178,322,21328,6,0,B|298:322,1,120,2|10,1:2|0:0,0:0:0:0:
373,370,22275,1,2,0:0:0:0:
449,322,22591,2,0,B|449:200,1,120,2|8,3:2|0:0,0:0:0:0:
393,30,23854,2,0,B|448:55|448:55|503:30,2,120,2|10|2,1:2|0:0|3:2,0:0:0:0:
321,85,25433,1,0,1:0:0:0:
249,30,25749,1,8,0:0:0:0:
105,140,26381,6,0,B|93:167|93:167|104:196,2,60,2|2|10,1:2|0:0|0:0,0:0:0:0:
177,85,27328,1,2,0:0:0:0:
248,140,27644,2,0,B|260:167|260:167|248:196,2,60,2|2|10,3:2|1:2|0:0,0:0:0:0:
393,30,28907,2,0,L|483:30,1,90,2|2,1:2|1:2,0:0:0:0:
483,165,29854,2,0,L|393:165,1,90,2|0,0:0|3:0,0:0:0:0:
304,267,30802,2,0,B|244:267,1,60,8|0,0:0|1:0,0:0:0:0:
171,320,31433,6,0,P|194:266|170:212,1,120,6|8,1:2|0:0,0:0:0:0:
113,142,32381,1,2,0:0:0:0:
170,72,32696,2,0,L|230:72,1,60,0|0,3:0|1:0,0:0:0:0:
286,142,33328,1,8,0:0:0:0:
422,24,33960,2,0,B|450:12|450:12|476:24,2,60,2|2|10,1:2|0:0|0:0,0:0:0:0:
354,83,34907,1,2,0:0:0:0:
422,141,35223,2,0,L|422:203,1,60,0|0,3:0|1:0,0:0:0:0:
422,291,35854,1,8,0:0:0:0:
250,346,36486,6,0,B|226:291|226:291|251:236,1,120,0|8,1:0|0:0,0:0:0:0:
304,163,37433,1,2,0:0:0:0:
250,90,37749,2,0,L|190:90,1,60,0|0,3:0|1:0,0:0:0:0:
99,90,38381,1,8,0:0:0:0:
44,261,39012,2,0,P|99:280|155:260,1,120,2|2,0:0|0:0,0:0:0:0:
304,163,40275,2,0,P|359:143|415:163,1,120,2|0,0:0|1:0,0:0:0:0:
359,334,41539,6,0,L|239:334,1,120,6|8,1:2|0:0,0:0:0:0:
110,374,42644,2,0,B|130:333|130:333|109:293,1,90,2|0,0:0|1:0,0:0:0:0:
55,220,43433,1,10,0:0:0:0:
109,148,43749,1,2,0:0:0:0:
55,75,44065,2,0,B|111:99|111:99|164:74,1,120,2|10,1:2|0:0,0:0:0:0:
234,17,45012,2,0,B|354:17,1,120,2|2,0:0|1:2,0:0:0:0:
424,73,45960,1,10,0:0:0:0:
354,130,46275,1,6,1:2:0:0:
424,186,46591,6,0,L|424:305,1,120,6|8,1:2|0:0,0:0:0:0:
296,350,47696,2,0,B|278:309|278:309|294:267,1,90,2|0,0:0|1:0,0:0:0:0:
236,197,48486,1,10,0:0:0:0:
178,266,48802,1,2,0:0:0:0:
120,197,49118,2,0,L|0:197,1,120,2|10,1:2|0:0,0:0:0:0:
0,107,50065,2,0,L|120:107,1,120,2|2,0:0|1:2,0:0:0:0:
178,38,51012,1,8,0:0:0:0:
324,142,51644,6,0,L|324:273,1,120,6|8,1:2|0:0,0:0:0:0:
269,333,52591,2,0,B|323:307|323:307|377:334,1,120,2|2,0:0|1:2,0:0:0:0:
461,365,53539,2,0,L|461:305,1,60,8|2,0:0|0:0,0:0:0:0:
512,231,54170,2,0,P|532:176|512:120,1,120,2|8,1:2|0:0,0:0:0:0:
446,58,55118,2,0,L|326:58,1,120,2|2,0:0|1:2,0:0:0:0:
255,114,56065,1,8,0:0:0:0:
183,58,56381,1,4,1:2:0:0:
113,114,56696,6,0,P|93:169|113:225,1,120,4|8,1:2|0:0,0:0:0:0:
183,280,57644,1,0,0:0:0:0:
255,224,57960,2,0,P|274:168|254:113,1,120,4|10,0:0|0:0,0:0:0:0:
112,224,59223,2,0,L|22:224,1,90,6|2,1:2|1:2,0:0:0:0:
22,359,60170,2,0,L|112:359,1,90,2|2,0:2|1:2,0:0:0:0:
229,291,61118,2,0,L|289:291,1,60,8|2,0:0|3:2,0:0:0:0:
367,334,61749,6,0,B|400:292|378:241|359:259|339:207|369:166,1,180,2|2,0:0|0:0,0:0:0:0:
434,2,63328,1,2,0:0:0:0:
258,41,63960,1,2,0:0:0:0:
177,4,64275,2,0,B|159:45|159:45|177:86,1,90,2|2,0:0|0:0,0:0:0:0:
108,203,65223,2,0,B|126:241|126:241|86:328|86:328|105:365,1,180,2|8,0:0|0:0,0:0:0:0:
281,326,66802,6,0,B|401:326,1,120,6|10,1:2|0:0,0:0:0:0:
464,262,67749,1,2,0:0:0:0:
401,197,68065,2,0,L|281:197,1,120,2|8,0:0|0:0,0:0:0:0:
281,16,69328,2,0,L|401:16,2,120,2|10|2,1:2|0:0|0:0,0:0:0:0:
211,72,70907,1,0,1:0:0:0:
140,16,71223,1,8,0:0:0:0:
2,131,71854,6,0,L|2:191,2,60,2|2|10,1:2|0:0|0:0,0:0:0:0:
71,73,72802,1,2,0:0:0:0:
139,131,73118,2,0,L|139:190,2,60,2|2|10,0:0|1:2|0:0,0:0:0:0:
281,16,74381,2,0,P|301:71|280:126,1,120,2|10,1:2|0:0,0:0:0:0:
218,191,75328,1,2,0:0:0:0:
283,253,75644,2,0,B|317:241|317:241|365:265|365:265|412:241|412:241|447:253,1,180,0|0,1:0|0:0,0:0:0:0:
424,340,76907,6,0,B|368:359|368:359|310:339,1,120,6|10,1:2|0:0,0:0:0:0:
224,312,77854,1,2,0:0:0:0:
151,365,78170,2,0,B|178:311|178:311|152:258,1,120,2|8,3:2|0:0,0:0:0:0:
206,86,79433,2,0,P|150:68|94:86,2,120,2|10|2,1:2|0:0|3:2,0:0:0:0:
273,146,81012,1,0,1:0:0:0:
340,86,81328,1,8,0:0:0:0:
472,206,81960,6,0,P|479:234|471:263,2,60,2|2|10,1:2|0:0|0:0,0:0:0:0:
406,146,82907,1,2,0:0:0:0:
473,86,83223,2,0,P|481:58|473:29,2,60,0|0|8,3:0|1:0|0:0,0:0:0:0:
339,206,84486,2,0,L|249:206,1,90,2|2,1:2|1:2,0:0:0:0:
249,341,85433,2,0,L|339:341,1,90,2|0,0:0|3:0,0:0:0:0:
420,232,86381,2,0,B|434:204|434:204|420:178,1,60,8|2,0:0|1:2,0:0:0:0:
351,120,87012,6,0,B|299:120|299:120|285:111|285:111|234:111,1,120,6|8,1:2|0:0,0:0:0:0:
158,61,87960,1,0,0:0:0:0:
83,111,88275,2,0,B|83:184,1,60,0|0,3:0|1:0,0:0:0:0:
83,261,88907,1,8,0:0:0:0:
263,261,89539,2,0,B|263:201,2,60,2|2|10,1:2|0:0|0:0,0:0:0:0:
339,310,90486,1,2,0:0:0:0:
414,261,90802,2,0,B|414:201,1,60,0|2,3:0|1:2,0:0:0:0:
339,149,91433,1,8,0:0:0:0:
174,87,92065,6,0,B|150:142|150:142|174:198,1,120,0|8,1:0|0:0,0:0:0:0:
235,260,93012,1,2,0:0:0:0:
173,325,93328,2,0,L|113:325,1,60,0|2,3:0|1:2,0:0:0:0:
22,325,93960,1,8,0:0:0:0:
68,151,94591,1,2,0:0:0:0:
345,319,96012,1,8,0:3:0:0:
414,261,96328,2,0,L|414:160,1,90,4|4,0:3|0:3,0:0:0:0:
469,99,97118,6,0,P|413:118|358:99,1,120,6|8,1:2|0:0,0:0:0:0:
256,10,98223,2,0,B|166:10,1,90,2|0,0:0|1:0,0:0:0:0:
99,70,99012,1,10,0:0:0:0:
166,129,99328,1,2,0:0:0:0:
124,208,99644,2,0,B|100:263|100:263|123:318,1,120,2|10,1:2|0:0,0:0:0:0:
213,318,100591,2,0,B|236:262|236:262|212:207,1,120,2|2,0:0|1:2,0:0:0:0:
166,129,101539,1,10,0:0:0:0:
226,62,101854,1,6,1:2:0:0:
308,98,102170,6,0,L|428:98,1,120,6|8,1:2|0:0,0:0:0:0:
428,233,103275,2,0,B|338:233,1,90,2|0,0:0|1:0,0:0:0:0:
267,289,104065,1,10,0:0:0:0:
196,233,104381,1,2,0:0:0:0:
119,279,104696,2,0,P|62:296|6:278,1,120,2|10,1:2|0:0,0:0:0:0:
7,187,105644,2,0,P|63:169|119:186,1,120,2|2,0:0|1:2,0:0:0:0:
196,233,106591,1,8,0:0:0:0:
338,123,107223,6,0,P|358:67|336:12,1,120,6|8,1:2|0:0,0:0:0:0:
266,69,108170,2,0,L|146:69,1,120,2|2,0:0|1:2,0:0:0:0:
60,39,109118,2,0,B|48:67|48:67|59:94,1,60,8|2,0:0|0:0,0:0:0:0:
123,158,109749,2,0,P|145:212|123:266,1,120,2|8,1:2|0:0,0:0:0:0:
68,338,110696,2,0,B|123:314|123:314|179:338,1,120,2|2,0:0|1:2,0:0:0:0:
262,368,111644,1,8,0:0:0:0:
318,298,111960,1,4,1:2:0:0:
270,224,112275,6,0,P|250:169|270:113,1,120,4|8,1:2|0:0,0:0:0:0:
331,47,113223,1,0,0:0:0:0:
392,113,113539,2,0,L|512:113,1,120,4|10,0:0|0:0,0:0:0:0:
512,293,114802,2,0,L|422:293,1,90,6|2,1:2|1:2,0:0:0:0:
310,368,115749,2,0,L|220:368,1,90,2|0,0:0|1:0,0:0:0:0:
95,314,116696,2,0,B|82:287|82:287|93:259,1,60,10|2,0:0|3:2,0:0:0:0:
130,177,117328,5,4,0:0:0:0:
352,96,127433,6,0,P|409:80|465:96,2,120,6|8|2,0:0|0:0|1:2,0:0:0:0:
200,192,129328,2,0,L|140:192,1,60,10|2,0:0|0:0,0:0:0:0:
66,137,129960,2,0,B|93:191|93:191|68:246,2,120,2|8|2,0:0|0:0|1:2,0:0:0:0:
219,43,131854,2,0,L|279:43,1,60,10|2,0:0|0:0,0:0:0:0:
352,96,132486,6,0,L|472:96,2,120,2|8|0,0:0|0:0|1:0,0:0:0:0:
352,276,134381,2,0,L|424:276,1,60,10|2,0:0|0:0,0:0:0:0:
412,185,135012,2,0,L|292:185,1,120,2|10,1:2|1:2,0:0:0:0:
222,127,135960,1,2,1:2:0:0:
153,185,136275,2,0,L|93:185,1,60,2|2,1:2|1:2,0:0:0:0:
22,127,136907,2,0,P|9:84|22:42,1,90,10|0,1:2|1:0,0:0:0:0:
327,192,142591,6,0,B|350:135|350:135|326:81,1,120,2|2,0:0|0:0,0:0:0:0:
184,192,143854,2,0,B|160:245|160:245|183:302,1,120,2|2,0:0|0:0,0:0:0:0:
3,302,145117,6,0,B|21:264|21:264|-19:177|-19:177|0:140,1,180,2|2,0:0|0:0,0:0:0:0:
123,8,146696,1,2,0:0:0:0:
245,139,147328,1,2,0:0:0:0:
325,99,147644,2,0,P|337:141|323:183,1,90,2|2,0:0|0:0,0:0:0:0:
245,293,148591,2,0,B|167:293|167:293|148:280|148:280|70:280,1,180,2|2,0:0|3:2,0:0:0:0:
5,217,149854,1,2,0:0:0:0:
69,152,150170,6,0,B|147:152|147:152|166:139|166:139|244:139,1,180,2|2,0:0|0:0,0:0:0:0:
337,293,151749,1,2,0:0:0:0:
431,139,152381,1,2,0:0:0:0:
351,97,152696,2,0,P|339:139|351:182,1,90,2|2,0:0|0:0,0:0:0:0:
431,292,153644,1,2,0:0:0:0:
191,292,155223,6,0,P|135:310|79:291,1,120,6|8,1:2|0:0,0:0:0:0:
136,169,156328,2,0,B|136:79,1,90,2|0,0:0|1:0,0:0:0:0:
199,15,157118,1,10,0:0:0:0:
261,79,157433,1,2,0:0:0:0:
325,15,157749,2,0,L|445:15,1,120,2|10,1:2|0:0,0:0:0:0:
511,75,158696,2,0,P|532:129|511:184,1,120,2|2,0:0|1:2,0:0:0:0:
452,253,159644,1,10,0:0:0:0:
389,188,159960,1,6,1:2:0:0:
326,253,160275,6,0,L|326:373,1,120,6|8,1:2|0:0,0:0:0:0:
190,373,161381,2,0,B|190:283,1,90,2|0,0:0|1:0,0:0:0:0:
149,198,162170,1,10,0:0:0:0:
213,136,162486,1,2,0:0:0:0:
294,178,162802,2,0,P|350:195|406:178,1,120,2|10,1:2|0:0,0:0:0:0:
403,89,163749,2,0,P|346:71|290:88,1,120,2|2,0:0|1:2,0:0:0:0:
213,136,164696,1,8,0:0:0:0:
213,316,165328,6,0,L|333:316,1,120,6|8,1:2|0:0,0:0:0:0:
333,225,166275,2,0,L|213:225,1,120,2|2,0:0|1:2,0:0:0:0:
136,273,167223,2,0,B|109:285|109:285|80:273,1,60,8|2,0:0|0:0,0:0:0:0:
4,225,167854,2,0,P|-16:169|4:114,1,120,2|8,1:2|0:0,0:0:0:0:
69,52,168802,2,0,B|189:52,1,120,2|2,0:0|1:2,0:0:0:0:
254,114,169749,1,8,0:0:0:0:
319,52,170065,1,4,1:2:0:0:
383,114,170381,6,0,P|403:169|383:225,1,120,4|8,1:2|0:0,0:0:0:0:
319,288,171328,1,0,0:0:0:0:
253,224,171644,2,0,P|233:168|253:113,1,120,4|10,0:0|0:0,0:0:0:0:
89,37,172907,2,0,L|-1:37,1,90,6|2,1:2|1:2,0:0:0:0:
0,172,173854,2,0,L|90:172,1,90,2|2,0:2|1:2,0:0:0:0:
180,272,174802,2,0,B|239:271,1,60,8|2,0:0|3:2,0:0:0:0:
320,317,175433,6,0,L|473:317,1,153.000002918243,6|0,1:2|0:0,0:0:0:0:
473,225,176696,2,0,L|320:225,1,153.000002918243,4|0,1:2|0:0,0:0:0:0:
239,270,177960,2,0,B|220:241|225:178|232:186|260:178|234:169|263:141|221:112|193:112|193:112|183:102|183:102|172:112|172:112|143:112|102:141|131:169|104:178|133:186|139:178|146:241|129:273,1,408.000007781983,0|0,1:2|0:0,0:0:0:0:
