osu file format v14

[General]
AudioFilename: audio.mp3
AudioLeadIn: 0
PreviewTime: 59003
Countdown: 0
SampleSet: Soft
StackLeniency: 0.7
Mode: 0
LetterboxInBreaks: 0
WidescreenStoryboard: 0

[Editor]
Bookmarks: 13426,22656,34964,47272,59580,61310,71887,84195,88810
DistanceSpacing: 0.3
BeatDivisor: 4
GridSize: 8
TimelineZoom: 1.4

[Metadata]
Title:Aoi Tori (TV Size)
TitleUnicode:アオイトリ (TV Size)
Artist:fumika
ArtistUnicode:fumika
Creator:-Mikan
Version:Soulless
Source:BLEACH
Tags:wenet wenect unranked mapper [_lost_] conner c_o_n_n_e_r sarawatlism anime japanese ed ending 27 blue bird rock pop j-rock j-pop jrock jpop POP SISTER
BeatmapID:2494260
BeatmapSetID:1197443

[Difficulty]
HPDrainRate:6
CircleSize:4
OverallDifficulty:8.3
ApproachRate:8.5
SliderMultiplier:1.6
SliderTickRate:1

[Events]
//Background and Video events
0,0,"Konachan.com_-_237426_bleach_ichimaru_gin_male_matsumoto_rangiku_noppo_polychromatic_tagme.jpg",0,0
Video,50,"[AniTousen] TV ED27 - Aoi Tori (fumika).mp4"
//Break Periods
//Storyboard Layer 0 (Background)
//Storyboard Layer 1 (Fail)
//Storyboard Layer 2 (Pass)
//Storyboard Layer 3 (Foreground)
//Storyboard Layer 4 (Overlay)
//Storyboard Sound Samples

[TimingPoints]
-420,384.615384615385,4,2,3,70,1,0
1118,-133.333333333333,4,2,3,70,0,0
7272,-133.333333333333,4,2,1,70,0,0
13041,-133.333333333333,4,2,2,70,0,0
13426,-133.333333333333,4,2,1,80,0,1
14964,-100,4,2,3,80,0,0
16503,-100,4,2,2,80,0,1
18041,-100,4,2,1,80,0,1
18618,-100,4,2,3,80,0,1
19195,-100,4,2,2,80,0,1
19580,-100,4,2,1,80,0,1
21118,-166.666666666667,4,2,1,80,0,0
22656,-125,4,2,3,70,0,0
46118,-125,4,2,2,75,0,0
47272,-125,4,2,3,70,0,0
53426,-125,4,2,1,70,0,0
56503,-111.111111111111,4,2,1,70,0,0
58041,-50,4,2,1,70,0,0
58426,-100,4,2,1,70,0,0
59003,-66.6666666666667,4,2,1,70,0,0
59195,-50,4,2,1,70,0,0
59387,-58.8235294117647,4,2,1,70,0,0
59580,-83.3333333333333,4,2,3,90,0,1
59964,-100,4,2,3,90,0,1
60926,-100,4,2,2,90,0,1
62656,-100,4,2,1,90,0,1
64003,-100,4,2,2,90,0,1
65733,-100,4,2,1,90,0,1
67080,-100,4,2,2,90,0,1
68810,-100,4,2,1,90,0,1
70349,-100,4,2,3,90,0,1
71310,-66.6666666666667,4,2,3,90,0,0
71503,-58.8235294117647,4,2,3,90,0,0
71695,-52.6315789473684,4,2,3,90,0,0
71887,-83.3333333333333,4,2,3,90,0,1
72272,-100,4,2,3,90,0,1
73233,-100,4,2,2,90,0,1
74964,-100,4,2,1,90,0,1
76310,-100,4,2,2,90,0,1
77080,-83.3333333333333,4,2,2,90,0,1
78041,-100,4,2,1,90,0,1
79580,-100,4,2,2,90,0,1
81118,-100,4,2,1,90,0,1
82464,-83.3333333333333,4,2,2,90,0,1
83041,-100,4,2,2,90,0,1
84003,-100,4,2,2,90,0,0
84195,-100,4,2,3,90,0,1
85733,-83.3333333333333,4,2,1,90,0,1
86695,-66.6666666666667,4,2,1,90,0,1
86887,-50,4,2,1,90,0,1
87272,-133.333333333333,4,2,2,80,0,0
88810,-133.333333333333,4,2,1,20,0,0

[Colours]
Combo1 : 198,198,198
Combo2 : 174,174,215

[HitObjects]
329,185,541,5,2,0:0:0:0:
301,374,733,1,2,0:0:0:0:
480,302,926,1,2,0:0:0:0:
360,280,1118,6,0,B|213:268,1,120.000004577637,4|2,1:0|0:0,0:0:0:0:
174,208,1695,2,0,L|103:220,1,60.0000022888184,2|0,0:0|0:0,0:0:0:0:
47,274,2080,6,0,P|14:228|29:165,1,120.000004577637,2|2,0:0|0:0,0:0:0:0:
25,169,2560,1,2,0:0:0:0:
25,169,2656,1,2,0:0:0:0:
93,114,2849,2,0,L|80:39,1,60.0000022888184,2|0,0:0|0:0,0:0:0:0:
182,121,3233,6,0,B|230:122|216:151|278:149,1,90.0000034332277,2|0,0:0|0:0,0:0:0:0:
328,105,3618,2,0,B|383:98|383:98|392:101|392:101|455:93,1,120.000004577637,2|0,0:0|0:0,0:0:0:0:
512,222,4195,6,0,L|496:352,2,120.000004577637,2|2|2,0:0|0:0|0:0,0:0:0:0:
447,177,5156,2,0,B|383:180|400:229|320:227,1,120.000004577637,2|2,0:0|0:0,0:0:0:0:
340,226,5637,1,2,0:0:0:0:
340,226,5733,1,2,0:0:0:0:
280,281,5926,2,0,L|287:351,1,60.0000022888184,2|0,0:0|0:0,0:0:0:0:
22,186,6310,6,0,P|83:195|139:150,1,120.000004577637,2|2,0:0|0:0,0:0:0:0:
203,196,6887,1,2,0:0:0:0:
265,148,7080,1,2,0:0:0:0:
265,148,7176,1,2,0:0:0:0:
265,148,7272,2,0,B|306:100|319:-14|214:-18|207:68|329:80,1,240.000009155274,4|0,1:0|0:0,0:0:0:0:
359,154,8233,6,0,L|428:146,1,60.0000022888184,2|2,0:0|0:0,0:0:0:0:
483,97,8618,1,2,0:0:0:0:
483,97,8714,1,2,0:0:0:0:
483,97,8810,2,0,P|496:132|499:171,1,60.0000022888184,0|2,0:0|0:0,0:0:0:0:
418,279,9195,2,0,P|413:249|401:221,1,60.0000022888184,2|2,0:0|0:0,0:0:0:0:
492,251,9580,1,2,0:0:0:0:
360,335,9772,2,0,B|293:329|320:387|227:373,1,120.000004577637,2|2,0:0|0:0,0:0:0:0:
155,334,10253,5,2,0:0:0:0:
146,318,10349,2,0,L|157:242,1,60.0000022888184,2|2,0:0|0:0,0:0:0:0:
80,158,10733,2,0,L|71:217,1,60.0000022888184,2|2,0:0|0:0,0:0:0:0:
2,176,11118,1,2,0:0:0:0:
126,82,11310,2,0,P|175:120|244:113,1,120.000004577637,2|2,0:0|0:0,0:0:0:0:
297,80,11791,5,2,0:0:0:0:
308,60,11887,2,0,L|297:0,1,60.0000022888184,2|2,0:0|0:0,0:0:0:0:
404,93,12272,1,2,0:0:0:0:
351,174,12464,1,2,0:0:0:0:
351,174,12560,1,2,0:0:0:0:
351,174,12656,2,0,L|362:243,1,60.0000022888184,2|0,0:0|1:0,0:0:0:0:
264,204,13041,1,12,1:2:0:0:
404,93,13234,5,2,1:2:0:0:
404,93,13330,1,0,1:0:0:0:
404,93,13426,1,14,1:2:0:0:
273,316,13618,1,0,1:0:0:0:
198,43,13810,5,10,1:2:0:0:
286,302,14003,1,0,1:0:0:0:
453,168,14195,5,10,1:2:0:0:
141,278,14387,1,0,1:0:0:0:
443,282,14580,5,10,1:2:0:0:
193,159,14772,1,0,1:0:0:0:
383,0,14964,6,0,P|375:61|371:141,1,120,14|0,1:2|0:0,0:0:0:0:
380,135,15349,1,2,1:2:0:0:
512,237,15541,6,0,P|480:282|369:295,1,160,10|2,1:2|1:2,0:0:0:0:
417,213,16118,1,8,1:2:0:0:
273,368,16310,5,2,1:2:0:0:
273,368,16406,1,8,1:2:0:0:
273,368,16503,2,0,P|217:363|139:357,1,120,6|0,1:2|0:0,0:0:0:0:
84,384,16887,5,10,1:2:0:0:
264,204,17080,1,2,1:2:0:0:
166,155,17272,1,0,1:0:0:0:
268,285,17464,1,8,1:2:0:0:
380,135,17656,2,0,P|369:72|365:36,1,80,0|0,1:0|1:0,0:0:0:0:
302,5,17945,5,8,1:2:0:0:
302,5,18041,2,0,P|268:43|171:39,1,120,12|0,1:2|0:0,0:0:0:0:
192,37,18426,1,0,1:0:0:0:
13,170,18618,6,0,B|110:188|110:188|136:218|122:259,1,160,12|0,1:2|1:0,0:0:0:0:
284,381,19195,6,0,L|276:285,1,80,12|0,1:2|1:0,0:0:0:0:
328,242,19483,1,0,1:0:0:0:
343,233,19580,2,0,B|434:234|397:292|493:294,1,160,12|8,1:2|1:2,0:0:0:0:
305,8,20156,5,0,1:0:0:0:
245,58,20349,1,0,1:0:0:0:
205,53,20445,1,8,1:3:0:0:
165,64,20541,1,0,1:0:0:0:
135,91,20637,1,0,1:0:0:0:
118,127,20733,1,8,1:2:0:0:
102,164,20830,1,0,1:0:0:0:
66,181,20926,1,8,1:3:0:0:
26,182,21022,1,4,1:3:0:0:
13,170,21118,6,0,P|121:188|251:227,1,239.999992675781,4|0,1:0|1:0,0:0:0:0:
245,225,22272,1,8,1:2:0:0:
468,64,22656,6,0,P|394:82|386:85,1,64,4|0,1:0|0:0,0:0:0:0:
321,107,23041,2,0,L|329:24,1,64,10|2,1:2|1:2,0:0:0:0:
322,39,23330,1,8,1:2:0:0:
316,35,23426,1,2,3:2:0:0:
415,158,23618,1,2,1:2:0:0:
245,225,23810,6,0,L|163:211,1,64,8|2,1:2|1:2,0:0:0:0:
84,258,24195,2,0,P|131:281|164:276,1,64,0|0,3:0|1:0,0:0:0:0:
184,142,24580,2,0,P|137:119|104:124,1,64,8|2,1:2|1:2,0:0:0:0:
123,128,24868,1,8,1:2:0:0:
120,137,24964,5,2,3:2:0:0:
48,175,25156,1,2,1:2:0:0:
2,108,25349,2,0,L|14:42,1,64,10|2,1:2|1:2,0:0:0:0:
148,207,25637,5,8,1:2:0:0:
152,218,25733,2,0,L|140:280,1,64,2|0,1:2|0:0,0:0:0:0:
63,331,26118,1,10,1:2:0:0:
0,262,26310,1,2,1:2:0:0:
2,256,26406,1,8,1:2:0:0:
5,250,26503,5,0,3:0:0:0:
173,365,26695,1,2,1:2:0:0:
326,244,26887,1,8,1:2:0:0:
368,319,27080,6,0,P|338:292|247:291,1,128,2|0,1:2|1:0,0:0:0:0:
421,222,27656,2,0,L|403:137,1,64,8|0,1:2|0:0,0:0:0:0:
412,155,27945,1,8,1:2:0:0:
417,151,28041,1,0,3:0:0:0:
503,241,28233,1,0,1:0:0:0:
301,161,28426,2,0,L|319:76,1,64,10|2,1:2|1:2,0:0:0:0:
266,26,28714,5,8,1:2:0:0:
258,18,28810,2,0,B|190:20|209:64|121:59,1,128,2|10,1:2|1:2,0:0:0:0:
71,198,29387,1,2,1:2:0:0:
77,194,29483,1,8,1:2:0:0:
81,190,29580,2,0,P|88:148|68:106,1,64,0|0,3:0|1:0,0:0:0:0:
5,152,29964,1,8,1:2:0:0:
167,242,30156,5,2,1:2:0:0:
95,307,30349,2,0,L|-6:295,1,96,2|0,1:2|0:0,0:0:0:0:
167,384,30733,2,0,B|179:354|179:354|180:300,1,64,8|2,1:2|1:2,0:0:0:0:
176,320,31022,1,8,1:2:0:0:
173,318,31118,1,0,3:0:0:0:
301,161,31310,6,0,L|318:243,1,64,2|8,1:2|1:2,0:0:0:0:
462,342,31695,1,2,1:2:0:0:
464,336,31791,1,8,1:2:0:0:
466,330,31887,2,0,P|405:323|354:374,1,128,2|8,1:2|1:2,0:0:0:0:
492,246,32464,5,2,1:2:0:0:
498,244,32560,1,8,1:2:0:0:
503,241,32656,2,0,L|490:178,1,64,2|2,3:2|1:2,0:0:0:0:
414,118,33041,1,10,1:2:0:0:
466,45,33233,1,2,1:2:0:0:
301,161,33426,6,0,P|245:152|216:149,1,64,2|0,1:3|0:0,0:0:0:0:
82,211,33810,2,0,P|113:215|145:220,1,64,8|0,1:2|0:0,0:0:0:0:
313,311,34099,1,8,1:2:0:0:
306,320,34195,2,0,P|274:314|242:310,1,64,2|0,3:0|1:0,0:0:0:0:
154,370,34580,2,0,P|151:328|162:292,1,64,8|0,1:2|0:0,0:0:0:0:
31,143,34868,5,0,1:0:0:0:
21,139,34964,2,0,P|24:97|13:61,1,64,4|0,1:0|0:0,0:0:0:0:
89,17,35349,2,0,L|170:30,1,64,10|2,1:2|1:2,0:0:0:0:
157,35,35637,1,8,1:2:0:0:
162,42,35733,1,2,3:2:0:0:
224,101,35926,1,2,1:2:0:0:
294,52,36118,2,0,L|284:-11,1,64,8|2,1:2|1:2,0:0:0:0:
419,107,36406,5,0,1:0:0:0:
414,118,36503,2,0,B|377:120|377:120|336:109,1,64,0|0,3:0|1:0,0:0:0:0:
145,220,36887,2,0,B|182:218|182:218|223:229,1,64,8|2,1:2|1:2,0:0:0:0:
244,295,37176,1,8,1:2:0:0:
253,304,37272,2,0,L|332:291,1,64,2|2,3:2|1:2,0:0:0:0:
400,380,37656,1,10,1:2:0:0:
506,332,37849,5,2,1:2:0:0:
506,332,37945,1,8,1:2:0:0:
506,332,38041,2,0,P|514:286|511:259,1,64,2|0,1:2|0:0,0:0:0:0:
414,145,38426,2,0,P|406:191|409:218,1,64,10|2,1:2|1:2,0:0:0:0:
415,212,38714,1,8,1:2:0:0:
423,216,38810,1,0,3:0:0:0:
497,159,39003,1,2,1:2:0:0:
318,9,39195,1,8,1:2:0:0:
397,44,39387,6,0,P|344:85|267:73,1,128,2|0,1:2|1:0,0:0:0:0:
192,130,39964,2,0,L|203:43,1,64,8|0,1:2|1:0,0:0:0:0:
194,62,40253,1,8,1:2:0:0:
188,58,40349,1,0,3:0:0:0:
282,173,40541,1,0,1:0:0:0:
129,217,40733,2,0,P|88:205|57:204,1,64,10|2,1:2|1:2,0:0:0:0:
188,318,41022,5,8,1:2:0:0:
196,330,41118,2,0,P|245:336|289:350,1,96,2|0,1:2|0:0,0:0:0:0:
362,323,41503,2,0,B|373:290|373:290|367:256,1,64,10|2,1:2|1:2,0:0:0:0:
362,260,41791,1,8,1:2:0:0:
355,257,41887,1,0,3:0:0:0:
454,346,42080,1,0,1:0:0:0:
512,193,42272,2,0,L|439:198,1,64,8|0,1:2|1:0,0:0:0:0:
389,150,42560,5,8,1:2:0:0:
377,134,42656,2,0,P|378:95|393:53,1,64,2|0,1:2|0:0,0:0:0:0:
114,138,43041,1,10,1:2:0:0:
188,197,43233,1,2,1:2:0:0:
194,195,43330,1,8,1:2:0:0:
199,192,43426,2,0,P|198:153|183:111,1,64,0|0,3:0|1:0,0:0:0:0:
313,319,43810,2,0,P|314:280|329:238,1,64,10|0,1:2|1:0,0:0:0:0:
426,238,44099,5,8,1:2:0:0:
434,243,44195,2,0,P|441:296|421:369,1,128,2|8,1:2|1:2,0:0:0:0:
241,339,44772,1,2,1:2:0:0:
245,333,44868,1,8,1:2:0:0:
249,328,44964,2,0,L|338:314,1,64,2|0,3:2|1:0,0:0:0:0:
512,194,45349,1,10,1:2:0:0:
386,38,45541,2,0,L|375:147,1,96,2|0,1:2|0:0,0:0:0:0:
383,148,45926,5,2,1:3:0:0:
284,186,46118,1,12,1:2:0:0:
206,110,46310,2,0,L|266:102,1,32,2|0,0:3|0:0,0:0:0:0:
114,232,46503,5,10,1:3:0:0:
98,229,46599,1,8,1:2:0:0:
82,226,46695,1,0,1:0:0:0:
66,222,46791,1,0,1:0:0:0:
50,219,46887,2,0,L|38:166,1,32,10|0,1:2|1:0,0:0:0:0:
169,318,47080,2,0,L|176:286,1,32,2|0,1:2|0:0,0:0:0:0:
88,368,47272,5,4,1:0:0:0:
88,368,47656,1,2,1:2:0:0:
88,368,48041,1,0,1:0:0:0:
254,323,48233,1,2,3:2:0:0:
204,170,48426,1,0,1:0:0:0:
50,219,48618,1,10,1:2:0:0:
155,267,48810,5,0,1:0:0:0:
155,267,49195,2,0,P|205:252|240:244,1,64,0|10,1:0|1:3,0:0:0:0:
299,154,49580,2,0,P|303:92|306:72,1,64,0|8,1:0|1:3,0:0:0:0:
312,86,49868,1,0,1:0:0:0:
320,81,49964,1,0,1:0:0:0:
380,193,50156,1,8,1:2:0:0:
127,49,50349,5,2,1:2:0:0:
127,49,50733,1,2,1:2:0:0:
127,49,51118,1,0,1:0:0:0:
63,147,51310,1,10,1:2:0:0:
171,207,51503,1,0,1:0:0:0:
232,103,51695,2,0,L|190:110,1,32,2|0,1:2|1:0,0:0:0:0:
380,193,51887,5,0,1:0:0:0:
380,193,52272,2,0,P|438:200|459:205,1,64,0|8,1:0|1:3,0:0:0:0:
309,249,52656,1,2,1:3:0:0:
421,110,52849,1,8,1:2:0:0:
331,67,53041,1,2,1:2:0:0:
424,283,53233,1,2,1:2:0:0:
428,291,53330,1,0,1:0:0:0:
435,303,53426,5,4,1:0:0:0:
435,303,53810,1,2,1:2:0:0:
367,358,54003,1,8,3:0:0:0:
296,311,54195,2,0,L|309:244,1,64,0|2,1:0|3:2,0:0:0:0:
308,248,54483,1,0,1:0:0:0:
308,248,54580,1,2,1:2:0:0:
367,358,54772,5,10,1:2:0:0:
200,380,54964,6,0,L|126:367,1,64,2|8,1:3|1:3,0:0:0:0:
22,256,55349,2,0,L|85:267,1,64,0|4,1:0|1:3,0:0:0:0:
89,275,55637,1,4,1:3:0:0:
94,282,55733,1,2,1:2:0:0:
162,220,55926,1,0,1:0:0:0:
109,146,56118,2,0,P|102:113|100:71,1,64,10|2,1:2|1:2,0:0:0:0:
154,20,56406,5,0,1:0:0:0:
164,12,56503,2,0,B|253:13|206:72|316:69,1,143.999995605469,6|2,1:2|3:2,0:0:0:0:
459,41,57080,1,0,0:0:0:0:
382,0,57272,2,0,L|370:116,1,107.999996704102,2|0,3:0|0:0,0:0:0:0:
425,165,57656,2,0,B|460:178|460:178|510:175,1,71.9999978027344,4|0,3:0|0:0,0:0:0:0:
339,223,57945,5,0,1:0:0:0:
347,235,58041,2,0,B|240:324|158:229|221:198|274:214|273:328,1,240,6|0,1:2|0:0,0:0:0:0:
326,336,58426,2,0,L|319:378,1,40,8|0,1:2|0:0,0:0:0:0:
80,197,58618,5,2,1:2:0:0:
74,187,58714,1,8,1:2:0:0:
68,176,58810,2,0,L|110:169,1,40,0|0,3:0|0:0,0:0:0:0:
249,127,59003,6,0,L|260:39,1,60.0000022888184,10|0,1:2|0:0,0:0:0:0:
188,30,59195,2,0,P|179:20|193:27,2,40,8|0|0,1:3|1:0|1:0,0:0:0:0:
406,212,59387,6,0,P|366:217|321:227,1,68.0000012969971,8|0,1:2|1:0,0:0:0:0:
36,344,59580,6,0,P|97:378|174:366,1,143.999995605469,4|0,1:0|0:0,0:0:0:0:
245,373,59964,2,0,B|253:332|253:332|240:283,1,80,10|2,1:2|1:2,0:0:0:0:
235,294,60253,1,8,1:2:0:0:
227,292,60349,1,0,1:0:0:0:
348,359,60541,5,2,1:2:0:0:
406,212,60733,1,8,1:2:0:0:
499,312,60926,2,0,P|441:301|396:298,1,80,6|0,1:2|3:0,0:0:0:0:
250,103,61310,5,2,1:2:0:0:
323,49,61503,2,0,B|334:90|334:90|327:152,1,80,8|2,1:2|1:2,0:0:0:0:
325,133,61791,1,8,1:2:0:0:
321,139,61887,1,0,1:0:0:0:
148,286,62080,1,2,1:2:0:0:
58,211,62272,2,0,P|149:201|205:190,1,120,8|0,1:2|1:0,0:0:0:0:
339,335,62656,6,0,P|294:289|223:311,1,120,6|0,1:2|0:0,0:0:0:0:
143,366,63041,2,0,L|149:277,1,80,10|0,1:2|1:0,0:0:0:0:
148,286,63330,1,8,1:2:0:0:
148,286,63426,1,2,1:2:0:0:
250,375,63618,5,2,1:2:0:0:
58,211,63810,1,8,1:2:0:0:
297,95,64003,2,0,L|284:2,1,80,6|0,1:2|3:0,0:0:0:0:
127,126,64387,5,2,1:2:0:0:
177,185,64580,2,0,P|233:196|272:214,1,80,8|2,1:2|1:2,0:0:0:0:
481,131,64868,1,8,1:2:0:0:
472,122,64964,2,0,P|416:111|377:93,1,80,0|2,1:0|1:2,0:0:0:0:
359,224,65349,2,0,L|370:303,1,80,8|8,1:2|1:2,0:0:0:0:
295,370,65637,5,8,1:2:0:0:
272,381,65733,2,0,B|208:366|239:329|156:317,1,120,4|0,1:2|0:0,0:0:0:0:
160,334,66118,1,10,1:2:0:0:
359,224,66310,1,2,1:2:0:0:
257,112,66503,2,0,P|248:160|247:200,1,80,2|0,1:2|1:0,0:0:0:0:
250,198,66791,1,0,1:0:0:0:
254,204,66887,1,10,1:2:0:0:
34,54,67080,6,0,P|96:71|171:-16,1,160,6|0,1:2|1:0,0:0:0:0:
417,142,67656,2,0,L|328:136,1,80,8|2,1:2|1:2,0:0:0:0:
172,319,68041,1,2,1:2:0:0:
174,326,68137,1,0,1:0:0:0:
176,333,68233,1,0,1:0:0:0:
178,340,68330,1,0,1:0:0:0:
180,347,68426,2,0,L|191:255,1,80,10|8,1:2|1:2,0:0:0:0:
129,168,68714,5,0,1:0:0:0:
134,160,68810,2,0,B|210:149|185:196|257:190,1,120,6|0,1:2|0:0,0:0:0:0:
337,136,69195,2,0,B|340:94|340:94|329:54,1,80,8|2,1:2|1:2,0:0:0:0:
322,55,69483,1,8,1:2:0:0:
314,53,69580,1,2,1:2:0:0:
259,111,69772,1,0,1:0:0:0:
467,245,69964,1,8,1:2:0:0:
396,342,70156,6,0,L|401:298,1,40,2|0,1:2|1:0,0:0:0:0:
423,130,70349,1,6,1:2:0:0:
319,371,70541,1,0,1:0:0:0:
259,111,70733,1,8,1:2:0:0:
463,261,70926,1,2,1:2:0:0:
465,253,71022,1,8,1:2:0:0:
467,245,71118,1,0,3:0:0:0:
242,317,71310,6,0,P|207:310|167:305,1,60.0000022888184,2|0,1:2|1:0,0:0:0:0:
2,180,71503,6,0,P|36:185|70:192,1,68.0000012969971,10|0,1:2|0:0,0:0:0:0:
314,53,71695,6,0,P|320:25|309:51,1,75.9999979705811,2|0,1:2|1:0,0:0:0:0:
217,0,71887,6,0,L|238:168,1,143.999995605469,4|0,1:0|0:0,0:0:0:0:
162,205,72272,2,0,B|142:169|142:169|145:122,1,80,10|2,1:2|1:2,0:0:0:0:
151,127,72560,1,8,1:2:0:0:
158,123,72656,1,0,1:0:0:0:
341,248,72849,5,2,1:2:0:0:
171,344,73041,1,8,1:2:0:0:
243,384,73233,2,0,P|245:344|251:295,1,80,6|0,1:2|3:0,0:0:0:0:
68,191,73618,5,2,1:2:0:0:
20,256,73810,2,0,B|63:269|63:269|97:262,1,80,8|2,1:2|1:2,0:0:0:0:
316,159,74099,1,8,1:2:0:0:
312,149,74195,2,0,B|269:136|269:136|234:142,1,80,0|2,1:0|1:2,0:0:0:0:
147,87,74580,2,0,L|131:-16,1,80,8|0,1:2|0:0,0:0:0:0:
341,248,74964,6,0,P|382:215|460:217,1,120,6|0,1:2|0:0,0:0:0:0:
503,267,75349,2,0,L|491:354,1,80,10|0,1:2|1:0,0:0:0:0:
497,352,75637,1,8,1:2:0:0:
502,357,75733,1,2,1:2:0:0:
316,159,75926,5,2,1:2:0:0:
485,71,76118,1,8,1:2:0:0:
385,10,76310,2,0,L|398:98,1,80,6|0,1:2|3:0,0:0:0:0:
341,248,76695,2,0,P|297:262|256:262,1,80,2|8,1:2|1:2,0:0:0:0:
63,329,77080,5,2,1:2:0:0:
76,334,77176,1,8,1:2:0:0:
89,339,77272,2,0,L|79:258,1,47.9999985351563,0|0,1:0|0:0,0:0:0:0:
199,201,77464,2,0,L|209:120,1,47.9999985351563,2|8,1:2|1:2,0:0:0:0:
99,67,77656,2,0,L|93:2,1,47.9999985351563,10|0,1:2|1:0,0:0:0:0:
36,218,77849,5,2,1:2:0:0:
0,147,78041,2,0,P|53:140|111:195,1,120,4|0,1:2|0:0,0:0:0:0:
165,230,78426,2,0,L|267:216,1,80,8|0,1:2|1:0,0:0:0:0:
250,229,78714,1,8,1:2:0:0:
256,239,78810,1,0,1:0:0:0:
396,89,79003,1,2,1:2:0:0:
432,163,79195,2,0,B|391:167|391:167|348:155,1,80,10|2,1:2|1:2,0:0:0:0:
274,110,79483,5,0,1:0:0:0:
285,100,79580,2,0,L|277:15,1,80,4|2,1:2|1:2,0:0:0:0:
508,199,79964,2,0,L|501:279,1,80,8|2,1:2|1:2,0:0:0:0:
501,279,80253,1,8,1:2:0:0:
501,279,80349,1,2,1:2:0:0:
435,139,80541,1,2,1:2:0:0:
361,207,80733,2,0,P|313:219|270:222,1,80,8|2,1:2|1:2,0:0:0:0:
89,339,81022,5,0,1:0:0:0:
99,351,81118,2,0,P|138:355|177:365,1,80,4|2,1:2|1:2,0:0:0:0:
288,300,81503,1,10,1:2:0:0:
165,168,81695,1,2,1:2:0:0:
156,190,81791,1,8,1:2:0:0:
157,213,81887,1,2,1:2:0:0:
165,230,81983,1,0,1:0:0:0:
178,244,82080,5,2,1:2:0:0:
418,2,82272,2,0,L|366:9,1,40,8|0,1:2|0:0,0:0:0:0:
224,22,82464,6,0,B|338:16|280:98|413:88,1,191.999994140625,6|2,1:2|1:2,0:0:0:0:
508,199,83041,2,0,L|407:212,1,80,10|2,1:2|1:2,0:0:0:0:
360,245,83330,1,0,1:0:0:0:
344,232,83426,2,0,L|350:169,1,40,8|0,1:2|0:0,0:0:0:0:
177,365,83618,5,0,1:0:0:0:
155,336,83714,1,0,1:0:0:0:
157,300,83810,1,8,1:2:0:0:
179,272,83906,1,0,1:0:0:0:
214,266,84003,2,0,L|267:275,1,40,2|0,1:2|1:0,0:0:0:0:
306,349,84195,5,14,1:2:0:0:
29,195,84387,1,0,1:0:0:0:
422,161,84580,5,10,1:2:0:0:
78,322,84772,1,0,1:0:0:0:
448,361,84964,5,10,1:2:0:0:
144,192,85156,1,0,1:0:0:0:
512,196,85349,5,10,1:2:0:0:
237,320,85541,1,0,1:0:0:0:
237,320,85637,1,0,1:0:0:0:
237,320,85733,2,0,P|244:266|249:211,1,95.9999970703126,14|8,1:2|1:3,0:0:0:0:
445,18,86118,5,8,1:3:0:0:
512,66,86310,2,0,P|454:106|370:79,1,143.999995605469,10|0,1:2|0:0,0:0:0:0:
306,88,86695,6,0,P|304:56|299:29,1,60.0000022888184,4|0,1:3|0:0,0:0:0:0:
474,246,86887,2,0,P|480:222|470:240,1,80,4|0,1:3|0:0,0:0:0:0:
249,215,87080,5,10,1:2:0:0:
249,215,87176,1,0,1:0:0:0:
249,215,87272,2,0,B|304:219|471:255|497:434|338:438|273:380|377:218,1,480.000018310548,4|0,1:0|0:0,0:0:0:0:
