osu file format v14

[General]
AudioFilename: audio.mp3
AudioLeadIn: 0
PreviewTime: 59003
Countdown: 0
SampleSet: Soft
StackLeniency: 0.7
Mode: 0
LetterboxInBreaks: 0
WidescreenStoryboard: 1

[Editor]
Bookmarks: 13426,22656,34964,47272,59580,61310,71887,84195,88810
DistanceSpacing: 0.8
BeatDivisor: 4
GridSize: 8
TimelineZoom: 1.4

[Metadata]
Title:Aoi Tori (TV Size)
TitleUnicode:アオイトリ (TV Size)
Artist:fumika
ArtistUnicode:fumika
Creator:-Mikan
Version:Normal
Source:BLEACH
Tags:wenet wenect unranked mapper [_lost_] conner c_o_n_n_e_r sarawatlism anime japanese ed ending 27 blue bird rock pop j-rock j-pop jrock jpop POP SISTER
BeatmapID:2586113
BeatmapSetID:1197443

[Difficulty]
HPDrainRate:4
CircleSize:3.5
OverallDifficulty:4
ApproachRate:5
SliderMultiplier:1.1
SliderTickRate:1

[Events]
//Background and Video events
0,0,"Konachan.com_-_237426_bleach_ichimaru_gin_male_matsumoto_rangiku_noppo_polychromatic_tagme.jpg",0,0
Video,50,"[AniTousen] TV ED27 - Aoi Tori (fumika).mp4"
//Break Periods
//Storyboard Layer 0 (Background)
//Storyboard Layer 1 (Fail)
//Storyboard Layer 2 (Pass)
//Storyboard Layer 3 (Foreground)
//Storyboard Layer 4 (Overlay)
//Storyboard Sound Samples

[TimingPoints]
-420,384.615384615385,4,2,3,70,1,0
1118,-100,4,2,3,70,0,0
7272,-100,4,2,1,70,0,0
13041,-100,4,2,2,70,0,0
13426,-100,4,2,1,80,0,1
14964,-100,4,2,3,80,0,0
16503,-100,4,2,2,80,0,1
18041,-100,4,2,1,80,0,1
18618,-100,4,2,3,80,0,1
19195,-100,4,2,2,80,0,1
19580,-100,4,2,1,80,0,1
21118,-100,4,2,1,80,0,0
22656,-100,4,2,3,70,0,0
46118,-100,4,2,2,75,0,0
47272,-100,4,2,3,70,0,0
53426,-100,4,2,1,70,0,0
56503,-100,4,2,1,70,0,0
58041,-100,4,2,1,70,0,0
58426,-100,4,2,1,70,0,0
59003,-100,4,2,1,70,0,0
59195,-100,4,2,1,70,0,0
59387,-100,4,2,1,70,0,0
59580,-100,4,2,3,90,0,1
59964,-100,4,2,3,90,0,1
60926,-100,4,2,2,90,0,1
62656,-100,4,2,1,90,0,1
64003,-100,4,2,2,90,0,1
65733,-100,4,2,1,90,0,1
67080,-100,4,2,2,90,0,1
68810,-100,4,2,1,90,0,1
70349,-100,4,2,3,90,0,1
71310,-100,4,2,3,90,0,0
71503,-100,4,2,3,90,0,0
71695,-100,4,2,3,90,0,0
71887,-100,4,2,3,90,0,1
72272,-100,4,2,3,90,0,1
73233,-100,4,2,2,90,0,1
74964,-100,4,2,1,90,0,1
76310,-100,4,2,2,90,0,1
77080,-100,4,2,2,90,0,1
78041,-100,4,2,1,90,0,1
79580,-100,4,2,2,90,0,1
81118,-100,4,2,1,90,0,1
82464,-100,4,2,2,90,0,1
83041,-100,4,2,2,90,0,1
84003,-100,4,2,2,90,0,0
84195,-100,4,2,3,90,0,1
85733,-100,4,2,1,90,0,1
86695,-100,4,2,1,90,0,1
86887,-100,4,2,1,90,0,1
87272,-100,4,2,2,80,0,0
88810,-100,4,2,1,20,0,0

[Colours]
Combo1 : 198,198,198
Combo2 : 174,174,215

[HitObjects]
17,262,541,6,0,P|12:239|0:195,2,55,2|2|2,0:0|0:0|0:0,0:0:0:0:
52,288,1118,2,0,B|148:289|109:345|213:345,1,165,4|2,1:0|0:0,0:0:0:0:
260,278,2080,1,2,0:0:0:0:
334,324,2464,6,0,P|380:369|440:363,1,110,2|2,0:0|0:0,0:0:0:0:
465,292,3233,2,0,P|419:247|359:253,1,110,2|2,0:0|0:0,0:0:0:0:
281,153,4195,6,0,B|220:160|246:195|177:209,1,110,2|2,0:0|0:0,0:0:0:0:
121,157,4964,1,2,0:0:0:0:
121,157,5156,1,2,0:0:0:0:
33,147,5541,2,0,B|21:92|21:92|37:34,1,110,2|2,0:0|0:0,0:0:0:0:
117,10,6310,2,0,L|240:29,1,110,2|2,0:0|0:0,0:0:0:0:
255,59,6887,1,2,0:0:0:0:
331,14,7272,6,0,B|362:37|394:54|394:54|369:143|366:201,1,220,4|0,1:0|0:0,0:0:0:0:
388,233,8233,1,2,0:0:0:0:
456,296,8618,1,2,0:0:0:0:
456,296,8810,2,0,B|328:280|371:360|224:344,1,220,0|2,0:0|0:0,0:0:0:0:
216,314,9772,1,2,0:0:0:0:
145,366,10156,5,2,0:0:0:0:
145,366,10349,2,0,P|29:352|18:353,1,110,2|2,0:0|0:0,0:0:0:0:
11,272,11118,1,2,0:0:0:0:
11,272,11311,2,0,P|13:217|25:163,1,110,2|2,0:0|0:0,0:0:0:0:
65,145,11887,2,0,B|154:152|122:211|226:218,1,165,2|2,0:0|0:0,0:0:0:0:
275,157,12849,5,0,1:0:0:0:
275,157,13041,1,12,1:2:0:0:
321,82,13426,2,0,P|264:41|223:42,1,110,14|10,1:2|1:2,0:0:0:0:
189,65,14003,1,0,1:0:0:0:
189,65,14195,2,0,P|132:106|91:105,1,110,10|10,1:2|1:2,0:0:0:0:
25,160,14964,6,0,P|35:270|35:291,1,110,14|2,1:2|1:2,0:0:0:0:
63,303,15541,2,0,P|103:337|167:330,1,110,10|2,1:2|1:2,0:0:0:0:
183,298,16118,1,8,1:2:0:0:
249,355,16503,6,0,P|300:338|360:332,1,110,6|10,1:2|1:2,0:0:0:0:
394,353,17080,1,2,1:2:0:0:
459,294,17464,2,0,L|436:178,1,110,8|0,1:2|1:0,0:0:0:0:
459,147,18041,2,0,L|472:27,1,110,12|0,1:2|1:0,0:0:0:0:
439,6,18618,1,12,1:2:0:0:
360,46,19003,5,0,1:0:0:0:
360,46,19195,2,0,L|298:37,1,55,12|0,1:2|1:0,0:0:0:0:
272,9,19580,2,0,B|186:19|215:88|131:94,1,165,12|0,1:2|1:0,0:0:0:0:
102,66,20349,1,0,1:0:0:0:
43,131,20733,1,8,1:2:0:0:
91,204,21118,6,0,P|85:270|255:321,1,275,4|0,1:0|1:0,0:0:0:0:
256,281,22272,1,8,1:2:0:0:
339,307,22656,5,4,1:0:0:0:
411,257,23041,2,0,L|472:268,2,55,10|2|2,1:2|1:2|3:2,0:0:0:0:
386,220,23618,1,2,1:2:0:0:
448,157,24003,2,0,L|425:31,1,110,2|0,1:2|1:0,0:0:0:0:
431,4,24580,1,8,1:2:0:0:
344,20,24964,6,0,L|228:5,1,110,2|10,3:2|1:2,0:0:0:0:
208,41,25541,1,2,1:2:0:0:
208,41,25733,2,0,P|130:67|88:62,1,110,2|10,1:2|1:2,0:0:0:0:
29,113,26503,2,0,L|42:175,1,55,0|2,3:0|1:2,0:0:0:0:
78,188,26887,1,8,1:2:0:0:
78,188,27080,2,0,L|53:363,1,165,2|8,1:2|1:2,0:0:0:0:
142,362,28041,6,0,P|187:341|247:339,1,110,0|10,3:0|1:2,0:0:0:0:
284,361,28618,1,2,1:2:0:0:
284,361,28810,2,0,L|263:237,1,110,2|10,1:2|1:2,0:0:0:0:
228,229,29387,1,2,1:2:0:0:
287,164,29772,1,0,1:0:0:0:
287,164,29964,1,8,1:2:0:0:
364,205,30349,6,0,P|408:229|475:215,1,110,2|8,1:2|1:2,0:0:0:0:
493,186,30926,2,0,L|469:70,1,110,2|2,1:2|1:2,0:0:0:0:
487,37,31503,1,8,1:2:0:0:
403,10,31887,6,0,L|290:29,1,110,2|8,1:2|1:2,0:0:0:0:
231,90,32656,1,2,3:2:0:0:
284,159,33041,2,0,L|277:227,1,55,10|2,1:2|1:2,0:0:0:0:
294,254,33426,1,2,1:3:0:0:
227,311,33810,1,8,1:2:0:0:
145,276,34195,2,0,L|74:284,1,55,2|0,3:0|1:0,0:0:0:0:
56,310,34580,1,8,1:2:0:0:
2,240,34964,5,4,1:0:0:0:
56,170,35349,2,0,L|125:182,2,55,10|2|2,1:2|1:2|3:2,0:0:0:0:
27,136,35926,1,2,1:2:0:0:
73,61,36310,2,0,L|197:45,1,110,2|0,1:2|1:0,0:0:0:0:
206,10,36887,1,8,1:2:0:0:
278,59,37272,1,2,3:2:0:0:
359,26,37656,6,0,L|419:36,1,55,10|2,1:2|1:2,0:0:0:0:
451,12,38041,2,0,P|494:64|486:114,1,110,2|10,1:2|1:2,0:0:0:0:
454,128,38618,1,2,1:2:0:0:
496,205,39003,2,0,L|481:269,1,55,2|8,1:2|1:2,0:0:0:0:
487,302,39387,2,0,B|389:306|424:243|310:260,1,165,2|8,1:2|1:2,0:0:0:0:
269,318,40349,1,0,3:0:0:0:
193,273,40733,6,0,L|128:290,1,55,10|2,1:2|1:2,0:0:0:0:
107,317,41118,2,0,P|42:297|-7:293,1,110,2|10,1:2|1:2,0:0:0:0:
0,248,41695,2,0,P|-14:205|17:142,1,110,2|0,1:2|1:0,0:0:0:0:
90,107,42464,1,0,1:0:0:0:
90,107,42656,2,0,P|153:123|208:130,1,110,2|10,1:2|1:2,0:0:0:0:
232,102,43233,2,0,P|287:115|315:164,1,110,2|0,1:2|1:0,0:0:0:0:
282,189,43810,1,10,1:2:0:0:
290,277,44195,6,0,P|348:328|386:322,1,110,2|8,1:2|1:2,0:0:0:0:
446,273,44964,2,0,L|426:208,1,55,2|0,3:2|1:0,0:0:0:0:
464,192,45349,1,10,1:2:0:0:
464,192,45541,2,0,L|468:60,1,110,2|2,1:2|1:3,0:0:0:0:
433,53,46118,1,12,1:2:0:0:
346,70,46503,2,0,B|282:69|315:34|219:33,1,110,10|10,1:3|1:2,0:0:0:0:
205,54,47080,1,2,1:2:0:0:
205,54,47272,5,4,1:0:0:0:
128,96,47656,1,2,1:2:0:0:
133,183,48041,1,0,1:0:0:0:
210,224,48426,2,0,L|279:214,1,55,0|10,1:0|1:2,0:0:0:0:
301,192,48810,2,0,L|289:306,1,110,0|0,1:0|1:0,0:0:0:0:
317,335,49387,1,10,1:3:0:0:
242,382,49772,2,0,L|178:373,1,55,8|0,1:3|1:0,0:0:0:0:
162,338,50156,1,8,1:2:0:0:
162,338,50349,5,2,1:2:0:0:
79,307,50733,1,2,1:2:0:0:
71,219,51118,1,0,1:0:0:0:
141,165,51503,2,0,L|204:175,1,55,0|2,1:0|1:2,0:0:0:0:
216,212,51887,2,0,L|342:195,1,110,0|0,1:0|1:0,0:0:0:0:
360,224,52464,1,8,1:3:0:0:
431,171,52849,1,8,1:2:0:0:
431,171,53041,2,0,L|437:103,1,55,2|2,1:2|1:2,0:0:0:0:
404,84,53426,5,4,1:0:0:0:
335,28,53810,1,2,1:2:0:0:
246,28,54195,1,0,1:0:0:0:
170,73,54580,2,0,L|183:140,1,55,2|10,1:2|1:2,0:0:0:0:
143,151,54964,2,0,P|37:136|18:137,1,110,2|0,1:3|1:0,0:0:0:0:
4,167,55541,1,4,1:3:0:0:
4,167,55733,1,2,1:2:0:0:
39,247,56118,6,0,P|41:276|35:306,1,55,10|2,1:2|1:2,0:0:0:0:
61,338,56503,2,0,B|199:355|142:268|277:290,1,220,6|2,1:2|3:0,0:0:0:0:
328,350,57656,1,4,3:0:0:0:
405,308,58041,2,0,P|387:232|374:199,1,110,6|8,1:2|1:2,0:0:0:0:
396,163,58618,1,2,1:2:0:0:
453,96,59003,2,0,L|517:105,2,55,10|8|8,1:2|1:3|1:2,0:0:0:0:
427,60,59580,5,4,1:0:0:0:
342,18,59964,1,10,1:2:0:0:
342,18,60156,2,0,P|271:48|219:42,1,110,2|2,1:2|1:2,0:0:0:0:
204,19,60733,1,8,1:2:0:0:
204,19,60926,2,0,P|146:3|81:26,1,110,6|2,1:2|1:2,0:0:0:0:
27,83,61695,2,0,P|39:132|47:203,1,110,2|2,1:2|1:2,0:0:0:0:
9,224,62272,1,8,1:2:0:0:
78,294,62656,6,0,B|139:296|119:338|201:337,1,110,6|10,1:2|1:2,0:0:0:0:
218,372,63233,1,0,1:0:0:0:
218,372,63426,2,0,P|267:352|329:345,1,110,2|8,1:2|1:2,0:0:0:0:
368,365,64003,1,6,1:2:0:0:
457,322,64387,2,0,L|463:262,1,55,2|8,1:2|1:2,0:0:0:0:
419,242,64772,2,0,L|412:124,1,110,2|2,1:2|1:2,0:0:0:0:
443,93,65349,1,8,1:2:0:0:
370,25,65733,5,4,1:2:0:0:
281,70,66118,2,0,L|212:59,1,55,10|2,1:2|1:2,0:0:0:0:
185,33,66503,2,0,L|197:151,1,110,2|10,1:2|1:2,0:0:0:0:
171,185,67080,2,0,P|135:231|30:232,1,165,6|8,1:2|1:2,0:0:0:0:
0,141,68041,2,0,L|4:63,1,55,2|0,1:2|1:0,0:0:0:0:
23,40,68426,1,10,1:2:0:0:
117,12,68810,6,0,B|210:3|169:81|282:72,1,165,6|2,1:2|1:2,0:0:0:0:
300,40,69580,1,2,1:2:0:0:
363,115,69964,2,0,L|436:104,1,55,8|2,1:2|1:2,0:0:0:0:
451,70,70349,2,0,L|441:199,1,110,6|8,1:2|1:2,0:0:0:0:
475,216,70926,1,2,1:2:0:0:
426,302,71310,2,0,L|438:361,2,55,2|10|2,1:2|1:2|1:2,0:0:0:0:
381,279,71887,5,4,1:0:0:0:
302,338,72272,1,10,1:2:0:0:
302,338,72464,2,0,P|225:326|187:326,1,110,2|2,1:2|1:2,0:0:0:0:
147,336,73041,1,8,1:2:0:0:
147,336,73233,2,0,P|112:365|28:357,1,110,6|2,1:2|1:2,0:0:0:0:
1,280,74003,2,0,L|17:157,1,110,2|2,1:2|1:2,0:0:0:0:
5,122,74580,1,8,1:2:0:0:
81,59,74964,6,0,P|139:57|206:45,1,110,6|10,1:2|1:2,0:0:0:0:
257,121,75733,2,0,L|247:189,2,55,2|2|8,1:2|1:2|1:2,0:0:0:0:
294,88,76310,1,6,1:2:0:0:
381,134,76695,1,2,1:2:0:0:
461,76,77080,2,0,L|485:208,1,110,2|2,1:2|1:2,0:0:0:0:
445,218,77656,2,0,L|457:282,1,55,10|2,1:2|1:2,0:0:0:0:
483,312,78041,6,0,P|437:351|370:352,1,110,4|8,1:2|1:2,0:0:0:0:
323,289,78810,1,0,1:0:0:0:
323,289,79003,2,0,L|257:302,1,55,2|10,1:2|1:2,0:0:0:0:
226,325,79387,2,0,L|242:205,1,110,2|2,1:2|1:2,0:0:0:0:
215,172,79964,1,8,1:2:0:0:
292,109,80349,2,0,L|365:125,2,55,2|2|8,1:2|1:2|1:2,0:0:0:0:
263,68,80926,2,0,L|143:82,1,110,2|2,1:2|1:2,0:0:0:0:
114,50,81503,1,10,1:2:0:0:
18,75,81887,2,0,L|24:6,2,55,2|2|8,1:2|1:2|1:2,0:0:0:0:
47,114,82464,6,0,L|60:283,1,165,6|10,1:2|1:2,0:0:0:0:
113,361,83426,2,0,L|173:352,1,55,8|0,1:2|1:0,0:0:0:0:
192,310,83810,2,0,L|259:319,1,55,8|2,1:2|1:2,0:0:0:0:
277,356,84195,5,14,1:2:0:0:
374,379,84580,1,10,1:2:0:0:
461,333,84964,1,10,1:2:0:0:
485,236,85349,2,0,L|473:163,1,55,10|0,1:2|1:0,0:0:0:0:
435,153,85733,6,0,L|443:20,1,110,14|8,1:2|1:3,0:0:0:0:
402,12,86310,2,0,L|346:20,1,55,10|0,1:2|0:0,0:0:0:0:
318,60,86695,2,0,L|202:45,1,110,4|10,1:3|1:2,0:0:0:0:
177,7,87272,1,4,1:0:0:0:
256,192,87464,12,0,88810,0:0:0:0:
