osu file format v14

[General]
AudioFilename: audio.mp3
AudioLeadIn: 0
PreviewTime: 59003
Countdown: 0
SampleSet: Soft
StackLeniency: 0.7
Mode: 0
LetterboxInBreaks: 0
WidescreenStoryboard: 1

[Editor]
Bookmarks: 13426,22656,34964,47272,59580,61310,71887,84195,88810
DistanceSpacing: 1.2
BeatDivisor: 4
GridSize: 8
TimelineZoom: 1.4

[Metadata]
Title:Aoi Tori (TV Size)
TitleUnicode:アオイトリ (TV Size)
Artist:fumika
ArtistUnicode:fumika
Creator:-Mikan
Version:Easy
Source:BLEACH
Tags:wenet wenect unranked mapper [_lost_] conner c_o_n_n_e_r sarawatlism anime japanese ed ending 27 blue bird rock pop j-rock j-pop jrock jpop POP SISTER
BeatmapID:2586111
BeatmapSetID:1197443

[Difficulty]
HPDrainRate:2
CircleSize:3
OverallDifficulty:2
ApproachRate:3
SliderMultiplier:0.9
SliderTickRate:1

[Events]
//Background and Video events
0,0,"Konachan.com_-_237426_bleach_ichimaru_gin_male_matsumoto_rangiku_noppo_polychromatic_tagme.jpg",0,0
Video,50,"[AniTousen] TV ED27 - Aoi Tori (fumika).mp4"
//Break Periods
//Storyboard Layer 0 (Background)
//Storyboard Layer 1 (Fail)
//Storyboard Layer 2 (Pass)
//Storyboard Layer 3 (Foreground)
//Storyboard Layer 4 (Overlay)
//Storyboard Sound Samples

[TimingPoints]
-420,384.615384615385,4,2,3,70,1,0
1118,-100,4,2,3,70,0,0
7272,-100,4,2,1,70,0,0
13041,-100,4,2,2,70,0,0
13426,-100,4,2,1,80,0,1
14964,-100,4,2,3,80,0,0
16503,-100,4,2,2,80,0,1
18041,-100,4,2,1,80,0,1
18618,-100,4,2,3,80,0,1
19195,-100,4,2,2,80,0,1
19580,-100,4,2,1,80,0,1
21118,-100,4,2,1,80,0,0
22656,-100,4,2,3,70,0,0
46118,-100,4,2,2,75,0,0
47272,-100,4,2,3,70,0,0
53426,-100,4,2,1,70,0,0
56503,-100,4,2,1,70,0,0
58041,-100,4,2,1,70,0,0
58426,-100,4,2,1,70,0,0
59003,-100,4,2,1,70,0,0
59195,-100,4,2,1,70,0,0
59387,-100,4,2,1,70,0,0
59580,-100,4,2,3,90,0,1
59964,-100,4,2,3,90,0,1
60926,-100,4,2,2,90,0,1
62656,-100,4,2,1,90,0,1
64003,-100,4,2,2,90,0,1
65733,-100,4,2,1,90,0,1
67080,-100,4,2,2,90,0,1
68810,-100,4,2,1,90,0,1
70349,-100,4,2,3,90,0,1
71310,-100,4,2,3,90,0,0
71503,-100,4,2,3,90,0,0
71695,-100,4,2,3,90,0,0
71887,-100,4,2,3,90,0,1
72272,-100,4,2,3,90,0,1
73233,-100,4,2,2,90,0,1
74964,-100,4,2,1,90,0,1
76310,-100,4,2,2,90,0,1
77080,-100,4,2,2,90,0,1
78041,-100,4,2,1,90,0,1
79580,-100,4,2,2,90,0,1
81118,-100,4,2,1,90,0,1
82464,-100,4,2,2,90,0,1
83041,-100,4,2,2,90,0,1
84003,-100,4,2,2,90,0,0
84195,-100,4,2,3,90,0,1
85733,-100,4,2,1,90,0,1
86695,-100,4,2,1,90,0,1
86887,-100,4,2,1,90,0,1
87272,-100,4,2,2,80,0,0
88810,-100,4,2,1,20,0,0

[Colours]
Combo1 : 198,198,198
Combo2 : 174,174,215

[HitObjects]
36,37,1118,6,0,L|51:184,1,135,4|2,1:0|0:0,0:0:0:0:
0,247,2080,1,2,0:0:0:0:
67,306,2464,2,0,L|168:291,1,90,2|2,0:0|0:0,0:0:0:0:
217,358,3233,2,0,L|311:340,1,90,2|2,0:0|0:0,0:0:0:0:
423,275,4195,5,2,0:0:0:0:
388,191,4580,2,0,P|398:117|422:51,1,135,2|2,0:0|0:0,0:0:0:0:
336,21,5541,2,0,L|226:37,1,90,2|2,0:0|0:0,0:0:0:0:
187,101,6310,2,0,P|132:88|44:75,1,135,2|2,0:0|0:0,0:0:0:0:
10,155,7272,6,0,P|-9:227|105:312,1,225,4|2,1:0|0:0,0:0:0:0:
216,371,8810,2,0,P|266:352|445:342,1,225,0|2,0:0|0:0,0:0:0:0:
488,215,10349,2,0,B|451:125|527:120|473:21,1,180,2|2,0:0|0:0,0:0:0:0:
400,3,11503,1,0,0:0:0:0:
322,48,11887,2,0,P|267:61|215:61,1,90,2|2,0:0|0:0,0:0:0:0:
155,16,12656,2,0,L|53:27,1,90,2|12,0:0|1:2,0:0:0:0:
18,103,13426,5,14,1:2:0:0:
77,170,13810,1,10,1:2:0:0:
0,219,14195,1,10,1:2:0:0:
56,288,14580,1,10,1:2:0:0:
119,351,14964,6,0,B|182:338|158:292|244:274,2,135,14|10|8,1:2|1:2|1:2,0:0:0:0:
56,288,16503,2,0,P|48:244|36:201,1,90,6|10,1:2|1:2,0:0:0:0:
124,182,17272,2,0,P|131:137|144:94,1,90,0|0,1:0|1:0,0:0:0:0:
127,5,18041,5,12,1:2:0:0:
254,48,18618,1,12,1:2:0:0:
378,0,19195,1,12,1:2:0:0:
443,57,19580,6,0,P|434:109|430:151,1,90,12|8,1:2|1:2,0:0:0:0:
497,206,20349,2,0,P|458:269|354:270,1,180,0|4,1:0|1:0,0:0:0:0:
359,273,22272,1,8,1:2:0:0:
294,335,22656,5,4,1:0:0:0:
211,299,23041,2,0,P|149:305|59:331,1,135,10|2,1:2|1:2,0:0:0:0:
13,260,24003,2,0,B|17:195|17:195|26:187|26:187|31:123,1,135,2|8,1:2|1:2,0:0:0:0:
85,55,24964,2,0,P|148:67|190:84,1,90,2|10,3:2|1:2,0:0:0:0:
254,38,25733,6,0,P|319:34|396:15,1,135,2|2,1:2|1:2,0:0:0:0:
463,65,26695,1,2,1:2:0:0:
407,135,27080,2,0,L|391:276,1,135,2|8,1:2|1:2,0:0:0:0:
317,320,28041,1,0,3:0:0:0:
260,249,28426,5,10,1:2:0:0:
199,315,28810,2,0,B|111:330|133:257|29:267,1,180,2|0,1:2|3:0,0:0:0:0:
1,182,29964,1,8,1:2:0:0:
64,118,30349,2,0,L|211:153,1,135,2|2,1:2|1:2,0:0:0:0:
251,219,31310,2,0,P|345:242|381:211,1,135,2|2,1:2|1:2,0:0:0:0:
445,174,32272,5,8,1:2:0:0:
396,98,32656,2,0,L|303:109,1,90,2|10,3:2|1:2,0:0:0:0:
219,83,33426,2,0,B|216:37|216:37|229:-6,2,90,2|8|2,1:3|1:2|3:0,0:0:0:0:
141,128,34580,1,8,1:2:0:0:
54,104,34964,5,4,1:0:0:0:
13,184,35349,2,0,L|36:333,1,135,10|2,1:2|1:2,0:0:0:0:
112,360,36310,2,0,B|181:352|158:310|230:298,1,135,2|8,1:2|1:2,0:0:0:0:
296,357,37272,2,0,L|390:366,1,90,2|10,3:2|1:2,0:0:0:0:
464,321,38041,5,2,1:2:0:0:
410,248,38426,2,0,P|396:193|389:102,1,135,10|2,1:2|1:2,0:0:0:0:
319,57,39387,2,0,P|277:94|191:80,1,135,2|8,1:2|1:2,0:0:0:0:
136,25,40349,1,0,3:0:0:0:
60,73,40733,1,10,1:2:0:0:
109,148,41118,6,0,L|94:286,2,135,2|2|8,1:2|1:2|1:2,0:0:0:0:
191,111,42656,2,0,L|210:251,2,135,2|2|10,1:2|1:2|1:2,0:0:0:0:
265,59,44195,6,0,P|309:68|356:74,1,90,2|8,1:2|1:2,0:0:0:0:
439,102,44964,1,2,3:2:0:0:
391,181,45349,2,0,L|410:272,1,90,10|0,1:2|0:0,0:0:0:0:
352,338,46118,2,0,B|257:341|297:271|176:273,1,180,12|10,1:2|1:2,0:0:0:0:
122,331,47272,6,0,P|67:332|19:340,1,90,4|2,1:0|1:2,0:0:0:0:
4,251,48041,2,0,L|24:110,2,135,0|10|0,1:0|1:2|1:0,0:0:0:0:
32,337,49580,1,0,1:0:0:0:
111,295,49964,1,0,1:0:0:0:
188,341,50349,6,0,P|253:328|291:323,1,90,2|2,1:2|1:2,0:0:0:0:
351,274,51118,2,0,P|397:333|507:318,1,180,0|0,1:0|1:0,0:0:0:0:
444,253,52272,1,0,1:0:0:0:
498,181,52656,2,0,P|476:119|471:85,1,90,2|2,1:3|1:2,0:0:0:0:
397,44,53426,6,0,L|299:60,1,90,4|2,1:0|1:2,0:0:0:0:
234,110,54195,2,0,B|164:99|196:53|96:48,2,135,0|10|0,1:0|1:2|1:0,0:0:0:0:
308,58,55733,1,2,1:2:0:0:
357,133,56118,1,10,1:2:0:0:
304,206,56503,6,0,P|281:280|261:397,1,180,6|2,1:2|3:0,0:0:0:0:
172,382,57656,1,4,3:0:0:0:
92,340,58041,2,0,P|77:272|47:198,1,135,6|2,1:2|1:2,0:0:0:0:
101,133,59003,2,0,P|108:89|121:40,1,90,10|8,1:2|1:2,0:0:0:0:
158,22,59580,6,0,B|240:16|211:64|300:60,1,135,4|2,1:0|1:2,0:0:0:0:
359,10,60541,1,2,1:2:0:0:
425,70,60926,2,0,L|412:179,1,90,6|2,1:2|1:2,0:0:0:0:
478,223,61695,2,0,P|483:270|414:323,1,135,2|8,1:2|1:2,0:0:0:0:
335,349,62656,6,0,P|274:337|235:335,1,90,6|10,1:2|1:2,0:0:0:0:
176,277,63426,2,0,P|124:298|55:350,1,135,2|6,1:2|1:2,0:0:0:0:
4,273,64387,1,2,1:2:0:0:
56,199,64772,2,0,B|48:141|48:141|35:127|35:127|29:60,1,135,2|8,1:2|1:2,0:0:0:0:
101,15,65733,6,0,P|149:29|194:33,1,90,4|10,1:2|1:2,0:0:0:0:
268,76,66503,2,0,P|314:51|401:48,2,135,2|6|8,1:2|1:2|1:2,0:0:0:0:
222,153,68041,1,2,1:2:0:0:
289,213,68426,1,10,1:2:0:0:
224,275,68810,6,0,B|136:273|157:344|56:341,1,180,6|2,1:2|1:2,0:0:0:0:
14,264,69964,1,8,1:2:0:0:
74,197,70349,2,0,P|66:139|43:51,1,135,6|2,1:2|1:2,0:0:0:0:
123,15,71310,2,0,L|214:32,1,90,2|2,1:2|1:2,0:0:0:0:
243,63,71887,6,0,L|387:41,1,135,4|2,1:0|1:2,0:0:0:0:
459,78,72849,1,2,1:2:0:0:
397,143,73233,2,0,P|419:216|422:238,1,90,6|2,1:2|1:2,0:0:0:0:
485,293,74003,2,0,P|446:334|357:335,1,135,2|8,1:2|1:2,0:0:0:0:
288,304,74964,6,0,L|190:329,1,90,6|10,1:2|1:2,0:0:0:0:
113,349,75733,2,0,L|126:207,1,135,2|6,1:2|1:2,0:0:0:0:
54,158,76695,1,2,1:2:0:0:
90,75,77080,2,0,B|161:71|140:114|218:115,1,135,2|10,1:2|1:2,0:0:0:0:
277,49,78041,1,4,1:2:0:0:
355,93,78426,2,0,L|339:187,1,90,8|0,1:2|1:0,0:0:0:0:
408,240,79195,1,10,1:2:0:0:
335,293,79580,6,0,B|240:290|274:358|154:358,1,180,4|2,1:2|1:2,0:0:0:0:
100,304,80733,1,8,1:2:0:0:
13,330,81118,2,0,P|3:262|-3:233,1,90,4|10,1:2|1:2,0:0:0:0:
64,179,81887,2,0,P|68:118|87:40,2,135,2|6|10,1:2|1:2|1:2,0:0:0:0:
147,214,83426,6,0,L|245:200,1,90,8|8,1:2|1:2,0:0:0:0:
300,264,84195,1,14,1:2:0:0:
388,279,84580,1,10,1:2:0:0:
468,239,84964,1,10,1:2:0:0:
499,154,85349,1,10,1:2:0:0:
444,82,85733,6,0,B|376:84|393:33|313:40,2,135,14|10|4,1:2|1:2|1:3,0:0:0:0:
256,192,87272,12,0,88810,0:0:0:0:
