osu file format v14

[General]
AudioFilename: audio.mp3
AudioLeadIn: 0
PreviewTime: 183892
Countdown: 0
SampleSet: Soft
StackLeniency: 0.4
Mode: 0
LetterboxInBreaks: 0
WidescreenStoryboard: 1

[Editor]
Bookmarks: 1469,25469,49469,61469,76469,88469,112469,124469,136469,139469,178469,184666,208666
DistanceSpacing: 0.7
BeatDivisor: 4
GridSize: 16
TimelineZoom: 3.199999

[Metadata]
Title:serum
TitleUnicode:serum
Artist:fulusu
ArtistUnicode:fulusu
Creator:Some Hero
Version:devoid
Source:
Tags:japanese english rock Trial: One Chapter: Scientists alternative indie math tokyo jrock j-rock
BeatmapID:2617250
BeatmapSetID:1259053

[Difficulty]
HPDrainRate:6
CircleSize:3.8
OverallDifficulty:8
ApproachRate:9.2
SliderMultiplier:1.4
SliderTickRate:1

[Events]
//Background and Video events
0,0,"bedroom.jpg",0,0
//Break Periods
2,112669,123524
2,136669,138149
2,178575,183322
//Storyboard Layer 0 (Background)
//Storyboard Layer 1 (Fail)
//Storyboard Layer 2 (Pass)
//Storyboard Layer 3 (Foreground)
//Storyboard Layer 4 (Overlay)
//Storyboard Sound Samples

[TimingPoints]
1469,375,4,2,0,50,1,0
25469,-133.333333333333,4,2,1,50,0,0
26594,-100,4,2,1,50,0,0
31469,-133.333333333333,4,2,1,50,0,0
32594,-100,4,2,1,50,0,0
37469,-133.333333333333,4,2,3,50,0,0
38219,-133.333333333333,4,2,1,50,0,0
38594,-100,4,2,1,50,0,0
43469,-133.333333333333,4,2,1,50,0,0
44594,-100,4,2,1,50,0,0
49656,-100,4,2,2,50,0,0
60812,-100,4,2,3,50,0,0
61094,-100,4,2,2,50,0,0
61469,-86.9565217391304,4,2,1,60,0,0
61844,-86.9565217391304,4,2,3,60,0,0
73469,-181.818181818182,4,2,3,50,0,0
73844,-100,4,2,3,40,0,0
74219,-100,4,2,3,30,0,0
74594,-100,4,2,3,50,0,0
74969,-100,4,2,3,65,0,0
75344,-100,4,2,3,70,0,0
75719,-100,4,2,3,75,0,0
76094,-100,4,2,3,80,0,0
76375,-181.818181818182,4,2,0,5,0,0
76469,-100,4,2,3,60,0,0
87344,-100,4,2,4,65,0,0
87531,-100,4,2,3,70,0,0
87719,-100,4,2,4,75,0,0
88094,-100,4,2,3,80,0,0
88281,-100,4,2,4,85,0,0
88375,-100,4,2,0,5,0,0
88469,-100,4,2,3,60,0,0
112469,-100,4,2,3,50,0,0
124469,-86.9565217391304,4,2,3,60,0,0
136469,-133.333333333333,4,2,1,50,0,0
138719,-133.333333333333,4,2,1,50,0,0
139094,-133.333333333333,4,2,2,50,0,0
139469,-33.3333333333333,4,2,1,75,0,1
140031,-66.6666666666667,4,2,1,75,0,1
140969,-33.3333333333333,4,2,1,75,0,1
141531,-40,4,2,1,75,0,1
141906,-66.6666666666667,4,2,1,75,0,1
142469,-33.3333333333333,4,2,1,75,0,1
143031,-40,4,2,1,75,0,1
143594,-36.3636363636364,4,2,1,75,0,1
143969,-33.3333333333333,4,2,1,75,0,1
144719,-66.6666666666667,4,2,1,75,0,1
145469,-33.3333333333333,4,2,1,75,0,1
146031,-40,4,2,1,75,0,1
146406,-66.6666666666667,4,2,1,75,0,1
146969,-33.3333333333333,4,2,1,75,0,1
147531,-40,4,2,1,75,0,1
152031,-33.3333333333333,4,2,1,75,0,1
152594,-66.6666666666667,4,2,1,75,0,1
152969,-33.3333333333333,4,2,1,75,0,1
155594,-66.6666666666667,4,2,1,75,0,1
155969,-33.3333333333333,4,2,1,75,0,1
156719,-66.6666666666667,4,2,1,75,0,1
157469,-33.3333333333333,4,2,1,75,0,1
158594,-66.6666666666667,4,2,1,75,0,1
158969,-40,4,2,1,75,0,1
160094,-66.6666666666667,4,2,1,75,0,1
160469,-50,4,2,1,60,0,0
163469,-50,4,2,1,75,0,1
178094,-66.6666666666667,4,2,1,80,0,1
178469,387.096774193548,4,2,0,50,1,0
180017,375,4,2,0,50,1,0
181517,379.746835443038,4,2,0,50,1,0
183035,428.571428571429,4,2,0,50,1,0
183892,387.096774193548,4,2,4,50,1,0
183892,-66.6666666666667,4,2,4,50,0,0
184279,-66.6666666666667,4,2,4,60,0,0
184666,375,4,2,1,60,1,0
184666,-50,4,2,1,60,0,0
185228,-74.0740740740741,4,2,1,60,0,0
186166,-50,4,2,1,60,0,0
186728,-74.0740740740741,4,2,1,60,0,0
187478,-74.0740740740741,4,2,1,75,0,0
187666,-50,4,2,1,60,0,0
188228,-74.0740740740741,4,2,1,60,0,0
189166,-50,4,2,1,60,0,0
190478,-50,4,2,1,75,0,0
190666,-50,4,2,1,60,0,0
191228,-74.0740740740741,4,2,1,60,0,0
191509,-66.6666666666667,4,2,1,60,0,0
193666,-50,4,2,1,60,0,0
194228,-74.0740740740741,4,2,1,60,0,0
195166,-50,4,2,1,60,0,0
195916,-50,4,2,2,60,0,0
196666,-33.3333333333333,4,2,1,75,0,1
199478,-66.6666666666667,4,2,1,75,0,1
199666,-33.3333333333333,4,2,1,75,0,1
201166,-50,4,2,1,75,0,1
201353,-50,4,2,1,75,0,1
201916,-66.6666666666667,4,2,4,75,0,1
202666,-33.3333333333333,4,2,1,75,0,1
205947,-66.6666666666667,4,2,1,75,0,1
207166,-50,4,2,1,80,0,1
207916,-50,4,2,1,90,0,1
208572,-50,4,2,0,60,0,1
208666,-100,4,2,1,75,0,0
208759,-100,4,2,0,75,0,0
213166,-100,4,2,0,50,0,0
214666,-100,4,2,0,45,0,0
215416,-100,4,2,0,40,0,0
216166,-100,4,2,0,35,0,0
216541,-100,4,2,0,30,0,0
216728,-100,4,2,0,25,0,0
217478,-100,4,2,0,5,0,0

[Colours]
Combo1 : 148,149,138
Combo2 : 221,159,153
Combo3 : 92,135,148
Combo4 : 228,88,109

[HitObjects]
406,36,25469,6,0,B|356:32|347:84|347:84|342:111|342:111|329:174|268:161,1,210.000008010865,2|8,3:2|0:2,0:0:0:0:
274,162,26594,2,0,P|293:198|288:248,1,70,2|0,0:2|0:0,0:0:0:0:
181,325,26969,1,0,3:2:0:0:
91,264,27156,2,0,B|120:220|120:220|217:219,1,140,0|0,3:2|0:0,0:0:0:0:
207,219,27719,2,0,P|185:185|183:148,1,70,10|0,0:2|0:0,0:0:0:0:
46,0,28094,2,0,P|68:34|69:72,1,70,2|0,0:2|0:0,0:0:0:0:
272,156,28469,5,2,3:2:0:0:
275,159,28844,2,0,L|286:11,2,140,2|8|0,0:2|0:2|0:0,0:0:0:0:
275,159,29781,1,0,0:0:0:0:
425,269,29969,1,0,3:2:0:0:
512,207,30156,2,0,B|483:163|483:163|386:162,1,140,0|0,3:2|0:0,0:0:0:0:
395,162,30719,2,0,L|404:82,1,70,8|0,0:2|0:0,0:0:0:0:
321,273,31094,1,2,0:2:0:0:
321,273,31281,1,2,0:3:0:0:
161,209,31469,6,0,B|211:205|220:257|220:257|225:284|225:284|238:347|296:359,1,210.000008010865,2|8,3:2|0:2,0:0:0:0:
283,355,32594,2,0,P|244:360|209:376,1,70,2|0,0:2|0:0,0:0:0:0:
64,345,32969,1,0,3:2:0:0:
63,248,33156,2,0,B|63:160|63:160|107:131,1,140,0|0,3:2|0:0,0:0:0:0:
186,81,33719,2,0,P|162:56|129:43,1,70,10|0,0:2|0:0,0:0:0:0:
275,104,34094,2,0,P|277:69|266:37,1,70,2|0,0:2|0:0,0:0:0:0:
426,61,34469,6,0,B|385:74|374:121|399:156|442:156|442:156|499:158|513:221|478:251|436:245,1,280,2|8,3:2|0:2,0:0:0:0:
460,249,35594,1,0,0:0:0:0:
460,249,35781,1,0,0:0:0:0:
330,212,35969,2,0,B|367:242|356:321|249:362|232:200|70:304|143:382,1,350,0|8,3:2|0:2,0:0:0:0:
12,222,37094,1,0,3:2:0:0:
15,226,37469,6,0,B|65:230|74:178|74:178|79:151|79:151|92:88|153:101,1,210.000008010865,6|8,3:2|0:2,0:0:0:0:
147,99,38594,2,0,P|114:83|94:44,1,70,2|0,0:0|0:0,0:0:0:0:
340,130,38969,1,0,3:2:0:0:
286,41,39156,2,0,B|247:62|247:62|230:164,1,140,0|0,3:2|0:0,0:0:0:0:
391,49,39719,2,0,P|415:67|436:111,1,70,10|0,0:2|0:0,0:0:0:0:
380,215,40094,2,0,P|346:224|312:221,1,70,2|0,0:0|0:0,0:0:0:0:
508,348,40469,5,2,3:2:0:0:
512,352,40844,2,0,L|511:199,2,140,2|8|0,0:0|0:2|0:0,0:0:0:0:
512,352,41781,1,0,0:0:0:0:
284,309,41969,1,0,3:2:0:0:
373,373,42156,2,0,B|400:333|400:333|400:240,1,140,0|0,3:2|0:0,0:0:0:0:
400,241,42719,2,0,L|316:240,1,70,8|0,0:2|0:0,0:0:0:0:
491,164,43094,1,2,0:0:0:0:
379,127,43281,1,2,1:3:0:0:
199,151,43469,6,0,B|253:159|275:111|275:111|287:87|287:87|316:29|375:33,1,210.000008010865,2|8,3:2|0:2,0:0:0:0:
355,34,44594,2,0,P|312:16|289:-15,1,70,2|0,0:2|0:0,0:0:0:0:
130,11,44969,1,0,3:2:0:0:
127,117,45156,2,0,B|127:205|127:205|171:234,1,140,0|0,3:2|0:0,0:0:0:0:
249,297,45719,2,0,P|267:270|274:227,1,70,10|0,0:2|0:0,0:0:0:0:
373,245,46094,2,0,P|370:209|335:160,1,70,2|0,0:2|0:0,0:0:0:0:
512,24,46469,5,2,3:2:0:0:
497,136,46656,2,0,L|480:346,1,210,0|8,3:2|0:2,0:0:0:0:
485,349,47594,1,0,0:0:0:0:
485,349,47781,1,0,3:2:0:0:
373,245,47969,5,2,0:3:0:0:
196,331,48250,1,0,3:2:0:0:
196,331,48344,2,0,P|181:289|163:256,1,70,0|2,0:0|3:3,0:0:0:0:
60,28,48719,5,0,1:2:0:0:
60,28,48906,1,0,3:3:0:0:
357,95,49094,1,12,0:3:0:0:
183,103,49281,1,12,0:3:0:0:
20,110,49469,5,6,3:2:0:0:
9,116,49656,1,0,0:0:0:0:
0,121,49844,2,0,P|41:130|69:141,1,70,2|2,0:3|0:0,0:0:0:0:
264,197,50219,2,0,P|223:206|195:217,1,70,2|2,1:3|1:2,0:0:0:0:
192,222,50500,1,0,0:0:0:0:
192,222,50594,2,0,L|141:210,2,35,2|0|2,0:3|1:0|0:0,0:0:0:0:
325,344,50969,6,0,P|330:308|353:259,1,70,2|0,1:3|0:0,0:0:0:0:
352,276,51250,1,0,1:0:0:0:
352,276,51344,1,2,0:3:0:0:
368,170,51531,1,0,1:0:0:0:
366,156,51719,1,2,0:3:0:0:
363,142,51906,1,0,1:0:0:0:
372,21,52094,1,2,1:3:0:0:
361,128,52281,1,0,1:0:0:0:
376,9,52469,6,0,L|456:-2,1,70,2|0,0:3|0:0,0:0:0:0:
359,115,52844,2,0,L|279:126,1,70,2|0,0:3|0:0,0:0:0:0:
131,141,53219,2,0,P|152:113|166:76,1,70,2|0,1:3|1:0,0:0:0:0:
175,73,53500,1,0,0:0:0:0:
175,73,53594,2,0,L|166:10,2,35,2|0|0,0:3|1:0|1:0,0:0:0:0:
199,220,53969,6,0,P|203:254|210:300,1,70,2|0,1:3|0:0,0:0:0:0:
214,299,54250,1,0,1:0:0:0:
214,299,54344,1,2,0:3:0:0:
83,241,54531,1,0,1:0:0:0:
65,362,54719,1,2,1:3:0:0:
65,373,54906,1,0,1:0:0:0:
64,384,55094,2,0,P|48:328|32:295,1,70,2|0,1:3|0:0,0:0:0:0:
0,127,55469,6,0,P|28:149|58:164,1,70,2|0,0:3|0:0,0:0:0:0:
295,147,55844,1,2,0:3:0:0:
285,158,56031,1,2,0:0:0:0:
276,168,56219,2,0,L|207:177,1,70,2|2,1:3|1:2,0:0:0:0:
191,189,56500,1,0,0:0:0:0:
191,189,56594,2,0,L|150:168,2,35,2|0|2,0:3|1:0|0:0,0:0:0:0:
443,194,56969,6,0,P|421:222|406:252,1,70,2|0,1:3|0:0,0:0:0:0:
411,264,57250,1,0,1:0:0:0:
411,264,57344,1,2,0:3:0:0:
325,376,57531,1,0,1:0:0:0:
328,384,57719,2,0,P|321:349|307:317,1,70,2|0,0:3|1:0,0:0:0:0:
306,195,58094,1,2,1:3:0:0:
307,184,58281,1,0,1:0:0:0:
185,127,58469,6,0,P|175:168|152:202,1,70,2|0,0:3|0:0,0:0:0:0:
65,256,58844,1,2,0:3:0:0:
58,261,59031,1,0,0:0:0:0:
93,125,59219,2,0,L|11:122,1,70,2|0,1:3|1:0,0:0:0:0:
18,114,59500,1,0,0:0:0:0:
18,114,59594,2,0,L|10:77,2,35,2|0|0,0:3|1:0|0:0,0:0:0:0:
277,47,59969,5,2,3:3:0:0:
185,127,60156,1,0,3:0:0:0:
185,127,60250,1,0,1:0:0:0:
185,127,60344,2,0,L|263:128,1,70,2|0,0:3|1:2,0:0:0:0:
266,136,60625,1,2,0:3:0:0:
266,136,60719,2,0,L|280:175,2,35,0|0|0,3:0|3:0|0:0,0:0:0:0:
306,253,61000,5,0,0:0:0:0:
306,253,61094,1,2,0:3:0:0:
492,353,61469,6,0,B|445:343|448:302|448:302|454:216,1,161.000003070831,6|2,3:2|0:3,0:0:0:0:
465,216,61937,1,8,0:2:0:0:
465,216,62031,2,0,L|491:181,1,40.2500007677078,2|0,0:2|3:0,0:0:0:0:
386,89,62219,1,8,1:2:0:0:
266,136,62406,2,0,P|298:149|340:178,1,80.5000015354157,10|2,1:2|0:3,0:0:0:0:
347,187,62687,1,8,1:2:0:0:
347,187,62781,1,2,0:2:0:0:
141,62,62969,6,0,P|173:49|215:20,1,80.5000015354157,2|2,3:0|0:3,0:0:0:0:
223,30,63250,1,0,3:0:0:0:
223,30,63344,2,0,L|201:70,1,40.2500007677078,2|8,0:3|0:0,0:0:0:0:
155,159,63531,1,0,1:0:0:0:
155,159,63625,1,0,3:0:0:0:
155,159,63719,2,0,L|164:244,1,80.5000015354157,10|2,0:2|0:3,0:0:0:0:
173,257,64000,1,8,0:0:0:0:
173,257,64094,2,0,L|200:219,1,40.2500007677078,2|8,3:2|0:0,0:0:0:0:
110,346,64281,5,0,0:0:0:0:
110,346,64375,1,0,3:0:0:0:
110,346,64469,2,0,P|142:351|205:378,2,80.5000015354157,2|2|2,3:2|0:3|0:3,0:0:0:0:
200,380,64937,1,8,0:2:0:0:
200,380,65031,2,0,L|249:385,1,40.2500007677078,2|0,0:2|3:0,0:0:0:0:
349,384,65219,1,8,1:2:0:0:
424,270,65406,2,0,P|380:282|325:278,1,80.5000015354157,10|2,1:2|0:3,0:0:0:0:
341,288,65687,1,8,1:2:0:0:
341,288,65781,1,2,0:2:0:0:
143,172,65969,6,0,L|170:250,1,80.5000015354157,2|2,3:0|0:3,0:0:0:0:
180,261,66250,1,0,3:0:0:0:
180,261,66344,2,0,L|115:250,1,40.2500007677078,2|8,0:3|0:0,0:0:0:0:
266,175,66531,1,0,1:0:0:0:
266,175,66625,1,0,3:0:0:0:
266,175,66719,2,0,L|282:88,1,80.5000015354157,8|2,0:2|0:3,0:0:0:0:
295,88,67000,1,8,0:0:0:0:
295,88,67094,2,0,L|360:77,1,40.2500007677078,2|8,3:2|0:0,0:0:0:0:
115,84,67281,5,0,1:0:0:0:
101,81,67375,1,0,3:0:0:0:
86,79,67469,2,0,B|60:71|44:70|44:70|11:114|10:194,1,161.000003070831,6|2,3:2|0:3,0:0:0:0:
9,199,67937,1,8,0:2:0:0:
9,199,68031,2,0,L|19:242,1,40.2500007677078,2|0,0:2|3:0,0:0:0:0:
71,384,68219,2,0,P|78:345|91:307,1,80.5000015354157,8|10,1:2|1:2,0:0:0:0:
103,307,68500,1,0,0:0:0:0:
103,307,68594,2,0,L|113:350,2,40.2500007677078,2|8|2,0:3|1:2|0:2,0:0:0:0:
125,200,68969,6,0,L|224:219,1,80.5000015354157,2|2,3:0|0:3,0:0:0:0:
215,227,69250,1,0,3:0:0:0:
215,227,69344,2,0,L|263:207,1,40.2500007677078,2|8,0:3|0:0,0:0:0:0:
423,318,69531,1,0,1:0:0:0:
423,318,69625,1,0,3:0:0:0:
423,318,69719,2,0,P|383:328|347:355,1,80.5000015354157,10|2,0:2|0:3,0:0:0:0:
344,355,70000,1,8,0:0:0:0:
344,355,70094,2,0,L|356:292,1,40.2500007677078,2|8,3:2|0:0,0:0:0:0:
412,97,70281,5,0,0:0:0:0:
411,108,70375,1,0,3:0:0:0:
410,118,70469,2,0,L|398:213,2,80.5000015354157,2|2|2,3:2|0:3|0:3,0:0:0:0:
395,211,70937,1,8,0:2:0:0:
395,211,71031,2,0,L|407:266,1,40.2500007677078,2|0,0:2|3:0,0:0:0:0:
280,198,71219,1,8,1:2:0:0:
171,46,71406,2,0,P|205:63|251:115,1,80.5000015354157,10|2,1:2|0:3,0:0:0:0:
241,103,71687,1,8,1:2:0:0:
241,103,71781,2,0,L|198:137,1,40.2500007677078,2|0,0:2|0:0,0:0:0:0:
28,152,71969,6,0,P|45:110|30:78,1,80.5000015354157,2|2,3:0|0:3,0:0:0:0:
37,71,72250,1,0,3:0:0:0:
37,71,72344,2,0,L|80:96,1,40.2500007677078,2|8,0:3|0:0,0:0:0:0:
171,46,72531,2,0,L|181:0,2,40.2500007677078,0|0|8,1:0|3:0|0:2,0:0:0:0:
163,244,72906,1,2,0:3:0:0:
163,244,73000,2,0,P|116:216|80:225,1,80.5000015354157,8|0,0:0|0:0,0:0:0:0:
85,227,73281,1,8,1:2:0:0:
337,69,73469,5,4,3:2:0:0:
256,192,73562,12,0,76375,0:0:0:0:
423,72,76469,6,0,B|460:100|460:100|464:205,1,140,0|0,3:2|0:0,0:0:0:0:
469,203,76937,1,8,0:2:0:0:
470,336,77125,1,0,3:2:0:0:
470,336,77219,1,8,0:2:0:0:
363,255,77406,2,0,P|312:225|264:210,1,105,8|8,0:2|0:2,0:0:0:0:
258,214,77781,1,0,0:0:0:0:
112,21,77969,6,0,L|127:68,2,35,2|2|2,3:2|0:0|0:0,0:0:0:0:
135,66,78250,1,0,3:2:0:0:
0,66,78437,1,8,0:2:0:0:
95,151,78625,1,0,3:2:0:0:
95,151,78719,2,0,B|66:168|50:171|50:171|41:178|41:178|12:187|-8:200,1,105,8|8,0:2|0:2,0:0:0:0:
0,208,79094,1,0,3:2:0:0:
132,262,79281,1,8,0:2:0:0:
136,270,79469,6,0,B|180:292|180:292|212:383,1,140,0|0,3:2|0:0,0:0:0:0:
219,381,79937,1,8,0:2:0:0:
286,256,80125,1,0,3:2:0:0:
286,256,80219,1,8,0:2:0:0:
418,249,80406,2,0,P|388:198|373:150,1,105,8|8,0:2|0:2,0:0:0:0:
366,146,80781,1,0,0:0:0:0:
315,9,80969,6,0,L|300:56,2,35,2|2|2,3:2|0:0|0:0,0:0:0:0:
293,54,81250,1,0,3:2:0:0:
205,142,81437,1,8,0:2:0:0:
104,52,81625,1,0,3:2:0:0:
104,52,81719,2,0,B|101:81|105:101|105:101|99:109|99:109|101:137|96:176,1,105,8|8,0:2|0:2,0:0:0:0:
92,169,82094,1,0,3:2:0:0:
59,316,82281,1,8,0:2:0:0:
55,330,82469,6,0,B|77:286|77:286|171:256,1,140,0|0,3:2|0:0,0:0:0:0:
173,266,82937,1,8,0:2:0:0:
294,227,83125,1,0,3:2:0:0:
294,227,83219,1,8,0:2:0:0:
372,373,83406,2,0,P|386:315|410:271,1,105,8|8,0:2|0:2,0:0:0:0:
409,263,83781,1,0,0:0:0:0:
368,105,83969,6,0,L|383:152,2,35,2|2|2,3:2|0:0|0:0,0:0:0:0:
390,150,84250,1,0,3:2:0:0:
366,23,84437,1,8,0:2:0:0:
248,85,84625,1,0,3:2:0:0:
248,85,84719,2,0,B|224:69|203:65|203:65|195:53|195:53|167:43|138:25,1,105,8|8,0:2|0:2,0:0:0:0:
151,28,85094,1,0,3:2:0:0:
133,164,85281,1,8,0:2:0:0:
132,176,85469,6,0,B|155:222|155:222|128:324,1,140,0|0,3:2|0:0,0:0:0:0:
125,320,85937,1,8,0:2:0:0:
269,289,86125,1,0,3:2:0:0:
269,289,86219,1,8,0:2:0:0:
363,181,86406,2,0,P|320:186|252:156,1,105,8|8,0:2|0:2,0:0:0:0:
252,165,86781,1,0,0:0:0:0:
158,84,86969,6,2,B|148:12|60:0|6:64|10:149|91:244|91:244|134:300|103:356|35:355|19:298,1,525,0|0,3:2|0:0,0:2:0:0:
34,297,88469,6,0,B|109:278|93:351|185:338,1,140,2|0,3:2|0:0,0:0:0:0:
167,351,88937,1,8,0:2:0:0:
306,316,89125,1,0,3:2:0:0:
306,316,89219,1,8,0:2:0:0:
148,146,89406,2,0,P|166:186|177:272,1,105,10|8,0:2|0:2,0:0:0:0:
185,257,89781,1,0,0:0:0:0:
279,88,89969,5,0,3:2:0:0:
283,92,90250,2,0,B|274:177,2,70,0|8|0,3:2|0:2|3:2,0:0:0:0:
286,181,90719,1,10,0:2:0:0:
168,24,91000,1,8,0:2:0:0:
168,24,91094,1,2,3:2:0:0:
403,0,91281,1,8,0:2:0:0:
512,108,91469,6,0,B|461:84|461:84|361:108,1,140,2|2,3:2|0:2,0:0:0:0:
376,115,91937,1,8,0:2:0:0:
462,237,92125,1,0,3:2:0:0:
462,237,92219,1,8,0:2:0:0:
445,372,92406,2,0,P|408:334|363:307,1,105,8|8,0:2|0:2,0:0:0:0:
358,295,92781,1,0,0:0:0:0:
201,251,92969,5,0,3:2:0:0:
203,255,93250,2,0,B|212:340,2,70,0|8|0,3:2|0:2|3:2,0:0:0:0:
200,344,93719,1,8,0:2:0:0:
59,96,94000,1,8,0:2:0:0:
59,96,94094,1,2,3:2:0:0:
6,266,94281,1,8,0:2:0:0:
132,174,94469,6,0,B|183:150|183:150|283:174,1,140,2|0,3:2|0:0,0:0:0:0:
271,166,94937,1,8,0:2:0:0:
267,25,95125,1,0,3:2:0:0:
267,25,95219,1,8,0:2:0:0:
391,106,95406,2,0,P|387:52|403:2,1,105,8|8,0:2|0:2,0:0:0:0:
410,0,95781,1,0,0:0:0:0:
511,165,95969,5,0,3:2:0:0:
509,161,96250,2,0,B|500:76,2,70,0|8|0,3:2|0:2|3:2,0:0:0:0:
512,72,96719,1,10,0:2:0:0:
377,233,97000,1,8,0:2:0:0:
377,233,97094,1,2,3:2:0:0:
444,342,97281,1,8,0:2:0:0:
271,247,97469,6,0,B|295:298|295:298|271:398,1,140,2|0,3:2|0:0,0:0:0:0:
267,384,97937,1,10,0:2:0:0:
140,309,98125,1,0,3:2:0:0:
140,309,98219,1,8,0:2:0:0:
11,284,98406,2,0,P|52:248|76:201,1,105,8|8,0:2|0:2,0:0:0:0:
86,199,98781,1,0,0:0:0:0:
224,37,98969,6,0,B|210:83|210:83|248:144,1,105,0|0,3:2|3:2,0:0:0:0:
246,143,99437,1,8,0:2:0:0:
430,314,99625,1,0,3:2:0:0:
430,314,99719,2,0,P|427:265|451:186,1,105,8|8,0:2|0:2,0:0:0:0:
449,203,100094,1,0,3:2:0:0:
328,74,100281,1,8,0:2:0:0:
297,225,100469,6,0,B|260:248|224:237|224:237|190:224|143:250,1,140,2|0,3:2|0:0,0:0:0:0:
154,252,100937,1,8,0:2:0:0:
42,129,101125,1,0,3:2:0:0:
42,129,101219,2,0,L|51:66,1,35,8|0,0:2|0:0,0:0:0:0:
55,5,101406,1,10,0:2:0:0:
246,136,101687,1,8,0:2:0:0:
246,136,101781,1,2,0:3:0:0:
385,153,101969,6,0,B|343:126|343:126|320:48,1,105,0|0,3:2|3:2,0:0:0:0:
397,172,102437,1,8,0:2:0:0:
397,172,102531,2,0,L|406:235,1,35,0|0,0:0|3:2,0:0:0:0:
413,317,102719,1,10,0:2:0:0:
246,304,103000,1,8,0:2:0:0:
246,304,103094,1,2,3:2:0:0:
154,109,103281,1,8,0:2:0:0:
67,173,103469,6,0,B|44:210|55:246|55:246|68:280|42:327,1,140,2|2,3:2|0:0,0:0:0:0:
42,314,103937,1,8,0:2:0:0:
259,193,104125,1,0,3:2:0:0:
259,193,104219,2,0,L|201:208,1,35,8|0,0:2|0:0,0:0:0:0:
142,219,104406,1,8,0:2:0:0:
322,331,104687,1,8,0:2:0:0:
322,331,104781,1,2,0:3:0:0:
433,341,104969,6,0,B|420:290|420:290|434:237,1,105,0|0,3:2|3:2,0:0:0:0:
487,123,105437,1,8,0:2:0:0:
487,123,105531,2,0,L|478:60,1,35,0|0,0:0|3:2,0:0:0:0:
465,0,105719,1,8,0:2:0:0:
285,32,106000,1,8,0:2:0:0:
285,32,106094,1,2,3:2:0:0:
386,157,106281,1,8,0:2:0:0:
238,131,106469,6,0,B|196:118|181:83|181:83|168:49|118:31,1,140,2|0,3:2|0:0,0:0:0:0:
125,45,106937,1,8,0:2:0:0:
62,163,107125,1,0,3:2:0:0:
62,163,107219,1,8,0:2:0:0:
65,302,107406,2,0,P|104:278|186:269,1,105,8|8,0:2|0:2,0:0:0:0:
173,279,107781,1,0,0:0:0:0:
302,229,107969,6,0,B|275:181|275:181|287:125,1,105,0|0,3:2|3:2,0:0:0:0:
297,248,108437,1,8,0:2:0:0:
297,248,108531,2,0,L|288:311,1,35,0|0,0:0|3:2,0:0:0:0:
265,382,108719,1,10,0:2:0:0:
446,321,109000,1,8,0:2:0:0:
446,321,109094,1,2,3:2:0:0:
464,100,109281,1,8,0:2:0:0:
390,183,109469,6,0,B|353:140|353:140|360:51,1,140,2|0,3:2|0:0,0:0:0:0:
353,47,109937,1,10,0:2:0:0:
165,9,110125,1,0,3:2:0:0:
165,9,110219,1,8,0:2:0:0:
112,151,110406,2,0,P|145:122|209:109,1,105,8|8,0:2|0:2,0:0:0:0:
218,118,110781,1,0,0:0:0:0:
197,222,110969,6,0,B|211:267|211:267|151:318,1,105,0|0,3:2|3:2,0:0:0:0:
206,211,111437,1,8,0:2:0:0:
327,362,111625,1,0,3:2:0:0:
327,362,111719,1,8,0:2:0:0:
421,158,112000,1,8,0:2:0:0:
421,158,112094,1,0,3:2:0:0:
492,330,112281,1,8,0:2:0:0:
107,231,112469,5,6,3:2:0:0:
190,309,124094,5,2,0:2:0:0:
299,323,124281,1,2,0:2:0:0:
417,340,124469,6,0,B|370:330|373:289|373:289|379:203,1,161.000003070831,6|2,3:2|0:3,0:0:0:0:
385,195,124937,1,8,0:2:0:0:
385,195,125031,2,0,L|433:187,1,40.2500007677078,2|0,0:2|3:2,0:0:0:0:
263,203,125219,1,8,0:2:0:0:
156,265,125406,2,0,P|192:280|217:312,1,80.5000015354157,10|2,1:2|0:3,0:0:0:0:
231,322,125687,1,8,1:2:0:0:
231,322,125781,1,2,0:2:0:0:
196,99,125969,6,0,P|180:135|148:160,1,80.5000015354157,2|2,3:3|0:3,0:0:0:0:
139,174,126250,1,4,1:3:0:0:
139,174,126344,2,0,L|91:166,1,40.2500007677078,2|8,0:3|0:2,0:0:0:0:
263,203,126531,1,2,1:3:0:0:
263,203,126625,1,0,3:2:0:0:
263,203,126719,2,0,L|356:222,1,80.5000015354157,10|2,0:2|0:3,0:0:0:0:
351,231,127000,1,8,0:2:0:0:
351,231,127094,2,0,L|345:183,1,40.2500007677078,2|8,3:2|0:2,0:0:0:0:
330,7,127281,5,2,0:3:0:0:
331,23,127375,1,0,3:2:0:0:
333,38,127469,2,0,P|348:74|380:99,2,80.5000015354157,2|2|2,3:2|0:3|0:3,0:0:0:0:
380,111,127937,1,8,0:2:0:0:
380,111,128031,2,0,L|331:102,1,40.2500007677078,2|0,0:2|3:2,0:0:0:0:
221,35,128219,1,8,0:2:0:0:
210,191,128406,2,0,L|203:287,1,80.5000015354157,10|2,1:2|0:3,0:0:0:0:
198,290,128687,1,8,1:2:0:0:
198,290,128781,2,0,L|204:337,1,40.2500007677078,2|0,0:2|0:0,0:0:0:0:
103,225,128969,6,0,P|71:198|26:190,1,80.5000015354157,2|2,3:3|0:3,0:0:0:0:
29,178,129250,1,4,1:3:0:0:
29,178,129344,2,0,L|20:132,1,40.2500007677078,2|8,0:3|0:2,0:0:0:0:
0,42,129531,1,2,1:3:0:0:
0,42,129625,1,0,3:2:0:0:
0,42,129719,2,0,L|95:27,1,80.5000015354157,10|2,0:2|0:3,0:0:0:0:
96,39,130000,1,8,0:2:0:0:
96,39,130094,2,0,L|144:50,1,40.2500007677078,2|8,3:2|0:2,0:0:0:0:
345,72,130281,5,2,0:3:0:0:
327,76,130375,1,0,3:2:0:0:
308,80,130469,2,0,B|281:83|266:89|266:89|254:143|287:216,1,161.000003070831,2|2,3:2|0:3,0:0:0:0:
291,217,130937,1,8,0:2:0:0:
291,217,131031,2,0,L|290:277,1,40.2500007677078,2|0,0:2|3:2,0:0:0:0:
385,366,131219,2,0,P|392:330|422:274,2,80.5000015354157,8|10|2,0:2|1:2|0:3,0:0:0:0:
426,292,131687,1,8,1:2:0:0:
426,292,131781,2,0,L|425:232,1,40.2500007677078,2|0,0:2|0:0,0:0:0:0:
433,62,131969,6,0,P|426:106|390:159,1,80.5000015354157,2|2,3:3|0:3,0:0:0:0:
398,145,132250,1,4,1:3:0:0:
398,145,132344,2,0,L|358:113,1,40.2500007677078,2|8,0:3|0:2,0:0:0:0:
243,39,132531,1,2,1:3:0:0:
243,39,132625,1,0,3:2:0:0:
243,39,132719,2,0,L|161:53,1,80.5000015354157,10|2,0:2|0:3,0:0:0:0:
146,54,133000,1,8,0:2:0:0:
146,54,133094,2,0,L|117:102,1,40.2500007677078,2|8,3:2|0:2,0:0:0:0:
35,227,133281,5,2,0:3:0:0:
41,211,133375,1,0,3:2:0:0:
46,197,133469,2,0,P|44:155|21:103,2,80.5000015354157,2|2|2,3:2|0:3|0:3,0:0:0:0:
39,111,133937,1,8,0:2:0:0:
39,111,134031,2,0,L|-1:79,1,40.2500007677078,2|0,0:2|3:2,0:0:0:0:
242,202,134219,2,0,L|164:223,2,80.5000015354157,8|10|2,0:2|1:2|0:3,0:0:0:0:
164,243,134687,1,8,1:2:0:0:
164,243,134781,1,2,0:2:0:0:
394,323,134969,6,0,P|377:281|376:214,1,80.5000015354157,2|2,3:3|0:3,0:0:0:0:
365,239,135250,1,4,1:3:0:0:
365,239,135344,2,0,L|374:186,1,40.2500007677078,2|8,0:3|0:2,0:0:0:0:
405,52,135531,1,0,1:2:0:0:
403,69,135625,1,0,3:2:0:0:
401,84,135719,2,0,L|289:61,1,80.5000015354157,8|2,0:2|0:3,0:0:0:0:
313,77,136000,1,8,0:2:0:0:
313,77,136094,2,0,L|266:92,2,40.2500007677078,0|8|2,3:2|0:2|0:3,0:0:0:0:
497,5,136375,1,8,0:2:0:0:
470,0,136469,5,4,3:2:0:0:
270,182,138719,5,2,0:2:0:0:
205,71,138906,1,2,0:2:0:0:
7,72,139094,5,2,0:1:0:0:
7,72,139469,6,0,B|37:104|78:115|78:115|78:127|78:127|128:145|159:247,1,210.000008010865,6|0,3:2|0:0,0:0:0:0:
155,205,139750,2,0,B|135:136|85:118|85:118|85:106|85:106|44:95|14:63,1,210.000008010865,0|0,3:2|3:2,0:0:0:0:
94,5,140031,2,0,L|170:0,2,52.5000020027161,10|0|0,0:2|0:0|0:0,0:0:0:0:
168,13,140312,1,0,3:2:0:0:
168,13,140406,1,2,3:2:0:0:
365,0,140594,2,0,L|362:79,1,52.5000020027161,8|0,0:2|0:0,0:0:0:0:
367,182,140781,5,0,3:2:0:0:
367,182,140875,1,4,0:3:0:0:
367,182,140969,2,0,B|401:201|413:244|413:244|419:256|419:256|430:324|405:380,1,210.000008010865,6|0,3:2|0:0,0:0:0:0:
419,372,141250,2,0,B|440:324|429:256|429:256|423:244|423:244|411:201|376:177,1,210.000008010865,2|0,3:2|3:2,0:0:0:0:
93,165,141531,2,0,B|97:125|153:102|194:163|215:206|141:345,1,262.5,8|0,0:2|3:2,0:0:0:0:
152,321,141906,2,0,L|89:326,1,52.5000020027161,0|0,3:2|0:0,0:0:0:0:
285,362,142094,2,0,L|348:367,1,52.5000020027161,10|0,3:2|0:0,0:0:0:0:
434,91,142281,1,8,3:1:0:0:
433,103,142469,6,0,B|387:89|346:96|346:96|322:80|322:80|293:91|293:91|260:75|204:82,1,210.000008010865,6|0,3:2|0:0,0:0:0:0:
231,91,142750,2,0,B|258:86|291:102|291:102|320:91|320:91|344:107|344:107|385:100|431:114,1,210.000008010865,2|0,3:2|3:2,0:0:0:0:
481,293,143031,2,0,B|507:257|484:202|411:216|366:231|368:313|272:259,1,262.5,10|0,3:2|3:2,0:0:0:0:
280,258,143406,1,2,3:2:0:0:
26,190,143594,2,0,B|33:158|88:148|119:203|115:262|65:289|20:224|-21:313|29:363,1,288.750002753735,8|0,3:1|0:0,0:0:0:0:
41,370,143969,6,0,B|63:379|115:392|126:331|126:331|141:270|199:302,1,210.000008010865,4|0,3:2|0:0,0:0:0:0:
197,292,144250,2,0,B|135:265|120:326|120:326|109:387|57:374|38:361,1,210.000008010865,4|0,3:2|0:0,0:0:0:0:
34,352,144531,1,6,3:2:0:0:
293,285,144719,6,0,P|280:248|248:217,1,52.5000020027161,2|2,1:2|3:2,0:0:0:0:
207,175,144906,1,2,3:2:0:0:
495,91,145094,1,0,1:2:0:0:
495,91,145187,1,2,3:3:0:0:
495,91,145281,2,0,L|498:54,2,35.0000013351441,0|6|4,3:2|3:3|3:3,3:2:0:0:
504,48,145469,6,0,B|420:47|420:47|403:37|403:37|283:5,1,210.000008010865,6|0,3:2|0:0,0:0:0:0:
297,16,145750,2,0,B|399:43|399:43|418:54|418:54|500:54,1,210.000008010865,0|0,3:2|3:2,0:0:0:0:
209,75,146031,2,0,P|131:105|111:213,1,175,10|0,0:2|0:0,0:0:0:0:
116,203,146312,1,0,3:2:0:0:
116,203,146406,2,0,L|127:273,1,52.5000020027161,2|0,3:2|0:0,0:0:0:0:
19,58,146594,2,0,L|30:-12,1,52.5000020027161,8|0,0:2|0:0,0:0:0:0:
206,168,146781,5,2,3:2:0:0:
219,177,146875,1,0,0:0:0:0:
231,185,146969,2,0,B|266:205|289:167|296:151|296:151|314:107|330:66|383:83,1,210.000008010865,4|0,3:2|0:0,0:0:0:0:
389,96,147250,2,0,B|335:73|319:114|301:157|301:157|294:174|271:211|235:191,1,210.000008010865,0|0,3:2|3:2,0:0:0:0:
469,369,147531,2,0,P|490:316|368:311,1,175,8|2,0:2|0:2,0:0:0:0:
405,264,147812,1,0,3:2:0:0:
405,264,147906,1,0,3:2:0:0:
12,82,148094,5,10,3:2:0:0:
275,35,148281,1,8,3:1:0:0:
138,375,148469,6,0,B|174:280|174:280|130:245|130:203|130:203,1,175,6|0,3:2|0:0,0:0:0:0:
124,209,148750,2,0,B|126:248|163:283|163:283|130:369,1,175,0|0,3:2|3:2,0:0:0:0:
31,190,149031,2,0,B|51:134|94:123|94:123|101:116|101:116|154:109|186:39,1,175,10|0,3:2|0:0,0:0:0:0:
159,82,149312,1,0,3:2:0:0:
159,82,149406,1,2,3:2:0:0:
512,148,149594,2,0,B|508:108|452:85|411:146|390:189|464:328,1,262.5,10|0,3:2|0:0,0:0:0:0:
445,302,149969,6,0,B|401:300|373:332|373:332|338:325|338:325|317:349|265:356,1,175,4|2,3:2|0:2,0:0:0:0:
290,362,150250,2,0,B|319:359|340:335|340:335|375:342|375:342|403:310|447:312,1,175,0|0,3:2|3:2,0:0:0:0:
453,317,150531,1,10,0:2:0:0:
253,278,150719,2,0,P|178:227|227:114,1,175,2|0,0:2|3:2,0:0:0:0:
320,6,151094,1,8,0:2:0:0:
306,19,151187,1,8,0:2:0:0:
293,31,151281,2,0,B|250:41|250:41|245:40|245:40|170:54,1,87.5,6|4,0:3|0:3,0:0:0:0:
0,43,151469,6,0,B|78:75|78:75|23:166,1,175,6|0,3:2|0:0,0:0:0:0:
42,149,151750,2,0,B|88:72|88:72|9:39,1,175,2|2,3:2|3:2,0:0:0:0:
84,252,152031,2,2,B|114:249|114:249|139:255|139:255|198:230|202:194|202:194|210:183|210:183|219:146|270:129|270:129|301:135|301:135|337:120,1,315.000012016297,10|0,0:2|3:2,0:1:0:0:
343,127,152406,1,2,3:2:0:0:
433,356,152594,2,0,P|408:327|398:294,1,52.5000020027161,8|0,0:2|0:0,0:0:0:0:
372,227,152781,1,2,3:2:0:0:
501,7,152969,6,0,B|467:46|429:18|429:18|394:99|483:135,1,210.000008010865,4|0,3:2|0:0,0:0:0:0:
190,280,153250,2,0,B|224:241|262:269|262:269|297:188|208:152,1,210.000008010865,0|0,3:2|3:2,0:0:0:0:
0,89,153531,2,0,B|18:107|46:116|46:116|53:169|10:196|10:196|-43:290|12:358,1,315.000012016297,8|0,0:2|3:2,0:0:0:0:
22,369,153906,2,0,B|46:349|54:330|54:330|66:359|91:376,1,105.000004005432,0|0,3:2|0:0,0:0:0:0:
316,341,154094,2,0,B|305:370|283:379|283:379|251:373|240:347,1,105.000004005432,2|0,3:2|0:0,0:0:0:0:
470,199,154281,5,8,0:1:0:0:
478,183,154375,1,0,0:0:0:0:
487,166,154469,2,0,B|442:147|433:95|433:95|360:91|331:140,1,210.000008010865,6|0,3:2|0:0,0:0:0:0:
329,131,154750,2,0,B|363:83|439:90|439:90|445:139|489:160,1,210.000008010865,0|0,3:2|3:2,0:0:0:0:
281,234,155031,2,0,B|221:205|209:137|209:137|199:125|199:125|236:101|239:54,1,210.000008010865,10|0,0:2|0:0,0:0:0:0:
237,69,155312,1,0,3:2:0:0:
237,69,155406,1,2,3:2:0:0:
47,309,155594,2,0,L|64:232,1,52.5000020027161,8|0,0:1|0:0,0:0:0:0:
118,34,155781,5,4,0:3:0:0:
119,47,155875,1,4,0:3:0:0:
119,61,155969,2,0,B|92:99|106:139|106:139|94:171|94:171|40:152|-11:191,1,210.000008010865,4|0,3:2|0:0,0:0:0:0:
5,191,156250,2,0,B|41:161|97:180|97:180|114:143|114:143|100:100|120:69,1,210.000008010865,0|0,3:2|0:0,0:0:0:0:
117,73,156531,1,0,3:2:0:0:
287,323,156719,5,12,3:2:0:0:
284,311,156812,1,8,0:2:0:0:
279,298,156906,2,0,L|264:237,1,52.5000020027161,0|0,1:2|1:2,0:0:0:0:
234,41,157094,1,14,3:2:0:0:
231,53,157187,1,8,0:2:0:0:
226,66,157281,2,0,L|211:127,1,52.5000020027161,0|0,1:2|1:2,0:0:0:0:
368,95,157469,6,0,B|417:85|449:136|449:136|438:145|438:145|451:194|415:237,1,210.000008010865,6|0,3:2|0:0,0:0:0:0:
425,240,157750,2,0,B|460:196|447:147|447:147|458:138|458:138|431:85|380:85,1,210.000008010865,0|0,3:2|3:2,0:0:0:0:
112,72,158031,2,0,B|96:122|119:157|119:157|139:171|150:206|150:206|169:219|169:219|116:268|175:306|109:363,1,315.000012016297,10|0,0:2|3:2,0:0:0:0:
112,355,158406,1,2,3:2:0:0:
429,384,158594,2,0,L|367:348,1,52.5000020027161,8|0,0:2|0:0,0:0:0:0:
233,285,158781,1,4,3:2:0:0:
483,55,158969,6,0,B|488:15|445:-21|370:13|385:114,1,175,8|0,0:2|3:2,0:0:0:0:
219,137,159250,1,0,0:0:0:0:
215,129,159344,2,0,B|210:89|252:52|328:87|313:188,1,175,8|0,0:2|3:2,0:0:0:0:
383,357,159719,1,2,1:3:0:0:
383,357,159906,1,0,3:2:0:0:
112,355,160094,2,0,L|105:302,1,52.5000020027161,8|8,0:2|0:2,0:2:0:0:
22,56,160281,2,0,L|16:110,1,52.5000020027161,8|8,0:2|0:2,0:2:0:0:
0,220,160469,6,0,B|63:211|63:211|70:207|70:207|138:197,1,140,6|0,3:2|3:2,3:2:0:0:
137,197,160750,1,0,3:2:0:0:
137,197,160844,1,4,3:2:0:0:
480,25,161031,1,0,3:2:0:0:
480,25,161125,1,0,3:2:0:0:
480,25,161219,2,0,B|417:16|417:16|410:12|410:12|341:2,1,140,6|0,3:2|3:2,3:2:0:0:
342,2,161500,1,0,3:2:0:0:
342,2,161594,1,4,3:2:0:0:
16,108,161781,5,0,3:2:0:0:
34,78,161875,1,0,3:2:0:0:
22,56,161969,1,6,3:2:0:0:
480,25,162344,2,0,L|463:113,1,70,8|8,0:2|0:2,0:0:0:0:
424,259,162531,6,0,B|434:157|350:153|350:153|269:154|279:41,1,280,6|8,3:2|0:2,0:0:0:0:
277,65,163000,1,8,0:2:0:0:
277,65,163094,1,2,3:2:0:0:
64,357,163281,2,0,L|57:270,1,70,2|4,3:3|0:3,0:0:0:0:
52,143,163469,5,6,3:2:0:0:
52,143,163750,2,0,B|94:160|94:160|107:216|107:216|149:244,1,140,0|0,3:2|0:0,0:0:0:0:
336,151,164031,2,0,B|282:165|282:165|200:327|200:327|130:342,1,280,4|0,1:2|3:2,0:0:0:0:
158,335,164594,1,0,1:2:0:0:
158,335,164781,1,0,3:2:0:0:
439,183,164969,6,0,P|433:105|374:58,1,140,6|0,3:2|0:0,0:0:0:0:
400,62,165250,2,0,P|444:113|449:183,1,140,0|0,3:2|0:0,0:0:0:0:
336,151,165531,2,0,B|291:131|276:83|276:83|243:-26|142:-8|158:64,1,280,6|0,1:2|3:2,0:0:0:0:
156,50,166094,1,2,1:2:0:0:
163,56,166281,2,0,L|65:79,1,70,0|4,3:2|0:3,0:0:0:0:
26,239,166469,5,4,3:2:0:0:
29,256,166750,2,0,B|98:241|98:241|97:165|97:165,1,140,0|0,3:2|0:0,0:0:0:0:
271,209,167031,2,0,B|203:223|203:223|210:368|210:368,1,210,4|0,1:2|0:0,0:0:0:0:
207,369,167406,1,0,3:2:0:0:
362,254,167594,2,0,P|372:220|369:186,1,70,0|0,1:2|0:0,0:0:0:0:
443,339,167781,1,0,3:2:0:0:
454,355,167875,1,4,0:3:0:0:
465,368,167969,6,0,B|458:302|458:302|455:292|455:292|440:206,1,140,6|0,3:2|0:0,0:0:0:0:
451,227,168250,2,0,B|461:289|461:289|465:299|465:299|471:364,1,140,0|0,3:2|0:0,0:0:0:0:
506,159,168531,2,0,B|420:96|420:96|356:207,1,210,6|0,1:2|0:0,0:0:0:0:
362,191,168906,1,0,3:2:0:0:
142,18,169094,2,0,P|212:30|203:127,1,140,2|0,1:2|3:2,0:0:0:0:
161,175,169375,5,4,0:3:0:0:
161,175,169469,2,0,B|125:135|125:135|113:129|113:129|109:119|109:119|61:71,1,140,4|0,3:2|0:0,0:0:0:0:
60,82,169750,2,0,B|104:126|104:126|108:136|108:136|120:141|120:141|155:181,1,140,0|0,3:2|0:0,0:0:0:0:
194,354,170031,2,0,B|188:291|218:264|218:264|221:258|221:258|266:220|255:157,1,210,4|0,1:2|0:0,0:0:0:0:
263,152,170406,1,0,3:2:0:0:
418,17,170594,1,0,1:2:0:0:
418,17,170781,1,0,3:2:0:0:
500,149,170969,6,0,B|442:174|442:174|410:265,1,140,4|0,3:2|0:0,0:0:0:0:
423,252,171250,2,0,B|448:179|448:179|506:154,1,140,0|0,3:2|0:0,0:0:0:0:
456,342,171531,2,0,B|356:367|356:367|322:262,1,210,4|2,1:2|0:0,0:0:0:0:
319,250,171906,1,2,3:2:0:0:
249,4,172094,1,0,1:2:0:0:
248,13,172187,1,0,0:0:0:0:
247,24,172281,2,0,L|241:101,1,70,0|4,3:2|0:3,0:0:0:0:
213,288,172469,6,0,B|219:235|190:192|190:192|187:179|187:179|146:149|139:87,2,210,6|4|6,3:2|3:2|1:2,0:0:0:0:
241,93,173219,2,0,B|271:47|339:62|368:94|374:165|318:253,1,280,2|0,1:3|1:2,0:0:0:0:
90,344,173781,1,0,3:2:0:0:
83,328,173875,1,4,0:3:0:0:
76,311,173969,2,0,L|48:232,1,70,6|0,3:2|0:0,0:0:0:0:
10,143,174156,1,0,3:2:0:0:
10,143,174344,1,0,3:2:0:0:
241,94,174531,5,10,3:2:0:0:
204,110,174625,1,8,0:2:0:0:
185,143,174719,1,8,0:2:0:0:
190,184,174812,1,8,0:2:0:0:
213,216,174906,2,0,P|245:232|281:218,1,70,2|0,3:3|0:0,0:0:0:0:
145,365,175094,2,0,P|158:333|154:294,1,70,2|0,3:3|0:0,0:0:0:0:
321,318,175281,2,0,P|304:347|318:382,1,70,2|4,3:3|0:3,0:0:0:0:
480,267,175469,6,0,B|435:249|419:193|419:193|413:185|413:185|402:128|357:104,1,210,6|0,3:2|3:2,0:0:0:0:
357,98,175844,2,0,P|375:63|370:23,1,70,2|0,0:3|1:2,0:0:0:0:
282,49,176031,2,0,B|232:59|232:59|246:156,1,140,0|2,3:2|3:3,0:0:0:0:
145,365,176406,2,0,B|199:353|199:353|178:237,1,140,8|0,0:0|3:0,0:0:0:0:
183,269,176687,1,0,1:0:0:0:
183,269,176781,1,0,3:0:0:0:
507,190,176969,6,0,B|462:192|431:198|406:229|388:287|395:367,1,210,2|8,3:3|0:0,0:0:0:0:
61,151,177531,5,10,0:0:0:0:
61,151,177625,1,8,0:0:0:0:
61,151,177719,1,8,0:0:0:0:
61,151,177812,1,8,0:0:0:0:
61,151,177906,1,8,0:0:0:0:
61,151,178000,1,8,0:0:0:0:
61,151,178094,2,0,L|90:205,2,52.5000020027161,10|8|8,1:2|1:2|1:2,0:0:0:0:
146,299,178375,5,8,1:2:0:0:
402,265,183892,5,2,0:3:0:0:
378,183,184085,1,2,0:3:0:0:
163,207,184279,5,2,0:3:0:0:
292,175,184472,1,2,0:3:0:0:
17,147,184666,6,0,B|82:169|82:169|69:251,1,140,4|0,3:1|0:0,0:0:0:0:
348,375,184947,2,0,B|345:319|319:331|302:325|302:325|306:339|291:360|339:376,1,140,2|0,3:2|0:0,0:0:0:0:
200,85,185228,2,0,B|244:119|219:133|214:151|214:151|205:140|179:140|194:91,1,141.750000540733,6|2,1:2|0:3,0:0:0:0:
199,76,185603,1,2,3:2:0:0:
174,341,185791,1,10,0:2:0:0:
484,93,185978,1,2,3:2:0:0:
484,93,186166,6,0,B|431:135|431:135|425:146|425:146|363:193,1,140,2|0,3:1|0:0,0:0:0:0:
327,28,186447,2,0,B|283:62|308:76|313:94|313:94|322:83|348:83|333:34,1,140,2|0,3:2|0:0,0:0:0:0:
324,319,186728,2,0,B|280:285|305:271|310:253|310:253|319:264|345:264|330:313,1,141.750000540733,14|2,0:2|0:3,0:0:0:0:
328,334,187103,1,2,3:2:0:0:
77,190,187291,1,10,0:2:0:0:
77,190,187384,1,8,0:2:0:0:
77,190,187478,1,2,1:2:0:0:
77,190,187572,1,8,0:2:0:0:
77,190,187666,6,0,B|129:190|176:163|176:163|150:162|124:146,1,140,2|0,3:1|0:0,0:0:0:0:
233,36,187947,2,0,B|220:90|197:73|179:76|179:76|185:63|174:40|225:33,1,140,2|0,3:2|0:0,0:0:0:0:
1,323,188228,2,0,B|55:311|37:288|41:270|41:270|29:276|6:265|-1:316,1,141.750000540733,6|2,1:2|0:3,0:0:0:0:
0,336,188603,1,2,3:2:0:0:
260,244,188791,1,10,0:2:0:0:
43,74,188978,1,2,3:2:0:0:
389,336,189166,6,0,B|380:295|386:262|386:262|370:230|370:230|388:195|388:195|379:166|386:127,2,210,2|2|14,3:1|3:2|0:2,0:0:0:0:
512,102,189916,2,0,B|458:114|475:137|472:155|472:155|484:149|507:160|514:109,1,140,0|0,0:2|3:2,0:0:0:0:
495,323,190291,2,0,P|475:295|504:323,1,140,8|2,0:2|1:2,0:0:0:0:
494,333,190572,1,8,0:2:0:0:
493,343,190666,6,0,B|494:272|494:272|491:262|491:262|493:201|493:201,1,140,4|0,3:1|0:0,0:0:0:0:
232,343,190947,2,0,B|244:289|267:306|285:303|285:303|279:315|290:338|239:345,1,140,2|0,3:2|0:0,0:0:0:0:
228,65,191228,2,0,B|275:36|279:64|294:75|294:75|282:79|273:103|232:72,1,141.750000540733,6|2,1:2|0:3,0:0:0:0:
219,63,191603,1,2,3:2:0:0:
418,103,191791,1,10,0:2:0:0:
170,197,191978,1,2,3:2:0:0:
55,270,192166,6,0,B|68:208|68:208|37:176,1,105.000004005432,6|8,3:2|0:2,0:0:0:0:
61,278,192447,1,6,3:2:0:0:
309,197,192634,1,8,1:2:0:0:
309,197,192728,2,0,B|269:228|269:228|264:289,1,105.000004005432,6|8,3:2|0:2,0:0:0:0:
218,62,193009,2,0,B|176:86|176:86|135:45,1,105.000004005432,6|8,3:2|0:2,0:0:0:0:
134,34,193291,1,6,3:2:0:0:
425,111,193478,5,10,0:2:0:0:
425,111,193572,1,10,0:2:0:0:
425,111,193666,2,0,B|410:181|410:181|414:192|414:192|400:271,1,140,2|0,3:1|0:0,0:0:0:0:
493,383,193947,2,0,B|439:371|456:348|453:330|453:330|465:336|488:325|495:376,1,140,6|0,3:2|0:0,0:0:0:0:
295,124,194228,2,0,B|266:170|295:174|305:189|305:189|309:177|333:168|302:127,1,141.750000540733,6|2,3:2|0:2,0:0:0:0:
292,114,194603,1,0,3:2:0:0:
182,368,194791,1,10,0:2:0:0:
198,63,194978,5,2,3:2:0:0:
198,63,195072,1,10,0:2:0:0:
198,63,195166,2,0,B|179:100|179:100|194:142,1,70,10|0,1:2|3:2,0:0:0:0:
403,148,195353,2,0,B|412:108|412:108|399:68,1,70,4|2,3:2|0:2,0:0:0:0:
280,223,195541,1,8,0:2:0:0:
278,243,195634,1,8,1:2:0:0:
276,261,195728,1,10,0:2:0:0:
273,280,195822,1,8,0:2:0:0:
271,298,195916,5,6,3:2:0:0:
408,278,196103,1,12,3:3:0:0:
135,243,196291,1,8,3:3:0:0:
75,384,196478,1,8,3:3:0:0:
407,149,196666,6,0,B|419:111|404:77|362:67|362:67|352:69|352:69|256:30,1,210.000008010865,4|0,3:1|0:0,0:1:0:0:
268,25,196947,2,0,B|354:60|354:60|364:58|364:58|406:68|428:99|417:143,1,210.000008010865,6|0,3:2|0:0,0:0:0:0:
240,154,197228,2,0,B|146:97|146:97|168:-9,1,210.000008010865,6|0,3:2|0:0,0:0:0:0:
166,0,197509,1,0,1:2:0:0:
166,0,197603,1,0,3:2:0:0:
135,243,197791,2,0,L|46:187,1,105.000004005432,0|0,1:2|0:0,0:0:0:0:
40,195,197978,2,0,L|129:251,1,105.000004005432,0|0,3:2|0:0,0:0:0:0:
283,303,198166,6,0,B|312:213|312:213|324:203|324:203|308:201|308:201|236:151,1,210.000008010865,6|0,3:2|0:0,0:0:0:0:
255,154,198447,2,0,B|317:196|317:196|330:197|330:197|333:202|333:202|332:209|332:209|320:219|320:219|291:309,1,210.000008010865,6|0,3:2|0:0,0:0:0:0:
510,261,198728,2,0,P|441:204|480:91,1,210.000008010865,6|2,3:2|0:3,0:0:0:0:
471,91,199009,1,0,1:2:0:0:
192,252,199291,1,0,1:2:0:0:
192,252,199384,1,8,0:2:0:0:
192,252,199478,2,0,L|115:256,1,52.5000020027161,8|8,0:2|0:2,0:0:0:0:
183,43,199666,6,0,B|164:49|137:76|135:124|135:124|128:127|128:127|111:102|94:73|41:72,1,210.000008010865,6|0,3:2|0:0,0:0:0:0:
42,65,199947,2,0,B|93:62|128:115|128:115|134:60|184:31,1,210.000008010865,6|0,3:2|0:0,0:0:0:0:
413,8,200228,2,0,B|335:51|335:51|317:75|317:75|201:143,1,210.000008010865,6|0,3:2|0:0,0:0:0:0:
238,120,200509,1,0,1:2:0:0:
238,120,200603,1,0,1:2:0:0:
28,355,200791,5,4,3:2:0:0:
47,313,200884,1,2,0:3:0:0:
36,271,200978,1,0,1:2:0:0:
0,244,201072,1,0,1:2:0:0:
0,244,201166,6,0,B|41:256|59:224|59:224|76:184|17:154,1,140,2|4,0:0|3:2,0:0:0:0:
250,129,201447,2,0,B|204:113|191:149|191:149|181:189|233:219,1,140,2|0,0:0|1:2,0:0:0:0:
298,295,201728,5,10,0:2:0:0:
302,307,201822,1,8,0:2:0:0:
306,319,201916,2,0,L|320:368,5,35.0000013351441,4|12|12|4|4|4,3:3|3:3|3:3|3:3|3:3|3:3,0:0:0:0:
405,157,202291,2,0,L|421:101,2,52.5000020027161,12|12|12,3:3|3:3|3:3,0:0:0:0:
504,139,202572,1,4,3:3:0:0:
504,139,202666,6,0,B|480:199|424:184|424:184|296:150,1,210.000008010865,4|2,3:1|0:3,0:0:0:0:
325,166,202947,2,0,B|428:193|428:193|484:208|508:148,1,210.000008010865,2|0,3:2|0:0,0:0:0:0:
302,71,203228,2,0,B|251:76|230:134|230:134|224:139|224:139|194:227|116:189,1,210.000008010865,2|4,1:2|0:2,0:0:0:0:
154,200,203509,1,2,0:2:0:0:
154,200,203603,1,2,3:2:0:0:
0,46,203791,1,8,0:1:0:0:
219,0,203978,1,0,3:2:0:0:
90,364,204166,6,0,B|115:315|115:315|290:281,1,210.000008010865,6|0,3:2|0:0,0:0:0:0:
274,296,204447,2,0,B|121:325|121:325|96:374,1,210.000008010865,6|0,3:2|0:0,0:0:0:0:
104,384,204728,1,6,3:2:0:0:
365,366,204916,1,4,0:2:0:0:
372,357,205009,2,0,P|386:301|369:246,1,105.000004005432,2|0,0:0|3:2,0:0:0:0:
296,77,205291,1,0,1:2:0:0:
296,77,205478,1,0,3:2:0:0:
20,57,205666,6,0,B|101:64|101:64|108:59|108:59|81:198,1,210.000008010865,4|0,3:2|1:2,0:0:0:0:
91,194,205947,1,0,1:2:0:0:
101,207,206041,1,0,1:2:0:0:
112,220,206134,1,0,1:2:0:0:
122,232,206228,2,0,L|195:216,1,52.5000020027161,4|0,3:2|0:0,0:0:0:0:
441,166,206416,5,0,0:0:0:0:
441,166,206509,1,0,1:2:0:0:
441,166,206603,1,0,1:2:0:0:
441,166,206697,1,0,1:2:0:0:
441,166,206791,2,0,L|368:150,1,52.5000020027161,4|0,3:2|0:0,0:0:0:0:
199,0,206978,2,0,L|229:67,1,52.5000020027161,0|0,1:2|1:2,0:0:0:0:
255,355,207166,6,0,B|228:281|288:274|264:203,1,140,0|0,1:2|3:2,0:0:0:0:
456,316,207541,1,2,3:3:0:0:
99,305,207728,1,2,3:3:0:0:
345,25,207916,1,4,3:2:0:0:
264,365,208103,1,0,3:2:0:0:
87,40,208291,1,0,3:2:0:0:
268,219,208478,1,0,3:2:0:0:
275,233,208572,1,2,0:0:0:0:
264,207,208666,5,6,3:2:0:0:
256,192,208759,12,0,217478,0:0:0:0:
