osu file format v14

[General]
AudioFilename: fukki.mp3
AudioLeadIn: 2
PreviewTime: 50238
Countdown: 0
SampleSet: Normal
StackLeniency: 0.7
Mode: 3
LetterboxInBreaks: 0
SpecialStyle: 0
WidescreenStoryboard: 1

[Editor]
DistanceSpacing: 0.8
BeatDivisor: 4
GridSize: 8
TimelineZoom: 1

[Metadata]
Title:Weabonie's Practice Pack
TitleUnicode:Weabonie's Practice Pack
Artist:
ArtistUnicode:
Creator:Weabonie
Version:(SPEED) Ron - Fukkireta 1.2x
Source:Stepmania
Tags:Stepmania
BeatmapID:1726444
BeatmapSetID:812823

[Difficulty]
HPDrainRate:8
CircleSize:4
OverallDifficulty:9
ApproachRate:10
SliderMultiplier:1.4
SliderTickRate:1

[Events]
//Background and Video events
0,0,"bg11.jpg",0,0
//Break Periods
//Storyboard Layer 0 (Background)
//Storyboard Layer 1 (Fail)
//Storyboard Layer 2 (Pass)
//Storyboard Layer 3 (Foreground)
//Storyboard Sound Samples

[TimingPoints]
23,333.333333333333,4,1,0,15,1,0

[HitObjects]
448,192,190,5,0,0:0:0:0:
64,192,357,1,0,0:0:0:0:
320,192,523,1,0,0:0:0:0:
192,192,690,1,0,0:0:0:0:
64,192,773,1,0,0:0:0:0:
64,192,940,1,0,0:0:0:0:
192,192,1023,1,0,0:0:0:0:
448,192,1190,1,0,0:0:0:0:
192,192,1357,1,0,0:0:0:0:
320,192,1523,1,0,0:0:0:0:
192,192,1690,1,0,0:0:0:0:
448,192,1857,1,0,0:0:0:0:
320,192,2023,1,0,0:0:0:0:
448,192,2107,1,0,0:0:0:0:
448,192,2273,1,0,0:0:0:0:
64,192,2357,1,0,0:0:0:0:
448,192,2523,1,0,0:0:0:0:
320,192,2690,1,0,0:0:0:0:
448,192,2857,1,0,0:0:0:0:
64,192,3023,1,0,0:0:0:0:
192,192,3190,1,0,0:0:0:0:
64,192,3357,1,0,0:0:0:0:
320,192,3440,1,0,0:0:0:0:
320,192,3607,1,0,0:0:0:0:
64,192,3690,1,0,0:0:0:0:
320,192,3857,1,0,0:0:0:0:
192,192,4023,1,0,0:0:0:0:
64,192,4190,1,0,0:0:0:0:
448,192,4190,1,0,0:0:0:0:
64,192,4440,1,0,0:0:0:0:
320,192,4440,1,0,0:0:0:0:
64,192,4690,1,0,0:0:0:0:
192,192,4690,1,0,0:0:0:0:
64,192,5023,1,0,0:0:0:0:
320,192,5065,1,0,0:0:0:0:
448,192,5107,1,0,0:0:0:0:
64,192,5148,1,0,0:0:0:0:
192,192,5190,1,0,0:0:0:0:
320,192,5232,1,0,0:0:0:0:
448,192,5273,1,0,0:0:0:0:
192,192,5315,1,0,0:0:0:0:
64,192,5357,1,0,0:0:0:0:
320,192,5398,1,0,0:0:0:0:
448,192,5440,1,0,0:0:0:0:
192,192,5482,1,0,0:0:0:0:
320,192,5523,1,0,0:0:0:0:
64,192,5565,1,0,0:0:0:0:
192,192,5607,1,0,0:0:0:0:
448,192,5648,1,0,0:0:0:0:
320,192,5690,1,0,0:0:0:0:
192,192,5732,1,0,0:0:0:0:
64,192,5773,1,0,0:0:0:0:
448,192,5815,1,0,0:0:0:0:
320,192,5857,1,0,0:0:0:0:
64,192,5898,1,0,0:0:0:0:
192,192,5940,1,0,0:0:0:0:
320,192,5982,1,0,0:0:0:0:
448,192,6023,1,0,0:0:0:0:
64,192,6065,1,0,0:0:0:0:
192,192,6107,1,0,0:0:0:0:
448,192,6107,1,0,0:0:0:0:
320,192,6148,1,0,0:0:0:0:
64,192,6190,1,0,0:0:0:0:
448,192,6232,1,0,0:0:0:0:
320,192,6315,1,0,0:0:0:0:
64,192,6357,1,0,0:0:0:0:
192,192,6398,1,0,0:0:0:0:
448,192,6440,1,0,0:0:0:0:
320,192,6482,1,0,0:0:0:0:
448,192,6523,1,0,0:0:0:0:
192,192,6565,1,0,0:0:0:0:
64,192,6607,1,0,0:0:0:0:
448,192,6648,1,0,0:0:0:0:
320,192,6690,1,0,0:0:0:0:
192,192,6732,1,0,0:0:0:0:
64,192,6773,1,0,0:0:0:0:
320,192,6815,1,0,0:0:0:0:
448,192,6857,1,0,0:0:0:0:
192,192,6898,1,0,0:0:0:0:
64,192,6940,1,0,0:0:0:0:
448,192,6982,1,0,0:0:0:0:
320,192,7023,1,0,0:0:0:0:
192,192,7065,1,0,0:0:0:0:
448,192,7107,1,0,0:0:0:0:
64,192,7148,1,0,0:0:0:0:
320,192,7190,1,0,0:0:0:0:
448,192,7232,1,0,0:0:0:0:
64,192,7273,1,0,0:0:0:0:
320,192,7315,1,0,0:0:0:0:
192,192,7357,1,0,0:0:0:0:
448,192,7398,1,0,0:0:0:0:
320,192,7440,1,0,0:0:0:0:
64,192,7482,1,0,0:0:0:0:
192,192,7523,1,0,0:0:0:0:
320,192,7565,1,0,0:0:0:0:
448,192,7607,1,0,0:0:0:0:
192,192,7648,1,0,0:0:0:0:
320,192,7690,1,0,0:0:0:0:
448,192,7732,1,0,0:0:0:0:
64,192,7773,1,0,0:0:0:0:
320,192,7815,1,0,0:0:0:0:
192,192,7857,1,0,0:0:0:0:
64,192,7898,1,0,0:0:0:0:
448,192,7940,1,0,0:0:0:0:
320,192,7982,1,0,0:0:0:0:
64,192,8023,1,0,0:0:0:0:
192,192,8065,1,0,0:0:0:0:
448,192,8107,1,0,0:0:0:0:
64,192,8148,1,0,0:0:0:0:
320,192,8190,1,0,0:0:0:0:
448,192,8232,1,0,0:0:0:0:
192,192,8273,1,0,0:0:0:0:
320,192,8315,1,0,0:0:0:0:
192,192,8357,1,0,0:0:0:0:
64,192,8398,1,0,0:0:0:0:
448,192,8440,1,0,0:0:0:0:
192,192,8482,1,0,0:0:0:0:
320,192,8523,1,0,0:0:0:0:
64,192,8565,1,0,0:0:0:0:
192,192,8607,1,0,0:0:0:0:
320,192,8648,1,0,0:0:0:0:
448,192,8690,1,0,0:0:0:0:
320,192,8732,1,0,0:0:0:0:
192,192,8773,1,0,0:0:0:0:
448,192,8815,1,0,0:0:0:0:
64,192,8857,1,0,0:0:0:0:
320,192,8898,1,0,0:0:0:0:
448,192,8940,1,0,0:0:0:0:
64,192,8982,1,0,0:0:0:0:
192,192,9023,1,0,0:0:0:0:
320,192,9065,1,0,0:0:0:0:
448,192,9107,1,0,0:0:0:0:
192,192,9148,1,0,0:0:0:0:
64,192,9190,1,0,0:0:0:0:
320,192,9232,1,0,0:0:0:0:
192,192,9273,1,0,0:0:0:0:
448,192,9315,1,0,0:0:0:0:
320,192,9357,1,0,0:0:0:0:
64,192,9398,1,0,0:0:0:0:
448,192,9440,1,0,0:0:0:0:
320,192,9482,1,0,0:0:0:0:
192,192,9523,1,0,0:0:0:0:
64,192,9565,1,0,0:0:0:0:
320,192,9607,1,0,0:0:0:0:
192,192,9648,1,0,0:0:0:0:
448,192,9690,1,0,0:0:0:0:
64,192,9732,1,0,0:0:0:0:
192,192,9773,1,0,0:0:0:0:
448,192,9815,1,0,0:0:0:0:
320,192,9857,1,0,0:0:0:0:
64,192,9898,1,0,0:0:0:0:
448,192,9940,1,0,0:0:0:0:
320,192,9982,1,0,0:0:0:0:
192,192,10023,1,0,0:0:0:0:
64,192,10065,1,0,0:0:0:0:
448,192,10107,1,0,0:0:0:0:
192,192,10148,1,0,0:0:0:0:
448,192,10190,1,0,0:0:0:0:
64,192,10232,1,0,0:0:0:0:
320,192,10273,1,0,0:0:0:0:
192,192,10315,1,0,0:0:0:0:
448,192,10357,1,0,0:0:0:0:
320,192,10398,1,0,0:0:0:0:
64,192,10440,1,0,0:0:0:0:
448,192,10482,1,0,0:0:0:0:
320,192,10523,1,0,0:0:0:0:
64,192,10565,1,0,0:0:0:0:
192,192,10607,1,0,0:0:0:0:
448,192,10648,1,0,0:0:0:0:
320,192,10690,1,0,0:0:0:0:
64,192,10732,1,0,0:0:0:0:
448,192,10773,1,0,0:0:0:0:
320,192,10815,1,0,0:0:0:0:
192,192,10857,1,0,0:0:0:0:
64,192,10898,1,0,0:0:0:0:
448,192,10940,1,0,0:0:0:0:
320,192,10982,1,0,0:0:0:0:
192,192,11023,1,0,0:0:0:0:
448,192,11065,1,0,0:0:0:0:
64,192,11107,1,0,0:0:0:0:
320,192,11148,1,0,0:0:0:0:
192,192,11190,1,0,0:0:0:0:
64,192,11232,1,0,0:0:0:0:
448,192,11273,1,0,0:0:0:0:
192,192,11315,1,0,0:0:0:0:
320,192,11357,1,0,0:0:0:0:
448,192,11398,1,0,0:0:0:0:
64,192,11440,1,0,0:0:0:0:
192,192,11482,1,0,0:0:0:0:
448,192,11523,1,0,0:0:0:0:
320,192,11565,1,0,0:0:0:0:
64,192,11607,1,0,0:0:0:0:
448,192,11648,1,0,0:0:0:0:
192,192,11690,1,0,0:0:0:0:
320,192,11732,1,0,0:0:0:0:
448,192,11773,1,0,0:0:0:0:
192,192,11815,1,0,0:0:0:0:
64,192,11857,1,0,0:0:0:0:
320,192,11898,1,0,0:0:0:0:
448,192,11940,1,0,0:0:0:0:
64,192,11982,1,0,0:0:0:0:
192,192,12023,1,0,0:0:0:0:
448,192,12065,1,0,0:0:0:0:
64,192,12107,1,0,0:0:0:0:
192,192,12148,1,0,0:0:0:0:
320,192,12190,1,0,0:0:0:0:
448,192,12232,1,0,0:0:0:0:
192,192,12273,1,0,0:0:0:0:
64,192,12315,1,0,0:0:0:0:
448,192,12357,1,0,0:0:0:0:
320,192,12398,1,0,0:0:0:0:
64,192,12440,1,0,0:0:0:0:
448,192,12482,1,0,0:0:0:0:
192,192,12523,1,0,0:0:0:0:
320,192,12565,1,0,0:0:0:0:
64,192,12607,1,0,0:0:0:0:
192,192,12648,1,0,0:0:0:0:
448,192,12690,1,0,0:0:0:0:
64,192,12732,1,0,0:0:0:0:
320,192,12773,1,0,0:0:0:0:
192,192,12815,1,0,0:0:0:0:
448,192,12857,1,0,0:0:0:0:
320,192,12898,1,0,0:0:0:0:
192,192,12940,1,0,0:0:0:0:
320,192,12982,1,0,0:0:0:0:
64,192,13023,1,0,0:0:0:0:
448,192,13065,1,0,0:0:0:0:
320,192,13107,1,0,0:0:0:0:
64,192,13148,1,0,0:0:0:0:
192,192,13190,1,0,0:0:0:0:
448,192,13232,1,0,0:0:0:0:
64,192,13273,1,0,0:0:0:0:
192,192,13315,1,0,0:0:0:0:
320,192,13357,1,0,0:0:0:0:
448,192,13398,1,0,0:0:0:0:
192,192,13440,1,0,0:0:0:0:
320,192,13482,1,0,0:0:0:0:
64,192,13523,1,0,0:0:0:0:
448,192,13565,1,0,0:0:0:0:
192,192,13607,1,0,0:0:0:0:
320,192,13648,1,0,0:0:0:0:
64,192,13690,1,0,0:0:0:0:
192,192,13732,1,0,0:0:0:0:
448,192,13773,1,0,0:0:0:0:
320,192,13815,1,0,0:0:0:0:
64,192,13857,1,0,0:0:0:0:
192,192,13898,1,0,0:0:0:0:
448,192,13940,1,0,0:0:0:0:
64,192,13982,1,0,0:0:0:0:
320,192,14023,1,0,0:0:0:0:
192,192,14065,1,0,0:0:0:0:
64,192,14107,1,0,0:0:0:0:
320,192,14148,1,0,0:0:0:0:
448,192,14190,1,0,0:0:0:0:
192,192,14232,1,0,0:0:0:0:
320,192,14273,1,0,0:0:0:0:
448,192,14315,1,0,0:0:0:0:
64,192,14357,1,0,0:0:0:0:
192,192,14398,1,0,0:0:0:0:
448,192,14440,1,0,0:0:0:0:
64,192,14482,1,0,0:0:0:0:
320,192,14523,1,0,0:0:0:0:
192,192,14565,1,0,0:0:0:0:
448,192,14607,1,0,0:0:0:0:
64,192,14648,1,0,0:0:0:0:
192,192,14690,1,0,0:0:0:0:
320,192,14732,1,0,0:0:0:0:
448,192,14773,1,0,0:0:0:0:
64,192,14815,1,0,0:0:0:0:
320,192,14857,1,0,0:0:0:0:
192,192,14898,1,0,0:0:0:0:
448,192,14940,1,0,0:0:0:0:
320,192,14982,1,0,0:0:0:0:
192,192,15023,1,0,0:0:0:0:
64,192,15065,1,0,0:0:0:0:
448,192,15107,1,0,0:0:0:0:
320,192,15148,1,0,0:0:0:0:
64,192,15190,1,0,0:0:0:0:
192,192,15232,1,0,0:0:0:0:
448,192,15273,1,0,0:0:0:0:
320,192,15315,1,0,0:0:0:0:
64,192,15357,1,0,0:0:0:0:
192,192,15398,1,0,0:0:0:0:
320,192,15440,1,0,0:0:0:0:
448,192,15482,1,0,0:0:0:0:
64,192,15523,1,0,0:0:0:0:
320,192,15565,1,0,0:0:0:0:
192,192,15607,1,0,0:0:0:0:
448,192,15648,1,0,0:0:0:0:
320,192,15690,1,0,0:0:0:0:
192,192,15732,1,0,0:0:0:0:
64,192,15773,1,0,0:0:0:0:
320,192,15815,1,0,0:0:0:0:
448,192,15857,1,0,0:0:0:0:
64,192,15898,1,0,0:0:0:0:
192,192,15940,1,0,0:0:0:0:
320,192,15982,1,0,0:0:0:0:
64,192,16023,1,0,0:0:0:0:
448,192,16023,1,0,0:0:0:0:
192,192,16107,1,0,0:0:0:0:
64,192,16190,1,0,0:0:0:0:
320,192,16273,1,0,0:0:0:0:
192,192,16357,1,0,0:0:0:0:
448,192,16440,1,0,0:0:0:0:
64,192,16523,1,0,0:0:0:0:
192,192,16607,1,0,0:0:0:0:
320,192,16690,1,0,0:0:0:0:
448,192,16773,1,0,0:0:0:0:
320,192,16857,1,0,0:0:0:0:
192,192,16940,1,0,0:0:0:0:
320,192,17023,1,0,0:0:0:0:
64,192,17107,1,0,0:0:0:0:
192,192,17190,1,0,0:0:0:0:
448,192,17273,1,0,0:0:0:0:
320,192,17357,1,0,0:0:0:0:
64,192,17440,1,0,0:0:0:0:
320,192,17523,1,0,0:0:0:0:
448,192,17607,1,0,0:0:0:0:
192,192,17690,1,0,0:0:0:0:
320,192,17773,1,0,0:0:0:0:
192,192,17857,1,0,0:0:0:0:
64,192,17940,1,0,0:0:0:0:
320,192,18023,1,0,0:0:0:0:
448,192,18107,1,0,0:0:0:0:
192,192,18190,1,0,0:0:0:0:
64,192,18273,1,0,0:0:0:0:
448,192,18357,1,0,0:0:0:0:
64,192,18523,1,0,0:0:0:0:
64,192,18690,1,0,0:0:0:0:
320,192,18690,1,0,0:0:0:0:
192,192,18745,1,0,0:0:0:0:
448,192,18801,1,0,0:0:0:0:
64,192,18856,1,0,0:0:0:0:
192,192,18912,1,0,0:0:0:0:
448,192,18968,1,0,0:0:0:0:
192,192,19022,1,0,0:0:0:0:
320,192,19022,1,0,0:0:0:0:
64,192,19078,1,0,0:0:0:0:
320,192,19134,1,0,0:0:0:0:
448,192,19189,1,0,0:0:0:0:
192,192,19245,1,0,0:0:0:0:
320,192,19301,1,0,0:0:0:0:
192,192,19356,1,0,0:0:0:0:
448,192,19356,1,0,0:0:0:0:
64,192,19412,1,0,0:0:0:0:
320,192,19468,1,0,0:0:0:0:
448,192,19522,1,0,0:0:0:0:
192,192,19578,1,0,0:0:0:0:
320,192,19634,1,0,0:0:0:0:
64,192,19689,1,0,0:0:0:0:
192,192,19689,1,0,0:0:0:0:
448,192,19745,1,0,0:0:0:0:
320,192,19801,1,0,0:0:0:0:
192,192,19856,1,0,0:0:0:0:
64,192,19912,1,0,0:0:0:0:
320,192,19968,1,0,0:0:0:0:
192,192,20022,1,0,0:0:0:0:
448,192,20022,1,0,0:0:0:0:
64,192,20078,1,0,0:0:0:0:
448,192,20134,1,0,0:0:0:0:
192,192,20189,1,0,0:0:0:0:
320,192,20189,1,0,0:0:0:0:
64,192,20245,1,0,0:0:0:0:
448,192,20245,1,0,0:0:0:0:
320,192,20301,1,0,0:0:0:0:
64,192,20356,1,0,0:0:0:0:
192,192,20356,1,0,0:0:0:0:
448,192,20412,1,0,0:0:0:0:
64,192,20468,1,0,0:0:0:0:
320,192,20522,1,0,0:0:0:0:
448,192,20522,1,0,0:0:0:0:
192,192,20578,1,0,0:0:0:0:
448,192,20634,1,0,0:0:0:0:
192,192,20689,1,0,0:0:0:0:
320,192,20689,1,0,0:0:0:0:
64,192,20745,1,0,0:0:0:0:
448,192,20801,1,0,0:0:0:0:
192,192,20856,1,0,0:0:0:0:
320,192,20856,1,0,0:0:0:0:
64,192,20912,1,0,0:0:0:0:
320,192,20968,1,0,0:0:0:0:
192,192,21022,1,0,0:0:0:0:
448,192,21022,1,0,0:0:0:0:
64,192,21078,1,0,0:0:0:0:
320,192,21134,1,0,0:0:0:0:
448,192,21189,1,0,0:0:0:0:
64,192,21245,1,0,0:0:0:0:
320,192,21301,1,0,0:0:0:0:
64,192,21356,1,0,0:0:0:0:
192,192,21356,1,0,0:0:0:0:
448,192,21412,1,0,0:0:0:0:
320,192,21468,1,0,0:0:0:0:
64,192,21522,1,0,0:0:0:0:
192,192,21578,1,0,0:0:0:0:
320,192,21634,1,0,0:0:0:0:
64,192,21689,1,0,0:0:0:0:
448,192,21689,1,0,0:0:0:0:
192,192,21745,1,0,0:0:0:0:
448,192,21801,1,0,0:0:0:0:
320,192,21856,1,0,0:0:0:0:
192,192,21912,1,0,0:0:0:0:
448,192,21968,1,0,0:0:0:0:
64,192,22022,1,0,0:0:0:0:
320,192,22022,1,0,0:0:0:0:
192,192,22078,1,0,0:0:0:0:
448,192,22134,1,0,0:0:0:0:
320,192,22189,1,0,0:0:0:0:
64,192,22245,1,0,0:0:0:0:
320,192,22301,1,0,0:0:0:0:
192,192,22356,1,0,0:0:0:0:
448,192,22356,1,0,0:0:0:0:
64,192,22412,1,0,0:0:0:0:
320,192,22468,1,0,0:0:0:0:
64,192,22522,1,0,0:0:0:0:
448,192,22522,1,0,0:0:0:0:
192,192,22578,1,0,0:0:0:0:
320,192,22634,1,0,0:0:0:0:
64,192,22689,1,0,0:0:0:0:
448,192,22689,1,0,0:0:0:0:
192,192,22745,1,0,0:0:0:0:
64,192,22801,1,0,0:0:0:0:
320,192,22856,1,0,0:0:0:0:
448,192,22856,1,0,0:0:0:0:
192,192,22912,1,0,0:0:0:0:
448,192,22968,1,0,0:0:0:0:
64,192,23022,1,0,0:0:0:0:
320,192,23022,1,0,0:0:0:0:
192,192,23078,1,0,0:0:0:0:
320,192,23134,1,0,0:0:0:0:
64,192,23189,1,0,0:0:0:0:
448,192,23189,1,0,0:0:0:0:
192,192,23245,1,0,0:0:0:0:
64,192,23301,1,0,0:0:0:0:
320,192,23356,1,0,0:0:0:0:
448,192,23356,1,0,0:0:0:0:
192,192,23412,1,0,0:0:0:0:
448,192,23468,1,0,0:0:0:0:
320,192,23522,1,0,0:0:0:0:
192,192,23578,1,0,0:0:0:0:
64,192,23634,1,0,0:0:0:0:
320,192,23689,1,0,0:0:0:0:
448,192,23689,1,0,0:0:0:0:
192,192,23745,1,0,0:0:0:0:
64,192,23801,1,0,0:0:0:0:
448,192,23856,1,0,0:0:0:0:
320,192,23912,1,0,0:0:0:0:
64,192,23968,1,0,0:0:0:0:
192,192,24022,1,0,0:0:0:0:
320,192,24022,1,0,0:0:0:0:
448,192,24078,1,0,0:0:0:0:
64,192,24134,1,0,0:0:0:0:
320,192,24189,1,0,0:0:0:0:
448,192,24245,1,0,0:0:0:0:
192,192,24301,1,0,0:0:0:0:
320,192,24356,1,0,0:0:0:0:
448,192,24356,1,0,0:0:0:0:
64,192,24412,1,0,0:0:0:0:
192,192,24468,1,0,0:0:0:0:
448,192,24522,1,0,0:0:0:0:
320,192,24578,1,0,0:0:0:0:
192,192,24634,1,0,0:0:0:0:
64,192,24689,1,0,0:0:0:0:
320,192,24689,1,0,0:0:0:0:
448,192,24745,1,0,0:0:0:0:
320,192,24801,1,0,0:0:0:0:
192,192,24856,1,0,0:0:0:0:
448,192,24856,1,0,0:0:0:0:
64,192,24912,1,0,0:0:0:0:
320,192,24968,1,0,0:0:0:0:
192,192,25022,1,0,0:0:0:0:
448,192,25022,1,0,0:0:0:0:
64,192,25078,1,0,0:0:0:0:
192,192,25134,1,0,0:0:0:0:
64,192,25189,1,0,0:0:0:0:
320,192,25189,1,0,0:0:0:0:
448,192,25245,1,0,0:0:0:0:
64,192,25301,1,0,0:0:0:0:
192,192,25356,1,0,0:0:0:0:
320,192,25356,1,0,0:0:0:0:
448,192,25412,1,0,0:0:0:0:
320,192,25468,1,0,0:0:0:0:
64,192,25522,1,0,0:0:0:0:
192,192,25522,1,0,0:0:0:0:
448,192,25578,1,0,0:0:0:0:
320,192,25634,1,0,0:0:0:0:
192,192,25689,1,0,0:0:0:0:
448,192,25689,1,0,0:0:0:0:
64,192,25745,1,0,0:0:0:0:
192,192,25801,1,0,0:0:0:0:
448,192,25856,1,0,0:0:0:0:
64,192,25912,1,0,0:0:0:0:
192,192,25968,1,0,0:0:0:0:
64,192,26022,1,0,0:0:0:0:
320,192,26022,1,0,0:0:0:0:
448,192,26078,1,0,0:0:0:0:
64,192,26134,1,0,0:0:0:0:
320,192,26189,1,0,0:0:0:0:
448,192,26245,1,0,0:0:0:0:
192,192,26301,1,0,0:0:0:0:
64,192,26356,1,0,0:0:0:0:
320,192,26356,1,0,0:0:0:0:
448,192,26412,1,0,0:0:0:0:
192,192,26468,1,0,0:0:0:0:
64,192,26522,1,0,0:0:0:0:
192,192,26578,1,0,0:0:0:0:
320,192,26634,1,0,0:0:0:0:
192,192,26689,1,0,0:0:0:0:
448,192,26689,1,0,0:0:0:0:
64,192,26745,1,0,0:0:0:0:
448,192,26801,1,0,0:0:0:0:
320,192,26856,1,0,0:0:0:0:
64,192,26912,1,0,0:0:0:0:
448,192,26968,1,0,0:0:0:0:
192,192,27022,1,0,0:0:0:0:
320,192,27022,1,0,0:0:0:0:
64,192,27078,1,0,0:0:0:0:
320,192,27134,1,0,0:0:0:0:
64,192,27189,1,0,0:0:0:0:
448,192,27189,1,0,0:0:0:0:
192,192,27245,1,0,0:0:0:0:
320,192,27301,1,0,0:0:0:0:
192,192,27356,1,0,0:0:0:0:
448,192,27356,1,0,0:0:0:0:
64,192,27412,1,0,0:0:0:0:
320,192,27468,1,0,0:0:0:0:
64,192,27522,1,0,0:0:0:0:
448,192,27522,1,0,0:0:0:0:
192,192,27578,1,0,0:0:0:0:
64,192,27634,1,0,0:0:0:0:
320,192,27689,1,0,0:0:0:0:
448,192,27689,1,0,0:0:0:0:
192,192,27745,1,0,0:0:0:0:
64,192,27801,1,0,0:0:0:0:
192,192,27856,1,0,0:0:0:0:
320,192,27856,1,0,0:0:0:0:
448,192,27912,1,0,0:0:0:0:
192,192,27968,1,0,0:0:0:0:
64,192,28022,1,0,0:0:0:0:
320,192,28022,1,0,0:0:0:0:
448,192,28078,1,0,0:0:0:0:
192,192,28134,1,0,0:0:0:0:
448,192,28189,1,0,0:0:0:0:
64,192,28245,1,0,0:0:0:0:
192,192,28301,1,0,0:0:0:0:
64,192,28356,1,0,0:0:0:0:
448,192,28356,1,0,0:0:0:0:
192,192,28412,1,0,0:0:0:0:
320,192,28439,1,0,0:0:0:0:
448,192,28468,1,0,0:0:0:0:
64,192,28522,1,0,0:0:0:0:
320,192,28578,1,0,0:0:0:0:
192,192,28634,1,0,0:0:0:0:
64,192,28689,1,0,0:0:0:0:
320,192,28689,1,0,0:0:0:0:
192,192,28745,1,0,0:0:0:0:
448,192,28772,1,0,0:0:0:0:
320,192,28801,1,0,0:0:0:0:
448,192,28856,1,0,0:0:0:0:
192,192,28912,1,0,0:0:0:0:
64,192,28968,1,0,0:0:0:0:
320,192,29022,1,0,0:0:0:0:
448,192,29022,1,0,0:0:0:0:
192,192,29106,1,0,0:0:0:0:
64,192,29134,1,0,0:0:0:0:
320,192,29189,1,0,0:0:0:0:
448,192,29189,1,0,0:0:0:0:
64,192,29245,1,0,0:0:0:0:
320,192,29301,1,0,0:0:0:0:
64,192,29356,1,0,0:0:0:0:
192,192,29356,1,0,0:0:0:0:
448,192,29412,1,0,0:0:0:0:
320,192,29468,1,0,0:0:0:0:
192,192,29522,1,0,0:0:0:0:
64,192,29578,1,0,0:0:0:0:
320,192,29634,1,0,0:0:0:0:
64,192,29689,1,0,0:0:0:0:
192,192,29689,1,0,0:0:0:0:
448,192,29745,1,0,0:0:0:0:
320,192,29801,1,0,0:0:0:0:
64,192,29856,1,0,0:0:0:0:
192,192,29912,1,0,0:0:0:0:
448,192,29968,1,0,0:0:0:0:
64,192,30022,1,0,0:0:0:0:
320,192,30022,1,0,0:0:0:0:
192,192,30078,1,0,0:0:0:0:
448,192,30134,1,0,0:0:0:0:
320,192,30189,1,0,0:0:0:0:
64,192,30245,1,0,0:0:0:0:
192,192,30301,1,0,0:0:0:0:
320,192,30356,1,0,0:0:0:0:
448,192,30356,1,0,0:0:0:0:
64,192,30412,1,0,0:0:0:0:
192,192,30468,1,0,0:0:0:0:
320,192,30522,1,0,0:0:0:0:
448,192,30578,1,0,0:0:0:0:
192,192,30634,1,0,0:0:0:0:
64,192,30689,1,0,0:0:0:0:
448,192,30689,1,0,0:0:0:0:
320,192,30745,1,0,0:0:0:0:
64,192,30801,1,0,0:0:0:0:
192,192,30856,1,0,0:0:0:0:
448,192,30856,1,0,0:0:0:0:
320,192,30912,1,0,0:0:0:0:
64,192,30968,1,0,0:0:0:0:
192,192,31022,1,0,0:0:0:0:
320,192,31022,1,0,0:0:0:0:
448,192,31078,1,0,0:0:0:0:
320,192,31134,1,0,0:0:0:0:
64,192,31189,1,0,0:0:0:0:
192,192,31189,1,0,0:0:0:0:
448,192,31245,1,0,0:0:0:0:
320,192,31301,1,0,0:0:0:0:
64,192,31356,1,0,0:0:0:0:
192,192,31356,1,0,0:0:0:0:
320,192,31412,1,0,0:0:0:0:
448,192,31468,1,0,0:0:0:0:
64,192,31522,1,0,0:0:0:0:
320,192,31522,1,0,0:0:0:0:
192,192,31578,1,0,0:0:0:0:
448,192,31634,1,0,0:0:0:0:
64,192,31689,1,0,0:0:0:0:
320,192,31689,1,0,0:0:0:0:
192,192,31745,1,0,0:0:0:0:
448,192,31801,1,0,0:0:0:0:
64,192,31856,1,0,0:0:0:0:
192,192,31912,1,0,0:0:0:0:
448,192,31968,1,0,0:0:0:0:
192,192,32022,1,0,0:0:0:0:
320,192,32022,1,0,0:0:0:0:
64,192,32078,1,0,0:0:0:0:
448,192,32134,1,0,0:0:0:0:
320,192,32189,1,0,0:0:0:0:
192,192,32245,1,0,0:0:0:0:
64,192,32301,1,0,0:0:0:0:
320,192,32356,1,0,0:0:0:0:
448,192,32356,1,0,0:0:0:0:
192,192,32412,1,0,0:0:0:0:
448,192,32468,1,0,0:0:0:0:
64,192,32522,1,0,0:0:0:0:
320,192,32578,1,0,0:0:0:0:
192,192,32634,1,0,0:0:0:0:
64,192,32689,1,0,0:0:0:0:
448,192,32689,1,0,0:0:0:0:
320,192,32745,1,0,0:0:0:0:
448,192,32801,1,0,0:0:0:0:
192,192,32856,1,0,0:0:0:0:
64,192,32912,1,0,0:0:0:0:
448,192,32968,1,0,0:0:0:0:
64,192,33022,1,0,0:0:0:0:
320,192,33022,1,0,0:0:0:0:
192,192,33078,1,0,0:0:0:0:
448,192,33134,1,0,0:0:0:0:
192,192,33189,1,0,0:0:0:0:
320,192,33189,1,0,0:0:0:0:
448,192,33245,1,0,0:0:0:0:
64,192,33301,1,0,0:0:0:0:
320,192,33356,1,0,0:0:0:0:
448,192,33356,1,0,0:0:0:0:
192,192,33412,1,0,0:0:0:0:
64,192,33468,1,0,0:0:0:0:
192,192,33522,1,0,0:0:0:0:
448,192,33522,1,0,0:0:0:0:
320,192,33578,1,0,0:0:0:0:
448,192,33634,1,0,0:0:0:0:
64,192,33689,1,0,0:0:0:0:
192,192,33689,1,0,0:0:0:0:
320,192,33745,1,0,0:0:0:0:
448,192,33801,1,0,0:0:0:0:
64,192,33856,1,0,0:0:0:0:
320,192,33856,1,0,0:0:0:0:
192,192,33912,1,0,0:0:0:0:
448,192,33968,1,0,0:0:0:0:
192,192,34022,1,0,0:0:0:0:
320,192,34022,1,0,0:0:0:0:
64,192,34078,1,0,0:0:0:0:
192,192,34134,1,0,0:0:0:0:
448,192,34189,1,0,0:0:0:0:
64,192,34245,1,0,0:0:0:0:
192,192,34301,1,0,0:0:0:0:
64,192,34356,1,0,0:0:0:0:
448,192,34356,1,0,0:0:0:0:
320,192,34412,1,0,0:0:0:0:
448,192,34468,1,0,0:0:0:0:
320,192,34522,1,0,0:0:0:0:
64,192,34578,1,0,0:0:0:0:
192,192,34634,1,0,0:0:0:0:
64,192,34689,1,0,0:0:0:0:
320,192,34689,1,0,0:0:0:0:
448,192,34745,1,0,0:0:0:0:
192,192,34801,1,0,0:0:0:0:
320,192,34856,1,0,0:0:0:0:
448,192,34912,1,0,0:0:0:0:
192,192,34968,1,0,0:0:0:0:
64,192,35022,1,0,0:0:0:0:
320,192,35022,1,0,0:0:0:0:
192,192,35078,1,0,0:0:0:0:
448,192,35134,1,0,0:0:0:0:
320,192,35189,1,0,0:0:0:0:
64,192,35245,1,0,0:0:0:0:
448,192,35301,1,0,0:0:0:0:
64,192,35356,1,0,0:0:0:0:
192,192,35356,1,0,0:0:0:0:
320,192,35412,1,0,0:0:0:0:
448,192,35468,1,0,0:0:0:0:
64,192,35522,1,0,0:0:0:0:
320,192,35522,1,0,0:0:0:0:
192,192,35578,1,0,0:0:0:0:
448,192,35634,1,0,0:0:0:0:
64,192,35690,1,0,0:0:0:0:
192,192,35690,1,0,0:0:0:0:
320,192,35745,1,0,0:0:0:0:
448,192,35801,1,0,0:0:0:0:
64,192,35857,1,0,0:0:0:0:
320,192,35857,1,0,0:0:0:0:
192,192,35912,1,0,0:0:0:0:
448,192,35968,1,0,0:0:0:0:
192,192,36023,1,0,0:0:0:0:
320,192,36023,1,0,0:0:0:0:
64,192,36078,1,0,0:0:0:0:
192,192,36134,1,0,0:0:0:0:
320,192,36190,1,0,0:0:0:0:
448,192,36190,1,0,0:0:0:0:
192,192,36245,1,0,0:0:0:0:
448,192,36301,1,0,0:0:0:0:
64,192,36357,1,0,0:0:0:0:
320,192,36357,1,0,0:0:0:0:
192,192,36412,1,0,0:0:0:0:
448,192,36468,1,0,0:0:0:0:
320,192,36523,1,0,0:0:0:0:
192,192,36578,1,0,0:0:0:0:
448,192,36634,1,0,0:0:0:0:
192,192,36690,1,0,0:0:0:0:
320,192,36690,1,0,0:0:0:0:
64,192,36745,1,0,0:0:0:0:
192,192,36801,1,0,0:0:0:0:
448,192,36857,1,0,0:0:0:0:
64,192,36912,1,0,0:0:0:0:
320,192,36968,1,0,0:0:0:0:
192,192,37023,1,0,0:0:0:0:
448,192,37023,1,0,0:0:0:0:
64,192,37078,1,0,0:0:0:0:
320,192,37134,1,0,0:0:0:0:
448,192,37190,1,0,0:0:0:0:
64,192,37245,1,0,0:0:0:0:
320,192,37301,1,0,0:0:0:0:
64,192,37357,1,0,0:0:0:0:
192,192,37357,1,0,0:0:0:0:
448,192,37412,1,0,0:0:0:0:
320,192,37468,1,0,0:0:0:0:
64,192,37523,1,0,0:0:0:0:
192,192,37578,1,0,0:0:0:0:
320,192,37634,1,0,0:0:0:0:
192,192,37690,1,0,0:0:0:0:
448,192,37690,1,0,0:0:0:0:
64,192,37745,1,0,0:0:0:0:
320,192,37801,1,0,0:0:0:0:
64,192,37857,1,0,0:0:0:0:
192,192,37857,1,0,0:0:0:0:
448,192,37912,1,0,0:0:0:0:
320,192,37968,1,0,0:0:0:0:
64,192,38023,1,0,0:0:0:0:
448,192,38023,1,0,0:0:0:0:
192,192,38078,1,0,0:0:0:0:
320,192,38134,1,0,0:0:0:0:
64,192,38190,1,0,0:0:0:0:
448,192,38190,1,0,0:0:0:0:
192,192,38245,1,0,0:0:0:0:
64,192,38301,1,0,0:0:0:0:
192,192,38357,1,0,0:0:0:0:
448,192,38357,1,0,0:0:0:0:
320,192,38412,1,0,0:0:0:0:
448,192,38468,1,0,0:0:0:0:
192,192,38523,1,0,0:0:0:0:
320,192,38523,1,0,0:0:0:0:
64,192,38578,1,0,0:0:0:0:
320,192,38634,1,0,0:0:0:0:
64,192,38690,1,0,0:0:0:0:
192,192,38690,1,0,0:0:0:0:
448,192,38745,1,0,0:0:0:0:
192,192,38801,1,0,0:0:0:0:
320,192,38857,1,0,0:0:0:0:
448,192,38857,1,0,0:0:0:0:
64,192,38912,1,0,0:0:0:0:
320,192,38968,1,0,0:0:0:0:
192,192,39023,1,0,0:0:0:0:
448,192,39023,1,0,0:0:0:0:
320,192,39078,1,0,0:0:0:0:
64,192,39190,1,0,0:0:0:0:
192,192,39190,1,0,0:0:0:0:
320,192,39245,1,0,0:0:0:0:
448,192,39301,1,0,0:0:0:0:
64,192,39357,1,0,0:0:0:0:
192,192,39357,1,0,0:0:0:0:
320,192,39412,1,0,0:0:0:0:
448,192,39440,1,0,0:0:0:0:
192,192,39468,1,0,0:0:0:0:
64,192,39523,1,0,0:0:0:0:
320,192,39578,1,0,0:0:0:0:
64,192,39607,1,0,0:0:0:0:
448,192,39634,1,0,0:0:0:0:
192,192,39690,1,0,0:0:0:0:
320,192,39690,1,0,0:0:0:0:
64,192,39745,1,0,0:0:0:0:
192,192,39773,1,0,0:0:0:0:
320,192,39801,1,0,0:0:0:0:
64,192,39857,1,0,0:0:0:0:
448,192,39857,1,0,0:0:0:0:
192,192,39912,1,0,0:0:0:0:
448,192,39940,1,0,0:0:0:0:
320,192,39968,1,0,0:0:0:0:
64,192,40023,1,0,0:0:0:0:
192,192,40023,1,0,0:0:0:0:
320,192,40065,1,0,0:0:0:0:
448,192,40107,1,0,0:0:0:0:
320,192,40148,1,0,0:0:0:0:
192,192,40190,1,0,0:0:0:0:
64,192,40232,1,0,0:0:0:0:
448,192,40273,1,0,0:0:0:0:
320,192,40315,1,0,0:0:0:0:
192,192,40357,1,0,0:0:0:0:
448,192,40357,1,0,0:0:0:0:
320,192,40398,1,0,0:0:0:0:
64,192,40440,1,0,0:0:0:0:
192,192,40482,1,0,0:0:0:0:
320,192,40523,1,0,0:0:0:0:
448,192,40565,1,0,0:0:0:0:
192,192,40607,1,0,0:0:0:0:
64,192,40648,1,0,0:0:0:0:
320,192,40690,1,0,0:0:0:0:
448,192,40690,1,0,0:0:0:0:
192,192,40732,1,0,0:0:0:0:
320,192,40773,1,0,0:0:0:0:
448,192,40815,1,0,0:0:0:0:
64,192,40857,1,0,0:0:0:0:
192,192,40898,1,0,0:0:0:0:
320,192,40940,1,0,0:0:0:0:
448,192,40982,1,0,0:0:0:0:
192,192,41023,1,0,0:0:0:0:
320,192,41023,1,0,0:0:0:0:
64,192,41065,1,0,0:0:0:0:
448,192,41107,1,0,0:0:0:0:
320,192,41148,1,0,0:0:0:0:
64,192,41190,1,0,0:0:0:0:
192,192,41232,1,0,0:0:0:0:
320,192,41273,1,0,0:0:0:0:
448,192,41315,1,0,0:0:0:0:
64,192,41357,1,0,0:0:0:0:
192,192,41357,1,0,0:0:0:0:
320,192,41398,1,0,0:0:0:0:
64,192,41440,1,0,0:0:0:0:
448,192,41440,1,0,0:0:0:0:
192,192,41482,1,0,0:0:0:0:
320,192,41523,1,0,0:0:0:0:
64,192,41565,1,0,0:0:0:0:
192,192,41607,1,0,0:0:0:0:
448,192,41648,1,0,0:0:0:0:
64,192,41690,1,0,0:0:0:0:
320,192,41690,1,0,0:0:0:0:
192,192,41732,1,0,0:0:0:0:
448,192,41773,1,0,0:0:0:0:
64,192,41815,1,0,0:0:0:0:
320,192,41857,1,0,0:0:0:0:
192,192,41898,1,0,0:0:0:0:
448,192,41940,1,0,0:0:0:0:
64,192,41982,1,0,0:0:0:0:
192,192,42023,1,0,0:0:0:0:
320,192,42023,1,0,0:0:0:0:
448,192,42065,1,0,0:0:0:0:
64,192,42107,1,0,0:0:0:0:
192,192,42148,1,0,0:0:0:0:
320,192,42190,1,0,0:0:0:0:
448,192,42232,1,0,0:0:0:0:
64,192,42273,1,0,0:0:0:0:
320,192,42315,1,0,0:0:0:0:
192,192,42357,1,0,0:0:0:0:
448,192,42357,1,0,0:0:0:0:
64,192,42398,1,0,0:0:0:0:
320,192,42440,1,0,0:0:0:0:
192,192,42482,1,0,0:0:0:0:
448,192,42523,1,0,0:0:0:0:
320,192,42565,1,0,0:0:0:0:
192,192,42607,1,0,0:0:0:0:
64,192,42648,1,0,0:0:0:0:
320,192,42690,1,0,0:0:0:0:
448,192,42690,1,0,0:0:0:0:
192,192,42732,1,0,0:0:0:0:
64,192,42773,1,0,0:0:0:0:
320,192,42815,1,0,0:0:0:0:
448,192,42857,1,0,0:0:0:0:
192,192,42898,1,0,0:0:0:0:
320,192,42940,1,0,0:0:0:0:
448,192,42982,1,0,0:0:0:0:
64,192,43023,1,0,0:0:0:0:
192,192,43023,1,0,0:0:0:0:
320,192,43065,1,0,0:0:0:0:
448,192,43107,1,0,0:0:0:0:
64,192,43148,1,0,0:0:0:0:
192,192,43190,1,0,0:0:0:0:
320,192,43232,1,0,0:0:0:0:
448,192,43273,1,0,0:0:0:0:
192,192,43315,1,0,0:0:0:0:
64,192,43357,1,0,0:0:0:0:
320,192,43357,1,0,0:0:0:0:
448,192,43398,1,0,0:0:0:0:
192,192,43440,1,0,0:0:0:0:
320,192,43482,1,0,0:0:0:0:
64,192,43523,1,0,0:0:0:0:
448,192,43565,1,0,0:0:0:0:
320,192,43607,1,0,0:0:0:0:
192,192,43648,1,0,0:0:0:0:
64,192,43690,1,0,0:0:0:0:
448,192,43690,1,0,0:0:0:0:
320,192,43732,1,0,0:0:0:0:
192,192,43773,1,0,0:0:0:0:
448,192,43815,1,0,0:0:0:0:
64,192,43857,1,0,0:0:0:0:
448,192,43857,1,0,0:0:0:0:
192,192,43898,1,0,0:0:0:0:
320,192,43940,1,0,0:0:0:0:
64,192,43982,1,0,0:0:0:0:
192,192,44023,1,0,0:0:0:0:
448,192,44023,1,0,0:0:0:0:
320,192,44065,1,0,0:0:0:0:
64,192,44107,1,0,0:0:0:0:
192,192,44148,1,0,0:0:0:0:
448,192,44190,1,0,0:0:0:0:
64,192,44232,1,0,0:0:0:0:
192,192,44273,1,0,0:0:0:0:
320,192,44315,1,0,0:0:0:0:
64,192,44357,1,0,0:0:0:0:
448,192,44357,1,0,0:0:0:0:
192,192,44398,1,0,0:0:0:0:
320,192,44440,1,0,0:0:0:0:
64,192,44482,1,0,0:0:0:0:
192,192,44523,1,0,0:0:0:0:
448,192,44565,1,0,0:0:0:0:
320,192,44607,1,0,0:0:0:0:
192,192,44648,1,0,0:0:0:0:
64,192,44690,1,0,0:0:0:0:
320,192,44690,1,0,0:0:0:0:
448,192,44732,1,0,0:0:0:0:
320,192,44773,1,0,0:0:0:0:
64,192,44815,1,0,0:0:0:0:
192,192,44857,1,0,0:0:0:0:
320,192,44898,1,0,0:0:0:0:
448,192,44940,1,0,0:0:0:0:
192,192,44982,1,0,0:0:0:0:
64,192,45023,1,0,0:0:0:0:
320,192,45023,1,0,0:0:0:0:
448,192,45065,1,0,0:0:0:0:
192,192,45107,1,0,0:0:0:0:
64,192,45148,1,0,0:0:0:0:
320,192,45190,1,0,0:0:0:0:
448,192,45232,1,0,0:0:0:0:
192,192,45273,1,0,0:0:0:0:
320,192,45315,1,0,0:0:0:0:
64,192,45357,1,0,0:0:0:0:
448,192,45357,1,0,0:0:0:0:
320,192,45398,1,0,0:0:0:0:
192,192,45440,1,0,0:0:0:0:
64,192,45482,1,0,0:0:0:0:
448,192,45523,1,0,0:0:0:0:
320,192,45565,1,0,0:0:0:0:
192,192,45607,1,0,0:0:0:0:
448,192,45648,1,0,0:0:0:0:
64,192,45690,1,0,0:0:0:0:
320,192,45690,1,0,0:0:0:0:
192,192,45732,1,0,0:0:0:0:
448,192,45773,1,0,0:0:0:0:
64,192,45815,1,0,0:0:0:0:
320,192,45857,1,0,0:0:0:0:
192,192,45898,1,0,0:0:0:0:
448,192,45940,1,0,0:0:0:0:
320,192,45982,1,0,0:0:0:0:
64,192,46023,1,0,0:0:0:0:
192,192,46023,1,0,0:0:0:0:
448,192,46065,1,0,0:0:0:0:
320,192,46107,1,0,0:0:0:0:
192,192,46148,1,0,0:0:0:0:
64,192,46190,1,0,0:0:0:0:
320,192,46232,1,0,0:0:0:0:
192,192,46273,1,0,0:0:0:0:
448,192,46273,1,0,0:0:0:0:
64,192,46315,1,0,0:0:0:0:
192,192,46357,1,0,0:0:0:0:
320,192,46357,1,0,0:0:0:0:
448,192,46398,1,0,0:0:0:0:
320,192,46440,1,0,0:0:0:0:
192,192,46482,1,0,0:0:0:0:
64,192,46523,1,0,0:0:0:0:
448,192,46565,1,0,0:0:0:0:
192,192,46607,1,0,0:0:0:0:
320,192,46648,1,0,0:0:0:0:
64,192,46690,1,0,0:0:0:0:
448,192,46690,1,0,0:0:0:0:
192,192,46732,1,0,0:0:0:0:
320,192,46773,1,0,0:0:0:0:
448,192,46773,1,0,0:0:0:0:
64,192,46815,1,0,0:0:0:0:
320,192,46857,1,0,0:0:0:0:
192,192,46898,1,0,0:0:0:0:
320,192,46940,1,0,0:0:0:0:
64,192,46982,1,0,0:0:0:0:
192,192,47023,1,0,0:0:0:0:
448,192,47023,1,0,0:0:0:0:
320,192,47065,1,0,0:0:0:0:
64,192,47107,1,0,0:0:0:0:
448,192,47148,1,0,0:0:0:0:
320,192,47190,1,0,0:0:0:0:
192,192,47232,1,0,0:0:0:0:
64,192,47273,1,0,0:0:0:0:
448,192,47315,1,0,0:0:0:0:
192,192,47357,1,0,0:0:0:0:
320,192,47357,1,0,0:0:0:0:
64,192,47398,1,0,0:0:0:0:
448,192,47440,1,0,0:0:0:0:
320,192,47482,1,0,0:0:0:0:
64,192,47523,1,0,0:0:0:0:
192,192,47565,1,0,0:0:0:0:
320,192,47607,1,0,0:0:0:0:
448,192,47648,1,0,0:0:0:0:
64,192,47690,1,0,0:0:0:0:
192,192,47690,1,0,0:0:0:0:
320,192,47732,1,0,0:0:0:0:
448,192,47773,1,0,0:0:0:0:
192,192,47815,1,0,0:0:0:0:
64,192,47857,1,0,0:0:0:0:
320,192,47898,1,0,0:0:0:0:
448,192,47940,1,0,0:0:0:0:
64,192,47982,1,0,0:0:0:0:
192,192,48023,1,0,0:0:0:0:
320,192,48023,1,0,0:0:0:0:
448,192,48065,1,0,0:0:0:0:
64,192,48107,1,0,0:0:0:0:
320,192,48107,1,0,0:0:0:0:
192,192,48148,1,0,0:0:0:0:
64,192,48190,1,0,0:0:0:0:
320,192,48232,1,0,0:0:0:0:
448,192,48273,1,0,0:0:0:0:
192,192,48315,1,0,0:0:0:0:
64,192,48357,1,0,0:0:0:0:
448,192,48357,1,0,0:0:0:0:
320,192,48398,1,0,0:0:0:0:
192,192,48440,1,0,0:0:0:0:
64,192,48482,1,0,0:0:0:0:
448,192,48523,1,0,0:0:0:0:
320,192,48565,1,0,0:0:0:0:
64,192,48607,1,0,0:0:0:0:
192,192,48648,1,0,0:0:0:0:
320,192,48690,1,0,0:0:0:0:
448,192,48690,1,0,0:0:0:0:
448,192,48773,1,0,0:0:0:0:
64,192,48815,1,0,0:0:0:0:
192,192,48857,1,0,0:0:0:0:
320,192,48898,1,0,0:0:0:0:
64,192,48940,1,0,0:0:0:0:
448,192,48940,1,0,0:0:0:0:
192,192,48982,1,0,0:0:0:0:
64,192,49023,1,0,0:0:0:0:
320,192,49023,1,0,0:0:0:0:
448,192,49065,1,0,0:0:0:0:
192,192,49107,1,0,0:0:0:0:
64,192,49148,1,0,0:0:0:0:
320,192,49190,1,0,0:0:0:0:
448,192,49232,1,0,0:0:0:0:
192,192,49273,1,0,0:0:0:0:
64,192,49315,1,0,0:0:0:0:
320,192,49357,1,0,0:0:0:0:
448,192,49357,1,0,0:0:0:0:
192,192,49398,1,0,0:0:0:0:
64,192,49440,1,0,0:0:0:0:
192,192,49482,1,0,0:0:0:0:
64,192,49523,1,0,0:0:0:0:
320,192,49523,1,0,0:0:0:0:
448,192,49523,1,0,0:0:0:0:
192,192,49565,1,0,0:0:0:0:
320,192,49607,1,0,0:0:0:0:
448,192,49648,1,0,0:0:0:0:
64,192,49690,1,0,0:0:0:0:
320,192,49690,1,0,0:0:0:0:
192,192,49732,1,0,0:0:0:0:
64,192,49773,1,0,0:0:0:0:
320,192,49773,1,0,0:0:0:0:
448,192,49773,1,0,0:0:0:0:
192,192,49815,1,0,0:0:0:0:
448,192,49857,1,0,0:0:0:0:
320,192,49898,1,0,0:0:0:0:
64,192,49940,1,0,0:0:0:0:
192,192,49982,1,0,0:0:0:0:
64,192,50023,1,0,0:0:0:0:
320,192,50023,1,0,0:0:0:0:
448,192,50023,1,0,0:0:0:0:
192,192,50065,1,0,0:0:0:0:
448,192,50107,1,0,0:0:0:0:
64,192,50148,1,0,0:0:0:0:
320,192,50148,1,0,0:0:0:0:
192,192,50190,1,0,0:0:0:0:
448,192,50232,1,0,0:0:0:0:
64,192,50273,1,0,0:0:0:0:
192,192,50357,1,0,0:0:0:0:
448,192,50398,1,0,0:0:0:0:
320,192,50440,1,0,0:0:0:0:
64,192,50482,1,0,0:0:0:0:
192,192,50523,1,0,0:0:0:0:
64,192,50565,1,0,0:0:0:0:
320,192,50607,1,0,0:0:0:0:
448,192,50648,1,0,0:0:0:0:
64,192,50690,1,0,0:0:0:0:
192,192,50732,1,0,0:0:0:0:
320,192,50773,1,0,0:0:0:0:
448,192,50815,1,0,0:0:0:0:
192,192,50857,1,0,0:0:0:0:
64,192,50898,1,0,0:0:0:0:
320,192,50940,1,0,0:0:0:0:
448,192,50982,1,0,0:0:0:0:
64,192,51023,1,0,0:0:0:0:
192,192,51065,1,0,0:0:0:0:
320,192,51107,1,0,0:0:0:0:
64,192,51148,1,0,0:0:0:0:
448,192,51190,1,0,0:0:0:0:
192,192,51232,1,0,0:0:0:0:
64,192,51273,1,0,0:0:0:0:
448,192,51315,1,0,0:0:0:0:
192,192,51357,1,0,0:0:0:0:
320,192,51398,1,0,0:0:0:0:
64,192,51440,1,0,0:0:0:0:
192,192,51482,1,0,0:0:0:0:
448,192,51523,1,0,0:0:0:0:
320,192,51565,1,0,0:0:0:0:
192,192,51607,1,0,0:0:0:0:
64,192,51648,1,0,0:0:0:0:
320,192,51690,1,0,0:0:0:0:
192,192,51732,1,0,0:0:0:0:
64,192,51773,1,0,0:0:0:0:
448,192,51815,1,0,0:0:0:0:
192,192,51857,1,0,0:0:0:0:
320,192,51898,1,0,0:0:0:0:
448,192,51940,1,0,0:0:0:0:
64,192,51982,1,0,0:0:0:0:
192,192,52023,1,0,0:0:0:0:
448,192,52065,1,0,0:0:0:0:
320,192,52107,1,0,0:0:0:0:
64,192,52148,1,0,0:0:0:0:
448,192,52190,1,0,0:0:0:0:
192,192,52232,1,0,0:0:0:0:
64,192,52273,1,0,0:0:0:0:
320,192,52315,1,0,0:0:0:0:
192,192,52357,1,0,0:0:0:0:
320,192,52398,1,0,0:0:0:0:
448,192,52440,1,0,0:0:0:0:
64,192,52482,1,0,0:0:0:0:
320,192,52523,1,0,0:0:0:0:
192,192,52565,1,0,0:0:0:0:
448,192,52607,1,0,0:0:0:0:
320,192,52648,1,0,0:0:0:0:
192,192,52690,1,0,0:0:0:0:
64,192,52732,1,0,0:0:0:0:
192,192,52773,1,0,0:0:0:0:
320,192,52815,1,0,0:0:0:0:
64,192,52857,1,0,0:0:0:0:
448,192,52898,1,0,0:0:0:0:
192,192,52940,1,0,0:0:0:0:
64,192,52982,1,0,0:0:0:0:
448,192,53023,1,0,0:0:0:0:
320,192,53065,1,0,0:0:0:0:
192,192,53107,1,0,0:0:0:0:
64,192,53148,1,0,0:0:0:0:
320,192,53190,1,0,0:0:0:0:
448,192,53232,1,0,0:0:0:0:
192,192,53273,1,0,0:0:0:0:
320,192,53315,1,0,0:0:0:0:
64,192,53357,1,0,0:0:0:0:
192,192,53398,1,0,0:0:0:0:
448,192,53440,1,0,0:0:0:0:
64,192,53482,1,0,0:0:0:0:
192,192,53523,1,0,0:0:0:0:
320,192,53565,1,0,0:0:0:0:
448,192,53607,1,0,0:0:0:0:
192,192,53648,1,0,0:0:0:0:
320,192,53690,1,0,0:0:0:0:
64,192,53732,1,0,0:0:0:0:
448,192,53773,1,0,0:0:0:0:
320,192,53815,1,0,0:0:0:0:
64,192,53857,1,0,0:0:0:0:
192,192,53898,1,0,0:0:0:0:
448,192,53940,1,0,0:0:0:0:
64,192,53982,1,0,0:0:0:0:
192,192,54023,1,0,0:0:0:0:
320,192,54065,1,0,0:0:0:0:
448,192,54107,1,0,0:0:0:0:
64,192,54148,1,0,0:0:0:0:
320,192,54190,1,0,0:0:0:0:
64,192,54232,1,0,0:0:0:0:
448,192,54273,1,0,0:0:0:0:
192,192,54315,1,0,0:0:0:0:
320,192,54357,1,0,0:0:0:0:
64,192,54398,1,0,0:0:0:0:
192,192,54440,1,0,0:0:0:0:
448,192,54482,1,0,0:0:0:0:
64,192,54523,1,0,0:0:0:0:
192,192,54565,1,0,0:0:0:0:
448,192,54607,1,0,0:0:0:0:
320,192,54648,1,0,0:0:0:0:
64,192,54690,1,0,0:0:0:0:
192,192,54732,1,0,0:0:0:0:
448,192,54773,1,0,0:0:0:0:
64,192,54815,1,0,0:0:0:0:
192,192,54857,1,0,0:0:0:0:
320,192,54898,1,0,0:0:0:0:
448,192,54940,1,0,0:0:0:0:
64,192,54982,1,0,0:0:0:0:
192,192,55023,1,0,0:0:0:0:
320,192,55065,1,0,0:0:0:0:
64,192,55107,1,0,0:0:0:0:
448,192,55148,1,0,0:0:0:0:
192,192,55190,1,0,0:0:0:0:
320,192,55232,1,0,0:0:0:0:
448,192,55273,1,0,0:0:0:0:
64,192,55315,1,0,0:0:0:0:
320,192,55357,1,0,0:0:0:0:
192,192,55398,1,0,0:0:0:0:
64,192,55440,1,0,0:0:0:0:
448,192,55482,1,0,0:0:0:0:
320,192,55523,1,0,0:0:0:0:
64,192,55565,1,0,0:0:0:0:
192,192,55607,1,0,0:0:0:0:
448,192,55648,1,0,0:0:0:0:
64,192,55690,1,0,0:0:0:0:
320,192,55732,1,0,0:0:0:0:
192,192,55773,1,0,0:0:0:0:
64,192,55815,1,0,0:0:0:0:
320,192,55857,1,0,0:0:0:0:
448,192,55898,1,0,0:0:0:0:
192,192,55940,1,0,0:0:0:0:
64,192,55982,1,0,0:0:0:0:
448,192,56023,1,0,0:0:0:0:
320,192,56065,1,0,0:0:0:0:
64,192,56107,1,0,0:0:0:0:
448,192,56148,1,0,0:0:0:0:
320,192,56190,1,0,0:0:0:0:
192,192,56232,1,0,0:0:0:0:
64,192,56273,1,0,0:0:0:0:
320,192,56315,1,0,0:0:0:0:
448,192,56357,1,0,0:0:0:0:
64,192,56398,1,0,0:0:0:0:
192,192,56440,1,0,0:0:0:0:
448,192,56482,1,0,0:0:0:0:
64,192,56523,1,0,0:0:0:0:
320,192,56565,1,0,0:0:0:0:
192,192,56607,1,0,0:0:0:0:
448,192,56648,1,0,0:0:0:0:
320,192,56690,1,0,0:0:0:0:
64,192,56732,1,0,0:0:0:0:
448,192,56773,1,0,0:0:0:0:
192,192,56815,1,0,0:0:0:0:
320,192,56857,1,0,0:0:0:0:
64,192,56898,1,0,0:0:0:0:
192,192,56940,1,0,0:0:0:0:
320,192,56982,1,0,0:0:0:0:
192,192,57023,1,0,0:0:0:0:
448,192,57065,1,0,0:0:0:0:
64,192,57107,1,0,0:0:0:0:
192,192,57148,1,0,0:0:0:0:
448,192,57190,1,0,0:0:0:0:
320,192,57232,1,0,0:0:0:0:
64,192,57273,1,0,0:0:0:0:
448,192,57315,1,0,0:0:0:0:
320,192,57357,1,0,0:0:0:0:
192,192,57398,1,0,0:0:0:0:
64,192,57440,1,0,0:0:0:0:
320,192,57482,1,0,0:0:0:0:
192,192,57523,1,0,0:0:0:0:
448,192,57565,1,0,0:0:0:0:
64,192,57607,1,0,0:0:0:0:
320,192,57648,1,0,0:0:0:0:
192,192,57690,1,0,0:0:0:0:
448,192,57732,1,0,0:0:0:0:
320,192,57773,1,0,0:0:0:0:
64,192,57815,1,0,0:0:0:0:
192,192,57857,1,0,0:0:0:0:
448,192,57898,1,0,0:0:0:0:
320,192,57940,1,0,0:0:0:0:
64,192,57982,1,0,0:0:0:0:
448,192,58023,1,0,0:0:0:0:
192,192,58065,1,0,0:0:0:0:
320,192,58107,1,0,0:0:0:0:
448,192,58148,1,0,0:0:0:0:
192,192,58190,1,0,0:0:0:0:
64,192,58232,1,0,0:0:0:0:
320,192,58273,1,0,0:0:0:0:
192,192,58315,1,0,0:0:0:0:
64,192,58357,1,0,0:0:0:0:
448,192,58398,1,0,0:0:0:0:
320,192,58440,1,0,0:0:0:0:
64,192,58482,1,0,0:0:0:0:
448,192,58523,1,0,0:0:0:0:
192,192,58565,1,0,0:0:0:0:
320,192,58607,1,0,0:0:0:0:
64,192,58648,1,0,0:0:0:0:
448,192,58690,1,0,0:0:0:0:
320,192,58732,1,0,0:0:0:0:
192,192,58773,1,0,0:0:0:0:
64,192,58815,1,0,0:0:0:0:
448,192,58857,1,0,0:0:0:0:
192,192,58898,1,0,0:0:0:0:
320,192,58940,1,0,0:0:0:0:
64,192,58982,1,0,0:0:0:0:
192,192,59023,1,0,0:0:0:0:
320,192,59065,1,0,0:0:0:0:
448,192,59107,1,0,0:0:0:0:
64,192,59148,1,0,0:0:0:0:
192,192,59190,1,0,0:0:0:0:
448,192,59232,1,0,0:0:0:0:
320,192,59273,1,0,0:0:0:0:
64,192,59315,1,0,0:0:0:0:
192,192,59357,1,0,0:0:0:0:
448,192,59398,1,0,0:0:0:0:
320,192,59440,1,0,0:0:0:0:
192,192,59482,1,0,0:0:0:0:
64,192,59523,1,0,0:0:0:0:
448,192,59565,1,0,0:0:0:0:
192,192,59607,1,0,0:0:0:0:
320,192,59648,1,0,0:0:0:0:
64,192,59690,1,0,0:0:0:0:
192,192,59732,1,0,0:0:0:0:
320,192,59773,1,0,0:0:0:0:
448,192,59815,1,0,0:0:0:0:
64,192,59857,1,0,0:0:0:0:
192,192,59898,1,0,0:0:0:0:
320,192,59940,1,0,0:0:0:0:
448,192,59982,1,0,0:0:0:0:
192,192,60023,1,0,0:0:0:0:
64,192,60065,1,0,0:0:0:0:
448,192,60107,1,0,0:0:0:0:
320,192,60148,1,0,0:0:0:0:
64,192,60190,1,0,0:0:0:0:
192,192,60232,1,0,0:0:0:0:
448,192,60273,1,0,0:0:0:0:
320,192,60315,1,0,0:0:0:0:
192,192,60357,1,0,0:0:0:0:
64,192,60398,1,0,0:0:0:0:
448,192,60440,1,0,0:0:0:0:
320,192,60482,1,0,0:0:0:0:
192,192,60523,1,0,0:0:0:0:
64,192,60565,1,0,0:0:0:0:
448,192,60607,1,0,0:0:0:0:
320,192,60648,1,0,0:0:0:0:
192,192,60690,1,0,0:0:0:0:
64,192,60732,1,0,0:0:0:0:
448,192,60773,1,0,0:0:0:0:
320,192,60815,1,0,0:0:0:0:
64,192,60857,1,0,0:0:0:0:
448,192,60898,1,0,0:0:0:0:
192,192,60940,1,0,0:0:0:0:
320,192,60982,1,0,0:0:0:0:
64,192,61023,1,0,0:0:0:0:
192,192,61065,1,0,0:0:0:0:
448,192,61107,1,0,0:0:0:0:
320,192,61148,1,0,0:0:0:0:
64,192,61190,1,0,0:0:0:0:
192,192,61232,1,0,0:0:0:0:
448,192,61273,1,0,0:0:0:0:
320,192,61315,1,0,0:0:0:0:
64,192,61357,1,0,0:0:0:0:
192,192,61357,1,0,0:0:0:0:
448,192,61398,1,0,0:0:0:0:
320,192,61440,1,0,0:0:0:0:
64,192,61482,1,0,0:0:0:0:
192,192,61523,1,0,0:0:0:0:
448,192,61565,1,0,0:0:0:0:
320,192,61607,1,0,0:0:0:0:
64,192,61648,1,0,0:0:0:0:
192,192,61690,1,0,0:0:0:0:
448,192,61690,1,0,0:0:0:0:
320,192,61745,1,0,0:0:0:0:
64,192,61801,1,0,0:0:0:0:
192,192,61857,1,0,0:0:0:0:
448,192,61857,1,0,0:0:0:0:
320,192,61912,1,0,0:0:0:0:
192,192,61968,1,0,0:0:0:0:
64,192,62023,1,0,0:0:0:0:
448,192,62023,1,0,0:0:0:0:
192,192,62078,1,0,0:0:0:0:
320,192,62134,1,0,0:0:0:0:
64,192,62190,1,0,0:0:0:0:
192,192,62246,1,0,0:0:0:0:
448,192,62301,1,0,0:0:0:0:
64,192,62357,1,0,0:0:0:0:
192,192,62357,1,0,0:0:0:0:
320,192,62468,1,0,0:0:0:0:
64,192,62523,1,0,0:0:0:0:
448,192,62523,1,0,0:0:0:0:
192,192,62579,1,0,0:0:0:0:
320,192,62634,1,0,0:0:0:0:
64,192,62690,1,0,0:0:0:0:
448,192,62690,1,0,0:0:0:0:
192,192,62746,1,0,0:0:0:0:
320,192,62801,1,0,0:0:0:0:
448,192,62857,1,0,0:0:0:0:
64,192,62912,1,0,0:0:0:0:
192,192,62912,1,0,0:0:0:0:
448,192,62968,1,0,0:0:0:0:
64,192,63023,1,0,0:0:0:0:
320,192,63023,1,0,0:0:0:0:
192,192,63079,1,0,0:0:0:0:
448,192,63134,1,0,0:0:0:0:
320,192,63190,1,0,0:0:0:0:
192,192,63246,1,0,0:0:0:0:
64,192,63301,1,0,0:0:0:0:
192,192,63357,1,0,0:0:0:0:
448,192,63357,1,0,0:0:0:0:
320,192,63412,1,0,0:0:0:0:
64,192,63468,1,0,0:0:0:0:
192,192,63523,1,0,0:0:0:0:
320,192,63579,1,0,0:0:0:0:
64,192,63634,1,0,0:0:0:0:
192,192,63690,1,0,0:0:0:0:
320,192,63690,1,0,0:0:0:0:
448,192,63746,1,0,0:0:0:0:
64,192,63801,1,0,0:0:0:0:
320,192,63857,1,0,0:0:0:0:
448,192,63912,1,0,0:0:0:0:
192,192,63968,1,0,0:0:0:0:
64,192,64023,1,0,0:0:0:0:
320,192,64023,1,0,0:0:0:0:
448,192,64079,1,0,0:0:0:0:
192,192,64134,1,0,0:0:0:0:
64,192,64190,1,0,0:0:0:0:
320,192,64246,1,0,0:0:0:0:
192,192,64301,1,0,0:0:0:0:
64,192,64357,1,0,0:0:0:0:
448,192,64357,1,0,0:0:0:0:
320,192,64412,1,0,0:0:0:0:
192,192,64468,1,0,0:0:0:0:
448,192,64523,1,0,0:0:0:0:
320,192,64579,1,0,0:0:0:0:
64,192,64634,1,0,0:0:0:0:
192,192,64690,1,0,0:0:0:0:
448,192,64690,1,0,0:0:0:0:
320,192,64746,1,0,0:0:0:0:
64,192,64801,1,0,0:0:0:0:
192,192,64857,1,0,0:0:0:0:
448,192,64912,1,0,0:0:0:0:
64,192,64968,1,0,0:0:0:0:
192,192,65023,1,0,0:0:0:0:
320,192,65023,1,0,0:0:0:0:
448,192,65079,1,0,0:0:0:0:
64,192,65134,1,0,0:0:0:0:
192,192,65190,1,0,0:0:0:0:
320,192,65246,1,0,0:0:0:0:
448,192,65301,1,0,0:0:0:0:
192,192,65357,1,0,0:0:0:0:
320,192,65357,1,0,0:0:0:0:
64,192,65412,1,0,0:0:0:0:
320,192,65468,1,0,0:0:0:0:
448,192,65523,1,0,0:0:0:0:
192,192,65579,1,0,0:0:0:0:
64,192,65634,1,0,0:0:0:0:
192,192,65690,1,0,0:0:0:0:
448,192,65690,1,0,0:0:0:0:
320,192,65746,1,0,0:0:0:0:
448,192,65801,1,0,0:0:0:0:
64,192,65857,1,0,0:0:0:0:
192,192,65912,1,0,0:0:0:0:
448,192,65968,1,0,0:0:0:0:
192,192,66023,1,0,0:0:0:0:
320,192,66023,1,0,0:0:0:0:
64,192,66079,1,0,0:0:0:0:
448,192,66134,1,0,0:0:0:0:
192,192,66190,1,0,0:0:0:0:
320,192,66246,1,0,0:0:0:0:
192,192,66301,1,0,0:0:0:0:
64,192,66357,1,0,0:0:0:0:
448,192,66357,1,0,0:0:0:0:
320,192,66412,1,0,0:0:0:0:
192,192,66468,1,0,0:0:0:0:
320,192,66523,1,0,0:0:0:0:
64,192,66578,1,0,0:0:0:0:
448,192,66634,1,0,0:0:0:0:
192,192,66690,1,0,0:0:0:0:
320,192,66690,1,0,0:0:0:0:
64,192,66745,1,0,0:0:0:0:
448,192,66801,1,0,0:0:0:0:
192,192,66857,1,0,0:0:0:0:
320,192,66912,1,0,0:0:0:0:
448,192,66968,1,0,0:0:0:0:
64,192,67023,1,0,0:0:0:0:
320,192,67023,1,0,0:0:0:0:
192,192,67078,1,0,0:0:0:0:
448,192,67134,1,0,0:0:0:0:
192,192,67190,1,0,0:0:0:0:
320,192,67245,1,0,0:0:0:0:
64,192,67301,1,0,0:0:0:0:
192,192,67357,1,0,0:0:0:0:
448,192,67357,1,0,0:0:0:0:
320,192,67412,1,0,0:0:0:0:
64,192,67468,1,0,0:0:0:0:
320,192,67523,1,0,0:0:0:0:
192,192,67578,1,0,0:0:0:0:
448,192,67634,1,0,0:0:0:0:
192,192,67690,1,0,0:0:0:0:
320,192,67690,1,0,0:0:0:0:
64,192,67745,1,0,0:0:0:0:
192,192,67801,1,0,0:0:0:0:
448,192,67857,1,0,0:0:0:0:
320,192,67912,1,0,0:0:0:0:
192,192,67968,1,0,0:0:0:0:
64,192,68023,1,0,0:0:0:0:
448,192,68023,1,0,0:0:0:0:
320,192,68078,1,0,0:0:0:0:
192,192,68134,1,0,0:0:0:0:
320,192,68190,1,0,0:0:0:0:
64,192,68245,1,0,0:0:0:0:
192,192,68301,1,0,0:0:0:0:
320,192,68357,1,0,0:0:0:0:
448,192,68357,1,0,0:0:0:0:
64,192,68412,1,0,0:0:0:0:
192,192,68468,1,0,0:0:0:0:
448,192,68523,1,0,0:0:0:0:
320,192,68578,1,0,0:0:0:0:
64,192,68634,1,0,0:0:0:0:
192,192,68690,1,0,0:0:0:0:
448,192,68690,1,0,0:0:0:0:
320,192,68745,1,0,0:0:0:0:
64,192,68801,1,0,0:0:0:0:
448,192,68857,1,0,0:0:0:0:
192,192,68912,1,0,0:0:0:0:
320,192,68968,1,0,0:0:0:0:
64,192,69023,1,0,0:0:0:0:
192,192,69023,1,0,0:0:0:0:
448,192,69078,1,0,0:0:0:0:
320,192,69134,1,0,0:0:0:0:
192,192,69190,1,0,0:0:0:0:
64,192,69245,1,0,0:0:0:0:
448,192,69301,1,0,0:0:0:0:
192,192,69357,1,0,0:0:0:0:
320,192,69357,1,0,0:0:0:0:
64,192,69412,1,0,0:0:0:0:
448,192,69468,1,0,0:0:0:0:
320,192,69523,1,0,0:0:0:0:
192,192,69578,1,0,0:0:0:0:
448,192,69634,1,0,0:0:0:0:
64,192,69690,1,0,0:0:0:0:
320,192,69690,1,0,0:0:0:0:
192,192,69745,1,0,0:0:0:0:
448,192,69801,1,0,0:0:0:0:
64,192,69857,1,0,0:0:0:0:
192,192,69912,1,0,0:0:0:0:
448,192,69968,1,0,0:0:0:0:
64,192,70023,1,0,0:0:0:0:
320,192,70023,1,0,0:0:0:0:
192,192,70078,1,0,0:0:0:0:
448,192,70134,1,0,0:0:0:0:
64,192,70190,1,0,0:0:0:0:
192,192,70245,1,0,0:0:0:0:
448,192,70301,1,0,0:0:0:0:
64,192,70357,1,0,0:0:0:0:
320,192,70357,1,0,0:0:0:0:
192,192,70412,1,0,0:0:0:0:
320,192,70468,1,0,0:0:0:0:
448,192,70523,1,0,0:0:0:0:
192,192,70578,1,0,0:0:0:0:
320,192,70634,1,0,0:0:0:0:
64,192,70690,1,0,0:0:0:0:
448,192,70690,1,0,0:0:0:0:
192,192,70745,1,0,0:0:0:0:
320,192,70801,1,0,0:0:0:0:
64,192,70857,1,0,0:0:0:0:
448,192,70912,1,0,0:0:0:0:
192,192,70968,1,0,0:0:0:0:
64,192,71023,1,0,0:0:0:0:
320,192,71023,1,0,0:0:0:0:
192,192,71078,1,0,0:0:0:0:
448,192,71134,1,0,0:0:0:0:
192,192,71190,1,0,0:0:0:0:
64,192,71245,1,0,0:0:0:0:
192,192,71301,1,0,0:0:0:0:
320,192,71357,1,0,0:0:0:0:
448,192,71357,1,0,0:0:0:0:
64,192,71412,1,0,0:0:0:0:
192,192,71468,1,0,0:0:0:0:
320,192,71523,1,0,0:0:0:0:
448,192,71578,1,0,0:0:0:0:
320,192,71634,1,0,0:0:0:0:
64,192,71690,1,0,0:0:0:0:
192,192,71690,1,0,0:0:0:0:
64,192,71857,1,0,0:0:0:0:
320,192,71857,1,0,0:0:0:0:
320,192,72107,1,0,0:0:0:0:
64,192,72190,1,0,0:0:0:0:
64,192,72357,1,0,0:0:0:0:
320,192,72523,1,0,0:0:0:0:
192,192,72773,1,0,0:0:0:0:
192,192,73023,1,0,0:0:0:0:
448,192,73190,1,0,0:0:0:0:
320,192,73273,1,0,0:0:0:0:
448,192,73357,1,0,0:0:0:0:
320,192,73523,1,0,0:0:0:0:
320,192,73690,1,0,0:0:0:0:
448,192,73857,1,0,0:0:0:0:
192,192,74107,1,0,0:0:0:0:
320,192,74357,1,0,0:0:0:0:
192,192,74523,1,0,0:0:0:0:
320,192,74523,1,0,0:0:0:0:
