osu file format v14

[General]
AudioFilename: audio.mp3
AudioLeadIn: 0
PreviewTime: 4295
Countdown: 0
SampleSet: Normal
StackLeniency: 0.7
Mode: 1
LetterboxInBreaks: 0
WidescreenStoryboard: 1

[Editor]
DistanceSpacing: 0.9
BeatDivisor: 4
GridSize: 4
TimelineZoom: 1.9

[Metadata]
Title:sardoche.mp3
TitleUnicode:sardoche.mp3
Artist:fruityz
ArtistUnicode:fruityz
Creator:realy0_
Version:muzukashii
Source:
Tags:french novelty meme sardoche rage breakcore FruityEnLoops blobdash
BeatmapID:2456683
BeatmapSetID:1177962

[Difficulty]
HPDrainRate:8
CircleSize:5
OverallDifficulty:4.5
ApproachRate:5
SliderMultiplier:1.4
SliderTickRate:1

[Events]
//Background and Video events
0,0,"sardoche.jpg",0,0
//Break Periods
//Storyboard Layer 0 (Background)
//Storyboard Layer 1 (Fail)
//Storyboard Layer 2 (Pass)
//Storyboard Layer 3 (Foreground)
//Storyboard Layer 4 (Overlay)
//Storyboard Sound Samples

[TimingPoints]
30,272.727272727273,4,1,0,30,1,0
45,-111.111111111111,4,1,0,30,0,0
4393,-111.111111111111,4,1,0,65,0,0
21848,-100,4,1,0,80,0,1
24030,-100,4,1,0,80,0,0
26211,-100,4,1,0,80,0,1
28393,-100,4,1,0,80,0,0
30575,-100,4,1,0,80,0,1
32757,-100,4,1,0,80,0,0
34939,-100,4,1,0,80,0,1
37120,-100,4,1,0,80,0,0

[HitObjects]
256,192,1666,8,0,4257,0:0:0:0:
213,246,4393,5,4,0:0:0:0:
182,247,4666,1,8,0:0:0:0:
294,211,4939,1,0,0:0:0:0:
294,211,5211,1,8,0:0:0:0:
294,211,5348,1,8,0:0:0:0:
294,211,5484,1,0,0:0:0:0:
306,172,5757,1,8,0:0:0:0:
304,172,6030,1,0,0:0:0:0:
198,195,6166,1,0,0:0:0:0:
304,172,6302,1,8,0:0:0:0:
304,172,6439,1,8,0:0:0:0:
304,172,6575,1,0,0:0:0:0:
304,172,6848,1,8,0:0:0:0:
304,172,7120,1,0,0:0:0:0:
304,172,7393,1,8,0:0:0:0:
304,172,7530,1,0,0:0:0:0:
304,172,7666,1,8,0:0:0:0:
225,123,7939,1,0,0:0:0:0:
225,123,8075,1,0,0:0:0:0:
230,117,8211,1,8,0:0:0:0:
213,246,8757,1,0,0:0:0:0:
182,247,9030,1,8,0:0:0:0:
294,211,9302,1,0,0:0:0:0:
294,211,9575,1,8,0:0:0:0:
294,211,9711,1,0,0:0:0:0:
294,211,9848,1,8,0:0:0:0:
306,172,10120,1,0,0:0:0:0:
304,172,10393,1,8,0:0:0:0:
198,195,10530,1,0,0:0:0:0:
304,172,10666,1,8,0:0:0:0:
304,172,10802,1,8,0:0:0:0:
304,172,10939,1,0,0:0:0:0:
304,172,11211,1,8,0:0:0:0:
304,172,11484,1,0,0:0:0:0:
304,172,11620,1,0,0:0:0:0:
304,172,11757,1,8,0:0:0:0:
304,172,12030,1,0,0:0:0:0:
225,123,12302,1,8,0:0:0:0:
230,117,12575,1,0,0:0:0:0:
230,117,12848,1,0,0:0:0:0:
230,117,13120,1,12,0:0:0:0:
294,211,13666,1,0,0:0:0:0:
294,211,13939,1,8,0:0:0:0:
294,211,14075,1,0,0:0:0:0:
294,211,14211,1,8,0:0:0:0:
306,172,14484,1,8,0:0:0:0:
304,172,14757,1,0,0:0:0:0:
304,172,15030,1,8,0:0:0:0:
304,172,15166,1,8,0:0:0:0:
304,172,15302,1,0,0:0:0:0:
304,172,15575,1,8,0:0:0:0:
304,172,15848,1,0,0:0:0:0:
304,172,16120,1,8,0:0:0:0:
304,172,16257,1,0,0:0:0:0:
304,172,16393,1,8,0:0:0:0:
225,123,16666,1,0,0:0:0:0:
225,123,16802,1,0,0:0:0:0:
230,117,16939,1,8,0:0:0:0:
213,246,17484,1,0,0:0:0:0:
182,247,17757,1,8,0:0:0:0:
294,211,18030,1,0,0:0:0:0:
294,211,18302,1,8,0:0:0:0:
294,211,18439,1,8,0:0:0:0:
294,211,18575,1,0,0:0:0:0:
306,172,18848,1,8,0:0:0:0:
304,172,19120,1,8,0:0:0:0:
198,195,19257,1,0,0:0:0:0:
304,172,19393,1,8,0:0:0:0:
304,172,19530,1,8,0:0:0:0:
304,172,19666,1,0,0:0:0:0:
304,172,19939,1,8,0:0:0:0:
304,172,20211,1,0,0:0:0:0:
304,172,20484,1,8,0:0:0:0:
304,172,20620,1,0,0:0:0:0:
270,235,21848,1,4,0:0:0:0:
252,202,22120,1,8,0:0:0:0:
252,202,22257,1,0,0:0:0:0:
228,206,22393,1,0,0:0:0:0:
228,206,22530,1,8,0:0:0:0:
271,157,22666,1,0,0:0:0:0:
308,189,22734,1,0,0:0:0:0:
271,157,22802,1,0,0:0:0:0:
271,157,22939,1,8,0:0:0:0:
242,201,23211,1,8,0:0:0:0:
270,153,23348,1,8,0:0:0:0:
359,212,23416,1,8,0:0:0:0:
359,212,23484,1,8,0:0:0:0:
270,153,23620,1,0,0:0:0:0:
270,153,23757,1,8,0:0:0:0:
275,149,23893,1,8,0:0:0:0:
270,153,24030,1,0,0:0:0:0:
275,149,24302,1,8,0:0:0:0:
275,149,24575,1,0,0:0:0:0:
275,149,24848,1,8,0:0:0:0:
275,149,24984,1,8,0:0:0:0:
275,149,25120,1,0,0:0:0:0:
256,120,25393,1,8,0:0:0:0:
275,149,25666,1,0,0:0:0:0:
270,235,26211,1,8,0:0:0:0:
252,202,26484,1,8,0:0:0:0:
252,202,26620,1,0,0:0:0:0:
308,189,26689,1,0,0:0:0:0:
228,206,26757,1,0,0:0:0:0:
228,206,26893,1,8,0:0:0:0:
271,157,27030,1,8,0:0:0:0:
271,157,27166,1,0,0:0:0:0:
271,157,27302,1,8,0:0:0:0:
242,201,27575,1,8,0:0:0:0:
270,153,27711,1,8,0:0:0:0:
359,212,27848,1,0,0:0:0:0:
270,153,27984,1,0,0:0:0:0:
270,153,28120,1,8,0:0:0:0:
270,153,28189,1,8,0:0:0:0:
275,149,28257,1,8,0:0:0:0:
270,153,28393,1,0,0:0:0:0:
275,149,28666,1,8,0:0:0:0:
275,149,28939,1,0,0:0:0:0:
275,149,29211,1,0,0:0:0:0:
275,149,29348,1,8,0:0:0:0:
275,149,29484,1,0,0:0:0:0:
256,120,29757,1,8,0:0:0:0:
275,149,30030,1,0,0:0:0:0:
270,235,30575,1,12,0:0:0:0:
252,202,30848,1,8,0:0:0:0:
252,202,30984,1,8,0:0:0:0:
228,206,31120,1,0,0:0:0:0:
228,206,31257,1,8,0:0:0:0:
271,157,31393,1,0,0:0:0:0:
308,189,31461,1,0,0:0:0:0:
271,157,31530,1,0,0:0:0:0:
271,157,31666,1,8,0:0:0:0:
242,201,31939,1,8,0:0:0:0:
270,153,32075,1,8,0:0:0:0:
270,153,32143,1,8,0:0:0:0:
359,212,32211,1,8,0:0:0:0:
270,153,32348,1,0,0:0:0:0:
270,153,32484,1,8,0:0:0:0:
275,149,32620,1,8,0:0:0:0:
270,153,32757,1,0,0:0:0:0:
275,149,33030,1,8,0:0:0:0:
275,149,33302,1,0,0:0:0:0:
275,149,33575,1,8,0:0:0:0:
275,149,33711,1,8,0:0:0:0:
275,149,33848,1,0,0:0:0:0:
256,120,34120,1,8,0:0:0:0:
275,149,34393,1,0,0:0:0:0:
270,235,34939,1,8,0:0:0:0:
252,202,35211,1,8,0:0:0:0:
252,202,35348,1,0,0:0:0:0:
308,189,35416,1,0,0:0:0:0:
228,206,35484,1,0,0:0:0:0:
228,206,35620,1,8,0:0:0:0:
271,157,35757,1,8,0:0:0:0:
271,157,35893,1,0,0:0:0:0:
271,157,36030,1,8,0:0:0:0:
242,201,36302,1,8,0:0:0:0:
359,212,36439,1,8,0:0:0:0:
270,153,36575,1,0,0:0:0:0:
270,153,36711,1,8,0:0:0:0:
270,153,36848,1,8,0:0:0:0:
359,212,36916,1,8,0:0:0:0:
275,149,36984,1,8,0:0:0:0:
270,153,37120,1,0,0:0:0:0:
275,149,37393,1,8,0:0:0:0:
275,149,37666,1,0,0:0:0:0:
275,149,37939,1,0,0:0:0:0:
275,149,38075,1,8,0:0:0:0:
275,149,38211,1,0,0:0:0:0:
256,120,38484,1,8,0:0:0:0:
275,149,38757,1,0,0:0:0:0:
222,129,39030,1,8,0:0:0:0:
296,149,39166,1,8,0:0:0:0:
