osu file format v14

[General]
AudioFilename: audio.mp3
AudioLeadIn: 0
PreviewTime: 4295
Countdown: 0
SampleSet: Normal
StackLeniency: 0.7
Mode: 1
LetterboxInBreaks: 0
WidescreenStoryboard: 1

[Editor]
DistanceSpacing: 0.9
BeatDivisor: 4
GridSize: 4
TimelineZoom: 3.099999

[Metadata]
Title:sardoche.mp3
TitleUnicode:sardoche.mp3
Artist:fruityz
ArtistUnicode:fruityz
Creator:realy0_
Version:inner oni
Source:
Tags:french novelty meme sardoche rage breakcore FruityEnLoops blobdash
BeatmapID:2463552
BeatmapSetID:1177962

[Difficulty]
HPDrainRate:6
CircleSize:5
OverallDifficulty:6
ApproachRate:5
SliderMultiplier:1.4
SliderTickRate:1

[Events]
//Background and Video events
0,0,"sardoche.jpg",0,0
//Break Periods
//Storyboard Layer 0 (Background)
//Storyboard Layer 1 (Fail)
//Storyboard Layer 2 (Pass)
//Storyboard Layer 3 (Foreground)
//Storyboard Layer 4 (Overlay)
//Storyboard Sound Samples

[TimingPoints]
30,272.727272727273,4,1,0,30,1,0
30,-111.111111111111,4,1,0,30,0,0
4393,-111.111111111111,4,1,0,65,0,0
21848,-80,4,1,0,80,0,1
21984,-86.9565217391304,4,1,0,80,0,1
24030,-86.9565217391304,4,1,0,80,0,0
24302,-90.9090909090909,4,1,0,80,0,0
24575,-95.2380952380952,4,1,0,80,0,0
24711,-97.5609756097561,4,1,0,80,0,0
24848,-100,4,1,0,80,0,0
24984,-102.564102564103,4,1,0,80,0,0
25052,-103.896103896104,4,1,0,80,0,0
25120,-105.263157894737,4,1,0,80,0,0
25393,-111.111111111111,4,1,0,80,0,0
25666,-117.64705882353,4,1,0,80,0,0
25802,-114.285714285715,4,1,0,80,0,0
25939,-111.111111111111,4,1,0,80,0,0
26075,-95.2380952380952,4,1,0,80,0,0
26143,-88.8888888888889,4,1,0,80,0,0
26211,-86.9565217391304,4,1,0,80,0,1
28393,-86.9565217391304,4,1,0,80,0,0
28666,-90.9090909090909,4,1,0,80,0,0
28939,-95.2380952380952,4,1,0,80,0,0
29075,-97.5609756097561,4,1,0,80,0,0
29211,-100,4,1,0,80,0,0
29348,-102.564102564103,4,1,0,80,0,0
29416,-103.896103896104,4,1,0,80,0,0
29484,-105.263157894737,4,1,0,80,0,0
29757,-111.111111111111,4,1,0,80,0,0
30030,-117.64705882353,4,1,0,80,0,0
30302,-125,4,1,0,80,0,0
30575,-80,4,1,0,80,0,1
30711,-86.9565217391304,4,1,0,80,0,1
32757,-86.9565217391304,4,1,0,80,0,0
33030,-90.9090909090909,4,1,0,80,0,0
33302,-95.2380952380952,4,1,0,80,0,0
33439,-97.5609756097561,4,1,0,80,0,0
33575,-100,4,1,0,80,0,0
33711,-102.564102564103,4,1,0,80,0,0
33780,-103.896103896104,4,1,0,80,0,0
33848,-105.263157894737,4,1,0,80,0,0
34120,-111.111111111111,4,1,0,80,0,0
34393,-117.64705882353,4,1,0,80,0,0
34530,-114.285714285715,4,1,0,80,0,0
34666,-111.111111111111,4,1,0,80,0,0
34802,-95.2380952380952,4,1,0,80,0,0
34870,-88.8888888888889,4,1,0,80,0,0
34939,-86.9565217391304,4,1,0,80,0,1
37120,-86.9565217391304,4,1,0,80,0,0
37393,-90.9090909090909,4,1,0,80,0,0
37666,-95.2380952380952,4,1,0,80,0,0
37802,-97.5609756097561,4,1,0,80,0,0
37939,-100,4,1,0,80,0,0
38075,-102.564102564103,4,1,0,80,0,0
38143,-103.896103896104,4,1,0,80,0,0
38211,-105.263157894737,4,1,0,80,0,0
38484,-111.111111111111,4,1,0,80,0,0
38757,-117.64705882353,4,1,0,80,0,0
39030,-95.2380952380952,4,1,0,80,0,0
39166,-90.9090909090909,4,1,0,80,0,0
39234,-97.5609756097561,4,1,0,80,0,0

[HitObjects]
256,192,1666,8,0,4257,0:0:0:0:
252,228,4393,5,4,0:0:0:0:
260,116,4666,1,8,0:0:0:0:
260,116,4939,1,0,0:0:0:0:
259,171,5075,1,0,0:0:0:0:
259,171,5143,1,0,0:0:0:0:
260,116,5211,1,8,0:0:0:0:
260,116,5348,1,8,0:0:0:0:
260,116,5484,1,0,0:0:0:0:
260,117,5757,1,8,0:0:0:0:
260,117,6030,1,0,0:0:0:0:
260,117,6166,1,0,0:0:0:0:
260,117,6302,1,8,0:0:0:0:
272,125,6439,1,0,0:0:0:0:
272,125,6507,1,8,0:0:0:0:
260,117,6575,1,0,0:0:0:0:
260,116,6848,1,8,0:0:0:0:
260,116,7120,1,0,0:0:0:0:
259,171,7257,1,0,0:0:0:0:
260,116,7325,1,0,0:0:0:0:
260,116,7393,1,8,0:0:0:0:
260,116,7530,1,8,0:0:0:0:
260,116,7666,1,0,0:0:0:0:
260,116,7802,1,8,0:0:0:0:
260,116,7870,1,0,0:0:0:0:
260,117,7939,1,8,0:0:0:0:
260,117,8075,1,8,0:0:0:0:
260,116,8211,1,0,0:0:0:0:
260,117,8484,1,8,0:0:0:0:
272,125,8620,1,0,0:0:0:0:
272,125,8689,1,0,0:0:0:0:
260,117,8757,1,8,0:0:0:0:
238,149,8893,1,0,0:0:0:0:
260,116,9030,1,8,0:0:0:0:
234,146,9166,1,8,0:0:0:0:
260,116,9302,1,0,0:0:0:0:
259,171,9439,1,8,0:0:0:0:
259,171,9507,1,0,0:0:0:0:
260,116,9575,1,8,0:0:0:0:
260,116,9711,1,8,0:0:0:0:
260,116,9848,1,0,0:0:0:0:
260,116,9916,1,8,0:0:0:0:
263,189,9984,1,0,0:0:0:0:
263,189,10052,1,0,0:0:0:0:
260,117,10120,1,8,0:0:0:0:
259,184,10257,1,0,0:0:0:0:
259,184,10325,1,0,0:0:0:0:
260,117,10393,1,8,0:0:0:0:
260,117,10666,1,8,0:0:0:0:
272,125,10802,1,8,0:0:0:0:
260,117,10870,1,0,0:0:0:0:
272,125,10939,1,8,0:0:0:0:
222,138,11075,1,0,0:0:0:0:
260,116,11211,1,8,0:0:0:0:
205,141,11348,1,8,0:0:0:0:
260,116,11484,1,0,0:0:0:0:
260,116,11552,1,0,0:0:0:0:
259,171,11620,1,8,0:0:0:0:
220,129,11689,1,0,0:0:0:0:
260,116,11757,1,8,0:0:0:0:
260,116,11893,1,8,0:0:0:0:
260,116,12030,1,0,0:0:0:0:
260,116,12166,1,0,0:0:0:0:
260,116,12234,1,0,0:0:0:0:
260,117,12302,1,8,0:0:0:0:
260,117,12439,1,8,0:0:0:0:
260,116,12575,1,0,0:0:0:0:
260,117,12848,1,0,0:0:0:0:
260,117,13120,1,12,0:0:0:0:
260,116,13666,1,0,0:0:0:0:
259,171,13802,1,0,0:0:0:0:
260,116,13939,1,8,0:0:0:0:
260,116,14007,1,8,0:0:0:0:
260,116,14075,1,0,0:0:0:0:
260,116,14211,1,8,0:0:0:0:
260,117,14484,1,8,0:0:0:0:
260,117,14757,1,0,0:0:0:0:
260,117,14893,1,0,0:0:0:0:
260,117,15030,1,8,0:0:0:0:
272,125,15166,1,0,0:0:0:0:
272,125,15234,1,8,0:0:0:0:
260,117,15302,1,0,0:0:0:0:
260,116,15575,1,8,0:0:0:0:
236,94,15711,1,0,0:0:0:0:
260,116,15848,1,8,0:0:0:0:
259,171,15984,1,0,0:0:0:0:
260,116,16052,1,8,0:0:0:0:
260,116,16120,1,8,0:0:0:0:
260,116,16257,1,0,0:0:0:0:
260,116,16393,1,8,0:0:0:0:
260,116,16530,1,0,0:0:0:0:
260,116,16598,1,0,0:0:0:0:
260,117,16666,1,8,0:0:0:0:
260,117,16802,1,8,0:0:0:0:
260,116,16939,1,0,0:0:0:0:
206,44,17211,1,8,0:0:0:0:
206,44,17348,1,0,0:0:0:0:
206,44,17416,1,8,0:0:0:0:
206,44,17484,1,0,0:0:0:0:
260,116,17757,1,8,0:0:0:0:
260,116,18030,1,0,0:0:0:0:
259,171,18166,1,0,0:0:0:0:
259,171,18234,1,0,0:0:0:0:
260,116,18302,1,8,0:0:0:0:
260,116,18439,1,8,0:0:0:0:
260,116,18507,1,8,0:0:0:0:
260,116,18575,1,0,0:0:0:0:
277,102,18711,1,0,0:0:0:0:
260,117,18848,1,8,0:0:0:0:
216,46,18916,1,0,0:0:0:0:
189,63,18984,1,8,0:0:0:0:
260,117,19120,1,8,0:0:0:0:
260,117,19257,1,0,0:0:0:0:
260,117,19393,1,8,0:0:0:0:
272,125,19530,1,0,0:0:0:0:
272,125,19598,1,8,0:0:0:0:
260,117,19666,1,0,0:0:0:0:
232,41,19939,1,8,0:0:0:0:
232,41,20211,1,0,0:0:0:0:
232,41,20348,1,0,0:0:0:0:
219,64,20416,1,0,0:0:0:0:
260,116,20484,1,8,0:0:0:0:
260,116,20620,1,0,0:0:0:0:
240,210,21848,1,4,0:0:0:0:
300,152,21984,1,0,0:0:0:0:
300,152,22052,1,0,0:0:0:0:
300,152,22120,1,8,0:0:0:0:
362,199,22189,1,0,0:0:0:0:
256,69,22257,1,8,0:0:0:0:
292,208,22325,1,8,0:0:0:0:
300,152,22393,1,0,0:0:0:0:
272,187,22461,1,0,0:0:0:0:
299,161,22530,1,8,0:0:0:0:
226,126,22598,1,0,0:0:0:0:
226,126,22666,1,8,0:0:0:0:
220,72,22734,1,8,0:0:0:0:
299,161,22802,1,0,0:0:0:0:
304,113,22870,1,0,0:0:0:0:
256,69,22939,1,8,0:0:0:0:
163,150,23007,1,8,0:0:0:0:
256,69,23075,1,8,0:0:0:0:
286,98,23143,1,8,0:0:0:0:
256,69,23211,1,0,0:0:0:0:
215,155,23280,1,0,0:0:0:0:
256,69,23348,1,8,0:0:0:0:
263,69,23416,1,8,0:0:0:0:
263,69,23484,1,0,0:0:0:0:
176,124,23552,1,8,0:0:0:0:
238,126,23620,1,0,0:0:0:0:
226,143,23689,1,0,0:0:0:0:
263,69,23757,1,8,0:0:0:0:
282,67,23825,1,0,0:0:0:0:
263,69,23893,1,8,0:0:0:0:
263,69,23961,1,8,0:0:0:0:
363,273,24030,1,0,0:0:0:0:
363,273,24302,1,8,0:0:0:0:
263,124,24575,1,0,0:0:0:0:
229,262,24711,1,0,0:0:0:0:
263,124,24848,1,8,0:0:0:0:
263,124,24984,1,8,0:0:0:0:
230,261,25052,1,8,0:0:0:0:
263,124,25120,1,0,0:0:0:0:
263,124,25393,1,8,0:0:0:0:
263,124,25666,1,0,0:0:0:0:
263,124,25802,1,0,0:0:0:0:
263,124,25939,1,8,0:0:0:0:
263,124,26075,1,0,0:0:0:0:
263,124,26143,1,0,0:0:0:0:
263,124,26211,1,8,0:0:0:0:
230,280,26280,1,8,0:0:0:0:
300,152,26348,1,0,0:0:0:0:
300,152,26416,1,0,0:0:0:0:
300,152,26484,1,8,0:0:0:0:
326,162,26552,1,0,0:0:0:0:
256,69,26620,1,8,0:0:0:0:
326,162,26689,1,8,0:0:0:0:
300,152,26757,1,0,0:0:0:0:
300,152,26825,1,0,0:0:0:0:
299,161,26893,1,8,0:0:0:0:
226,126,26961,1,0,0:0:0:0:
226,126,27030,1,8,0:0:0:0:
220,72,27098,1,8,0:0:0:0:
299,161,27166,1,0,0:0:0:0:
324,157,27234,1,8,0:0:0:0:
256,69,27302,1,0,0:0:0:0:
324,157,27370,1,0,0:0:0:0:
256,69,27439,1,0,0:0:0:0:
256,69,27507,1,0,0:0:0:0:
256,69,27575,1,8,0:0:0:0:
324,155,27643,1,8,0:0:0:0:
256,69,27711,1,8,0:0:0:0:
270,104,27780,1,8,0:0:0:0:
263,69,27848,1,0,0:0:0:0:
263,69,27916,1,8,0:0:0:0:
263,69,27984,1,0,0:0:0:0:
263,69,28052,1,0,0:0:0:0:
263,69,28120,1,8,0:0:0:0:
138,153,28189,1,0,0:0:0:0:
263,69,28257,1,8,0:0:0:0:
263,69,28325,1,8,0:0:0:0:
363,273,28393,1,0,0:0:0:0:
363,273,28666,1,8,0:0:0:0:
263,124,28939,1,0,0:0:0:0:
230,260,29075,1,0,0:0:0:0:
263,124,29211,1,8,0:0:0:0:
263,124,29348,1,8,0:0:0:0:
230,260,29416,1,8,0:0:0:0:
263,124,29484,1,0,0:0:0:0:
263,124,29757,1,8,0:0:0:0:
263,124,30030,1,0,0:0:0:0:
219,208,30302,1,0,0:0:0:0:
240,210,30575,1,12,0:0:0:0:
300,152,30711,1,0,0:0:0:0:
300,152,30780,1,0,0:0:0:0:
300,152,30848,1,8,0:0:0:0:
247,215,30916,1,0,0:0:0:0:
256,69,30984,1,8,0:0:0:0:
248,201,31052,1,8,0:0:0:0:
300,152,31120,1,0,0:0:0:0:
246,165,31189,1,0,0:0:0:0:
299,161,31257,1,8,0:0:0:0:
226,126,31325,1,0,0:0:0:0:
226,126,31393,1,8,0:0:0:0:
220,72,31461,1,8,0:0:0:0:
299,161,31530,1,0,0:0:0:0:
304,113,31598,1,0,0:0:0:0:
256,69,31666,1,8,0:0:0:0:
245,166,31734,1,8,0:0:0:0:
245,166,31802,1,8,0:0:0:0:
256,69,31870,1,0,0:0:0:0:
256,69,31939,1,8,0:0:0:0:
252,171,32007,1,8,0:0:0:0:
263,69,32075,1,0,0:0:0:0:
226,156,32143,1,0,0:0:0:0:
256,69,32211,1,8,0:0:0:0:
263,69,32280,1,0,0:0:0:0:
263,69,32348,1,0,0:0:0:0:
263,69,32416,1,0,0:0:0:0:
263,69,32484,1,8,0:0:0:0:
138,153,32552,1,0,0:0:0:0:
263,69,32620,1,8,0:0:0:0:
263,69,32689,1,8,0:0:0:0:
363,273,32757,1,0,0:0:0:0:
363,273,33030,1,8,0:0:0:0:
263,124,33302,1,0,0:0:0:0:
243,307,33439,1,0,0:0:0:0:
263,124,33575,1,8,0:0:0:0:
263,124,33711,1,8,0:0:0:0:
243,307,33780,1,8,0:0:0:0:
263,124,33848,1,0,0:0:0:0:
263,124,34120,1,8,0:0:0:0:
263,124,34393,1,0,0:0:0:0:
263,124,34530,1,0,0:0:0:0:
263,124,34666,1,8,0:0:0:0:
263,124,34802,1,0,0:0:0:0:
263,124,34870,1,0,0:0:0:0:
263,124,34939,1,8,0:0:0:0:
260,223,35007,1,8,0:0:0:0:
300,152,35075,1,0,0:0:0:0:
300,152,35143,1,0,0:0:0:0:
300,152,35211,1,8,0:0:0:0:
201,148,35280,1,0,0:0:0:0:
256,69,35348,1,8,0:0:0:0:
201,148,35416,1,8,0:0:0:0:
300,152,35484,1,0,0:0:0:0:
300,152,35552,1,0,0:0:0:0:
299,161,35620,1,8,0:0:0:0:
226,126,35689,1,0,0:0:0:0:
226,126,35757,1,8,0:0:0:0:
220,72,35825,1,8,0:0:0:0:
202,149,35893,1,0,0:0:0:0:
210,164,35961,1,8,0:0:0:0:
256,69,36030,1,0,0:0:0:0:
211,167,36098,1,0,0:0:0:0:
256,69,36166,1,0,0:0:0:0:
286,98,36234,1,0,0:0:0:0:
256,69,36302,1,8,0:0:0:0:
245,161,36370,1,0,0:0:0:0:
256,69,36439,1,8,0:0:0:0:
263,69,36507,1,8,0:0:0:0:
263,69,36575,1,0,0:0:0:0:
245,161,36643,1,8,0:0:0:0:
238,126,36711,1,0,0:0:0:0:
245,161,36780,1,0,0:0:0:0:
263,69,36848,1,8,0:0:0:0:
282,67,36916,1,0,0:0:0:0:
263,69,36984,1,8,0:0:0:0:
263,69,37052,1,8,0:0:0:0:
363,273,37120,1,0,0:0:0:0:
363,273,37393,1,8,0:0:0:0:
263,124,37666,1,0,0:0:0:0:
253,315,37802,1,0,0:0:0:0:
263,124,37939,1,8,0:0:0:0:
263,124,38075,1,8,0:0:0:0:
253,315,38143,1,8,0:0:0:0:
263,124,38211,1,0,0:0:0:0:
263,124,38484,1,8,0:0:0:0:
263,124,38757,1,0,0:0:0:0:
251,269,39030,1,8,0:0:0:0:
235,119,39166,1,8,0:0:0:0:
363,136,39234,1,8,0:0:0:0:
