osu file format v14

[General]
AudioFilename: audio.mp3
AudioLeadIn: 0
PreviewTime: 4269
Countdown: 0
SampleSet: Normal
StackLeniency: 0.7
Mode: 0
LetterboxInBreaks: 0
WidescreenStoryboard: 1

[Editor]
Bookmarks: 56689,57952,59215,60479,61742,63005,64268,65531,66794,68058,69321,70584,71847,73110,74373,75637,76900,78163,80057,81320,82584,83847,85110,86373,87636,88899,90163,91426,92689,93952,95215,96478,97741,99005,100268
DistanceSpacing: 1
BeatDivisor: 1
GridSize: 4
TimelineZoom: 0.9999999

[Metadata]
Title:fate
TitleUnicode:フェイト
Artist:fromnou
ArtistUnicode:フロムナウ
Creator:Prophecy
Version:Normal+
Source:花陰−堕ちた蜜華−
Tags:桐島 伊織 きりしま いおり 華菱 獅子尾 豪 ししお ごう 犬野忠輔 大石けいぞう 一之瀬 聖 いちのせ ひじり 堀畑靖 北辰一刀流 ヒュー・グレン 平井達矢 桐島 冬吾 きりしま とうご 先割れスプーン 朱璃 東條 巽 蒼 長瀬 和臣 獅子尾 烈 花陰 R18 BL yaoi boys love Vivid Color 花町物語 novel visual Kurose Riku KuroseRiku Abhor Sandrew Suzuki_1112 lowbelia
BeatmapID:1418188
BeatmapSetID:581587

[Difficulty]
HPDrainRate:3.5
CircleSize:3.5
OverallDifficulty:4.5
ApproachRate:5
SliderMultiplier:1.60000000596046
SliderTickRate:1

[Events]
//Background and Video events
//Break Periods
//Storyboard Layer 0 (Background)
//Storyboard Layer 1 (Fail)
//Storyboard Layer 2 (Pass)
//Storyboard Layer 3 (Foreground)
//Storyboard Sound Samples

[TimingPoints]
4269,631.578947368421,4,1,1,25,1,0
15637,631.578947368421,4,1,1,40,1,0
35847,-111.111111111111,4,1,1,30,0,0
51005,-100,4,1,1,30,0,0
56058,-90.9090909090909,4,1,1,40,0,1
66005,-100,4,1,1,40,0,0
66163,-100,4,1,1,40,0,1
78163,631.578947368421,4,1,1,40,1,0
88268,-100,4,1,1,40,0,1
100268,-100,4,1,1,40,0,0
100584,-100,4,1,1,25,0,0

[Colours]
Combo1 : 255,0,128
Combo2 : 255,128,192
Combo3 : 217,0,108
Combo4 : 255,85,170

[HitObjects]
72,44,4269,6,0,P|56:104|102:195,1,160.000000596046
114,267,5216,1,0,0:0:0:0:
163,329,5532,2,0,L|271:327,1,80.000000298023
322,323,6163,1,0,0:0:0:0:
380,268,6479,2,0,P|384:212|381:163,1,80.000000298023
310,153,7111,1,0,0:0:0:0:
236,122,7426,2,0,P|225:82|232:30,1,80.000000298023
308,45,8058,6,0,P|348:44|371:41,2,40.0000001490115
227,43,8690,1,0,0:0:0:0:
69,71,9321,6,0,B|61:138|61:138|67:177|67:177|70:241,1,160.000000596046
104,302,10269,1,0,0:0:0:0:
178,329,10584,2,0,P|234:337|286:321,1,80.000000298023
328,297,11216,2,0,P|368:244|367:203,1,80.000000298023
398,157,11847,2,0,L|397:47,2,80.000000298023
452,216,12795,1,0,0:0:0:0:
456,295,13111,6,0,L|513:326,2,40.0000001490115
376,304,13742,1,0,0:0:0:0:
215,298,14374,5,0,0:0:0:0:
140,268,14690,1,0,0:0:0:0:
96,201,15005,2,0,L|66:171,3,26.6666667660077
143,227,15637,6,0,B|197:230|197:230|243:227,1,80.000000298023
302,218,16268,1,0,0:0:0:0:
376,188,16584,2,0,P|351:157|315:140,1,80.000000298023
236,128,17215,2,0,B|191:125|191:125|148:113,1,80.000000298023
100,71,17847,1,0,0:0:0:0:
48,132,18163,2,0,L|47:216,2,80.000000298023
100,71,19110,1,0,0:0:0:0:
172,36,19426,6,0,L|218:37,2,40.0000001490115
100,71,20058,1,0,0:0:0:0:
229,164,20689,6,0,P|290:162|333:168,1,80.000000298023
382,196,21321,2,0,P|384:239|375:278,1,80.000000298023
339,346,21952,1,0,0:0:0:0:
259,341,22268,2,0,L|163:336,1,80.000000298023
103,309,22900,1,0,0:0:0:0:
54,251,23215,2,0,P|48:212|56:153,1,80.000000298023
82,97,23847,2,0,L|167:90,1,80.000000298023
226,137,24479,6,0,L|225:191,2,40.0000001490115
261,65,25110,1,0,0:0:0:0:
412,116,25742,6,0,L|412:226,1,80.000000298023
464,256,26373,1,0,0:0:0:0:
429,328,26689,2,0,L|329:330,1,80.000000298023
268,322,27321,1,0,0:0:0:0:
187,322,27637,2,0,B|138:324|138:324|93:316,1,80.000000298023
49,262,28268,1,0,0:0:0:0:
50,181,28584,2,0,P|41:135|55:88,1,80.000000298023
118,61,29215,1,0,0:0:0:0:
189,97,29531,6,0,L|233:102,2,40.0000001490115
129,151,30163,1,0,0:0:0:0:
241,264,30794,6,0,L|339:267,1,80.000000298023
397,243,31426,1,0,0:0:0:0:
459,192,31742,2,0,P|464:150|439:86,1,80.000000298023
395,60,32373,1,0,0:0:0:0:
315,69,32689,2,0,L|228:65,1,80.000000298023
159,92,33321,2,0,L|87:67,2,40.0000001490115
214,149,33952,1,0,0:0:0:0:
277,196,34268,2,0,L|329:195,2,40.0000001490115
211,242,34900,2,0,L|131:242,1,80.000000298023
57,273,35531,1,0,0:0:0:0:
104,327,35847,6,0,B|176:333|176:333|270:330,1,143.99999614191
319,326,36794,1,0,0:0:0:0:
434,240,37426,2,0,L|437:142,1,71.9999980709551
402,103,38058,1,0,0:0:0:0:
341,64,38373,2,0,L|240:65,1,71.9999980709551
267,136,39005,2,0,L|191:142,1,71.9999980709551
128,169,39637,1,0,0:0:0:0:
67,207,39952,2,0,L|67:292,1,71.9999980709551
191,352,40900,5,0,0:0:0:0:
329,312,41531,1,0,0:0:0:0:
447,230,42163,1,0,0:0:0:0:
308,191,42794,2,0,L|217:190,1,71.9999980709551
187,136,43426,2,0,L|169:47,2,71.9999980709551
154,200,44373,1,0,0:0:0:0:
87,228,44689,2,0,L|95:320,1,71.9999980709551
156,334,45321,6,0,L|205:340,4,35.9999990354776
84,323,46268,1,0,0:0:0:0:
30,275,46584,2,0,L|36:176,1,71.9999980709551
112,82,47531,1,0,0:0:0:0:
183,76,47847,2,0,L|278:78,1,71.9999980709551
323,99,48479,1,0,0:0:0:0:
380,142,48794,2,0,L|391:229,1,71.9999980709551
400,284,49426,1,0,0:0:0:0:
333,312,49742,2,0,L|244:311,1,71.9999980709551
195,280,50373,1,0,0:0:0:0:
34,276,51005,5,4,0:0:0:0:
79,204,51321,2,0,L|76:157,2,40.0000001490115
150,240,51952,2,0,L|154:287,1,40.0000001490115
258,336,52584,1,0,0:0:0:0:
337,339,52900,2,0,L|416:339,1,80.000000298023
460,271,53531,1,0,0:0:0:0:
463,191,53847,1,0,0:0:0:0:
387,217,54163,2,0,L|292:210,1,80.000000298023
261,145,54794,1,0,0:0:0:0:
216,78,55110,1,0,0:0:0:0:
180,149,55426,2,0,L|144:166,2,40.0000001490115
267,135,56058,5,4,0:0:0:0:
322,66,56373,2,0,L|433:65,1,88.0000030133723,0|8,0:0|0:0,0:0:0:0:
453,141,57005,1,0,0:0:0:0:
462,228,57321,2,0,L|458:328,2,88.0000030133723,0|0|8,0:0|0:0|0:0,0:0:0:0:
380,195,58268,1,0,0:0:0:0:
307,144,58584,6,0,L|284:29,2,88.0000030133723,0|0|8,0:0|0:0|0:0,0:0:0:0:
269,223,59531,2,0,P|181:226|126:215,1,88.0000030133723
101,188,60163,2,0,P|101:140|103:96,1,88.0000030133723,0|8,0:0|0:0,0:0:0:0:
165,38,60794,2,0,L|256:38,2,88.0000030133723
76,34,61742,1,8,0:0:0:0:
130,102,62058,1,0,0:0:0:0:
182,172,62373,6,0,L|181:223,2,44.0000015066861
250,116,63005,1,8,0:0:0:0:
315,57,63321,2,0,P|397:57|434:66,1,88.0000030133723
442,136,63952,1,0,0:0:0:0:
452,223,64268,2,0,P|439:315|424:339,1,88.0000030133723,8|0,0:0|0:0,0:0:0:0:
353,316,64900,2,0,B|295:320|295:320|232:301|232:301|154:303,1,176.000006026745,0|8,0:0|0:0,0:0:0:0:
31,268,66163,5,4,0:0:0:0:
39,188,66479,2,0,L|53:91,1,80.000000298023,0|8,0:0|0:0,0:0:0:0:
115,62,67110,1,0,0:0:0:0:
194,71,67426,2,0,L|253:63,2,40.0000001490115
137,128,68058,1,8,0:0:0:0:
170,200,68373,1,0,0:0:0:0:
232,250,68689,6,0,L|231:315,2,40.0000001490115
291,195,69321,2,0,L|375:197,1,80.000000298023,8|0,0:0|0:0,0:0:0:0:
449,210,69952,2,0,L|450:156,2,40.0000001490115
426,287,70584,2,0,P|392:306|331:312,1,80.000000298023,8|0,0:0|0:0,0:0:0:0:
272,309,71215,1,0,0:0:0:0:
191,307,71531,1,0,0:0:0:0:
114,284,71847,6,0,P|112:244|114:204,1,80.000000298023,8|0,0:0|0:0,0:0:0:0:
90,127,72479,2,0,L|32:131,2,40.0000001490115
155,81,73110,2,0,P|197:74|255:83,1,80.000000298023,8|0,0:0|0:0,0:0:0:0:
310,102,73742,2,0,L|364:91,2,40.0000001490115
246,150,74373,2,0,P|205:171|180:217,1,80.000000298023,8|0,0:0|0:0,0:0:0:0:
214,273,75005,2,0,L|263:325,2,40.0000001490115
134,261,75637,1,8,0:0:0:0:
37,133,76268,6,0,P|33:106|56:24,1,80.000000298023
120,45,76900,2,0,P|168:40|225:47,1,80.000000298023,8|0,0:0|0:0,0:0:0:0:
265,87,77531,2,0,P|266:139|258:166,1,80.000000298023
237,243,78163,1,8,0:0:0:0:
102,329,78794,6,0,L|5:330,2,80.000000298023
173,293,79741,2,0,L|284:291,1,80.000000298023,0|8,0:0|0:0,0:0:0:0:
406,244,80689,2,0,L|403:140,2,80.000000298023,0|0|8,0:0|0:0|0:0,0:0:0:0:
253,196,81952,2,0,L|255:102,2,80.000000298023,0|0|8,0:0|0:0|0:0,0:0:0:0:
209,263,82899,1,0,0:0:0:0:
141,305,83215,6,0,P|106:286|81:254,2,80.000000298023,0|0|8,0:0|0:0|0:0,0:0:0:0:
212,342,84163,1,0,0:0:0:0:
291,337,84478,2,0,L|402:335,2,80.000000298023,0|0|8,0:0|0:0|0:0,0:0:0:0:
212,342,85426,1,0,0:0:0:0:
140,306,85741,2,0,L|77:314,2,40.0000001490115
205,259,86373,1,8,0:0:0:0:
221,180,86689,1,0,0:0:0:0:
299,162,87005,2,0,L|350:119,4,40.0000001490115,0|0|0|0|8,0:0|0:0|0:0|0:0|0:0,0:0:0:0:
296,245,87952,1,0,0:0:0:0:
368,279,88268,5,4,0:0:0:0:
428,226,88584,2,0,L|448:126,1,80.000000298023,0|8,0:0|0:0,0:0:0:0:
449,67,89215,1,0,0:0:0:0:
369,63,89531,2,0,L|276:67,2,80.000000298023,0|0|8,0:0|0:0|0:0,0:0:0:0:
403,135,90478,1,0,0:0:0:0:
372,208,90794,2,0,L|373:312,2,80.000000298023,0|0|8,0:0|0:0|0:0,0:0:0:0:
296,180,91741,1,0,0:0:0:0:
234,128,92057,2,0,L|232:20,2,80.000000298023,0|0|8,0:0|0:0|0:0,0:0:0:0:
173,180,93005,1,0,0:0:0:0:
96,202,93320,5,4,0:0:0:0:
44,263,93636,1,0,0:0:0:0:
71,338,93952,2,0,L|173:338,1,80.000000298023,8|0,0:0|0:0,0:0:0:0:
215,289,94584,2,0,L|225:243,2,40.0000001490115
275,341,95215,1,8,0:0:0:0:
353,327,95531,1,0,0:0:0:0:
411,272,95847,6,0,P|421:213|408:184,1,80.000000298023
337,217,96478,2,0,P|333:168|354:134,1,80.000000298023,8|0,0:0|0:0,0:0:0:0:
387,72,97110,1,0,0:0:0:0:
307,67,97426,2,0,L|245:67,2,40.0000001490115,0|0|8,0:0|0:0|0:0,0:0:0:0:
442,152,98373,1,0,0:0:0:0:
414,268,98847,1,0,0:0:0:0:
336,176,99320,1,0,0:0:0:0:
256,180,99636,6,0,L|202:218,1,40.0000001490115
205,238,99952,2,0,L|193:294,2,40.0000001490115
167,166,100584,1,4,0:0:0:0:
