osu file format v14

[General]
AudioFilename: audio.mp3
AudioLeadIn: 0
PreviewTime: 4269
Countdown: 0
SampleSet: Normal
StackLeniency: 0.7
Mode: 0
LetterboxInBreaks: 0
WidescreenStoryboard: 1

[Editor]
DistanceSpacing: 1
BeatDivisor: 4
GridSize: 4
TimelineZoom: 0.9999999

[Metadata]
Title:fate
TitleUnicode:フェイト
Artist:fromnou
ArtistUnicode:フロムナウ
Creator:Prophecy
Version:Easy
Source:花陰−堕ちた蜜華−
Tags:桐島 伊織 きりしま いおり 華菱 獅子尾 豪 ししお ごう 犬野忠輔 大石けいぞう 一之瀬 聖 いちのせ ひじり 堀畑靖 北辰一刀流 ヒュー・グレン 平井達矢 桐島 冬吾 きりしま とうご 先割れスプーン 朱璃 東條 巽 蒼 長瀬 和臣 獅子尾 烈 花陰 R18 BL yaoi boys love Vivid Color 花町物語 novel visual Kurose Riku KuroseRiku Abhor Sandrew Suzuki_1112 lowbelia
BeatmapID:1235790
BeatmapSetID:581587

[Difficulty]
HPDrainRate:3
CircleSize:2
OverallDifficulty:3
ApproachRate:3
SliderMultiplier:1.20000000596046
SliderTickRate:1

[Events]
//Background and Video events
//Break Periods
2,78363,86828
//Storyboard Layer 0 (Background)
//Storyboard Layer 1 (Fail)
//Storyboard Layer 2 (Pass)
//Storyboard Layer 3 (Foreground)
//Storyboard Sound Samples

[TimingPoints]
4269,631.578947368421,4,1,0,25,1,0
15637,631.578947368421,4,1,0,40,1,0
35847,-100,4,1,0,30,0,0
56058,-90.9090909090909,4,1,0,40,0,1
66005,-100,4,1,0,40,0,0
66163,-100,4,1,0,40,0,1
78163,631.578947368421,4,1,0,40,1,0
88268,-100,4,1,0,40,0,1
100268,-100,4,1,0,40,0,0
100584,-100,4,1,0,25,0,0

[Colours]
Combo1 : 255,0,128
Combo2 : 255,128,192
Combo3 : 217,0,108
Combo4 : 255,85,170

[HitObjects]
68,49,4269,6,0,P|52:109|76:173,1,120.000000596046
111,275,5532,1,0,0:0:0:0:
289,294,6479,2,0,P|345:298|437:290,1,120.000000596046
453,254,7426,2,0,L|449:162,1,60.000000298023
328,61,8690,1,0,0:0:0:0:
208,59,9321,6,0,L|64:59,1,120.000000596046
39,168,10584,2,0,P|27:236|51:312,1,120.000000596046
154,314,11847,2,0,L|290:314,2,120.000000596046
120,198,13742,1,0,0:0:0:0:
237,171,14374,5,0,0:0:0:0:
348,127,15005,1,0,0:0:0:0:
260,45,15637,6,0,L|120:45,1,120.000000596046
64,138,16900,2,0,L|72:286,1,120.000000596046
173,319,18163,2,0,L|333:319,2,120.000000596046
122,210,20058,1,0,0:0:0:0:
222,145,20689,6,0,P|286:141|346:145,1,120.000000596046
458,172,21952,1,0,0:0:0:0:
418,285,22584,2,0,P|310:301|278:293,1,120.000000596046
182,319,23847,2,0,B|170:243|90:207|90:207|38:131,1,240.000001192092
136,62,25742,6,0,L|264:62,1,120.000000596046
376,64,27005,2,0,B|392:116|392:116|396:144|396:144|404:188,1,120.000000596046
435,296,28268,1,0,0:0:0:0:
315,307,28900,1,0,0:0:0:0:
259,330,29215,2,0,B|175:334|175:334|135:326|135:326|47:326,1,180.000000894069
26,218,30794,6,0,P|34:154|26:78,1,120.000000596046
141,53,32058,2,0,L|277:53,2,120.000000596046
134,172,33952,1,0,0:0:0:0:
241,225,34584,2,0,L|401:225,1,120.000000596046
471,176,35847,6,0,P|488:244|412:336,1,180.000000894069
308,328,37426,1,0,0:0:0:0:
198,279,38058,2,0,B|187:219|187:219|177:186|177:186|183:91,2,180.000000894069
36,359,40900,5,0,0:0:0:0:
32,239,41531,1,0,0:0:0:0:
110,148,42163,1,0,0:0:0:0:
222,188,42794,2,0,B|295:200|295:200|348:174|392:190|392:190|461:164,1,240.000001192092
448,46,44689,2,0,L|312:46,1,120.000000596046
214,84,45952,5,0,0:0:0:0:
120,159,46584,2,0,L|108:259,1,60.000000298023
112,338,47531,1,0,0:0:0:0:
291,327,48479,1,0,0:0:0:0:
404,287,49110,2,0,B|428:234|428:234|441:115,1,120.000000596046
410,117,50058,1,0,0:0:0:0:
239,60,51005,6,0,P|180:49|74:84,1,120.000000596046
9,102,52268,1,0,0:0:0:0:
41,217,52900,2,0,L|37:313,2,60.000000298023
155,251,54163,2,0,L|175:315,2,60.000000298023
243,170,55426,1,0,0:0:0:0:
369,131,56058,5,4,0:0:0:0:
264,50,56689,2,0,L|120:50,1,132.000004683971
42,149,57952,1,0,0:0:0:0:
59,276,58584,2,0,L|193:274,1,132.000004683971
322,267,59847,5,0,0:0:0:0:
420,179,60479,2,0,L|399:93,2,66.0000023419855
432,310,61742,1,0,0:0:0:0:
301,329,62373,1,0,0:0:0:0:
168,326,63005,2,0,P|105:339|21:331,1,132.000004683971
20,203,64268,1,0,0:0:0:0:
75,83,64900,2,0,B|133:79|133:79|181:95|181:95|219:93,1,132.000004683971
323,84,66163,5,4,0:0:0:0:
435,125,66794,2,0,P|438:194|415:262,1,120.000000596046
355,341,68058,1,0,0:0:0:0:
236,321,68689,2,0,L|148:335,2,60.000000298023
327,243,69952,1,0,0:0:0:0:
227,176,70584,2,0,P|208:115|228:59,1,120.000000596046
344,57,71847,6,0,P|431:57|444:55,1,60.000000298023
462,229,73110,2,0,L|477:321,2,60.000000298023
348,192,74373,2,0,L|253:183,2,60.000000298023
440,116,75637,1,0,0:0:0:0:
320,96,76268,6,0,L|229:105,1,60.000000298023
200,116,76900,2,0,L|191:265,1,120.000000596046
288,312,78163,1,4,0:0:0:0:
62,97,88268,5,4,0:0:0:0:
180,76,88899,1,0,0:0:0:0:
290,122,89531,2,0,L|392:131,2,60.000000298023
226,223,90794,2,0,L|287:257,2,60.000000298023
131,296,92057,2,0,L|169:365,2,60.000000298023
70,192,93320,5,4,0:0:0:0:
168,123,93952,2,0,L|307:123,2,120.000000596046
61,178,95847,2,0,P|52:104|79:36,1,120.000000596046
183,47,97110,2,0,L|338:47,1,120.000000596046
415,87,98373,2,0,L|415:197,2,90.0000004470345
188,164,100584,1,4,0:0:0:0:
