osu file format v14

[General]
AudioFilename: audio.mp3
AudioLeadIn: 0
PreviewTime: 157060
Countdown: 0
SampleSet: None
StackLeniency: 0.3
Mode: 0
LetterboxInBreaks: 0
WidescreenStoryboard: 1

[Editor]
Bookmarks: 24592,25371,44852,46410,77579,125891,138358,146151,152384
DistanceSpacing: 1
BeatDivisor: 4
GridSize: 4
TimelineZoom: 2.3

[Metadata]
Title:LOVE BOMB
TitleUnicode:LOVE BOMB
Artist:fromis_9
ArtistUnicode:프로미스나인
Creator:Hytex
Version:Normal
Source:
Tags:from idol school off the record 새롬 saerom 하영 hayoung 규리 gyuri 지원 jiwon 지선 jisun 서연 seoyeon 채영 chaeyoung 나경 nagyung 지헌 jiheon
BeatmapID:1897693
BeatmapSetID:906579

[Difficulty]
HPDrainRate:4
CircleSize:3
OverallDifficulty:4
ApproachRate:5
SliderMultiplier:1.4
SliderTickRate:1

[Events]
//Background and Video events
0,0,"Love-Bomb.jpg",0,0
//Break Periods
2,73104,76379
2,126091,130535
2,146351,151184
//Storyboard Layer 0 (Background)
//Storyboard Layer 1 (Fail)
//Storyboard Layer 2 (Pass)
//Storyboard Layer 3 (Foreground)
//Storyboard Sound Samples

[TimingPoints]
1216,389.61038961039,4,2,1,80,1,0
12904,-100,4,2,1,50,0,0
13683,-100,4,2,1,65,0,0
25371,-100,4,2,1,50,0,0
26151,-100,4,2,1,65,0,0
37839,-100,4,2,1,50,0,0
38618,-100,4,2,1,70,0,0
43293,-100,4,2,2,70,0,0
44754,-100,4,2,1,5,0,0
44852,-100,4,2,1,80,0,0
47969,-100,4,2,1,80,0,1
49138,-100,4,2,1,80,0,1
49527,-100,4,2,1,80,0,1
50696,-100,4,2,1,80,0,1
51086,-100,4,2,1,80,0,1
54105,-100,4,2,1,5,0,1
54203,-100,4,2,1,80,0,1
54884,-100,4,2,1,5,0,1
54982,-100,4,2,1,80,0,1
55371,-100,4,2,1,80,0,1
55664,-100,4,2,1,5,0,1
55761,-100,4,2,1,80,0,1
56151,-100,4,2,1,80,0,1
57612,-100,4,2,1,5,0,1
57709,-100,4,2,1,80,0,1
58001,-100,4,2,1,5,0,1
58099,-100,4,2,1,80,0,1
58488,-100,4,2,1,80,0,1
58780,-100,4,2,1,5,0,1
58878,-100,4,2,1,80,0,1
59267,-100,4,2,1,80,0,1
61605,-100,4,2,1,80,0,1
61995,-100,4,2,1,80,0,1
63164,-100,4,2,1,80,0,1
63553,-100,4,2,1,80,0,1
66962,-100,4,2,1,5,0,1
67060,-100,4,2,1,80,0,1
67352,-100,4,2,1,5,0,1
67449,-100,4,2,1,80,0,1
67839,-100,4,2,1,80,0,1
68131,-100,4,2,1,5,0,1
68228,-100,4,2,1,80,0,1
68618,-100,4,2,1,80,0,1
70079,-100,4,2,1,5,0,1
70177,-100,4,2,1,80,0,1
70469,-100,4,2,1,5,0,1
70566,-100,4,2,1,80,0,1
71638,-100,4,2,1,5,0,1
71735,-100,4,2,1,80,0,1
72904,-100,4,2,1,80,0,0
77579,-100,4,2,1,70,0,0
79138,-100,4,2,1,80,0,0
82547,-100,4,2,1,5,0,0
82644,-100,4,2,1,80,0,0
90826,-100,4,2,1,80,0,0
91605,-100,4,2,1,75,0,0
96280,-100,4,2,2,75,0,0
97741,-100,4,2,1,5,0,0
97839,-100,4,2,1,80,0,0
100956,-100,4,2,1,80,0,1
102125,-100,4,2,1,80,0,1
102514,-100,4,2,1,80,0,1
103683,-100,4,2,1,80,0,1
104073,-100,4,2,1,80,0,1
107482,-100,4,2,1,5,0,1
107579,-100,4,2,1,80,0,1
107871,-100,4,2,1,5,0,1
107969,-100,4,2,1,80,0,1
108358,-100,4,2,1,80,0,1
108651,-100,4,2,1,5,0,1
108748,-100,4,2,1,80,0,1
109138,-100,4,2,1,80,0,1
110599,-100,4,2,1,5,0,1
110696,-100,4,2,1,80,0,1
110988,-100,4,2,1,5,0,1
111086,-100,4,2,1,80,0,1
111475,-100,4,2,1,80,0,1
111767,-100,4,2,1,5,0,1
111865,-100,4,2,1,80,0,1
112254,-100,4,2,1,80,0,1
114592,-100,4,2,1,80,0,1
114982,-100,4,2,1,80,0,1
116151,-100,4,2,1,80,0,1
116540,-100,4,2,1,80,0,1
119949,-100,4,2,1,5,0,1
120047,-100,4,2,1,80,0,1
120339,-100,4,2,1,5,0,1
120436,-100,4,2,1,80,0,1
120826,-100,4,2,1,80,0,1
121118,-100,4,2,1,5,0,1
121216,-100,4,2,1,80,0,1
121605,-100,4,2,1,80,0,1
123066,-100,4,2,1,5,0,1
123164,-100,4,2,1,80,0,1
123456,-100,4,2,1,5,0,1
123553,-100,4,2,1,80,0,1
124625,-100,4,2,1,5,0,1
124722,-100,4,2,1,80,0,1
125891,-100,4,2,1,80,0,0
131735,-100,4,2,1,60,0,0
138358,-100,4,2,1,70,0,0
143034,-100,4,2,1,70,0,0
144592,-100,4,2,1,70,0,0
152384,-100,4,2,1,70,0,0
157449,-100,4,2,1,40,0,0
157741,-100,4,2,1,5,0,0
157839,-100,4,2,1,70,0,0
158131,-100,4,2,1,5,0,0
158228,-100,4,2,1,70,0,0
158521,-100,4,2,1,5,0,0
158618,-100,4,2,1,80,0,1
159787,-100,4,2,1,80,0,1
160177,-100,4,2,1,80,0,1
161345,-100,4,2,1,80,0,1
161735,-100,4,2,1,80,0,1
164754,-100,4,2,1,5,0,1
164852,-100,4,2,1,80,0,1
165144,-100,4,2,1,5,0,1
165241,-100,4,2,1,80,0,1
165534,-100,4,2,1,5,0,1
165631,-100,4,2,1,80,0,1
166021,-100,4,2,1,80,0,1
166313,-100,4,2,1,5,0,1
166410,-100,4,2,1,80,0,1
166800,-100,4,2,1,80,0,1
168261,-100,4,2,1,5,0,1
168358,-100,4,2,1,80,0,1
168651,-100,4,2,1,5,0,1
168748,-100,4,2,1,80,0,1
169138,-100,4,2,1,80,0,1
169430,-100,4,2,1,5,0,1
169527,-100,4,2,1,80,0,1
169917,-100,4,2,1,80,0,1
172254,-100,4,2,1,80,0,1
172644,-100,4,2,1,80,0,1
173813,-100,4,2,1,80,0,1
174203,-100,4,2,1,80,0,1
177612,-100,4,2,1,5,0,1
177709,-100,4,2,1,80,0,1
178001,-100,4,2,1,5,0,1
178099,-100,4,2,1,80,0,1
178488,-100,4,2,1,80,0,1
178780,-100,4,2,1,5,0,1
178878,-100,4,2,1,80,0,1
179267,-100,4,2,1,80,0,1
180728,-100,4,2,1,5,0,1
180826,-100,4,2,1,80,0,1
181118,-100,4,2,1,5,0,1
181216,-100,4,2,1,80,0,1
182287,-100,4,2,1,5,0,1
182384,-100,4,2,1,80,0,1
183553,-100,4,2,1,80,0,0
186962,-100,4,2,1,5,0,0
187060,-100,4,2,1,80,0,0
193196,-100,4,2,1,5,0,0
193293,-100,4,2,1,80,0,0

[Colours]
Combo1 : 131,7,26
Combo2 : 255,128,128
Combo3 : 255,0,0

[HitObjects]
95,125,1216,6,0,L|252:112,1,140,0|8,0:0|0:0,0:0:0:0:
304,110,1800,2,0,P|358:136|393:221,1,140
385,274,2384,2,0,L|297:289,1,70,8|0,0:0|0:0,0:0:0:0:
247,270,2774,6,0,P|203:266|159:270,2,70,0|0|8,0:0|0:0|0:0,0:0:0:0:
283,209,3358,1,0,0:0:0:0:
283,209,3553,2,0,L|268:109,1,70,0|8,0:0|0:0,0:0:0:0:
257,70,3943,2,0,P|212:67|166:74,1,70,8|0,0:0|0:0,0:0:0:0:
118,81,4332,6,0,L|112:238,1,140,6|8,0:0|0:0,0:0:0:0:
103,290,4917,2,0,P|180:271|238:323,1,140
273,354,5501,2,0,P|312:351|372:331,1,70,8|0,0:0|0:0,0:0:0:0:
382,285,5891,6,0,L|368:200,2,70,0|0|8,0:0|0:0|0:0,0:0:0:0:
440,323,6475,1,0,0:0:0:0:
440,323,6670,2,0,P|459:257|466:229,1,70,0|8,0:0|0:0,0:0:0:0:
484,189,7060,2,0,P|465:123|458:95,1,70,8|0,0:0|0:0,0:0:0:0:
441,55,7449,6,0,P|386:89|292:66,1,140,0|8,0:0|0:0,0:0:0:0:
253,44,8034,2,0,L|101:69,1,140
46,81,8618,2,0,P|54:137|70:169,1,70,8|0,0:0|0:0,0:0:0:0:
102,204,9008,5,0,0:0:0:0:
102,204,9203,1,0,0:0:0:0:
162,238,9397,2,0,L|261:221,1,70,8|0,0:0|0:0,0:0:0:0:
284,180,9787,2,0,L|383:197,1,70,0|8,0:0|0:0,0:0:0:0:
422,204,10177,2,0,P|435:153|428:111,1,70
426,66,10566,6,0,L|261:81,1,140,6|8,0:0|0:0,0:0:0:0:
218,97,11151,2,0,P|186:118|81:111,1,140
20,96,11735,2,0,L|37:197,1,70,8|0,0:0|0:0,0:0:0:0:
44,234,12125,5,6,0:0:0:0:
370,307,13683,6,0,P|384:241|381:140,1,140,0|8,0:0|0:0,0:0:0:0:
371,99,14267,2,0,L|212:104,1,140
160,104,14852,2,0,P|154:170|156:198,1,70,8|0,0:0|0:0,0:0:0:0:
202,224,15241,6,0,P|139:210|52:235,1,140,0|8,0:0|0:0,0:0:0:0:
64,297,15826,1,0,0:0:0:0:
123,334,16021,2,0,P|191:347|258:331,1,140,0|8,0:0|0:0,0:0:0:0:
317,293,16605,1,0,0:0:0:0:
365,242,16800,6,0,L|345:86,1,140,0|8,0:0|0:0,0:0:0:0:
329,35,17384,2,0,P|270:90|192:81,1,140
143,95,17969,2,0,L|56:107,1,70,8|0,0:0|0:0,0:0:0:0:
28,158,18358,6,0,P|46:248|52:322,1,140,6|8,0:0|0:0,0:0:0:0:
183,341,19138,2,0,P|229:332|261:330,1,70
278,265,19527,2,0,P|312:272|347:275,1,70,8|0,0:0|0:0,0:0:0:0:
399,322,19917,6,0,P|397:251|407:162,1,140,6|8,0:0|0:0,0:0:0:0:
440,122,20501,2,0,P|396:153|306:131,1,140
259,96,21086,2,0,L|180:107,1,70,8|0,0:0|0:0,0:0:0:0:
125,76,21475,6,0,P|132:146|121:234,1,140,6|8,0:0|0:0,0:0:0:0:
82,270,22060,1,0,0:0:0:0:
82,270,22254,2,0,L|255:259,1,140,0|8,0:0|0:0,0:0:0:0:
355,305,23034,6,0,P|363:238|317:166,1,140,0|8,0:0|0:0,0:0:0:0:
199,123,23813,2,0,L|110:120,1,70
58,120,24203,1,8,0:0:0:0:
119,245,24592,5,0,0:0:0:0:
430,311,26151,6,0,P|438:256|418:162,1,140,6|8,0:0|0:0,0:0:0:0:
397,108,26735,1,0,0:0:0:0:
397,108,26930,2,0,L|237:102,1,140,0|8,0:0|0:0,0:0:0:0:
187,104,27514,1,0,0:0:0:0:
117,111,27709,6,0,B|99:189|162:168|139:275,1,140,6|8,0:0|0:0,0:0:0:0:
92,291,28293,2,0,P|156:276|239:331,1,140,0|8,0:0|0:0,0:0:0:0:
274,352,28878,2,0,P|317:348|350:334,1,70,8|0,0:0|0:0,0:0:0:0:
400,300,29267,6,0,P|393:241|431:144,1,140,6|8,0:0|0:0,0:0:0:0:
378,105,29852,1,0,0:0:0:0:
378,105,30047,2,0,L|230:118,1,140,0|8,0:0|0:0,0:0:0:0:
102,82,30826,6,0,P|99:136|112:173,1,70
152,200,31216,2,0,P|156:234|151:269,1,70,8|0,0:0|0:0,0:0:0:0:
96,312,31605,2,0,L|257:328,1,140
305,329,32190,1,0,0:0:0:0:
305,329,32384,6,0,P|349:271|345:174,1,140,6|8,0:0|0:0,0:0:0:0:
333,138,32969,1,0,0:0:0:0:
333,138,33164,2,0,B|255:151|283:86|175:111,1,140,0|8,0:0|0:0,0:0:0:0:
133,121,33748,1,0,0:0:0:0:
133,121,33943,6,0,P|145:174|147:208,1,70,6|0,0:0|0:0,0:0:0:0:
81,216,34332,2,0,P|69:269|67:303,1,70,8|0,0:0|0:0,0:0:0:0:
121,329,34722,2,0,L|277:315,1,140,0|8,0:0|0:0,0:0:0:0:
397,344,35501,6,0,P|399:278|341:215,1,140,6|8,0:0|0:0,0:0:0:0:
230,157,36280,2,0,P|237:106|247:66,1,70
189,39,36670,2,0,P|154:45|119:50,1,70,8|0,0:0|0:0,0:0:0:0:
50,60,37060,5,6,0:0:0:0:
158,346,38618,6,0,P|206:338|315:329,1,140,6|8,0:0|0:0,0:0:0:0:
367,333,39203,2,0,P|348:250|386:187,1,140
427,162,39787,2,0,L|408:81,1,70,8|0,0:0|0:0,0:0:0:0:
383,29,40177,6,0,P|299:54|228:57,1,140,0|8,0:0|0:0,0:0:0:0:
177,49,40761,2,0,B|151:129|215:106|182:208,1,140
134,229,41345,2,0,P|80:234|34:233,1,70,8|0,0:0|0:0,0:0:0:0:
53,303,41735,6,0,P|133:324|213:339,1,140,0|8,0:0|0:0,0:0:0:0:
259,335,42319,2,0,P|305:281|389:296,1,140
434,310,42904,2,0,L|443:216,1,70,8|0,0:0|0:0,0:0:0:0:
446,170,43293,5,14,0:0:0:0:
342,77,43683,1,8,0:0:0:0:
238,171,44073,2,0,L|152:167,1,70,8|0,0:0|0:0,0:0:0:0:
98,162,44462,1,8,0:0:0:0:
71,299,44852,6,0,L|218:291,1,140,6|8,0:0|0:1,0:0:0:0:
325,210,45631,2,0,L|472:218,1,140,8|8,0:1|0:1,0:0:0:0:
400,95,46410,5,6,0:0:0:0:
260,83,46800,2,0,P|202:125|180:190,2,140,8|0|8,0:0|0:0|0:0,0:0:0:0:
325,210,47969,6,0,P|301:274|245:314,1,140,6|8,0:0|0:0,0:0:0:0:
189,272,48553,2,0,P|111:259|40:257,1,140
24,190,49138,2,0,P|22:152|37:91,1,70,12|0,0:0|0:0,0:0:0:0:
81,77,49527,6,0,L|252:64,1,140,0|8,0:0|0:0,0:0:0:0:
290,58,50112,2,0,P|351:54|413:131,1,140
413,174,50696,2,0,L|406:257,1,70,12|0,0:0|0:0,0:0:0:0:
426,311,51086,6,0,P|332:308|268:324,1,140,6|8,0:0|0:0,0:0:0:0:
238,267,51670,2,0,P|144:270|80:254,1,140
46,215,52254,2,0,P|46:171|50:123,1,70,8|0,0:0|0:0,0:0:0:0:
59,75,52644,6,0,P|117:112|199:100,1,140,6|8,0:0|0:0,0:0:0:0:
249,78,53228,1,0,0:0:0:0:
249,78,53423,2,0,P|317:72|375:109,1,140,2|8,0:0|0:0,0:0:0:0:
404,247,54203,5,6,0:0:0:0:
294,333,54592,1,8,0:0:0:0:
171,265,54982,2,0,P|141:284|103:305,2,70,0|0|8,0:0|0:0|0:0,0:0:0:0:
207,129,55761,6,0,P|205:93|206:50,2,70,0|0|8,0:0|0:0|0:0,0:0:0:0:
260,173,56345,1,0,0:0:0:0:
260,173,56540,2,0,P|313:128|401:137,1,140,2|8,0:0|0:0,0:0:0:0:
472,233,57320,5,6,0:0:0:0:
387,344,57709,1,8,0:0:0:0:
247,331,58099,2,0,P|258:285|263:237,2,70,0|0|8,0:0|0:0|0:0,0:0:0:0:
109,357,58878,6,0,P|100:323|94:288,1,70
121,223,59267,2,0,P|134:159|118:80,1,140,8|0,0:0|0:0,0:0:0:0:
252,38,60047,2,0,L|331:51,1,70,8|8,0:0|0:0,0:0:0:0:
390,58,60436,6,0,P|405:128|413:214,1,140,6|8,0:0|0:0,0:0:0:0:
420,265,61021,2,0,P|360:246|276:283,1,140
241,321,61605,2,0,P|205:327|157:316,1,70,12|0,0:0|0:0,0:0:0:0:
102,311,61995,6,0,P|75:248|103:162,1,140,0|8,0:0|0:0,0:0:0:0:
123,118,62579,2,0,L|281:103,1,140
313,152,63164,2,0,P|365:160|396:151,1,70,6|0,0:0|0:0,0:0:0:0:
437,114,63553,6,0,P|430:185|435:271,1,140,6|8,0:0|0:0,0:0:0:0:
452,321,64138,2,0,P|383:290|303:309,1,140
264,340,64722,2,0,L|170:335,1,70,8|0,0:0|0:0,0:0:0:0:
124,348,65112,6,0,P|139:249|137:191,1,140,6|8,0:0|0:0,0:0:0:0:
123,140,65696,1,0,0:0:0:0:
123,140,65891,2,0,P|152:84|248:81,1,140,2|8,0:0|0:0,0:0:0:0:
351,123,66670,5,6,0:0:0:0:
399,254,67060,1,8,0:0:0:0:
267,302,67449,2,0,P|283:348|301:373,2,70,0|0|8,0:0|0:0|0:0,0:0:0:0:
217,170,68228,6,0,P|234:140|244:106,2,70,0|0|8,0:0|0:0|0:0,0:0:0:0:
147,179,68813,1,0,0:0:0:0:
147,179,69008,2,0,L|130:327,1,140,0|8,0:0|0:0,0:0:0:0:
267,302,69787,6,0,P|334:294|400:362,1,140,6|8,0:0|0:0,0:0:0:0:
458,213,70566,2,0,P|443:174|439:124,1,70
420,78,70956,2,0,P|385:71|353:59,1,70,8|0,0:0|0:0,0:0:0:0:
283,62,71345,6,0,P|231:91|135:78,1,140,6|8,0:0|0:0,0:0:0:0:
92,123,71930,1,0,0:0:0:0:
92,123,72125,2,0,L|110:284,1,140,2|8,0:0|0:0,0:0:0:0:
126,329,72709,1,8,0:0:0:0:
194,345,72904,5,6,0:0:0:0:
97,184,77579,6,8,P|145:191|179:204,1,70,8|8,0:1|0:1,0:1:0:0:
215,149,77969,2,8,P|248:159|283:162,1,70,8|8,0:1|0:1,0:1:0:0:
323,105,78358,2,0,L|344:268,1,140,8|8,0:1|0:1,0:0:0:0:
388,295,78943,1,0,0:0:0:0:
388,295,79138,6,0,P|317:291|239:329,1,140,6|8,0:0|0:0,0:0:0:0:
184,311,79722,1,2,0:0:0:0:
184,311,79917,2,0,P|113:315|35:277,1,140,2|8,0:0|0:0,0:0:0:0:
27,222,80501,1,2,0:0:0:0:
27,222,80696,6,0,L|39:143,1,70,2|0,0:0|0:0,0:0:0:0:
53,84,81086,1,8,0:0:0:0:
53,84,81280,2,0,P|112:83|206:86,1,140,2|8,0:0|0:0,0:0:0:0:
230,144,81865,2,0,P|277:146|315:128,1,70,8|0,0:0|0:0,0:0:0:0:
349,91,82254,6,0,P|410:94|470:169,1,140,6|10,0:0|0:0,0:0:0:0:
463,217,82839,1,2,0:0:0:0:
463,217,83034,2,0,P|419:235|379:255,1,70,2|0,0:0|0:0,0:0:0:0:
342,286,83423,2,0,P|310:271|277:258,1,70,10|0,0:0|0:0,0:0:0:0:
211,233,83813,5,2,0:0:0:0:
211,233,84008,1,2,0:0:0:0:
150,267,84203,2,0,L|74:258,1,70,8|0,0:0|0:0,0:0:0:0:
20,222,84592,2,0,P|31:131|72:97,1,140,2|8,0:0|0:0,0:0:0:0:
131,81,85177,1,0,0:0:0:0:
131,81,85371,6,0,P|208:89|295:88,1,140,6|8,0:0|0:0,0:0:0:0:
325,45,85956,1,2,0:0:0:0:
325,45,86151,2,0,L|312:209,1,140,2|8,0:0|0:0,0:0:0:0:
350,244,86735,1,0,0:0:0:0:
350,244,86930,6,0,P|297:228|190:232,1,140,0|8,0:0|0:0,0:0:0:0:
173,285,87514,2,0,L|180:121,1,140
147,82,88099,2,0,P|204:70|245:64,1,70,8|0,0:0|0:0,0:0:0:0:
283,83,88488,6,0,P|366:93|450:95,2,140,6|8|0,0:0|0:0|0:0,0:0:0:0:
293,152,89462,1,0,0:0:0:0:
293,152,89657,2,0,L|311:238,1,70,8|0,0:0|0:0,0:0:0:0:
329,287,90047,5,6,0:0:0:0:
59,63,91021,6,0,L|59:158,1,70,8|8,0:0|0:0,0:0:0:0:
65,202,91410,1,8,0:0:0:0:
65,202,91605,6,0,P|124:184|220:191,1,140,0|8,0:0|0:0,0:0:0:0:
257,228,92190,2,0,L|399:214,1,140
465,201,92774,2,0,P|467:144|458:115,1,70,8|0,0:0|0:0,0:0:0:0:
432,68,93164,6,0,P|393:50|294:78,1,140,0|8,0:0|0:0,0:0:0:0:
245,112,93748,2,0,B|163:122|183:73|97:99,1,140
54,138,94332,2,0,P|58:177|73:232,1,70,8|0,0:0|0:0,0:0:0:0:
97,269,94722,6,0,P|171:265|237:295,1,140,0|8,0:0|0:0,0:0:0:0:
279,339,95306,2,0,P|362:326|430:300,1,140
426,238,95891,2,0,P|410:195|408:147,1,70,8|0,0:0|0:0,0:0:0:0:
423,103,96280,5,6,0:0:0:0:
283,90,96670,1,8,0:1:0:0:
180,185,97060,2,0,L|100:182,1,70,8|0,0:1|0:0,0:0:0:0:
39,183,97449,1,8,0:1:0:0:
143,81,97839,6,0,L|300:90,1,140,6|8,0:0|0:1,0:0:0:0:
313,225,98618,2,0,L|470:216,1,140,8|8,0:1|0:1,0:0:0:0:
394,344,99397,5,6,0:0:0:0:
258,308,99787,2,0,P|224:261|228:178,2,140,8|0|8,0:0|0:0|0:0,0:0:0:0:
355,206,100956,6,0,P|360:137|323:79,1,140,6|8,0:0|0:0,0:0:0:0:
253,72,101540,2,0,P|185:76|103:68,1,140
57,112,102125,2,0,P|76:148|86:198,1,70,12|0,0:0|0:0,0:0:0:0:
50,237,102514,6,0,P|141:224|189:279,1,140,0|8,0:0|0:0,0:0:0:0:
190,319,103099,2,0,P|261:322|336:328,1,140
399,326,103683,2,0,P|414:266|414:235,1,70,12|0,0:0|0:0,0:0:0:0:
469,213,104073,6,0,P|456:132|457:60,1,140,6|8,0:0|0:0,0:0:0:0:
391,46,104657,2,0,P|342:66|236:45,1,140
187,55,105241,2,0,L|99:73,1,70,8|0,0:0|0:0,0:0:0:0:
49,84,105631,6,0,P|92:144|92:229,1,140,6|8,0:0|0:0,0:0:0:0:
61,269,106216,1,0,0:0:0:0:
61,269,106410,2,0,L|231:266,1,140,2|8,0:0|0:0,0:0:0:0:
327,326,107190,5,6,0:0:0:0:
450,260,107579,1,8,0:0:0:0:
357,154,107969,2,0,P|366:111|378:69,2,70,0|0|8,0:0|0:0|0:0,0:0:0:0:
224,109,108748,6,0,P|232:142|239:177,2,70,0|0|8,0:0|0:0|0:0,0:0:0:0:
175,58,109332,1,0,0:0:0:0:
175,58,109527,2,0,P|103:72|66:137,1,140,2|8,0:0|0:0,0:0:0:0:
72,264,110306,5,6,0:0:0:0:
197,326,110696,1,8,0:0:0:0:
318,255,111086,2,0,P|361:289|395:314,2,70,0|0|8,0:0|0:0|0:0,0:0:0:0:
201,177,111865,6,0,P|208:122|213:80,1,70
263,61,112254,2,0,P|316:57|408:115,1,140,8|0,0:0|0:0,0:0:0:0:
448,223,113034,2,0,P|407:236|365:238,1,70,8|8,0:0|0:0,0:0:0:0:
333,291,113423,6,0,P|263:288|197:329,1,140,6|8,0:0|0:0,0:0:0:0:
143,357,114008,2,0,P|152:251|145:191,1,140
88,182,114592,2,0,P|89:129|103:90,1,70,12|0,0:0|0:0,0:0:0:0:
140,60,114982,6,0,P|192:79|293:64,1,140,0|8,0:0|0:0,0:0:0:0:
326,21,115566,2,0,L|318:183,1,140
372,206,116151,2,0,P|388:246|388:297,1,70,12|0,0:0|0:0,0:0:0:0:
361,336,116540,6,0,P|310:324|206:326,1,140,6|8,0:0|0:0,0:0:0:0:
162,360,117125,2,0,P|188:302|166:203,1,140
138,171,117709,2,0,P|132:119|148:80,1,70,8|0,0:0|0:0,0:0:0:0:
178,46,118099,6,0,L|346:56,1,140,6|0,0:0|0:0,0:0:0:0:
387,57,118683,1,0,0:0:0:0:
387,57,118878,2,0,P|428:111|421:197,1,140,2|8,0:0|0:0,0:0:0:0:
366,306,119657,5,6,0:0:0:0:
259,212,120047,1,8,0:0:0:0:
154,304,120436,2,8,P|177:353|188:374,2,70,0|0|8,0:0|0:0|0:0,0:0:0:0:
81,183,121216,6,8,P|58:134|47:113,2,70,0|0|8,0:0|0:0|0:0,0:0:0:0:
142,209,121800,1,0,0:0:0:0:
142,209,121995,2,2,P|185:179|266:229,1,140,2|8,0:0|0:0,0:0:0:0:
355,312,122774,5,6,0:0:0:0:
447,206,123164,1,8,0:0:0:0:
350,104,123553,2,0,P|357:66|373:29,2,70,0|0|8,0:0|0:0|0:0,0:0:0:0:
306,159,124138,1,0,0:0:0:0:
306,159,124332,6,0,P|250:176|167:134,1,140,6|8,0:0|0:0,0:0:0:0:
123,100,124917,1,0,0:0:0:0:
123,100,125112,2,0,P|135:220|134:255,1,140,2|8,0:0|0:0,0:0:0:0:
133,309,125696,1,8,0:0:0:0:
195,340,125891,5,6,0:0:0:0:
145,128,131735,6,0,L|157:208,1,70,8|0,0:0|0:0,0:0:0:0:
172,265,132125,2,0,P|261:246|365:325,1,210,6|0,0:0|0:0,0:0:0:0:
407,354,132904,2,0,P|405:261|430:127,1,210,8|0,0:0|0:0,0:0:0:0:
458,85,133683,6,0,L|224:90,1,210,2|0,0:0|0:0,0:0:0:0:
180,69,134462,2,0,P|130:123|138:198,1,140,8|2,0:0|0:0,0:0:0:0:
96,321,135241,6,0,P|174:295|328:282,1,210,6|0,0:0|0:0,0:0:0:0:
359,319,136021,2,0,P|434:255|421:142,1,210,8|0,0:0|0:0,0:0:0:0:
371,108,136800,2,0,P|295:125|212:126,1,140,2|2,0:0|0:0,0:0:0:0:
99,85,137579,2,0,L|122:226,1,140,8|2,0:0|0:0,0:0:0:0:
244,291,138358,5,6,0:0:0:0:
375,340,138748,2,0,P|406:296|411:248,1,70,8|0,0:1|0:0,0:0:0:0:
452,225,139138,2,0,P|421:181|416:133,1,70,8|0,0:1|0:0,0:0:0:0:
427,96,139527,1,8,0:1:0:0:
289,122,139917,5,6,0:0:0:0:
186,216,140306,2,0,L|26:201,1,140,8|8,0:1|0:1,0:0:0:0:
103,331,141086,1,0,0:0:0:0:
242,339,141475,5,6,0:0:0:0:
381,349,141865,2,0,L|400:273,1,70,8|0,0:1|0:0,0:0:0:0:
343,237,142254,2,0,L|324:161,1,70,8|0,0:1|0:0,0:0:0:0:
376,119,142644,1,8,0:1:0:0:
260,40,143034,6,0,P|205:75|181:144,1,140,6|8,0:0|0:1,0:0:0:0:
210,206,143618,1,8,0:1:0:0:
210,206,143813,2,0,P|143:199|54:229,1,140,8|0,0:1|0:0,0:0:0:0:
53,285,144397,1,0,0:0:0:0:
53,285,144592,5,6,0:0:0:0:
256,192,144787,12,6,146151,0:0:0:0:
384,319,152384,6,0,P|419:259|407:169,1,140,6|8,0:0|0:0,0:0:0:0:
385,127,152969,2,0,P|326:137|228:139,1,140
187,102,153553,2,0,P|130:108|97:133,1,70,8|0,0:0|0:0,0:0:0:0:
83,174,153943,5,0,0:0:0:0:
83,174,154138,1,0,0:0:0:0:
123,230,154332,2,0,L|111:318,1,70,8|0,0:0|0:0,0:0:0:0:
159,352,154722,2,0,P|216:331|252:329,1,70,0|8,0:0|0:0,0:0:0:0:
272,277,155112,2,0,P|329:298|365:300,1,70,8|0,0:0|0:0,0:0:0:0:
407,289,155501,6,0,P|410:220|423:121,1,140,0|8,0:0|0:0,0:0:0:0:
437,81,156086,2,0,P|394:119|299:128,1,140
250,102,156670,2,0,P|207:95|166:103,1,70,8|0,0:0|0:0,0:0:0:0:
128,144,157060,5,6,0:0:0:0:
435,340,158618,6,0,P|448:263|443:182,1,140,6|8,0:0|0:0,0:0:0:0:
435,131,159203,2,0,L|279:133,1,140
225,141,159787,2,0,P|178:166|130:169,1,70,12|0,0:0|0:0,0:0:0:0:
91,162,160177,6,0,P|138:224|132:291,1,140,0|8,0:0|0:0,0:0:0:0:
80,326,160761,2,0,L|244:335,1,140
289,328,161345,2,0,P|319:306|363:293,1,70,12|0,0:0|0:0,0:0:0:0:
410,330,161735,6,0,P|388:255|424:184,1,140,6|8,0:0|0:0,0:0:0:0:
466,159,162319,2,0,L|313:148,1,140
255,147,162904,2,0,P|243:185|243:226,1,70,8|0,0:0|0:0,0:0:0:0:
230,284,163293,6,0,P|177:310|91:294,1,140,6|8,0:0|0:0,0:0:0:0:
59,240,163878,1,0,0:0:0:0:
59,240,164073,2,0,L|67:100,1,140,2|8,0:0|0:0,0:0:0:0:
195,44,164852,5,6,0:0:0:0:
314,116,165241,1,8,0:0:0:0:
453,99,165631,2,0,P|478:56|485:26,2,70,0|0|8,0:0|0:0|0:0,0:0:0:0:
401,229,166410,6,0,P|425:272|448:293,2,70,0|0|8,0:0|0:0|0:0,0:0:0:0:
331,236,166995,1,0,0:0:0:0:
331,236,167190,2,0,L|170:229,1,140,2|8,0:0|0:0,0:0:0:0:
60,281,167969,5,6,0:0:0:0:
80,142,168358,1,8,0:0:0:0:
206,82,168748,2,0,P|213:55|219:6,2,70,0|0|8,0:0|0:0|0:0,0:0:0:0:
343,107,169527,6,0,P|347:141|355:175,1,70
415,211,169917,2,0,P|425:262|372:335,1,140,8|2,0:0|0:0,0:0:0:0:
248,280,170696,2,0,P|196:282|161:295,1,70,8|8,0:0|0:0,0:0:0:0:
136,342,171086,6,0,P|147:247|153:173,1,140,6|8,0:0|0:0,0:0:0:0:
108,146,171670,2,0,P|165:73|233:71,1,140
271,94,172254,2,0,P|321:93|359:84,1,70,12|0,0:0|0:0,0:0:0:0:
401,54,172644,6,0,P|383:108|379:214,1,140,0|8,0:0|0:0,0:0:0:0:
420,245,173228,2,0,P|390:229|276:246,1,140
250,297,173813,2,0,P|199:315|157:315,1,70,8|0,0:0|0:0,0:0:0:0:
113,315,174203,6,0,P|108:236|99:143,1,140,6|8,0:0|0:0,0:0:0:0:
80,108,174787,2,0,P|151:117|226:75,1,140
257,36,175371,2,0,P|302:28|352:42,1,70,8|0,0:0|0:0,0:0:0:0:
382,73,175761,6,0,P|377:138|381:220,1,140,6|8,0:0|0:0,0:0:0:0:
393,281,176345,1,0,0:0:0:0:
393,281,176540,2,0,P|336:256|239:272,1,140,2|8,0:0|0:0,0:0:0:0:
142,338,177319,5,6,0:0:0:0:
134,198,177709,1,8,0:0:0:0:
249,118,178099,2,0,P|246:71|240:38,2,70,0|0|8,0:0|0:0|0:0,0:0:0:0:
386,143,178877,6,0,P|380:177|379:212,2,70,0|0|8,0:0|0:0|0:0,0:0:0:0:
455,134,179462,1,0,0:0:0:0:
455,134,179657,2,0,P|467:199|477:290,1,140,2|8,0:0|0:0,0:0:0:0:
355,344,180436,5,6,0:0:0:0:
246,255,180826,1,8,0:0:0:0:
110,290,181216,2,0,P|137:331|146:374,2,70,0|0|8,0:0|0:0|0:0,0:0:0:0:
44,264,181800,1,0,0:0:0:0:
44,264,181995,6,0,L|56:109,1,140,6|8,0:0|0:0,0:0:0:0:
60,54,182579,1,0,0:0:0:0:
60,54,182774,2,0,P|133:51|204:89,1,140,2|8,0:0|0:0,0:0:0:0:
222,142,183358,1,8,0:0:0:0:
288,163,183553,6,0,L|445:136,1,140,6|0,0:0|0:0,0:0:0:0:
410,278,184332,2,0,L|253:305,1,140,2|8,0:0|0:0,0:0:0:0:
202,314,184917,1,0,0:0:0:0:
133,327,185112,6,0,P|114:264|128:174,1,140,6|8,0:0|0:0,0:0:0:0:
214,86,185890,2,0,P|233:149|219:239,1,140,0|8,0:0|0:0,0:0:0:0:
294,206,186475,1,0,0:0:0:0:
294,206,186670,6,0,L|455:174,1,140,6|8,0:0|0:0,0:0:0:0:
472,233,187254,1,0,0:0:0:0:
472,233,187449,2,0,P|469:178|470:79,1,140,0|8,0:0|0:0,0:0:0:0:
411,52,188034,1,0,0:0:0:0:
411,52,188228,6,0,P|325:44|268:88,1,140,6|8,0:0|0:0,0:0:0:0:
241,128,188813,2,0,B|163:136|195:86|86:97,1,140
51,136,189397,2,0,P|57:189|72:221,1,70,8|0,0:0|0:0,0:0:0:0:
37,270,189787,6,0,P|97:262|196:278,1,140,6|8,0:0|0:0,0:0:0:0:
234,309,190371,1,0,0:0:0:0:
234,309,190566,2,0,L|379:293,1,140,2|8,0:0|0:0,0:0:0:0:
443,172,191345,6,0,P|437:120|379:49,1,140,6|8,0:0|0:0,0:0:0:0:
314,54,191930,2,0,L|146:69,1,140
104,67,192514,2,0,P|103:117|120:153,1,70,8|0,0:0|0:0,0:0:0:0:
141,198,192904,5,6,0:0:0:0:
204,322,193293,1,8,0:0:0:0:
303,223,193683,2,0,L|452:231,1,140,0|8,0:0|0:0,0:0:0:0:
477,169,194267,1,0,0:0:0:0:
477,169,194462,6,0,P|448:113|354:88,1,140,4|8,0:0|0:0,0:0:0:0:
248,134,195241,1,2,0:0:0:0:
120,192,195631,2,0,L|144:282,1,70,8|8,0:0|0:0,0:0:0:0:
159,326,196021,5,4,0:0:0:0:
