osu file format v14

[General]
AudioFilename: audio.mp3
AudioLeadIn: 0
PreviewTime: 157283
Countdown: 0
SampleSet: Soft
StackLeniency: 0.7
Mode: 0
LetterboxInBreaks: 0
WidescreenStoryboard: 1

[Editor]
Bookmarks: 2608,4166,7283,10400,13517,25985,38452,44686,47803,48582,49361,50140,50920,51699,52478,53257,54037,54816,60270,66504,72738,78972,81504,85011,88322,91439,96114,97673,99231,100790,103907,107024,113257,119491,125725,138192,142868,143452,143647,144231,144426,144621,145985,158452,164686,170920,177153,183387,186504,189621,192738,194296,195075,195855,196829
DistanceSpacing: 3
BeatDivisor: 4
GridSize: 32
TimelineZoom: 3.899998

[Metadata]
Title:Love Bomb
TitleUnicode:Love Bomb
Artist:fromis_9
ArtistUnicode:프로미스나인
Creator:Everything Dust
Version:Insane
Source:
Tags:fromis 9 프로미스 9 from idol school From.9 Roh Ji-sun 노지선 Lee Na-gyung 이나경 Song Ha-young 송하영 Lee Sae-rom 이새롬 Jang Gyu-ri 장규리 Park Ji-won 박지원 Lee Seo-yeon 이서연 Lee Chae-young 이채영 Baek Ji-heon 백지헌
BeatmapID:2045149
BeatmapSetID:861753

[Difficulty]
HPDrainRate:5
CircleSize:3
OverallDifficulty:7
ApproachRate:9
SliderMultiplier:3.29999990463257
SliderTickRate:1

[Events]
//Background and Video events
0,0,"love bomb.png",0,0
Video,0,"love bomb conv.mp4"
//Break Periods
//Storyboard Layer 0 (Background)
//Storyboard Layer 1 (Fail)
//Storyboard Layer 2 (Pass)
//Storyboard Layer 3 (Foreground)
//Storyboard Sound Samples

[TimingPoints]
1050,389.61038961039,4,2,1,60,1,0
1050,-100,4,2,1,60,0,0
1244,-100,4,2,1,5,0,0
1439,-100,4,2,1,60,0,0
1634,-400,4,2,1,60,0,0
1829,-100,4,2,1,5,0,0
2024,-100,4,2,1,60,0,0
3679,-100,4,2,1,60,0,0
3777,-400,4,2,1,60,0,0
3972,-100,4,2,1,5,0,0
4166,-100,4,2,1,60,0,0
4361,-100,4,2,1,5,0,0
4556,-100,4,2,1,60,0,0
4751,-400,4,2,1,60,0,0
4946,-100,4,2,1,5,0,0
5141,-100,4,2,1,60,0,0
6796,-100,4,2,1,60,0,0
6894,-400,4,2,1,60,0,0
7089,-100,4,2,1,30,0,0
7478,-100,4,2,1,5,0,0
7673,-100,4,2,1,60,0,0
7868,-400,4,2,1,60,0,0
8063,-100,4,2,1,5,0,0
8258,-100,4,2,1,60,0,0
9913,-100,4,2,1,60,0,0
10011,-400,4,2,1,60,0,0
10206,-100,4,2,1,5,0,0
10400,-100,4,2,1,60,0,0
10595,-100,4,2,1,5,0,0
10790,-100,4,2,1,60,0,0
11179,-100,4,2,1,60,0,0
11374,-100,4,2,1,60,0,0
11959,-200,4,2,1,60,0,0
12153,-200,4,2,1,40,0,0
12348,-200,4,2,1,60,0,0
12543,-200,4,2,1,40,0,0
12738,-200,4,2,1,60,0,0
12933,-200,4,2,1,40,0,0
13127,-200,4,2,1,60,0,0
13517,-100,4,2,1,60,0,0
13907,-200,4,2,1,60,0,0
14491,-100,4,2,1,60,0,0
17024,-200,4,2,1,60,0,0
17608,-100,4,2,1,60,0,0
18192,-100,4,2,1,60,0,0
18485,-100,4,2,1,5,0,0
18582,-133.333333333333,4,2,1,60,0,0
18777,-133.333333333333,4,2,1,5,0,0
18972,-100,4,2,1,60,0,0
19264,-100,4,2,1,5,0,0
19361,-100,4,2,1,60,0,0
19459,-100,4,2,1,5,0,0
19556,-100,4,2,1,60,0,0
20140,-200,4,2,1,60,0,0
20725,-100,4,2,1,60,0,0
22478,-133.333333333333,4,2,1,60,0,0
22868,-100,4,2,1,60,0,0
24426,-100,4,2,1,60,0,0
25205,-303.030303030303,4,2,1,60,0,0
25985,-100,4,2,1,60,0,0
27543,-133.333333333333,4,2,1,60,0,0
27835,-100,4,2,1,60,0,0
27933,-100,4,2,1,60,0,0
28127,-133.333333333333,4,2,1,60,0,0
28420,-100,4,2,1,60,0,0
28517,-100,4,2,1,60,0,0
28907,-100,4,2,1,5,0,0
29101,-100,4,2,1,60,0,0
34264,-100,4,2,1,30,0,0
34361,-100,4,2,1,60,0,0
34459,-100,4,2,1,30,0,0
34556,-100,4,2,1,60,0,0
36212,-100,4,2,1,30,0,0
36309,-100,4,2,1,60,0,0
36407,-100,4,2,1,30,0,0
36504,-100,4,2,1,60,0,0
36601,-100,4,2,1,30,0,0
36699,-100,4,2,1,60,0,0
36796,-100,4,2,1,30,0,0
36894,-200,4,2,1,60,0,0
37088,-200,4,2,1,40,0,0
37283,-200,4,2,1,60,0,0
37478,-200,4,2,1,40,0,0
37673,-200,4,2,1,60,0,0
38452,-100,4,2,1,60,0,0
40887,-100,4,2,1,5,0,0
40985,-100,4,2,1,60,0,0
42640,-100,4,2,1,5,0,0
42738,-400,4,2,1,60,0,0
42933,-100,4,2,1,60,0,0
43907,-100,4,2,1,60,0,0
44101,-100,4,2,1,5,0,0
44296,-100,4,2,1,60,0,0
44491,-100,4,2,1,5,0,0
44686,-303.030303030303,4,2,1,60,0,0
45465,-303.030303030303,4,2,1,60,0,0
46634,-133.333333333333,4,2,1,60,0,0
46926,-133.333333333333,4,2,1,5,0,0
47024,-113.636363636364,4,2,1,60,0,0
47316,-100,4,2,1,5,0,0
47413,-100,4,2,1,60,0,0
47705,-100,4,2,1,5,0,0
47803,-100,4,2,1,70,0,1
47998,-100,4,2,1,5,0,1
48095,-100,4,2,1,70,0,1
48290,-100,4,2,1,5,0,1
48387,-100,4,2,1,70,0,1
48679,-100,4,2,1,5,0,1
48777,-100,4,2,1,70,0,1
49361,-100,4,2,1,70,0,1
49556,-100,4,2,1,5,0,1
49653,-100,4,2,1,70,0,1
49848,-100,4,2,1,5,0,1
49945,-100,4,2,1,70,0,1
50238,-100,4,2,1,5,0,1
50335,-100,4,2,1,70,0,1
50920,-133.333333333333,4,2,1,70,0,1
51212,-133.333333333333,4,2,1,5,0,1
51309,-100,4,2,1,70,0,1
51407,-100,4,2,1,70,0,1
51504,-100,4,2,1,70,0,1
51796,-100,4,2,1,5,0,1
51894,-100,4,2,1,70,0,1
52186,-100,4,2,1,5,0,1
52283,-100,4,2,1,70,0,1
53160,-100,4,2,1,5,0,1
53257,-133.333333333333,4,2,1,70,0,1
53647,-100,4,2,1,70,0,1
54037,-133.333333333333,4,2,1,70,0,1
54329,-133.333333333333,4,2,1,5,0,1
54426,-100,4,2,1,70,0,1
54718,-100,4,2,1,5,0,1
54816,-100,4,2,1,70,0,1
55498,-100,4,2,1,5,0,1
55595,-100,4,2,1,70,0,1
56082,-100,4,2,1,5,0,1
56179,-100,4,2,1,70,0,1
57153,-133.333333333333,4,2,1,70,0,1
57446,-133.333333333333,4,2,1,5,0,1
57543,-100,4,2,1,70,0,1
57835,-100,4,2,1,5,0,1
57932,-100,4,2,1,70,0,1
58614,-100,4,2,1,5,0,1
58711,-100,4,2,1,70,0,1
59101,-133.333333333333,4,2,1,70,0,1
59394,-133.333333333333,4,2,1,5,0,1
59491,-100,4,2,1,70,0,1
59783,-100,4,2,1,5,0,1
59881,-100,4,2,1,70,0,1
60173,-100,4,2,1,5,0,1
60270,-100,4,2,1,70,0,1
60465,-100,4,2,1,5,0,1
60562,-100,4,2,1,70,0,1
60757,-100,4,2,1,5,0,1
60854,-100,4,2,1,70,0,1
61147,-100,4,2,1,5,0,1
61244,-100,4,2,1,70,0,1
62024,-100,4,2,1,5,0,1
62121,-100,4,2,1,70,0,1
62316,-100,4,2,1,5,0,1
62413,-100,4,2,1,70,0,1
62705,-100,4,2,1,5,0,1
62802,-100,4,2,1,70,0,1
63387,-133.333333333333,4,2,1,70,0,1
63679,-133.333333333333,4,2,1,5,0,1
63777,-100,4,2,1,70,0,1
63874,-100,4,2,1,70,0,1
63972,-100,4,2,1,70,0,1
64264,-100,4,2,1,5,0,1
64361,-113.636363636364,4,2,1,70,0,1
64653,-100,4,2,1,5,0,1
64750,-100,4,2,1,70,0,1
65725,-200,4,2,1,70,0,1
65920,-200,4,2,1,5,0,1
66017,-133.333333333333,4,2,1,70,0,1
66212,-200,4,2,1,5,0,1
66309,-100,4,2,1,70,0,1
66407,-200,4,2,1,5,0,1
66504,-133.333333333333,4,2,1,70,0,1
66796,-133.333333333333,4,2,1,5,0,1
66894,-100,4,2,1,70,0,1
67186,-100,4,2,1,5,0,1
67283,-100,4,2,1,70,0,1
67965,-200,4,2,1,5,0,1
68062,-100,4,2,1,70,0,1
68160,-100,4,2,1,30,0,1
68257,-100,4,2,1,70,0,1
68354,-100,4,2,1,30,0,1
68452,-100,4,2,1,70,0,1
68549,-100,4,2,1,30,0,1
68647,-100,4,2,1,70,0,1
68744,-100,4,2,1,30,0,1
68842,-100,4,2,1,70,0,1
69037,-200,4,2,1,5,0,1
69134,-100,4,2,1,70,0,1
69329,-200,4,2,1,5,0,1
69426,-100,4,2,1,70,0,1
69524,-100,4,2,1,30,0,1
69621,-133.333333333333,4,2,1,70,0,1
69913,-200,4,2,1,5,0,1
70011,-100,4,2,1,70,0,1
70303,-200,4,2,1,5,0,1
70400,-100,4,2,1,70,0,1
70498,-100,4,2,1,30,0,1
70595,-100,4,2,1,70,0,1
70692,-100,4,2,1,30,0,1
70790,-100,4,2,1,70,0,1
70887,-100,4,2,1,30,0,1
70985,-100,4,2,1,70,0,1
71082,-100,4,2,1,30,0,1
71179,-100,4,2,1,70,0,1
71374,-100,4,2,1,5,0,1
71764,-100,4,2,1,70,0,1
72153,-100,4,2,1,5,0,1
72251,-400,4,2,1,70,0,1
72446,-100,4,2,1,5,0,1
72543,-100,4,2,1,70,0,1
72738,-100,4,2,1,60,0,0
75270,-100,4,2,1,5,0,0
75368,-400,4,2,1,60,0,0
75562,-100,4,2,1,5,0,0
75660,-100,4,2,1,60,0,0
78192,-100,4,2,1,5,0,0
78387,-200,4,2,1,60,0,0
78972,-200,4,2,1,60,0,0
79069,-100,4,2,1,5,0,0
79166,-100,4,2,1,60,0,0
79264,-100,4,2,1,60,0,0
79459,-100,4,2,1,5,0,0
79556,-100,4,2,1,60,0,0
79751,-200,4,2,1,60,0,0
79848,-100,4,2,1,5,0,0
79946,-100,4,2,1,60,0,0
80043,-100,4,2,1,60,0,0
80238,-100,4,2,1,5,0,0
80335,-100,4,2,1,60,0,0
80530,-200,4,2,1,60,0,0
80627,-100,4,2,1,5,0,0
80725,-100,4,2,1,60,0,0
80822,-100,4,2,1,30,0,0
80920,-100,4,2,1,60,0,0
81017,-100,4,2,1,30,0,0
81114,-200,4,2,1,60,0,0
81407,-100,4,2,1,5,0,0
81504,-100,4,2,1,60,0,0
82088,-100,4,2,1,60,0,0
82381,-100,4,2,1,5,0,0
82478,-100,4,2,1,60,0,0
82868,-100,4,2,1,60,0,0
83160,-100,4,2,1,5,0,0
83257,-100,4,2,1,60,0,0
83550,-100,4,2,1,5,0,0
83647,-100,4,2,1,60,0,0
83744,-100,4,2,1,30,0,0
83842,-100,4,2,1,60,0,0
83939,-100,4,2,1,30,0,0
84037,-100,4,2,1,60,0,0
84134,-100,4,2,1,30,0,0
84231,-100,4,2,1,60,0,0
84329,-100,4,2,1,30,0,0
84426,-100,4,2,1,60,0,0
85205,-200,4,2,1,60,0,0
85302,-100,4,2,1,5,0,0
85399,-100,4,2,1,60,0,0
85497,-100,4,2,1,60,0,0
85692,-100,4,2,1,5,0,0
85789,-100,4,2,1,60,0,0
85984,-200,4,2,1,60,0,0
86081,-100,4,2,1,5,0,0
86179,-100,4,2,1,60,0,0
86276,-100,4,2,1,60,0,0
86471,-100,4,2,1,5,0,0
86568,-100,4,2,1,60,0,0
86764,-400,4,2,1,60,0,0
87738,-100,4,2,1,60,0,0
87933,-100,4,2,1,60,0,0
88322,-100,4,2,1,60,0,0
89199,-100,4,2,1,30,0,0
89296,-100,4,2,1,60,0,0
89394,-100,4,2,1,30,0,0
89491,-100,4,2,1,60,0,0
89588,-100,4,2,1,30,0,0
89686,-100,4,2,1,60,0,0
89783,-100,4,2,1,30,0,0
89881,-200,4,2,1,60,0,0
90075,-200,4,2,1,40,0,0
90270,-200,4,2,1,60,0,0
90465,-200,4,2,1,40,0,0
90660,-200,4,2,1,60,0,0
90855,-100,4,2,1,60,0,0
91439,-100,4,2,1,60,0,0
93874,-100,4,2,1,5,0,0
93972,-100,4,2,1,60,0,0
95627,-100,4,2,1,5,0,0
95725,-400,4,2,1,60,0,0
95920,-100,4,2,1,60,0,0
96894,-100,4,2,1,60,0,0
97088,-100,4,2,1,5,0,0
97283,-100,4,2,1,60,0,0
97478,-100,4,2,1,5,0,0
97673,-303.030303030303,4,2,1,60,0,0
98452,-303.030303030303,4,2,1,60,0,0
99621,-133.333333333333,4,2,1,60,0,0
99913,-133.333333333333,4,2,1,5,0,0
100011,-113.636363636364,4,2,1,60,0,0
100303,-100,4,2,1,5,0,0
100400,-100,4,2,1,60,0,0
100692,-100,4,2,1,5,0,0
100790,-100,4,2,1,70,0,1
100985,-100,4,2,1,5,0,1
101082,-100,4,2,1,70,0,1
101277,-100,4,2,1,5,0,1
101374,-100,4,2,1,70,0,1
101666,-100,4,2,1,5,0,1
101764,-100,4,2,1,70,0,1
102348,-100,4,2,1,70,0,1
102543,-100,4,2,1,5,0,1
102640,-100,4,2,1,70,0,1
102835,-100,4,2,1,5,0,1
102932,-100,4,2,1,70,0,1
103225,-100,4,2,1,5,0,1
103322,-100,4,2,1,70,0,1
103907,-133.333333333333,4,2,1,70,0,1
104199,-133.333333333333,4,2,1,5,0,1
104296,-100,4,2,1,70,0,1
104394,-100,4,2,1,70,0,1
104491,-100,4,2,1,70,0,1
104783,-100,4,2,1,5,0,1
104881,-100,4,2,1,70,0,1
105173,-100,4,2,1,5,0,1
105270,-100,4,2,1,70,0,1
106147,-100,4,2,1,5,0,1
106244,-133.333333333333,4,2,1,70,0,1
106634,-100,4,2,1,70,0,1
107024,-133.333333333333,4,2,1,70,0,1
107316,-133.333333333333,4,2,1,5,0,1
107413,-100,4,2,1,70,0,1
107705,-100,4,2,1,5,0,1
107803,-100,4,2,1,70,0,1
108485,-100,4,2,1,5,0,1
108582,-100,4,2,1,70,0,1
109069,-100,4,2,1,5,0,1
109166,-100,4,2,1,70,0,1
110140,-133.333333333333,4,2,1,70,0,1
110433,-133.333333333333,4,2,1,5,0,1
110530,-100,4,2,1,70,0,1
110822,-100,4,2,1,5,0,1
110919,-100,4,2,1,70,0,1
111601,-100,4,2,1,5,0,1
111698,-100,4,2,1,70,0,1
112088,-133.333333333333,4,2,1,70,0,1
112381,-133.333333333333,4,2,1,5,0,1
112478,-100,4,2,1,70,0,1
112770,-100,4,2,1,5,0,1
112868,-100,4,2,1,70,0,1
113160,-100,4,2,1,5,0,1
113257,-100,4,2,1,70,0,1
113452,-100,4,2,1,5,0,1
113549,-100,4,2,1,70,0,1
113744,-100,4,2,1,5,0,1
113841,-100,4,2,1,70,0,1
114134,-100,4,2,1,5,0,1
114231,-100,4,2,1,70,0,1
115011,-100,4,2,1,5,0,1
115108,-100,4,2,1,70,0,1
115303,-100,4,2,1,5,0,1
115400,-100,4,2,1,70,0,1
115692,-100,4,2,1,5,0,1
115789,-100,4,2,1,70,0,1
116374,-133.333333333333,4,2,1,70,0,1
116666,-133.333333333333,4,2,1,5,0,1
116764,-100,4,2,1,70,0,1
116861,-100,4,2,1,70,0,1
116959,-100,4,2,1,70,0,1
117251,-100,4,2,1,5,0,1
117348,-133.333333333333,4,2,1,70,0,1
117640,-100,4,2,1,5,0,1
117737,-100,4,2,1,70,0,1
118712,-200,4,2,1,70,0,1
118907,-200,4,2,1,5,0,1
119004,-133.333333333333,4,2,1,70,0,1
119199,-200,4,2,1,5,0,1
119296,-100,4,2,1,70,0,1
119394,-200,4,2,1,5,0,1
119491,-133.333333333333,4,2,1,70,0,1
119783,-133.333333333333,4,2,1,5,0,1
119881,-100,4,2,1,70,0,1
120173,-100,4,2,1,5,0,1
120270,-100,4,2,1,70,0,1
120952,-200,4,2,1,5,0,1
121049,-100,4,2,1,70,0,1
121147,-100,4,2,1,30,0,1
121244,-100,4,2,1,70,0,1
121341,-100,4,2,1,30,0,1
121439,-100,4,2,1,70,0,1
121536,-100,4,2,1,30,0,1
121634,-100,4,2,1,70,0,1
121731,-100,4,2,1,30,0,1
121829,-100,4,2,1,70,0,1
122024,-200,4,2,1,5,0,1
122121,-100,4,2,1,70,0,1
122316,-200,4,2,1,5,0,1
122413,-100,4,2,1,70,0,1
122511,-100,4,2,1,30,0,1
122608,-133.333333333333,4,2,1,70,0,1
122900,-200,4,2,1,5,0,1
122998,-100,4,2,1,70,0,1
123290,-200,4,2,1,5,0,1
123387,-100,4,2,1,70,0,1
123485,-100,4,2,1,30,0,1
123582,-100,4,2,1,70,0,1
123679,-100,4,2,1,30,0,1
123777,-100,4,2,1,70,0,1
123874,-100,4,2,1,30,0,1
123972,-100,4,2,1,70,0,1
124069,-100,4,2,1,30,0,1
124166,-100,4,2,1,70,0,1
124361,-100,4,2,1,5,0,1
124751,-100,4,2,1,70,0,1
125140,-100,4,2,1,5,0,1
125238,-400,4,2,1,70,0,1
125433,-100,4,2,1,5,0,1
125530,-100,4,2,1,70,0,1
125725,-133.333333333333,4,2,1,60,0,0
126504,-200,4,2,1,40,0,0
127088,-200,4,2,1,5,0,0
127283,-142.857142857143,4,2,1,40,0,0
127575,-142.857142857143,4,2,1,5,0,0
127673,-250,4,2,1,40,0,0
127965,-250,4,2,1,5,0,0
128062,-200,4,2,1,40,0,0
128355,-200,4,2,1,5,0,0
128452,-333.333333333333,4,2,1,40,0,0
128744,-333.333333333333,4,2,1,5,0,0
128842,-200,4,2,1,40,0,0
129134,-200,4,2,1,5,0,0
129231,-250,4,2,1,40,0,0
129524,-250,4,2,1,5,0,0
129621,-250,4,2,1,40,0,0
129913,-250,4,2,1,5,0,0
130011,-333.333333333333,4,2,1,40,0,0
130692,-200,4,2,1,5,0,0
130790,-250,4,2,1,40,0,0
131959,-833.333333333333,4,2,1,40,0,0
132738,-400,4,2,1,40,0,0
133420,-400,4,2,1,5,0,0
133517,-200,4,2,1,40,0,0
133809,-200,4,2,1,5,0,0
133907,-200,4,2,1,40,0,0
134199,-200,4,2,1,5,0,0
134296,-200,4,2,1,40,0,0
134588,-200,4,2,1,5,0,0
134686,-200,4,2,1,40,0,0
135368,-100,4,2,1,5,0,0
135465,-833.333333333333,4,2,1,40,0,0
136244,-200,4,2,1,40,0,0
136537,-200,4,2,1,5,0,0
136634,-200,4,2,1,40,0,0
137121,-100,4,2,1,5,0,0
137218,-200,4,2,1,40,0,0
137705,-100,4,2,1,5,0,0
137803,-200,4,2,1,40,0,0
138095,-100,4,2,1,5,0,0
138192,-133.333333333333,4,2,1,50,0,0
138485,-133.333333333333,4,2,1,5,0,0
138582,-133.333333333333,4,2,1,50,0,0
138679,-133.333333333333,4,2,1,20,0,0
138777,-133.333333333333,4,2,1,50,0,0
138874,-133.333333333333,4,2,1,20,0,0
138972,-133.333333333333,4,2,1,50,0,0
139069,-133.333333333333,4,2,1,20,0,0
139166,-133.333333333333,4,2,1,50,0,0
139264,-133.333333333333,4,2,1,20,0,0
139361,-133.333333333333,4,2,1,50,0,0
139653,-133.333333333333,4,2,1,5,0,0
139751,-133.333333333333,4,2,1,50,0,0
140043,-133.333333333333,4,2,1,5,0,0
140140,-133.333333333333,4,2,1,50,0,0
140433,-133.333333333333,4,2,1,5,0,0
140530,-133.333333333333,4,2,1,50,0,0
140822,-133.333333333333,4,2,1,5,0,0
140920,-133.333333333333,4,2,1,50,0,0
141212,-133.333333333333,4,2,1,5,0,0
141309,-133.333333333333,4,2,1,50,0,0
141601,-133.333333333333,4,2,1,5,0,0
141699,-133.333333333333,4,2,1,50,0,0
141796,-133.333333333333,4,2,1,20,0,0
141894,-133.333333333333,4,2,1,50,0,0
141991,-133.333333333333,4,2,1,20,0,0
142088,-133.333333333333,4,2,1,50,0,0
142186,-133.333333333333,4,2,1,20,0,0
142283,-133.333333333333,4,2,1,50,0,0
142381,-133.333333333333,4,2,1,20,0,0
142478,-133.333333333333,4,2,1,50,0,0
142770,-133.333333333333,4,2,1,5,0,0
142868,-100,4,2,1,50,0,0
143160,-100,4,2,1,5,0,0
143452,-100,4,2,1,50,0,0
143550,-100,4,2,1,5,0,0
143647,-100,4,2,1,50,0,0
143842,-100,4,2,1,5,0,0
144231,-100,4,2,1,50,0,0
144329,-100,4,2,1,5,0,0
144426,-100,4,2,1,50,0,0
144621,-100,4,2,1,5,0,0
144670,-100,4,2,1,50,0,0
145790,-100,4,2,1,40,0,0
145985,-100,4,2,1,60,0,0
146179,-100,4,2,1,5,0,0
146374,-100,4,2,1,60,0,0
146569,-400,4,2,1,60,0,0
146764,-100,4,2,1,5,0,0
146959,-100,4,2,1,60,0,0
148614,-100,4,2,1,60,0,0
148712,-400,4,2,1,60,0,0
148907,-100,4,2,1,5,0,0
149101,-100,4,2,1,60,0,0
149296,-100,4,2,1,5,0,0
149491,-100,4,2,1,60,0,0
149686,-400,4,2,1,60,0,0
149881,-100,4,2,1,5,0,0
150076,-100,4,2,1,60,0,0
151731,-100,4,2,1,60,0,0
151829,-400,4,2,1,60,0,0
152024,-100,4,2,1,60,0,0
152413,-100,4,2,1,5,0,0
152608,-100,4,2,1,60,0,0
152803,-400,4,2,1,60,0,0
152998,-100,4,2,1,5,0,0
153193,-100,4,2,1,60,0,0
154848,-100,4,2,1,60,0,0
154946,-400,4,2,1,60,0,0
155141,-100,4,2,1,5,0,0
155335,-100,4,2,1,60,0,0
155530,-100,4,2,1,5,0,0
155725,-100,4,2,1,60,0,0
156114,-100,4,2,1,60,0,0
156309,-100,4,2,1,60,0,0
156699,-100,4,2,1,5,0,0
156894,-100,4,2,1,60,0,0
157186,-100,4,2,1,5,0,0
157283,-200,4,2,1,60,0,0
157575,-200,4,2,1,5,0,0
157673,-133.333333333333,4,2,1,60,0,0
157965,-133.333333333333,4,2,1,5,0,0
158062,-100,4,2,1,60,0,0
158355,-100,4,2,1,5,0,0
158452,-100,4,2,1,70,0,1
158647,-100,4,2,1,5,0,1
158744,-100,4,2,1,70,0,1
158939,-100,4,2,1,5,0,1
159036,-100,4,2,1,70,0,1
159328,-100,4,2,1,5,0,1
159426,-100,4,2,1,70,0,1
160010,-100,4,2,1,70,0,1
160205,-100,4,2,1,5,0,1
160302,-100,4,2,1,70,0,1
160497,-100,4,2,1,5,0,1
160594,-100,4,2,1,70,0,1
160887,-100,4,2,1,5,0,1
160984,-100,4,2,1,70,0,1
161569,-133.333333333333,4,2,1,70,0,1
161861,-133.333333333333,4,2,1,5,0,1
161958,-100,4,2,1,70,0,1
162056,-100,4,2,1,70,0,1
162153,-100,4,2,1,70,0,1
162445,-100,4,2,1,5,0,1
162543,-100,4,2,1,70,0,1
162835,-100,4,2,1,5,0,1
162932,-100,4,2,1,70,0,1
163809,-100,4,2,1,5,0,1
163906,-133.333333333333,4,2,1,70,0,1
164296,-100,4,2,1,70,0,1
164686,-133.333333333333,4,2,1,70,0,1
164978,-133.333333333333,4,2,1,5,0,1
165075,-100,4,2,1,70,0,1
165367,-100,4,2,1,5,0,1
165465,-100,4,2,1,70,0,1
166147,-100,4,2,1,5,0,1
166244,-100,4,2,1,70,0,1
166731,-100,4,2,1,5,0,1
166828,-100,4,2,1,70,0,1
167802,-133.333333333333,4,2,1,70,0,1
168095,-133.333333333333,4,2,1,5,0,1
168192,-100,4,2,1,70,0,1
168484,-100,4,2,1,5,0,1
168581,-100,4,2,1,70,0,1
169263,-100,4,2,1,5,0,1
169360,-100,4,2,1,70,0,1
169750,-100,4,2,1,70,0,1
170043,-100,4,2,1,5,0,1
170140,-100,4,2,1,70,0,1
170432,-100,4,2,1,5,0,1
170530,-100,4,2,1,70,0,1
170822,-100,4,2,1,5,0,1
170919,-100,4,2,1,70,0,1
171114,-100,4,2,1,5,0,1
171211,-100,4,2,1,70,0,1
171406,-100,4,2,1,5,0,1
171503,-100,4,2,1,70,0,1
171796,-100,4,2,1,5,0,1
171893,-100,4,2,1,70,0,1
172673,-100,4,2,1,5,0,1
172770,-100,4,2,1,70,0,1
172965,-100,4,2,1,5,0,1
173062,-100,4,2,1,70,0,1
173354,-100,4,2,1,5,0,1
173451,-100,4,2,1,70,0,1
174036,-133.333333333333,4,2,1,70,0,1
174328,-133.333333333333,4,2,1,5,0,1
174426,-100,4,2,1,70,0,1
174523,-100,4,2,1,70,0,1
174621,-100,4,2,1,70,0,1
174913,-100,4,2,1,5,0,1
175010,-133.333333333333,4,2,1,70,0,1
175302,-100,4,2,1,5,0,1
175399,-100,4,2,1,70,0,1
176374,-200,4,2,1,70,0,1
176569,-200,4,2,1,5,0,1
176666,-133.333333333333,4,2,1,70,0,1
176861,-200,4,2,1,5,0,1
176958,-100,4,2,1,70,0,1
177056,-200,4,2,1,5,0,1
177153,-133.333333333333,4,2,1,70,0,1
177445,-133.333333333333,4,2,1,5,0,1
177543,-100,4,2,1,70,0,1
177835,-100,4,2,1,5,0,1
177932,-100,4,2,1,70,0,1
178614,-200,4,2,1,5,0,1
178711,-100,4,2,1,70,0,1
178809,-100,4,2,1,30,0,1
178906,-100,4,2,1,70,0,1
179003,-100,4,2,1,30,0,1
179101,-100,4,2,1,70,0,1
179198,-100,4,2,1,30,0,1
179296,-100,4,2,1,70,0,1
179393,-100,4,2,1,30,0,1
179491,-100,4,2,1,70,0,1
179686,-200,4,2,1,5,0,1
179783,-100,4,2,1,70,0,1
179978,-200,4,2,1,5,0,1
180075,-100,4,2,1,70,0,1
180173,-100,4,2,1,30,0,1
180270,-133.333333333333,4,2,1,70,0,1
180562,-200,4,2,1,5,0,1
180660,-100,4,2,1,70,0,1
180952,-200,4,2,1,5,0,1
181049,-100,4,2,1,70,0,1
181147,-100,4,2,1,30,0,1
181244,-100,4,2,1,70,0,1
181341,-100,4,2,1,30,0,1
181439,-100,4,2,1,70,0,1
181536,-100,4,2,1,30,0,1
181634,-100,4,2,1,70,0,1
181731,-100,4,2,1,30,0,1
181828,-100,4,2,1,70,0,1
182023,-100,4,2,1,5,0,1
182413,-100,4,2,1,70,0,1
182802,-100,4,2,1,5,0,1
182900,-400,4,2,1,70,0,1
183095,-100,4,2,1,5,0,1
183192,-100,4,2,1,70,0,1
183582,-200,4,2,1,70,0,1
183777,-200,4,2,1,5,0,1
183972,-100,4,2,1,70,0,1
184166,-100,4,2,1,70,0,1
184264,-100,4,2,1,5,0,1
184361,-100,4,2,1,70,0,1
184653,-100,4,2,1,5,0,1
184751,-100,4,2,1,70,0,1
185043,-100,4,2,1,5,0,1
185140,-100,4,2,1,70,0,1
185433,-100,4,2,1,5,0,1
185530,-100,4,2,1,70,0,1
185822,-100,4,2,1,5,0,1
185920,-133.333333333333,4,2,1,70,0,1
186212,-100,4,2,1,5,0,1
186309,-100,4,2,1,70,0,1
186407,-100,4,2,1,5,0,1
186504,-100,4,2,1,70,0,1
186894,-100,4,2,1,70,0,1
187186,-100,4,2,1,5,0,1
187283,-100,4,2,1,70,0,1
187381,-100,4,2,1,5,0,1
187478,-133.333333333333,4,2,1,70,0,1
187770,-100,4,2,1,5,0,1
187868,-100,4,2,1,70,0,1
188160,-100,4,2,1,5,0,1
188257,-100,4,2,1,70,0,1
188550,-100,4,2,1,5,0,1
188647,-100,4,2,1,70,0,1
188939,-100,4,2,1,5,0,1
189037,-100,4,2,1,70,0,1
189134,-100,4,2,1,5,0,1
189231,-100,4,2,1,70,0,1
189329,-100,4,2,1,5,0,1
189426,-133.333333333333,4,2,1,70,0,1
189816,-100,4,2,1,5,0,1
190011,-100,4,2,1,70,0,1
190303,-100,4,2,1,5,0,1
190400,-100,4,2,1,70,0,1
190498,-100,4,2,1,5,0,1
190595,-100,4,2,1,70,0,1
190887,-100,4,2,1,5,0,1
190985,-100,4,2,1,70,0,1
191277,-100,4,2,1,5,0,1
191374,-100,4,2,1,70,0,1
191666,-100,4,2,1,5,0,1
191764,-100,4,2,1,70,0,1
192056,-100,4,2,1,5,0,1
192153,-100,4,2,1,70,0,1
192446,-100,4,2,1,5,0,1
192543,-100,4,2,1,70,0,1
193030,-100,4,2,1,5,0,1
193127,-100,4,2,1,70,0,1
193420,-100,4,2,1,5,0,1
193517,-100,4,2,1,70,0,1
193907,-100,4,2,1,5,0,1
194101,-100,4,2,1,70,0,1
194588,-100,4,2,1,5,0,1
194686,-100,4,2,1,70,0,1
194978,-100,4,2,1,5,0,1
195075,-100,4,2,1,70,0,1
195270,-100,4,2,1,5,0,1
195368,-400,4,2,1,70,0,1
195562,-400,4,2,1,5,0,1
195660,-100,4,2,1,70,0,1
195855,-100,4,2,1,60,0,0

[Colours]
Combo1 : 113,211,244
Combo2 : 215,0,0
Combo3 : 226,118,226
SliderBorder : 255,239,223
SliderTrackOverride : 43,11,12

[HitObjects]
43,302,1050,6,0,P|-16:327|8:267,1,164.999995231629
321,163,1439,1,0,0:0:0:0:
164,216,1634,2,0,L|136:174,1,41.2499988079071
476,108,2024,5,0,0:0:0:0:
317,63,2218,2,0,P|275:117|288:223,1,164.999995231629
410,312,2608,1,0,0:0:0:0:
342,161,2803,1,0,0:0:0:0:
348,326,2998,1,0,0:0:0:0:
397,169,3192,1,0,0:0:0:0:
286,291,3387,2,0,P|215:315|287:284,1,247.499992847443
372,320,3777,2,0,L|344:291,1,41.2499988079071
435,168,4166,6,0,P|494:143|470:203,1,164.999995231629
157,307,4556,1,0,0:0:0:0:
314,254,4751,2,0,L|310:204,1,41.2499988079071
2,362,5140,5,0,0:0:0:0:
201,273,5335,1,0,0:0:0:0:
100,378,5530,1,0,0:0:0:0:
231,162,5725,2,0,P|136:169|86:245,1,164.999995231629
266,384,6114,2,0,P|338:323|336:232,1,164.999995231629
365,73,6504,2,0,P|436:49|364:80,1,247.499992847443
278,43,6894,2,0,L|307:73,1,41.2499988079071
433,234,7284,6,0,P|492:259|468:199,1,164.999995231629
155,95,7673,1,0,0:0:0:0:
312,148,7868,2,0,L|316:99,1,41.2499988079071
0,40,8258,5,0,0:0:0:0:
120,165,8452,1,0,0:0:0:0:
52,14,8647,1,0,0:0:0:0:
58,179,8842,1,0,0:0:0:0:
107,22,9036,1,0,0:0:0:0:
4,163,9231,2,0,P|76:224|165:206,1,164.999995231629
93,61,9621,2,0,P|22:37|94:68,1,247.499992847443
179,31,10011,2,0,L|151:61,1,41.2499988079071
261,240,10400,6,0,P|302:201|253:229,1,164.999995231629
364,335,10790,2,0,P|397:230|221:75,1,329.999990463257
101,91,11374,5,0,0:0:0:0:
151,240,11569,2,0,P|196:254|150:234,1,164.999995231629
293,264,11959,2,0,P|295:220|265:168,6,82.4999976158143
266,284,13322,5,0,0:0:0:0:
503,217,13517,2,0,P|454:298|366:317,1,164.999995231629
230,318,13907,6,0,L|281:266,1,41.2499988079071
235,218,14101,2,0,L|183:269,1,41.2499988079071
135,222,14296,2,0,L|186:170,1,41.2499988079071
146,126,14491,5,0,0:0:0:0:
146,126,14686,1,0,0:0:0:0:
146,126,14881,1,0,0:0:0:0:
186,285,15075,2,0,P|276:274|328:224,1,164.999995231629
460,125,15465,5,0,0:0:0:0:
460,125,15660,1,0,0:0:0:0:
420,284,15855,2,0,P|330:273|278:223,1,164.999995231629
114,194,16244,5,0,0:0:0:0:
114,194,16439,1,0,0:0:0:0:
154,353,16634,2,0,P|244:342|296:292,1,164.999995231629
483,183,17024,6,0,L|414:162,1,41.2499988079071
394,225,17218,2,0,L|463:245,1,41.2499988079071
444,311,17413,2,0,L|375:290,1,41.2499988079071
358,345,17608,5,0,0:0:0:0:
358,345,17803,1,0,0:0:0:0:
358,345,17998,1,0,0:0:0:0:
111,360,18192,2,0,P|55:286|72:124,1,247.499992847443
313,140,18582,2,0,P|271:184|211:197,1,123.750001144409
46,0,18972,2,0,P|-10:74|7:235,1,247.499992847443
178,250,19361,2,0,P|143:278|136:331,1,82.4999976158143
154,348,19556,5,0,0:0:0:0:
351,235,19751,2,0,P|258:177|179:189,1,164.999995231629
89,224,20140,6,0,L|128:212,1,41.2499988079071
141,138,20335,2,0,L|101:149,1,41.2499988079071
53,92,20530,2,0,L|92:80,1,41.2499988079071
226,55,20725,5,0,0:0:0:0:
226,55,20920,1,0,0:0:0:0:
226,55,21114,1,0,0:0:0:0:
186,214,21309,2,0,P|96:203|44:153,1,164.999995231629
0,125,21699,5,0,0:0:0:0:
0,125,21894,1,0,0:0:0:0:
40,284,22088,2,0,P|130:273|182:223,1,164.999995231629
349,29,22478,2,0,P|281:89|267:160,1,123.750001144409
512,297,22868,6,0,P|509:210|409:108,1,164.999995231629
217,339,23257,2,0,P|303:336|431:223,1,247.499992847443
487,119,23647,5,0,0:0:0:0:
487,119,23841,1,0,0:0:0:0:
447,278,24037,2,0,P|357:267|305:217,1,164.999995231629
177,124,24426,5,0,0:0:0:0:
199,289,24621,1,0,0:0:0:0:
134,138,24816,1,0,0:0:0:0:
235,269,25011,1,0,0:0:0:0:
96,165,25205,2,0,L|157:212,3,54.4499982602692
25,119,25985,5,0,0:0:0:0:
25,119,26179,1,0,0:0:0:0:
65,278,26374,2,0,P|155:267|207:217,1,164.999995231629
228,129,26764,5,0,0:0:0:0:
228,129,26958,1,0,0:0:0:0:
268,288,27153,2,0,P|358:277|410:227,1,164.999995231629
460,30,27543,6,0,P|380:101|363:185,1,185.625001716614
400,216,27933,1,0,0:0:0:0:
177,179,28127,2,0,P|249:259|334:276,1,185.625001716614
512,222,28517,2,0,P|423:201|230:362,1,329.999990463257
167,339,29101,5,0,0:0:0:0:
167,339,29295,1,0,0:0:0:0:
323,383,29491,2,0,P|358:299|341:229,1,164.999995231629
276,167,29880,5,0,0:0:0:0:
276,167,30074,1,0,0:0:0:0:
434,212,30270,2,0,P|469:128|452:58,1,164.999995231629
298,30,30660,5,0,0:0:0:0:
245,133,30855,1,0,0:0:0:0:
362,127,31050,1,0,0:0:0:0:
298,30,31244,1,0,0:0:0:0:
141,144,31439,1,0,0:0:0:0:
60,90,31634,5,0,0:0:0:0:
60,90,31829,1,0,0:0:0:0:
60,90,32023,1,0,0:0:0:0:
99,247,32218,2,0,P|189:236|241:186,1,164.999995231629
309,123,32608,5,0,0:0:0:0:
309,123,32802,1,0,0:0:0:0:
270,280,32998,2,0,P|180:269|127:219,1,164.999995231629
39,188,33387,5,0,0:0:0:0:
39,188,33581,1,0,0:0:0:0:
78,345,33777,2,0,P|168:334|220:284,1,164.999995231629
308,215,34166,6,0,P|290:295|295:311,1,82.4999976158143
348,351,34361,2,0,P|364:313|365:272,1,82.4999976158143
199,163,34556,2,0,P|207:203|312:300,1,164.999995231629
505,384,34946,2,0,P|474:355|333:336,1,164.999995231629
78,384,35335,6,0,P|49:353|30:212,1,164.999995231629
190,20,35725,2,0,P|195:60|130:188,1,164.999995231629
10,163,36114,6,0,P|64:127|93:126,1,82.4999976158143
157,163,36310,2,0,P|130:189|82:204,1,82.4999976158143
15,131,36504,2,0,P|79:127|94:135,1,82.4999976158143
133,207,36700,2,0,P|100:215|52:202,1,82.4999976158143
20,195,36894,2,0,P|41:235|36:294,4,82.4999976158143
106,120,37868,5,0,0:0:0:0:
106,120,38062,1,0,0:0:0:0:
106,120,38257,1,0,0:0:0:0:
106,120,38452,2,0,P|47:157|21:267,1,164.999995231629
214,95,38842,2,0,P|157:24|18:10,1,164.999995231629
93,332,39231,2,0,P|167:332|239:0,1,494.999985694885
158,160,40011,6,0,P|225:175|373:-39,1,329.999990463257
249,49,40595,2,0,P|266:109|424:199,1,247.499992847443
505,139,40985,5,0,0:0:0:0:
505,139,41179,1,0,0:0:0:0:
505,139,41374,1,0,0:0:0:0:
465,298,41569,2,0,P|375:287|323:237,1,164.999995231629
500,110,41959,2,0,P|471:186|404:230,1,164.999995231629
258,131,42348,2,0,P|272:60|267:138,1,247.499992847443
208,178,42738,2,0,L|247:165,1,41.2499988079071
124,110,43127,6,0,P|95:196|119:264,1,164.999995231629
307,156,43517,2,0,P|225:149|157:191,1,164.999995231629
219,368,43907,2,0,P|258:331|216:365,1,164.999995231629
116,384,44296,2,0,P|132:314|90:233,1,164.999995231629
35,338,44686,6,0,L|15:288,3,54.4499982602692
154,350,45465,1,0,0:0:0:0:
175,332,45562,1,0,0:0:0:0:
196,315,45659,1,0,0:0:0:0:
217,298,45757,1,0,0:0:0:0:
238,281,45854,1,0,0:0:0:0:
260,264,45952,1,0,0:0:0:0:
281,247,46049,1,0,0:0:0:0:
302,230,46146,1,0,0:0:0:0:
323,213,46244,5,0,0:0:0:0:
374,311,46634,6,0,P|414:242|380:123,1,185.625001716614
185,37,47024,2,0,P|188:100|306:210,1,217.800000352478
423,0,47413,2,0,P|342:84|340:250,1,247.499992847443
472,384,47803,6,0,P|488:304|428:213,1,164.999995231629
484,155,48095,2,0,P|422:101|314:106,1,164.999995231629
232,149,48387,2,0,P|215:228|327:354,1,247.499992847443
477,339,48777,2,0,P|466:284|466:340,1,164.999995231629
40,384,49361,6,0,P|23:304|83:213,1,164.999995231629
28,155,49653,2,0,P|89:101|197:106,1,164.999995231629
280,149,49945,2,0,P|296:228|184:354,1,247.499992847443
35,339,50335,2,0,P|51:285|42:340,1,164.999995231629
389,319,50920,6,0,P|402:252|333:154,1,185.625001716614
288,256,51309,1,0,0:0:0:0:
195,106,51504,2,0,P|171:191|256:326,1,247.499992847443
416,139,51894,2,0,P|303:137|185:282,1,247.499992847443
156,384,52283,2,0,P|268:345|167:63,1,494.999985694885
5,154,53062,6,0,P|46:197|103:194,1,82.4999976158143
211,118,53257,2,0,P|124:142|92:207,1,123.750001144409
296,365,53647,2,0,P|353:260|323:168,1,164.999995231629
171,65,54037,6,0,P|153:138|214:224,1,185.625001716614
377,300,54426,2,0,P|405:235|327:78,1,247.499992847443
431,43,54816,6,0,P|428:116|367:178,1,164.999995231629
160,84,55205,2,0,P|229:91|353:228,1,247.499992847443
233,309,55595,2,0,P|267:244|348:213,1,164.999995231629
439,287,55984,2,0,P|457:224|450:197,1,82.4999976158143
398,143,56179,6,0,P|379:175|378:226,1,82.4999976158143
473,312,56374,2,0,P|471:228|416:150,1,164.999995231629
191,102,56764,2,0,P|238:171|329:204,1,164.999995231629
496,178,57153,6,0,P|423:160|337:221,1,185.625001716614
290,384,57543,2,0,P|319:320|240:162,1,247.499992847443
77,266,57932,6,0,P|79:192|140:130,1,164.999995231629
348,225,58321,2,0,P|279:218|155:81,1,247.499992847443
275,0,58712,2,0,P|241:65|160:96,1,164.999995231629
0,3,59101,6,0,P|73:-1|159:79,1,185.625001716614
207,355,59491,2,0,P|118:273|121:153,1,247.499992847443
446,158,59881,2,0,P|366:246|246:244,1,247.499992847443
26,92,60270,6,0,P|107:97|179:177,1,164.999995231629
249,139,60562,2,0,P|285:212|252:315,1,164.999995231629
190,384,60854,2,0,P|109:378|16:239,1,247.499992847443
69,98,61244,2,0,P|119:122|65:107,1,164.999995231629
486,92,61829,6,0,P|404:97|333:177,1,164.999995231629
263,139,62121,2,0,P|227:212|260:315,1,164.999995231629
322,384,62413,2,0,P|403:378|496:239,1,247.499992847443
443,98,62803,2,0,P|392:122|446:107,1,164.999995231629
299,370,63387,6,0,P|235:348|184:240,1,185.625001716614
295,251,63776,1,0,0:0:0:0:
73,300,63971,2,0,P|95:214|236:139,1,247.499992847443
437,192,64361,2,0,P|376:231|242:195,1,217.800000352478
244,17,64751,2,0,P|345:79|182:332,1,494.999985694885
429,326,65725,6,0,P|450:252|440:221,1,82.4999976158143
219,127,66017,2,0,P|244:199|309:242,1,123.750001144409
449,177,66309,2,0,P|407:143|319:152,1,82.4999976158143
88,185,66504,6,0,P|115:255|214:290,1,185.625001716614
397,308,66894,2,0,P|346:259|171:279,1,247.499992847443
50,329,67283,6,0,P|52:255|113:193,1,164.999995231629
397,308,67673,2,0,P|323:305|227:166,1,247.499992847443
300,23,68062,6,0,P|296:88|280:111,1,82.4999976158143
214,143,68257,2,0,P|208:106|224:58,1,82.4999976158143
323,46,68452,2,0,P|287:100|272:107,1,82.4999976158143
192,97,68647,2,0,P|204:66|242:35,1,82.4999976158143
339,74,68842,6,0,P|290:117|170:102,1,164.999995231629
73,1,69134,2,0,P|116:49|101:170,1,164.999995231629
11,191,69426,2,0,P|41:175|95:177,1,82.4999976158143
227,311,69621,6,0,P|191:244|227:146,1,185.625001716614
392,38,70011,2,0,P|396:108|269:229,1,247.499992847443
201,260,70400,6,0,P|204:194|220:171,1,82.4999976158143
287,140,70595,2,0,P|292:176|276:224,1,82.4999976158143
178,237,70790,2,0,P|213:182|228:175,1,82.4999976158143
309,186,70985,2,0,P|296:216|258:247,1,82.4999976158143
143,214,71179,6,0,P|191:170|312:186,1,164.999995231629
367,203,71764,5,0,0:0:0:0:
305,164,71959,2,0,P|288:209|308:171,1,164.999995231629
362,114,72251,2,0,L|342:149,1,41.2499988079071
236,328,72543,1,0,0:0:0:0:
362,114,72738,1,0,0:0:0:0:
145,203,74101,5,0,0:0:0:0:
207,164,75075,2,0,P|223:209|203:171,1,164.999995231629
150,114,75368,2,0,L|169:149,1,41.2499988079071
276,328,75660,1,0,0:0:0:0:
150,114,75855,1,0,0:0:0:0:
256,192,77413,12,0,78192,0:0:0:0:
401,194,78387,6,0,L|419:98,2,82.4999976158143
314,221,78972,6,0,L|303:278,1,41.2499988079071
298,301,79166,1,0,0:0:0:0:
390,253,79264,2,0,P|382:195|290:138,1,164.999995231629
214,141,79556,5,0,0:0:0:0:
214,141,79751,2,0,L|225:198,1,41.2499988079071
230,221,79945,1,0,0:0:0:0:
138,173,80043,2,0,P|146:115|238:58,1,164.999995231629
314,61,80335,5,0,0:0:0:0:
314,61,80530,2,0,L|303:118,1,41.2499988079071
256,156,80725,5,0,0:0:0:0:
256,156,80822,1,0,0:0:0:0:
256,156,80920,1,0,0:0:0:0:
256,156,81017,1,0,0:0:0:0:
256,156,81114,2,0,P|284:197|353:214,1,123.749996423721
453,173,81504,5,0,0:0:0:0:
453,173,81699,1,0,0:0:0:0:
453,173,81894,1,0,0:0:0:0:
403,329,82088,2,0,P|253:337|153:271,1,247.499992847443
59,173,82478,5,0,0:0:0:0:
59,173,82673,1,0,0:0:0:0:
109,329,82867,2,0,P|258:337|358:271,1,247.499992847443
441,166,83257,2,0,P|328:212|264:316,1,247.499992847443
385,357,83647,6,0,P|425:351|462:332,1,82.4999976158143
484,250,83842,2,0,P|405:275|394:288,1,82.4999976158143
433,374,84037,2,0,P|464:349|486:314,1,82.4999976158143
462,237,84231,2,0,P|406:298|403:314,1,82.4999976158143
485,384,84426,2,0,P|496:274|299:178,1,329.999990463257
188,203,85011,5,0,0:0:0:0:
188,203,85205,2,0,L|177:260,1,41.2499988079071
172,283,85399,1,0,0:0:0:0:
264,235,85497,2,0,P|256:177|164:120,1,164.999995231629
88,123,85789,5,0,0:0:0:0:
88,123,85984,2,0,L|99:180,1,41.2499988079071
104,203,86178,1,0,0:0:0:0:
12,155,86277,2,0,P|20:97|112:40,1,164.999995231629
188,43,86568,5,0,0:0:0:0:
346,84,86764,2,0,P|327:91|345:84,1,164.999995231629
245,126,87738,5,0,0:0:0:0:
506,2,87933,1,0,0:0:0:0:
448,249,88322,6,0,P|376:258|293:203,1,164.999995231629
150,14,88712,2,0,P|214:47|250:139,1,164.999995231629
150,282,89101,6,0,P|169:219|190:200,1,82.4999976158143
264,188,89297,2,0,P|258:224|231:266,1,82.4999976158143
133,253,89492,2,0,P|179:208|196:205,1,82.4999976158143
273,237,89687,2,0,P|252:262|206:283,1,82.4999976158143
173,303,89881,2,0,P|209:321|234:353,4,82.4999976158143
167,384,90855,5,0,0:0:0:0:
167,384,91049,1,0,0:0:0:0:
167,384,91244,1,0,0:0:0:0:
167,384,91439,2,0,P|189:318|291:268,1,164.999995231629
442,227,91829,2,0,P|376:204|326:102,1,164.999995231629
494,32,92218,2,0,P|531:96|279:324,1,494.999985694885
120,318,92998,6,0,P|140:252|399:231,1,329.999990463257
512,229,93582,2,0,P|495:169|337:79,1,247.499992847443
215,92,93972,5,0,0:0:0:0:
215,92,94166,1,0,0:0:0:0:
215,92,94361,1,0,0:0:0:0:
255,251,94556,2,0,P|345:240|397:190,1,164.999995231629
220,63,94946,2,0,P|249:139|316:183,1,164.999995231629
462,84,95335,2,0,P|448:13|453:91,1,247.499992847443
512,131,95725,2,0,L|473:118,1,41.2499988079071
305,57,96114,6,0,P|276:143|300:211,1,164.999995231629
465,216,96504,2,0,P|379:187|311:211,1,164.999995231629
200,278,96894,2,0,P|239:314|202:275,1,164.999995231629
124,359,97283,2,0,P|108:289|150:208,1,164.999995231629
396,280,97673,6,0,L|376:230,3,54.4499982602692
222,298,98452,1,0,0:0:0:0:
210,272,98549,1,0,0:0:0:0:
198,248,98646,1,0,0:0:0:0:
189,223,98744,1,0,0:0:0:0:
177,198,98841,1,0,0:0:0:0:
166,172,98939,1,0,0:0:0:0:
154,148,99036,1,0,0:0:0:0:
143,124,99133,1,0,0:0:0:0:
133,100,99231,5,0,0:0:0:0:
48,308,99621,6,0,P|127:308|213:219,1,185.625001716614
190,7,100011,2,0,P|136:41|108:203,1,217.800000352478
341,194,100400,2,0,P|227:165|82:247,1,247.499992847443
337,358,100790,6,0,P|353:278|293:187,1,164.999995231629
245,293,101082,2,0,P|167:266|118:169,1,164.999995231629
0,225,101374,2,0,P|24:148|184:94,1,247.499992847443
310,125,101764,2,0,P|294:178|298:123,1,164.999995231629
175,358,102348,6,0,P|159:278|219:187,1,164.999995231629
267,293,102640,2,0,P|345:266|394:169,1,164.999995231629
512,225,102932,2,0,P|488:148|328:94,1,247.499992847443
202,125,103322,2,0,P|218:178|214:123,1,164.999995231629
58,379,103907,6,0,P|125:392|223:323,1,185.625001716614
116,277,104296,1,0,0:0:0:0:
310,380,104491,2,0,P|334:295|249:160,1,247.499992847443
93,76,104881,2,0,P|122:159|269:221,1,247.499992847443
460,164,105270,2,0,P|357:105|210:366,1,494.999985694885
325,254,106049,6,0,P|291:232|222:235,1,82.4999976158143
116,295,106244,2,0,P|194:249|208:178,1,123.750001144409
72,48,106634,2,0,P|22:156|61:245,1,164.999995231629
394,180,107024,6,0,P|339:127|234:137,1,185.625001716614
87,240,107413,2,0,P|129:296|304:307,1,247.499992847443
442,243,107803,6,0,P|439:316|378:378,1,164.999995231629
187,250,108192,2,0,P|256:257|380:394,1,247.499992847443
63,381,108582,2,0,P|97:316|178:285,1,164.999995231629
307,328,108971,2,0,P|325:265|318:238,1,82.4999976158143
266,184,109166,6,0,P|247:216|246:267,1,82.4999976158143
341,353,109361,2,0,P|339:269|284:191,1,164.999995231629
100,232,109751,2,0,P|163:286|259:294,1,164.999995231629
460,75,110140,6,0,P|387:57|301:118,1,185.625001716614
430,359,110530,2,0,P|459:242|391:143,1,247.499992847443
198,125,110919,6,0,P|242:184|327:200,1,164.999995231629
443,4,111308,2,0,P|390:49|367:232,1,247.499992847443
512,229,111699,2,0,P|446:195|362:216,1,164.999995231629
300,384,112088,6,0,P|304:311|224:225,1,185.625001716614
0,318,112478,2,0,P|119:301|186:201,1,247.499992847443
107,17,112868,2,0,P|122:134|221:202,1,247.499992847443
422,219,113257,6,0,P|389:144|287:104,1,164.999995231629
169,98,113550,2,0,P|238:140|344:115,1,164.999995231629
512,40,113841,2,0,P|431:46|342:189,1,247.499992847443
486,183,114231,2,0,P|460:133|477:186,1,164.999995231629
90,219,114816,6,0,P|122:144|224:104,1,164.999995231629
343,98,115109,2,0,P|273:140|167:115,1,164.999995231629
0,40,115400,2,0,P|80:46|169:189,1,247.499992847443
26,183,115790,2,0,P|51:133|34:186,1,164.999995231629
301,318,116374,6,0,P|313:251|245:153,1,185.625001716614
199,256,116763,1,0,0:0:0:0:
476,224,116959,2,0,P|399:157|220:172,1,247.499992847443
37,262,117348,2,0,P|112:269|216:184,1,185.625001716614
386,14,117738,2,0,P|293:88|485:319,1,494.999985694885
200,384,118712,6,0,P|179:310|189:279,1,82.4999976158143
279,196,119004,2,0,P|254:268|189:311,1,123.750001144409
126,295,119296,1,0,0:0:0:0:
297,368,119491,6,0,P|344:309|324:206,1,185.625001716614
80,233,119881,2,0,P|164:301|314:273,1,247.499992847443
334,77,120270,6,0,P|270:115|247:199,1,164.999995231629
512,307,120660,2,0,P|472:244|304:230,1,247.499992847443
149,355,121049,6,0,P|199:314|209:288,1,82.4999976158143
197,215,121244,2,0,P|163:231|133:271,1,82.4999976158143
181,360,121439,2,0,P|204:299|201:283,1,82.4999976158143
147,224,121634,2,0,P|128:251|124:300,1,82.4999976158143
213,357,121829,6,0,P|220:292|139:202,1,164.999995231629
0,181,122121,2,0,P|63:188|154:107,1,164.999995231629
120,21,122413,2,0,P|115:53|142:107,1,82.4999976158143
285,311,122608,6,0,P|321:244|285:146,1,185.625001716614
120,38,122998,2,0,P|116:108|243:229,1,247.499992847443
311,260,123387,6,0,P|308:194|292:171,1,82.4999976158143
225,140,123582,2,0,P|220:176|236:224,1,82.4999976158143
334,237,123777,2,0,P|299:182|284:175,1,82.4999976158143
203,186,123972,2,0,P|216:216|254:247,1,82.4999976158143
369,214,124166,6,0,P|321:170|200:186,1,164.999995231629
145,203,124751,5,0,0:0:0:0:
207,164,124946,2,0,P|224:209|204:171,1,164.999995231629
150,114,125238,2,0,L|170:149,1,41.2499988079071
276,328,125530,1,0,0:0:0:0:
150,114,125725,1,0,0:0:0:0:
281,384,126504,6,0,P|312:322|191:193,1,247.499992847443
40,267,127283,2,0,P|105:312|206:299,1,173.24998970604
239,227,127673,2,0,P|203:243|173:299,1,98.9999971389771
302,375,128062,6,0,P|332:323|308:243,1,123.749996423721
269,238,128452,2,0,P|271:264|304:314,1,74.2499955883028
428,286,128842,6,0,P|393:283|310:326,1,123.749996423721
237,384,129231,2,0,P|219:368|203:279,1,98.9999971389771
176,199,129621,2,0,P|181:221|143:303,1,98.9999971389771
73,308,130011,2,0,P|64:271|149:171,1,173.24998970604
256,167,130790,2,0,P|257:255|252:167,1,263.999992370606
336,202,131764,5,0,0:0:0:0:
377,271,131959,2,0,L|407:323,1,59.3999997335816
480,148,132738,6,0,P|477:103|419:23,1,144.374995827675
280,197,133517,2,0,P|320:232|405:230,1,123.749996423721
394,170,133907,2,0,P|343:187|302:261,1,123.749996423721
274,371,134296,2,0,P|215:353|179:304,1,123.749996423721
137,162,134686,2,0,P|179:141|133:169,1,288.74999165535
113,147,135465,2,0,L|125:109,1,39.5999998223877
139,306,136244,6,0,P|184:349|251:355,1,123.749996423721
333,336,136634,2,0,P|349:299|324:340,1,206.249994039536
432,317,137218,2,0,P|447:297|416:131,1,206.249994039536
307,137,137803,6,0,P|345:157|431:140,1,123.749996423721
460,38,138192,2,0,P|407:74|385:212,1,185.625001716614
462,242,138582,6,0,P|469:202|453:169,1,61.8750005722046
390,150,138777,2,0,P|382:188|398:221,1,61.8750005722046
481,214,138972,2,0,P|466:177|437:157,1,61.8750005722046
374,172,139167,2,0,P|388:209|418:229,1,61.8750005722046
512,182,139361,6,0,P|486:120|369:61,1,185.625001716614
293,144,139751,2,0,P|322:149|456:56,1,185.625001716614
432,0,140140,2,0,P|411:22|430:176,1,185.625001716614
480,263,140530,2,0,P|509:271|476:259,1,185.625001716614
235,306,140920,6,0,P|198:290|140:158,1,185.625001716614
256,122,141309,2,0,P|222:166|89:179,1,185.625001716614
107,74,141699,6,0,P|137:49|174:47,1,61.8750005722046
220,93,141894,2,0,P|188:118|141:120,1,61.8750005722046
119,45,142089,2,0,P|157:48|185:73,1,61.8750005722046
184,136,142284,2,0,P|144:131|116:107,1,61.8750005722046
156,19,142478,6,0,P|199:37|269:164,1,185.625001716614
238,391,142868,2,0,P|213:350|267:161,1,247.499992847443
7,237,143452,6,0,P|67:236|113:211,1,82.4999976158143
178,161,143647,2,0,P|193:102|173:158,1,164.999995231629
118,29,144231,6,0,P|118:89|143:135,1,82.4999976158143
248,221,144426,2,0,P|263:163|243:219,1,164.999995231629
256,192,144670,12,0,145595,0:0:0:0:
469,302,145985,6,0,P|528:327|504:267,1,164.999995231629
191,163,146374,1,0,0:0:0:0:
348,216,146569,2,0,L|376:174,1,41.2499988079071
36,108,146959,5,0,0:0:0:0:
195,63,147153,2,0,P|237:117|224:223,1,164.999995231629
102,312,147543,1,0,0:0:0:0:
170,161,147738,1,0,0:0:0:0:
164,326,147933,1,0,0:0:0:0:
115,169,148127,1,0,0:0:0:0:
226,291,148322,2,0,P|297:315|225:284,1,247.499992847443
140,320,148712,2,0,L|168:291,1,41.2499988079071
77,168,149101,6,0,P|18:143|42:203,1,164.999995231629
355,307,149491,1,0,0:0:0:0:
198,254,149686,2,0,L|202:204,1,41.2499988079071
510,362,150075,5,0,0:0:0:0:
311,273,150270,1,0,0:0:0:0:
469,217,150465,1,0,0:0:0:0:
328,384,150660,2,0,P|249:330|243:239,1,164.999995231629
346,83,151049,2,0,P|377:171|330:249,1,164.999995231629
130,218,151439,2,0,P|73:267|136:220,1,247.499992847443
147,127,151829,2,0,L|158:167,1,41.2499988079071
79,234,152219,6,0,P|20:259|44:199,1,164.999995231629
357,95,152608,1,0,0:0:0:0:
200,148,152803,2,0,L|196:99,1,41.2499988079071
512,40,153192,5,0,0:0:0:0:
392,165,153386,1,0,0:0:0:0:
460,14,153581,1,0,0:0:0:0:
454,179,153776,1,0,0:0:0:0:
405,22,153970,1,0,0:0:0:0:
508,163,154166,2,0,P|436:224|347:206,1,164.999995231629
176,160,154556,2,0,P|152:231|183:159,1,247.499992847443
146,74,154946,2,0,L|176:102,1,41.2499988079071
261,240,155335,6,0,P|302:201|253:229,1,164.999995231629
364,335,155725,2,0,P|397:230|221:75,1,329.999990463257
0,116,156309,5,0,0:0:0:0:
87,302,156504,2,0,P|162:259|197:188,1,164.999995231629
235,323,156894,2,0,P|290:260|230:319,1,247.499992847443
349,384,157283,6,0,P|381:322|381:267,1,123.749996423721
74,148,157673,2,0,P|113:217|226:252,1,185.625001716614
434,29,158062,2,0,P|317:38|205:160,1,247.499992847443
472,384,158452,6,0,P|488:304|428:213,1,164.999995231629
495,128,158744,2,0,P|433:74|325:79,1,164.999995231629
140,223,159037,2,0,P|221:231|346:88,1,247.499992847443
206,83,159426,2,0,P|206:139|217:83,1,164.999995231629
40,384,160011,6,0,P|24:304|84:213,1,164.999995231629
17,128,160303,2,0,P|79:74|187:79,1,164.999995231629
372,223,160596,2,0,P|290:231|166:88,1,247.499992847443
306,83,160985,2,0,P|305:139|294:83,1,164.999995231629
69,0,161569,6,0,P|56:61|125:159,1,185.625001716614
171,52,161958,1,0,0:0:0:0:
76,250,162153,2,0,P|161:274|296:189,1,247.499992847443
372,29,162543,2,0,P|289:58|227:205,1,247.499992847443
313,384,162932,2,0,P|372:281|111:134,1,494.999985694885
0,353,163711,6,0,P|33:374|103:371,1,82.4999976158143
224,252,163906,2,0,P|136:276|104:341,1,123.750001144409
377,384,164296,2,0,P|434:314|425:222,1,164.999995231629
262,62,164686,6,0,P|209:117|219:222,1,185.625001716614
512,228,165075,2,0,P|470:172|295:161,1,247.499992847443
136,363,165465,6,0,P|74:323|51:240,1,164.999995231629
312,135,165855,2,0,P|272:196|105:169,1,247.499992847443
0,32,166244,2,0,P|65:65|96:146,1,164.999995231629
124,343,166633,2,0,P|106:280|113:253,1,82.4999976158143
165,199,166828,6,0,P|184:231|185:282,1,82.4999976158143
90,368,167023,2,0,P|92:284|147:206,1,164.999995231629
361,143,167413,2,0,P|298:197|202:205,1,164.999995231629
8,164,167803,6,0,P|-10:238|50:324,1,185.625001716614
307,182,168192,2,0,P|242:154|85:232,1,247.499992847443
431,384,168581,6,0,P|460:316|431:234,1,164.999995231629
207,264,168970,2,0,P|272:287|442:215,1,247.499992847443
376,49,169361,2,0,P|335:110|349:195,1,164.999995231629
511,384,169751,6,0,P|502:311|340:233,1,247.499992847443
97,384,170140,2,0,P|169:375|238:193,1,247.499992847443
0,50,170530,2,0,P|8:122|191:191,1,247.499992847443
512,141,170920,6,0,P|432:125|341:185,1,164.999995231629
280,310,171212,2,0,P|355:278|395:176,1,164.999995231629
212,20,171504,2,0,P|169:90|227:262,1,247.499992847443
433,169,171894,2,0,P|378:179|434:183,1,164.999995231629
0,141,172478,6,0,P|80:125|171:185,1,164.999995231629
232,310,172770,2,0,P|158:278|118:176,1,164.999995231629
301,20,173062,2,0,P|344:90|285:262,1,247.499992847443
79,169,173452,2,0,P|135:179|79:183,1,164.999995231629
443,280,174036,6,0,P|455:213|387:115,1,185.625001716614
341,218,174425,1,0,0:0:0:0:
512,74,174621,2,0,P|435:7|256:22,1,247.499992847443
37,262,175010,2,0,P|112:269|216:184,1,185.625001716614
234,9,175400,2,0,P|141:83|333:314,1,494.999985694885
383,161,176374,6,0,P|403:234|393:265,1,82.4999976158143
303,348,176666,2,0,P|327:275|392:232,1,123.750001144409
456,249,176958,1,0,0:0:0:0:
239,384,177153,6,0,P|192:325|212:222,1,185.625001716614
456,249,177543,2,0,P|372:317|222:289,1,247.499992847443
178,77,177932,6,0,P|242:115|265:199,1,164.999995231629
0,280,178322,2,0,P|40:217|208:203,1,247.499992847443
363,355,178711,6,0,P|313:314|303:288,1,82.4999976158143
315,215,178906,2,0,P|349:231|379:271,1,82.4999976158143
331,360,179101,2,0,P|308:299|311:283,1,82.4999976158143
365,224,179296,2,0,P|384:251|388:300,1,82.4999976158143
299,357,179491,6,0,P|292:292|373:202,1,164.999995231629
512,181,179783,2,0,P|449:188|358:107,1,164.999995231629
410,32,180075,2,0,P|415:64|388:118,1,82.4999976158143
227,311,180270,6,0,P|191:244|227:146,1,185.625001716614
410,32,180660,2,0,P|414:102|287:223,1,247.499992847443
201,260,181049,6,0,P|204:194|220:171,1,82.4999976158143
287,140,181244,2,0,P|292:176|276:224,1,82.4999976158143
178,237,181439,2,0,P|213:182|228:175,1,82.4999976158143
309,186,181634,2,0,P|296:216|258:247,1,82.4999976158143
143,214,181828,6,0,P|191:170|312:186,1,164.999995231629
151,237,182413,5,0,0:0:0:0:
141,326,182608,2,0,P|185:306|144:318,1,164.999995231629
105,310,182900,2,0,L|58:323,1,41.2499988079071
306,260,183192,1,0,0:0:0:0:
65,320,183387,1,0,0:0:0:0:
312,258,183582,6,0,L|393:237,1,82.4999976158143
391,237,183972,5,0,0:0:0:0:
254,363,184166,2,0,P|213:357|180:332,1,82.4999976158143
34,275,184361,2,0,P|35:191|156:76,1,247.499992847443
435,113,184751,2,0,P|375:170|207:166,1,247.499992847443
35,33,185140,2,0,P|117:35|233:156,1,247.499992847443
310,374,185530,2,0,P|253:313|257:145,1,247.499992847443
450,29,185920,6,0,P|458:90|384:192,1,185.625001716614
326,251,186309,2,0,P|394:230|433:246,1,82.4999976158143
502,336,186504,2,0,P|423:385|194:282,1,329.999990463257
80,186,187088,6,0,P|116:258|130:268,1,82.4999976158143
361,302,187283,2,0,P|349:262|323:230,1,82.4999976158143
440,72,187478,2,0,P|392:66|272:144,1,185.625001716614
51,384,187868,2,0,P|106:354|178:177,1,247.499992847443
60,0,188257,2,0,P|31:56|73:242,1,247.499992847443
372,114,188647,2,0,P|315:85|129:127,1,247.499992847443
7,275,189037,6,0,P|83:300|100:297,1,82.4999976158143
295,169,189232,2,0,P|258:149|217:144,1,82.4999976158143
343,30,189427,2,0,P|295:24|150:155,1,247.500002288819
437,384,190011,2,0,P|455:323|381:147,1,247.499992847443
262,134,190400,6,0,P|310:164|364:157,1,82.4999976158143
469,70,190595,2,0,P|411:72|256:203,1,247.499992847443
192,384,190985,2,0,P|237:348|290:152,1,247.499992847443
116,25,191374,2,0,P|99:80|168:270,1,247.499992847443
412,317,191764,2,0,P|372:274|173:239,1,247.499992847443
22,299,192153,2,0,P|78:311|262:225,1,247.499992847443
506,81,192543,6,0,P|509:275|332:356,1,412.499988079071
10,233,193127,2,0,P|79:203|236:255,1,247.499992847443
430,361,193517,2,0,P|400:291|563:63,1,329.999990463257
6,81,194101,6,0,P|2:275|179:356,1,412.499988079071
454,202,194685,2,0,P|384:172|227:224,1,247.499992847443
175,320,195075,6,0,P|219:300|178:312,1,164.999995231629
99,315,195368,2,0,L|139:304,1,41.2499988079071
340,254,195659,1,0,0:0:0:0:
99,314,195854,1,0,0:0:0:0:
