osu file format v14

[General]
AudioFilename: memory.mp3
AudioLeadIn: 0
PreviewTime: 64200
Countdown: 0
SampleSet: Soft
StackLeniency: 0.7
Mode: 3
LetterboxInBreaks: 0
SpecialStyle: 0
WidescreenStoryboard: 1

[Editor]
DistanceSpacing: 1
BeatDivisor: 8
GridSize: 8
TimelineZoom: 2.5

[Metadata]
Title:fripside LN Collection
TitleUnicode:fripside LN Collection
Artist:fripside
ArtistUnicode:fripside
Creator:Raediaufar
Version:memory of snow [no sv]
Source:
Tags:anime 4k ln pack noodle hatsuyuki sakura juliet of the boarding school
BeatmapID:1962411
BeatmapSetID:939529

[Difficulty]
HPDrainRate:7
CircleSize:4
OverallDifficulty:0
ApproachRate:5
SliderMultiplier:1.4
SliderTickRate:1

[Events]
//Background and Video events
0,0,"background.jpg",0,0
//Break Periods
//Storyboard Layer 0 (Background)
//Storyboard Layer 1 (Fail)
//Storyboard Layer 2 (Pass)
//Storyboard Layer 3 (Foreground)
//Storyboard Sound Samples

[TimingPoints]
-800,400,4,2,0,0,1,0
3200,1000,4,2,2,0,1,0
3200,-40,4,2,2,0,0,0
21200,400,4,2,2,0,1,0
21200,-100,4,2,2,0,0,0

[HitObjects]
64,192,3200,5,0,0:0:0:0:
320,192,3200,128,0,3575:0:0:0:0:
320,192,3700,128,0,4200:0:0:0:0:
64,192,3950,1,0,0:0:0:0:
448,192,4075,1,0,0:0:0:0:
192,192,4200,1,0,0:0:0:0:
64,192,4200,128,0,4575:0:0:0:0:
64,192,4700,128,0,5200:0:0:0:0:
320,192,4700,1,0,0:0:0:0:
448,192,5200,128,0,5575:0:0:0:0:
192,192,5200,1,0,0:0:0:0:
192,192,5575,1,0,0:0:0:0:
320,192,5700,128,0,6200:0:0:0:0:
64,192,5950,1,0,0:0:0:0:
64,192,6200,128,0,6575:0:0:0:0:
448,192,6200,1,0,0:0:0:0:
64,192,6700,128,0,7200:0:0:0:0:
320,192,7200,128,0,7575:0:0:0:0:
192,192,7200,1,0,0:0:0:0:
320,192,7700,128,0,8200:0:0:0:0:
64,192,7950,1,0,0:0:0:0:
192,192,8075,1,0,0:0:0:0:
448,192,8200,1,0,0:0:0:0:
64,192,8200,128,0,8575:0:0:0:0:
64,192,8700,128,0,9200:0:0:0:0:
320,192,8700,1,0,0:0:0:0:
448,192,9200,128,0,9575:0:0:0:0:
192,192,9200,1,0,0:0:0:0:
320,192,9575,1,0,0:0:0:0:
192,192,9700,128,0,10200:0:0:0:0:
448,192,9950,1,0,0:0:0:0:
448,192,10200,128,0,10575:0:0:0:0:
64,192,10200,1,0,0:0:0:0:
192,192,10575,1,0,0:0:0:0:
192,192,10700,128,0,11075:0:0:0:0:
320,192,10700,1,0,0:0:0:0:
64,192,11200,128,0,11575:0:0:0:0:
448,192,11200,1,0,0:0:0:0:
64,192,11700,128,0,12200:0:0:0:0:
320,192,11950,1,0,0:0:0:0:
192,192,12075,1,0,0:0:0:0:
448,192,12200,128,0,12575:0:0:0:0:
320,192,12200,1,0,0:0:0:0:
448,192,12700,128,0,13200:0:0:0:0:
64,192,12700,1,0,0:0:0:0:
64,192,13200,128,0,13575:0:0:0:0:
192,192,13200,1,0,0:0:0:0:
320,192,13575,1,0,0:0:0:0:
192,192,13700,128,0,14200:0:0:0:0:
448,192,13950,1,0,0:0:0:0:
64,192,14200,1,0,0:0:0:0:
320,192,14200,128,0,14575:0:0:0:0:
448,192,14575,1,0,0:0:0:0:
320,192,14700,128,0,15200:0:0:0:0:
64,192,14700,1,0,0:0:0:0:
64,192,14825,1,0,0:0:0:0:
448,192,14950,1,0,0:0:0:0:
192,192,15200,128,0,15575:0:0:0:0:
64,192,15200,1,0,0:0:0:0:
192,192,15700,1,0,0:0:0:0:
320,192,15700,1,0,0:0:0:0:
448,192,16200,128,0,16575:0:0:0:0:
64,192,16200,1,0,0:0:0:0:
192,192,16700,1,0,0:0:0:0:
448,192,16700,1,0,0:0:0:0:
448,192,17200,128,0,17575:0:0:0:0:
320,192,17200,1,0,0:0:0:0:
64,192,17700,1,0,0:0:0:0:
448,192,17700,1,0,0:0:0:0:
320,192,18200,128,0,18825:0:0:0:0:
192,192,18200,1,0,0:0:0:0:
64,192,18200,1,0,0:0:0:0:
448,192,18200,1,0,0:0:0:0:
192,192,18700,1,0,0:0:0:0:
320,192,18950,1,0,0:0:0:0:
320,192,19200,128,0,21200:0:0:0:0:
64,192,19200,1,0,0:0:0:0:
64,192,19700,1,0,0:0:0:0:
448,192,20200,1,0,0:0:0:0:
64,192,20700,128,0,21200:0:0:0:0:
448,192,21200,128,0,21600:0:0:0:0:
192,192,21200,128,0,21300:0:0:0:0:
64,192,21300,128,0,21600:0:0:0:0:
192,192,21400,128,0,21700:0:0:0:0:
320,192,21500,128,0,21800:0:0:0:0:
448,192,21700,128,0,21900:0:0:0:0:
64,192,21700,1,0,0:0:0:0:
192,192,21800,1,0,0:0:0:0:
320,192,21900,128,0,22000:0:0:0:0:
64,192,21900,1,0,0:0:0:0:
192,192,22000,128,0,22750:0:0:0:0:
448,192,22100,128,0,22200:0:0:0:0:
320,192,22100,128,0,22300:0:0:0:0:
64,192,22200,128,0,22350:0:0:0:0:
448,192,22300,128,0,22400:0:0:0:0:
320,192,22400,128,0,22700:0:0:0:0:
64,192,22400,1,0,0:0:0:0:
448,192,22450,128,0,22700:0:0:0:0:
64,192,22500,128,0,22600:0:0:0:0:
64,192,22700,128,0,22800:0:0:0:0:
192,192,22800,128,0,23550:0:0:0:0:
320,192,22800,128,0,22900:0:0:0:0:
448,192,23000,128,0,23100:0:0:0:0:
64,192,23200,128,0,23300:0:0:0:0:
320,192,23200,1,0,0:0:0:0:
448,192,23300,128,0,23400:0:0:0:0:
320,192,23400,128,0,23500:0:0:0:0:
448,192,23500,128,0,23600:0:0:0:0:
192,192,23600,128,0,23950:0:0:0:0:
320,192,23600,128,0,23700:0:0:0:0:
64,192,23700,128,0,23800:0:0:0:0:
320,192,23800,128,0,23900:0:0:0:0:
448,192,24000,128,0,24350:0:0:0:0:
64,192,24000,128,0,24100:0:0:0:0:
320,192,24000,1,0,0:0:0:0:
192,192,24200,128,0,24300:0:0:0:0:
320,192,24400,128,0,24650:0:0:0:0:
64,192,24400,128,0,24500:0:0:0:0:
64,192,24600,128,0,24700:0:0:0:0:
320,192,24700,128,0,24950:0:0:0:0:
448,192,24800,128,0,24900:0:0:0:0:
192,192,24800,1,0,0:0:0:0:
64,192,24900,128,0,25000:0:0:0:0:
192,192,25000,128,0,25150:0:0:0:0:
320,192,25000,128,0,25100:0:0:0:0:
448,192,25100,128,0,25200:0:0:0:0:
192,192,25200,128,0,25950:0:0:0:0:
320,192,25200,128,0,25300:0:0:0:0:
64,192,25300,128,0,25400:0:0:0:0:
448,192,25400,128,0,25500:0:0:0:0:
320,192,25500,128,0,25600:0:0:0:0:
448,192,25600,1,0,0:0:0:0:
64,192,25600,128,0,25700:0:0:0:0:
448,192,25800,128,0,25900:0:0:0:0:
64,192,25800,1,0,0:0:0:0:
64,192,26000,128,0,26550:0:0:0:0:
320,192,26000,128,0,26100:0:0:0:0:
320,192,26200,128,0,26366:0:0:0:0:
192,192,26400,1,0,0:0:0:0:
320,192,26400,1,0,0:0:0:0:
448,192,26400,128,0,26500:0:0:0:0:
320,192,26500,128,0,26600:0:0:0:0:
192,192,26600,128,0,26700:0:0:0:0:
320,192,26700,1,0,0:0:0:0:
448,192,26700,1,0,0:0:0:0:
64,192,26700,128,0,26800:0:0:0:0:
192,192,26800,128,0,27150:0:0:0:0:
320,192,26800,128,0,26900:0:0:0:0:
448,192,26900,128,0,27000:0:0:0:0:
320,192,27000,128,0,27100:0:0:0:0:
192,192,27200,128,0,27566:0:0:0:0:
320,192,27200,1,0,0:0:0:0:
64,192,27200,128,0,27300:0:0:0:0:
448,192,27200,1,0,0:0:0:0:
64,192,27400,1,0,0:0:0:0:
448,192,27400,128,0,27550:0:0:0:0:
320,192,27600,1,0,0:0:0:0:
64,192,27600,1,0,0:0:0:0:
448,192,27600,128,0,27850:0:0:0:0:
192,192,27600,1,0,0:0:0:0:
64,192,27800,128,0,27900:0:0:0:0:
320,192,27900,128,0,28150:0:0:0:0:
64,192,28000,128,0,28100:0:0:0:0:
448,192,28000,1,0,0:0:0:0:
192,192,28100,128,0,28200:0:0:0:0:
448,192,28200,128,0,28350:0:0:0:0:
64,192,28200,128,0,28300:0:0:0:0:
192,192,28300,128,0,28400:0:0:0:0:
320,192,28400,128,0,28500:0:0:0:0:
448,192,28400,128,0,28766:0:0:0:0:
192,192,28500,128,0,28600:0:0:0:0:
64,192,28600,128,0,28750:0:0:0:0:
448,192,28800,1,0,0:0:0:0:
64,192,28800,1,0,0:0:0:0:
320,192,28800,128,0,29150:0:0:0:0:
192,192,28800,128,0,28900:0:0:0:0:
448,192,29000,128,0,29100:0:0:0:0:
64,192,29000,1,0,0:0:0:0:
320,192,29200,1,0,0:0:0:0:
64,192,29200,1,0,0:0:0:0:
192,192,29200,128,0,29950:0:0:0:0:
448,192,29200,128,0,29300:0:0:0:0:
320,192,29400,128,0,29500:0:0:0:0:
64,192,29600,128,0,29700:0:0:0:0:
448,192,29600,1,0,0:0:0:0:
320,192,29700,128,0,29800:0:0:0:0:
448,192,29800,128,0,29900:0:0:0:0:
320,192,29900,128,0,30000:0:0:0:0:
192,192,30000,128,0,30350:0:0:0:0:
64,192,30000,128,0,30100:0:0:0:0:
448,192,30100,128,0,30200:0:0:0:0:
320,192,30200,128,0,30300:0:0:0:0:
448,192,30300,128,0,30400:0:0:0:0:
64,192,30400,128,0,30750:0:0:0:0:
320,192,30400,128,0,30500:0:0:0:0:
192,192,30600,128,0,30700:0:0:0:0:
448,192,30600,1,0,0:0:0:0:
320,192,30800,128,0,30900:0:0:0:0:
448,192,30800,128,0,30900:0:0:0:0:
192,192,30800,1,0,0:0:0:0:
64,192,31000,1,0,0:0:0:0:
192,192,31100,128,0,31200:0:0:0:0:
320,192,31100,128,0,31200:0:0:0:0:
448,192,31200,1,0,0:0:0:0:
64,192,31400,1,0,0:0:0:0:
448,192,31400,128,0,31500:0:0:0:0:
192,192,31500,1,0,0:0:0:0:
320,192,31500,1,0,0:0:0:0:
64,192,31600,128,0,31700:0:0:0:0:
448,192,31600,128,0,31700:0:0:0:0:
320,192,31800,1,0,0:0:0:0:
64,192,31900,128,0,32000:0:0:0:0:
192,192,31900,128,0,32000:0:0:0:0:
448,192,32000,1,0,0:0:0:0:
320,192,32000,1,0,0:0:0:0:
192,192,32200,128,0,32300:0:0:0:0:
320,192,32200,128,0,32300:0:0:0:0:
64,192,32200,1,0,0:0:0:0:
448,192,32400,128,0,33900:0:0:0:0:
64,192,32400,1,0,0:0:0:0:
320,192,32400,128,0,32500:0:0:0:0:
192,192,32600,1,0,0:0:0:0:
64,192,32800,128,0,33050:0:0:0:0:
320,192,32800,1,0,0:0:0:0:
192,192,32800,128,0,32900:0:0:0:0:
192,192,33000,1,0,0:0:0:0:
320,192,33100,1,0,0:0:0:0:
64,192,33100,128,0,33550:0:0:0:0:
192,192,33200,128,0,33350:0:0:0:0:
320,192,33200,128,0,33550:0:0:0:0:
192,192,33400,1,0,0:0:0:0:
64,192,33600,128,0,33900:0:0:0:0:
192,192,33600,128,0,33750:0:0:0:0:
320,192,33600,128,0,33900:0:0:0:0:
192,192,33850,1,0,0:0:0:0:
192,192,34000,128,0,34400:0:0:0:0:
320,192,34000,128,0,35300:0:0:0:0:
448,192,34000,1,0,0:0:0:0:
64,192,34200,1,0,0:0:0:0:
64,192,34400,1,0,0:0:0:0:
448,192,34400,1,0,0:0:0:0:
192,192,34500,1,0,0:0:0:0:
64,192,34600,1,0,0:0:0:0:
192,192,34700,1,0,0:0:0:0:
448,192,34800,1,0,0:0:0:0:
64,192,34800,1,0,0:0:0:0:
192,192,34900,1,0,0:0:0:0:
448,192,35100,1,0,0:0:0:0:
64,192,35200,1,0,0:0:0:0:
192,192,35200,1,0,0:0:0:0:
64,192,35400,1,0,0:0:0:0:
192,192,35400,1,0,0:0:0:0:
320,192,35400,1,0,0:0:0:0:
192,192,35500,1,0,0:0:0:0:
64,192,35600,128,0,37150:0:0:0:0:
448,192,35600,128,0,36000:0:0:0:0:
320,192,35600,1,0,0:0:0:0:
320,192,35800,1,0,0:0:0:0:
192,192,36000,1,0,0:0:0:0:
320,192,36000,1,0,0:0:0:0:
448,192,36100,1,0,0:0:0:0:
320,192,36200,1,0,0:0:0:0:
192,192,36300,1,0,0:0:0:0:
320,192,36400,1,0,0:0:0:0:
448,192,36400,1,0,0:0:0:0:
192,192,36500,128,0,36700:0:0:0:0:
320,192,36600,1,0,0:0:0:0:
448,192,36700,1,0,0:0:0:0:
192,192,36800,1,0,0:0:0:0:
320,192,36800,128,0,36950:0:0:0:0:
448,192,37000,128,0,37150:0:0:0:0:
192,192,37000,1,0,0:0:0:0:
320,192,37000,1,0,0:0:0:0:
448,192,37200,1,0,0:0:0:0:
320,192,37200,1,0,0:0:0:0:
192,192,37200,1,0,0:0:0:0:
64,192,37200,1,0,0:0:0:0:
64,192,37400,1,0,0:0:0:0:
320,192,37400,1,0,0:0:0:0:
192,192,37600,1,0,0:0:0:0:
448,192,37600,1,0,0:0:0:0:
448,192,37800,1,0,0:0:0:0:
64,192,37800,1,0,0:0:0:0:
64,192,38000,1,0,0:0:0:0:
320,192,38000,1,0,0:0:0:0:
192,192,38200,1,0,0:0:0:0:
320,192,38400,1,0,0:0:0:0:
448,192,38400,1,0,0:0:0:0:
192,192,38600,1,0,0:0:0:0:
64,192,38800,1,0,0:0:0:0:
448,192,38800,1,0,0:0:0:0:
192,192,39000,1,0,0:0:0:0:
320,192,39000,1,0,0:0:0:0:
64,192,39200,1,0,0:0:0:0:
320,192,39200,1,0,0:0:0:0:
64,192,39400,1,0,0:0:0:0:
192,192,39400,1,0,0:0:0:0:
448,192,39600,1,0,0:0:0:0:
192,192,39600,1,0,0:0:0:0:
320,192,39800,1,0,0:0:0:0:
64,192,40000,1,0,0:0:0:0:
320,192,40000,1,0,0:0:0:0:
64,192,40100,1,0,0:0:0:0:
64,192,40200,1,0,0:0:0:0:
448,192,40200,1,0,0:0:0:0:
192,192,40400,1,0,0:0:0:0:
448,192,40400,1,0,0:0:0:0:
64,192,40600,1,0,0:0:0:0:
192,192,40600,1,0,0:0:0:0:
448,192,40800,1,0,0:0:0:0:
320,192,40800,1,0,0:0:0:0:
192,192,41000,1,0,0:0:0:0:
320,192,41000,1,0,0:0:0:0:
64,192,41200,1,0,0:0:0:0:
320,192,41200,1,0,0:0:0:0:
192,192,41400,1,0,0:0:0:0:
448,192,41600,1,0,0:0:0:0:
64,192,41600,1,0,0:0:0:0:
320,192,41800,1,0,0:0:0:0:
64,192,42000,1,0,0:0:0:0:
192,192,42000,1,0,0:0:0:0:
448,192,42000,1,0,0:0:0:0:
192,192,42400,1,0,0:0:0:0:
320,192,42400,1,0,0:0:0:0:
448,192,42400,1,0,0:0:0:0:
64,192,42600,1,0,0:0:0:0:
448,192,42800,1,0,0:0:0:0:
320,192,43000,1,0,0:0:0:0:
64,192,43200,128,0,43300:0:0:0:0:
192,192,43200,1,0,0:0:0:0:
320,192,43400,1,0,0:0:0:0:
448,192,43600,1,0,0:0:0:0:
64,192,43600,1,0,0:0:0:0:
192,192,43600,128,0,43700:0:0:0:0:
320,192,43800,1,0,0:0:0:0:
64,192,43800,1,0,0:0:0:0:
448,192,44000,1,0,0:0:0:0:
192,192,44000,1,0,0:0:0:0:
64,192,44200,128,0,44300:0:0:0:0:
320,192,44200,1,0,0:0:0:0:
64,192,44400,128,0,44500:0:0:0:0:
448,192,44400,1,0,0:0:0:0:
192,192,44600,1,0,0:0:0:0:
320,192,44800,1,0,0:0:0:0:
448,192,44800,1,0,0:0:0:0:
192,192,45000,1,0,0:0:0:0:
64,192,45200,1,0,0:0:0:0:
320,192,45200,128,0,45300:0:0:0:0:
448,192,45200,1,0,0:0:0:0:
192,192,45400,1,0,0:0:0:0:
64,192,45400,1,0,0:0:0:0:
192,192,45600,1,0,0:0:0:0:
448,192,45600,1,0,0:0:0:0:
320,192,45800,1,0,0:0:0:0:
64,192,45800,128,0,45900:0:0:0:0:
64,192,46000,128,0,46100:0:0:0:0:
448,192,46000,1,0,0:0:0:0:
320,192,46200,1,0,0:0:0:0:
64,192,46400,1,0,0:0:0:0:
320,192,46400,1,0,0:0:0:0:
64,192,46500,1,0,0:0:0:0:
448,192,46600,1,0,0:0:0:0:
64,192,46600,1,0,0:0:0:0:
192,192,46800,128,0,46900:0:0:0:0:
448,192,46800,1,0,0:0:0:0:
320,192,47000,1,0,0:0:0:0:
64,192,47000,1,0,0:0:0:0:
320,192,47200,1,0,0:0:0:0:
448,192,47200,1,0,0:0:0:0:
192,192,47400,128,0,47500:0:0:0:0:
448,192,47400,1,0,0:0:0:0:
320,192,47600,1,0,0:0:0:0:
192,192,47600,128,0,47700:0:0:0:0:
64,192,47800,1,0,0:0:0:0:
192,192,48000,1,0,0:0:0:0:
448,192,48000,1,0,0:0:0:0:
64,192,48200,1,0,0:0:0:0:
320,192,48400,128,0,48500:0:0:0:0:
448,192,48400,1,0,0:0:0:0:
64,192,48600,1,0,0:0:0:0:
192,192,48600,1,0,0:0:0:0:
320,192,48700,128,0,48800:0:0:0:0:
448,192,48800,1,0,0:0:0:0:
192,192,48800,1,0,0:0:0:0:
320,192,49000,128,0,49100:0:0:0:0:
64,192,49000,1,0,0:0:0:0:
448,192,49000,1,0,0:0:0:0:
64,192,49200,1,0,0:0:0:0:
192,192,49200,1,0,0:0:0:0:
320,192,49200,1,0,0:0:0:0:
448,192,49200,1,0,0:0:0:0:
64,192,49400,1,0,0:0:0:0:
192,192,49400,1,0,0:0:0:0:
320,192,49400,1,0,0:0:0:0:
448,192,49400,1,0,0:0:0:0:
64,192,49600,1,0,0:0:0:0:
192,192,49600,1,0,0:0:0:0:
448,192,49600,1,0,0:0:0:0:
320,192,49600,1,0,0:0:0:0:
320,192,49700,1,0,0:0:0:0:
448,192,49700,1,0,0:0:0:0:
192,192,49800,1,0,0:0:0:0:
320,192,49800,1,0,0:0:0:0:
64,192,49900,1,0,0:0:0:0:
192,192,49900,1,0,0:0:0:0:
448,192,50000,128,0,50800:0:0:0:0:
320,192,50000,1,0,0:0:0:0:
192,192,50050,1,0,0:0:0:0:
64,192,50100,1,0,0:0:0:0:
320,192,50150,1,0,0:0:0:0:
192,192,50200,1,0,0:0:0:0:
64,192,50250,1,0,0:0:0:0:
192,192,50300,1,0,0:0:0:0:
320,192,50350,1,0,0:0:0:0:
64,192,50400,1,0,0:0:0:0:
192,192,50450,1,0,0:0:0:0:
320,192,50500,1,0,0:0:0:0:
64,192,50550,1,0,0:0:0:0:
192,192,50600,1,0,0:0:0:0:
320,192,50650,1,0,0:0:0:0:
192,192,50700,1,0,0:0:0:0:
64,192,50750,1,0,0:0:0:0:
320,192,50800,1,0,0:0:0:0:
192,192,50850,1,0,0:0:0:0:
64,192,50900,1,0,0:0:0:0:
448,192,50950,1,0,0:0:0:0:
320,192,51000,1,0,0:0:0:0:
192,192,51050,1,0,0:0:0:0:
64,192,51100,1,0,0:0:0:0:
192,192,51150,1,0,0:0:0:0:
320,192,51200,128,0,51600:0:0:0:0:
448,192,51200,1,0,0:0:0:0:
64,192,51250,1,0,0:0:0:0:
192,192,51300,1,0,0:0:0:0:
448,192,51350,1,0,0:0:0:0:
64,192,51400,1,0,0:0:0:0:
192,192,51450,1,0,0:0:0:0:
448,192,51500,1,0,0:0:0:0:
64,192,51550,1,0,0:0:0:0:
192,192,51600,128,0,51850:0:0:0:0:
448,192,51600,1,0,0:0:0:0:
320,192,51650,1,0,0:0:0:0:
64,192,51700,1,0,0:0:0:0:
448,192,51750,1,0,0:0:0:0:
320,192,51800,1,0,0:0:0:0:
64,192,51850,1,0,0:0:0:0:
192,192,51900,128,0,52200:0:0:0:0:
320,192,51950,1,0,0:0:0:0:
448,192,52000,1,0,0:0:0:0:
64,192,52050,1,0,0:0:0:0:
320,192,52100,1,0,0:0:0:0:
448,192,52150,1,0,0:0:0:0:
64,192,52200,1,0,0:0:0:0:
192,192,52250,1,0,0:0:0:0:
448,192,52300,1,0,0:0:0:0:
320,192,52350,1,0,0:0:0:0:
64,192,52400,128,0,52950:0:0:0:0:
192,192,52400,1,0,0:0:0:0:
320,192,52450,1,0,0:0:0:0:
192,192,52550,1,0,0:0:0:0:
320,192,52600,1,0,0:0:0:0:
448,192,52650,1,0,0:0:0:0:
320,192,52700,1,0,0:0:0:0:
192,192,52750,1,0,0:0:0:0:
320,192,52800,1,0,0:0:0:0:
448,192,52850,1,0,0:0:0:0:
320,192,52900,1,0,0:0:0:0:
192,192,52950,1,0,0:0:0:0:
64,192,53000,1,0,0:0:0:0:
320,192,53050,1,0,0:0:0:0:
192,192,53100,1,0,0:0:0:0:
448,192,53150,1,0,0:0:0:0:
64,192,53200,1,0,0:0:0:0:
320,192,53200,128,0,53450:0:0:0:0:
448,192,53250,1,0,0:0:0:0:
192,192,53300,1,0,0:0:0:0:
64,192,53350,1,0,0:0:0:0:
448,192,53400,1,0,0:0:0:0:
320,192,53500,128,0,53750:0:0:0:0:
192,192,53500,1,0,0:0:0:0:
64,192,53550,1,0,0:0:0:0:
192,192,53600,1,0,0:0:0:0:
448,192,53650,1,0,0:0:0:0:
64,192,53700,1,0,0:0:0:0:
192,192,53750,1,0,0:0:0:0:
320,192,53800,1,0,0:0:0:0:
64,192,53850,1,0,0:0:0:0:
192,192,53900,1,0,0:0:0:0:
448,192,54000,128,0,54250:0:0:0:0:
320,192,54000,1,0,0:0:0:0:
192,192,54050,1,0,0:0:0:0:
64,192,54100,1,0,0:0:0:0:
320,192,54150,1,0,0:0:0:0:
192,192,54200,1,0,0:0:0:0:
64,192,54250,1,0,0:0:0:0:
320,192,54300,128,0,54550:0:0:0:0:
448,192,54300,1,0,0:0:0:0:
64,192,54350,1,0,0:0:0:0:
192,192,54400,1,0,0:0:0:0:
448,192,54450,1,0,0:0:0:0:
64,192,54500,1,0,0:0:0:0:
192,192,54550,1,0,0:0:0:0:
320,192,54600,1,0,0:0:0:0:
448,192,54650,1,0,0:0:0:0:
64,192,54700,1,0,0:0:0:0:
192,192,54750,1,0,0:0:0:0:
320,192,54800,1,0,0:0:0:0:
448,192,54800,128,0,55050:0:0:0:0:
192,192,54850,1,0,0:0:0:0:
64,192,54900,1,0,0:0:0:0:
320,192,54950,1,0,0:0:0:0:
192,192,55000,1,0,0:0:0:0:
64,192,55050,1,0,0:0:0:0:
448,192,55100,128,0,55300:0:0:0:0:
192,192,55100,1,0,0:0:0:0:
320,192,55150,1,0,0:0:0:0:
64,192,55200,128,0,55250:0:0:0:0:
192,192,55250,128,0,55300:0:0:0:0:
320,192,55300,128,0,55350:0:0:0:0:
448,192,55350,128,0,55400:0:0:0:0:
192,192,55400,128,0,55450:0:0:0:0:
64,192,55450,128,0,55500:0:0:0:0:
192,192,55500,128,0,55550:0:0:0:0:
320,192,55550,128,0,55600:0:0:0:0:
448,192,55600,128,0,56400:0:0:0:0:
64,192,55600,128,0,55700:0:0:0:0:
192,192,55650,128,0,55750:0:0:0:0:
320,192,55700,128,0,55800:0:0:0:0:
64,192,55800,128,0,55900:0:0:0:0:
192,192,55850,128,0,55950:0:0:0:0:
320,192,55900,128,0,56000:0:0:0:0:
64,192,56000,128,0,56150:0:0:0:0:
192,192,56050,128,0,56300:0:0:0:0:
320,192,56100,128,0,56300:0:0:0:0:
64,192,56200,128,0,56300:0:0:0:0:
320,192,56400,1,0,0:0:0:0:
192,192,56400,128,0,56900:0:0:0:0:
64,192,56400,128,0,59600:0:0:0:0:
448,192,56500,128,0,56600:0:0:0:0:
320,192,56600,128,0,56700:0:0:0:0:
448,192,56700,128,0,56800:0:0:0:0:
320,192,56800,128,0,56900:0:0:0:0:
448,192,56900,128,0,57000:0:0:0:0:
320,192,57000,128,0,57400:0:0:0:0:
192,192,57000,128,0,57100:0:0:0:0:
448,192,57100,128,0,57200:0:0:0:0:
192,192,57200,128,0,57300:0:0:0:0:
448,192,57300,128,0,57400:0:0:0:0:
192,192,57400,128,0,57500:0:0:0:0:
448,192,57500,128,0,57800:0:0:0:0:
320,192,57500,128,0,57600:0:0:0:0:
192,192,57600,128,0,57700:0:0:0:0:
320,192,57700,128,0,57800:0:0:0:0:
192,192,57800,1,0,0:0:0:0:
320,192,57900,1,0,0:0:0:0:
448,192,58000,128,0,58500:0:0:0:0:
192,192,58000,1,0,0:0:0:0:
320,192,58100,128,0,58400:0:0:0:0:
192,192,58200,128,0,58300:0:0:0:0:
192,192,58400,128,0,58600:0:0:0:0:
320,192,58500,128,0,58700:0:0:0:0:
448,192,58600,128,0,58800:0:0:0:0:
192,192,58700,1,0,0:0:0:0:
320,192,58800,1,0,0:0:0:0:
448,192,58900,1,0,0:0:0:0:
192,192,58900,128,0,59400:0:0:0:0:
320,192,59000,128,0,59300:0:0:0:0:
448,192,59100,128,0,59200:0:0:0:0:
448,192,59300,1,0,0:0:0:0:
320,192,59400,1,0,0:0:0:0:
192,192,59500,1,0,0:0:0:0:
448,192,59600,128,0,59700:0:0:0:0:
320,192,59700,128,0,59800:0:0:0:0:
192,192,59800,128,0,59900:0:0:0:0:
64,192,59900,128,0,60000:0:0:0:0:
320,192,60000,128,0,60200:0:0:0:0:
192,192,60000,128,0,60100:0:0:0:0:
448,192,60100,128,0,60200:0:0:0:0:
192,192,60200,128,0,60300:0:0:0:0:
64,192,60300,128,0,60400:0:0:0:0:
320,192,60300,1,0,0:0:0:0:
448,192,60400,128,0,60500:0:0:0:0:
192,192,60400,1,0,0:0:0:0:
320,192,60500,128,0,60600:0:0:0:0:
192,192,60500,1,0,0:0:0:0:
64,192,60600,128,0,60700:0:0:0:0:
192,192,60700,128,0,60800:0:0:0:0:
320,192,60800,128,0,61000:0:0:0:0:
64,192,60800,1,0,0:0:0:0:
448,192,60800,128,0,60900:0:0:0:0:
192,192,60900,128,0,61000:0:0:0:0:
64,192,61000,128,0,61100:0:0:0:0:
192,192,61100,128,0,61200:0:0:0:0:
320,192,61200,128,0,61300:0:0:0:0:
64,192,61200,1,0,0:0:0:0:
448,192,61300,128,0,61400:0:0:0:0:
320,192,61400,128,0,61500:0:0:0:0:
64,192,61400,1,0,0:0:0:0:
192,192,61500,128,0,61600:0:0:0:0:
64,192,61600,128,0,61700:0:0:0:0:
448,192,61600,128,0,61800:0:0:0:0:
192,192,61700,128,0,61800:0:0:0:0:
320,192,61800,128,0,61900:0:0:0:0:
448,192,61900,1,0,0:0:0:0:
64,192,61900,128,0,62000:0:0:0:0:
192,192,61900,1,0,0:0:0:0:
320,192,62000,128,0,62100:0:0:0:0:
192,192,62000,1,0,0:0:0:0:
448,192,62100,128,0,62200:0:0:0:0:
64,192,62100,1,0,0:0:0:0:
192,192,62200,128,0,62300:0:0:0:0:
320,192,62300,128,0,62400:0:0:0:0:
64,192,62400,128,0,62600:0:0:0:0:
192,192,62400,1,0,0:0:0:0:
448,192,62400,128,0,62500:0:0:0:0:
320,192,62500,128,0,62600:0:0:0:0:
192,192,62600,128,0,62700:0:0:0:0:
64,192,62700,128,0,62800:0:0:0:0:
448,192,62800,1,0,0:0:0:0:
320,192,62850,1,0,0:0:0:0:
192,192,62900,1,0,0:0:0:0:
448,192,62900,128,0,63100:0:0:0:0:
64,192,62950,1,0,0:0:0:0:
320,192,62950,128,0,63150:0:0:0:0:
192,192,63000,128,0,63200:0:0:0:0:
64,192,63050,128,0,63250:0:0:0:0:
448,192,63200,1,0,0:0:0:0:
320,192,63250,1,0,0:0:0:0:
192,192,63300,1,0,0:0:0:0:
448,192,63300,128,0,63500:0:0:0:0:
64,192,63350,1,0,0:0:0:0:
320,192,63350,128,0,63550:0:0:0:0:
192,192,63400,128,0,63600:0:0:0:0:
64,192,63450,128,0,63650:0:0:0:0:
448,192,63600,1,0,0:0:0:0:
320,192,63650,1,0,0:0:0:0:
192,192,63700,1,0,0:0:0:0:
448,192,63700,128,0,63850:0:0:0:0:
64,192,63750,1,0,0:0:0:0:
320,192,63750,128,0,63900:0:0:0:0:
192,192,63800,128,0,63950:0:0:0:0:
64,192,63850,128,0,64100:0:0:0:0:
448,192,63950,128,0,64350:0:0:0:0:
320,192,64000,128,0,64300:0:0:0:0:
192,192,64050,128,0,64200:0:0:0:0:
64,192,64200,128,0,64350:0:0:0:0:
192,192,64300,128,0,64350:0:0:0:0:
64,192,64400,128,0,64700:0:0:0:0:
320,192,64400,128,0,64500:0:0:0:0:
448,192,64400,128,0,64700:0:0:0:0:
192,192,64400,1,0,0:0:0:0:
192,192,64500,128,0,64900:0:0:0:0:
320,192,64600,1,0,0:0:0:0:
320,192,64700,128,0,65100:0:0:0:0:
448,192,64800,1,0,0:0:0:0:
64,192,64800,128,0,65500:0:0:0:0:
448,192,64900,128,0,65300:0:0:0:0:
192,192,65000,1,0,0:0:0:0:
192,192,65100,128,0,65700:0:0:0:0:
320,192,65200,1,0,0:0:0:0:
320,192,65300,128,0,65900:0:0:0:0:
448,192,65400,1,0,0:0:0:0:
448,192,65500,128,0,65900:0:0:0:0:
64,192,65600,1,0,0:0:0:0:
64,192,65700,128,0,65900:0:0:0:0:
192,192,65800,1,0,0:0:0:0:
192,192,65900,128,0,66300:0:0:0:0:
320,192,66000,128,0,66100:0:0:0:0:
448,192,66000,128,0,66700:0:0:0:0:
64,192,66000,128,0,66300:0:0:0:0:
320,192,66200,1,0,0:0:0:0:
320,192,66300,128,0,66500:0:0:0:0:
64,192,66400,1,0,0:0:0:0:
192,192,66400,128,0,67100:0:0:0:0:
64,192,66500,128,0,67500:0:0:0:0:
320,192,66600,1,0,0:0:0:0:
320,192,66700,128,0,66900:0:0:0:0:
448,192,66800,1,0,0:0:0:0:
448,192,66900,128,0,67500:0:0:0:0:
320,192,67000,1,0,0:0:0:0:
320,192,67100,128,0,67300:0:0:0:0:
192,192,67200,1,0,0:0:0:0:
192,192,67300,128,0,67500:0:0:0:0:
320,192,67400,1,0,0:0:0:0:
320,192,67500,128,0,67700:0:0:0:0:
64,192,67600,128,0,68300:0:0:0:0:
192,192,67600,128,0,67900:0:0:0:0:
448,192,67600,1,0,0:0:0:0:
448,192,67700,128,0,68100:0:0:0:0:
320,192,67800,1,0,0:0:0:0:
320,192,67900,128,0,68300:0:0:0:0:
192,192,68000,1,0,0:0:0:0:
192,192,68100,128,0,68500:0:0:0:0:
448,192,68200,1,0,0:0:0:0:
448,192,68300,128,0,68900:0:0:0:0:
64,192,68400,1,0,0:0:0:0:
320,192,68400,128,0,68700:0:0:0:0:
64,192,68500,128,0,69100:0:0:0:0:
192,192,68600,1,0,0:0:0:0:
192,192,68700,128,0,69100:0:0:0:0:
320,192,68800,1,0,0:0:0:0:
320,192,68900,128,0,69100:0:0:0:0:
448,192,69000,1,0,0:0:0:0:
448,192,69100,128,0,69500:0:0:0:0:
64,192,69200,128,0,69300:0:0:0:0:
192,192,69200,128,0,69500:0:0:0:0:
320,192,69200,128,0,69700:0:0:0:0:
64,192,69400,1,0,0:0:0:0:
64,192,69500,128,0,70100:0:0:0:0:
448,192,69600,1,0,0:0:0:0:
192,192,69600,128,0,69900:0:0:0:0:
448,192,69700,128,0,70500:0:0:0:0:
320,192,69800,1,0,0:0:0:0:
320,192,69900,128,0,70300:0:0:0:0:
192,192,70000,1,0,0:0:0:0:
192,192,70100,128,0,70500:0:0:0:0:
64,192,70200,1,0,0:0:0:0:
64,192,70300,128,0,70750:0:0:0:0:
320,192,70400,1,0,0:0:0:0:
320,192,70500,128,0,70750:0:0:0:0:
448,192,70600,1,0,0:0:0:0:
192,192,70600,128,0,70750:0:0:0:0:
448,192,70700,128,0,70750:0:0:0:0:
64,192,70800,128,0,71100:0:0:0:0:
320,192,70800,128,0,70900:0:0:0:0:
192,192,70800,1,0,0:0:0:0:
448,192,70800,128,0,71100:0:0:0:0:
192,192,70900,128,0,71300:0:0:0:0:
320,192,71000,1,0,0:0:0:0:
320,192,71100,128,0,71500:0:0:0:0:
448,192,71200,1,0,0:0:0:0:
64,192,71200,128,0,71900:0:0:0:0:
448,192,71300,128,0,71500:0:0:0:0:
192,192,71400,1,0,0:0:0:0:
192,192,71500,128,0,71700:0:0:0:0:
320,192,71600,128,0,72100:0:0:0:0:
448,192,71600,1,0,0:0:0:0:
448,192,71700,128,0,72300:0:0:0:0:
192,192,71800,1,0,0:0:0:0:
192,192,71900,128,0,72100:0:0:0:0:
64,192,72000,1,0,0:0:0:0:
64,192,72100,128,0,72300:0:0:0:0:
192,192,72200,1,0,0:0:0:0:
320,192,72200,128,0,72300:0:0:0:0:
192,192,72300,128,0,72700:0:0:0:0:
320,192,72400,1,0,0:0:0:0:
448,192,72400,128,0,72500:0:0:0:0:
64,192,72400,128,0,73900:0:0:0:0:
320,192,72500,128,0,72900:0:0:0:0:
448,192,72600,1,0,0:0:0:0:
448,192,72700,128,0,73100:0:0:0:0:
192,192,72800,1,0,0:0:0:0:
192,192,72900,128,0,73500:0:0:0:0:
320,192,73000,1,0,0:0:0:0:
320,192,73100,128,0,73300:0:0:0:0:
448,192,73200,1,0,0:0:0:0:
448,192,73300,128,0,73900:0:0:0:0:
320,192,73400,1,0,0:0:0:0:
320,192,73500,128,0,73700:0:0:0:0:
192,192,73600,1,0,0:0:0:0:
192,192,73700,128,0,73900:0:0:0:0:
320,192,73800,1,0,0:0:0:0:
320,192,73900,128,0,74100:0:0:0:0:
448,192,74000,1,0,0:0:0:0:
192,192,74000,128,0,74300:0:0:0:0:
64,192,74000,128,0,74700:0:0:0:0:
448,192,74100,128,0,74500:0:0:0:0:
320,192,74200,1,0,0:0:0:0:
320,192,74300,128,0,75100:0:0:0:0:
192,192,74400,1,0,0:0:0:0:
192,192,74500,128,0,74900:0:0:0:0:
448,192,74600,1,0,0:0:0:0:
448,192,74700,128,0,75300:0:0:0:0:
64,192,74800,1,0,0:0:0:0:
64,192,74900,128,0,75500:0:0:0:0:
192,192,75000,1,0,0:0:0:0:
192,192,75100,128,0,75500:0:0:0:0:
320,192,75200,1,0,0:0:0:0:
320,192,75300,128,0,75500:0:0:0:0:
448,192,75400,1,0,0:0:0:0:
448,192,75500,128,0,75900:0:0:0:0:
64,192,75600,128,0,75700:0:0:0:0:
192,192,75600,128,0,76300:0:0:0:0:
320,192,75600,128,0,76100:0:0:0:0:
64,192,75800,1,0,0:0:0:0:
64,192,75900,128,0,76500:0:0:0:0:
448,192,76000,1,0,0:0:0:0:
448,192,76100,128,0,76900:0:0:0:0:
320,192,76200,1,0,0:0:0:0:
320,192,76300,128,0,76700:0:0:0:0:
192,192,76400,1,0,0:0:0:0:
192,192,76500,128,0,76900:0:0:0:0:
64,192,76600,1,0,0:0:0:0:
64,192,76700,128,0,77150:0:0:0:0:
320,192,76800,1,0,0:0:0:0:
320,192,76900,128,0,77150:0:0:0:0:
448,192,77000,1,0,0:0:0:0:
192,192,77000,128,0,77150:0:0:0:0:
448,192,77100,128,0,77150:0:0:0:0:
192,192,77200,1,0,0:0:0:0:
320,192,77200,128,0,77300:0:0:0:0:
64,192,77200,128,0,77500:0:0:0:0:
448,192,77200,128,0,77500:0:0:0:0:
192,192,77300,128,0,77700:0:0:0:0:
320,192,77400,1,0,0:0:0:0:
320,192,77500,128,0,77900:0:0:0:0:
448,192,77600,1,0,0:0:0:0:
64,192,77600,128,0,77800:0:0:0:0:
448,192,77700,128,0,78700:0:0:0:0:
192,192,77800,1,0,0:0:0:0:
192,192,77900,128,0,78100:0:0:0:0:
64,192,77900,128,0,78000:0:0:0:0:
320,192,78000,1,0,0:0:0:0:
64,192,78100,128,0,78300:0:0:0:0:
320,192,78100,128,0,78500:0:0:0:0:
192,192,78200,1,0,0:0:0:0:
192,192,78300,128,0,78500:0:0:0:0:
64,192,78400,1,0,0:0:0:0:
64,192,78500,128,0,78700:0:0:0:0:
192,192,78600,1,0,0:0:0:0:
320,192,78600,128,0,78700:0:0:0:0:
192,192,78700,128,0,79300:0:0:0:0:
64,192,78800,128,0,79100:0:0:0:0:
320,192,78800,1,0,0:0:0:0:
448,192,78800,128,0,78900:0:0:0:0:
320,192,78900,128,0,79400:0:0:0:0:
448,192,79000,1,0,0:0:0:0:
448,192,79100,128,0,79500:0:0:0:0:
64,192,79200,1,0,0:0:0:0:
64,192,79300,128,0,80300:0:0:0:0:
192,192,79400,1,0,0:0:0:0:
192,192,79500,128,0,79900:0:0:0:0:
320,192,79500,128,0,79700:0:0:0:0:
448,192,79600,1,0,0:0:0:0:
448,192,79700,128,0,80300:0:0:0:0:
320,192,79800,1,0,0:0:0:0:
320,192,79900,128,0,80100:0:0:0:0:
192,192,80000,1,0,0:0:0:0:
192,192,80100,128,0,80300:0:0:0:0:
320,192,80200,1,0,0:0:0:0:
320,192,80300,128,0,80500:0:0:0:0:
64,192,80400,128,0,81100:0:0:0:0:
192,192,80400,128,0,80700:0:0:0:0:
448,192,80400,1,0,0:0:0:0:
448,192,80500,128,0,80900:0:0:0:0:
320,192,80600,1,0,0:0:0:0:
320,192,80700,128,0,81000:0:0:0:0:
192,192,80800,1,0,0:0:0:0:
192,192,80900,128,0,81300:0:0:0:0:
448,192,81000,1,0,0:0:0:0:
320,192,81100,128,0,81200:0:0:0:0:
448,192,81100,128,0,81700:0:0:0:0:
64,192,81200,1,0,0:0:0:0:
64,192,81300,128,0,81900:0:0:0:0:
320,192,81300,128,0,81500:0:0:0:0:
192,192,81400,1,0,0:0:0:0:
192,192,81500,128,0,81900:0:0:0:0:
320,192,81600,1,0,0:0:0:0:
320,192,81700,128,0,81900:0:0:0:0:
448,192,81800,1,0,0:0:0:0:
448,192,81900,128,0,82300:0:0:0:0:
64,192,82000,128,0,82100:0:0:0:0:
192,192,82000,128,0,82700:0:0:0:0:
320,192,82000,128,0,82500:0:0:0:0:
64,192,82200,1,0,0:0:0:0:
64,192,82300,128,0,82700:0:0:0:0:
448,192,82400,1,0,0:0:0:0:
448,192,82500,128,0,83300:0:0:0:0:
320,192,82600,1,0,0:0:0:0:
320,192,82700,128,0,82800:0:0:0:0:
64,192,82800,128,0,82900:0:0:0:0:
192,192,82800,1,0,0:0:0:0:
192,192,82900,128,0,83300:0:0:0:0:
320,192,82900,128,0,83100:0:0:0:0:
64,192,83000,1,0,0:0:0:0:
64,192,83100,128,0,83550:0:0:0:0:
320,192,83200,1,0,0:0:0:0:
320,192,83300,128,0,83550:0:0:0:0:
448,192,83400,1,0,0:0:0:0:
192,192,83400,128,0,83550:0:0:0:0:
448,192,83500,128,0,83550:0:0:0:0:
192,192,83600,1,0,0:0:0:0:
64,192,83600,128,0,83900:0:0:0:0:
320,192,83600,128,0,83700:0:0:0:0:
448,192,83600,128,0,83900:0:0:0:0:
192,192,83700,128,0,84100:0:0:0:0:
320,192,83800,1,0,0:0:0:0:
320,192,83900,128,0,84300:0:0:0:0:
448,192,84000,1,0,0:0:0:0:
64,192,84000,128,0,84200:0:0:0:0:
448,192,84100,128,0,85100:0:0:0:0:
192,192,84200,1,0,0:0:0:0:
64,192,84300,128,0,84400:0:0:0:0:
192,192,84300,128,0,84500:0:0:0:0:
320,192,84400,1,0,0:0:0:0:
64,192,84500,128,0,84700:0:0:0:0:
320,192,84500,128,0,84900:0:0:0:0:
192,192,84600,1,0,0:0:0:0:
192,192,84700,128,0,84900:0:0:0:0:
64,192,84800,1,0,0:0:0:0:
64,192,84900,128,0,85100:0:0:0:0:
192,192,85000,1,0,0:0:0:0:
320,192,85000,128,0,85100:0:0:0:0:
192,192,85100,128,0,85500:0:0:0:0:
320,192,85200,1,0,0:0:0:0:
448,192,85200,128,0,85300:0:0:0:0:
64,192,85200,128,0,85500:0:0:0:0:
320,192,85300,128,0,85700:0:0:0:0:
448,192,85400,1,0,0:0:0:0:
448,192,85500,128,0,85900:0:0:0:0:
64,192,85600,128,0,86700:0:0:0:0:
192,192,85600,1,0,0:0:0:0:
192,192,85700,128,0,86300:0:0:0:0:
320,192,85800,1,0,0:0:0:0:
320,192,85900,128,0,86100:0:0:0:0:
448,192,86000,1,0,0:0:0:0:
448,192,86100,128,0,86500:0:0:0:0:
320,192,86200,1,0,0:0:0:0:
320,192,86300,128,0,86500:0:0:0:0:
192,192,86400,1,0,0:0:0:0:
192,192,86500,128,0,86700:0:0:0:0:
448,192,86600,128,0,86700:0:0:0:0:
320,192,86600,1,0,0:0:0:0:
320,192,86700,128,0,86900:0:0:0:0:
448,192,86800,1,0,0:0:0:0:
64,192,86800,128,0,87500:0:0:0:0:
192,192,86800,128,0,87100:0:0:0:0:
448,192,86900,128,0,87300:0:0:0:0:
320,192,87000,1,0,0:0:0:0:
320,192,87100,128,0,87400:0:0:0:0:
192,192,87200,1,0,0:0:0:0:
192,192,87300,128,0,87700:0:0:0:0:
448,192,87400,1,0,0:0:0:0:
320,192,87500,128,0,87900:0:0:0:0:
448,192,87500,128,0,88100:0:0:0:0:
64,192,87600,1,0,0:0:0:0:
64,192,87700,128,0,88300:0:0:0:0:
192,192,87800,1,0,0:0:0:0:
192,192,87900,128,0,88300:0:0:0:0:
320,192,88000,1,0,0:0:0:0:
320,192,88100,128,0,88300:0:0:0:0:
448,192,88200,1,0,0:0:0:0:
448,192,88300,128,0,88700:0:0:0:0:
320,192,88400,1,0,0:0:0:0:
192,192,88400,128,0,88700:0:0:0:0:
64,192,88400,128,0,88500:0:0:0:0:
320,192,88500,128,0,88900:0:0:0:0:
64,192,88600,1,0,0:0:0:0:
64,192,88700,128,0,89300:0:0:0:0:
192,192,88800,128,0,89100:0:0:0:0:
448,192,88800,1,0,0:0:0:0:
448,192,88900,128,0,89950:0:0:0:0:
320,192,89000,1,0,0:0:0:0:
320,192,89100,128,0,89700:0:0:0:0:
192,192,89200,1,0,0:0:0:0:
192,192,89300,128,0,89500:0:0:0:0:
64,192,89400,1,0,0:0:0:0:
64,192,89500,128,0,89950:0:0:0:0:
192,192,89600,1,0,0:0:0:0:
192,192,89700,128,0,89950:0:0:0:0:
320,192,89800,1,0,0:0:0:0:
320,192,89900,128,0,89950:0:0:0:0:
192,192,90000,1,0,0:0:0:0:
320,192,90000,1,0,0:0:0:0:
64,192,90000,128,0,90750:0:0:0:0:
448,192,90000,128,0,90100:0:0:0:0:
320,192,90200,128,0,90300:0:0:0:0:
192,192,90400,128,0,90500:0:0:0:0:
320,192,90400,1,0,0:0:0:0:
448,192,90500,128,0,90600:0:0:0:0:
320,192,90600,128,0,90700:0:0:0:0:
448,192,90700,128,0,90800:0:0:0:0:
192,192,90700,1,0,0:0:0:0:
64,192,90800,128,0,91150:0:0:0:0:
320,192,90800,128,0,90900:0:0:0:0:
192,192,90900,128,0,91000:0:0:0:0:
320,192,91000,128,0,91100:0:0:0:0:
192,192,91200,128,0,91550:0:0:0:0:
448,192,91200,128,0,91300:0:0:0:0:
320,192,91200,1,0,0:0:0:0:
64,192,91400,128,0,91500:0:0:0:0:
320,192,91400,1,0,0:0:0:0:
448,192,91600,128,0,91850:0:0:0:0:
320,192,91600,128,0,91700:0:0:0:0:
64,192,91800,128,0,91900:0:0:0:0:
448,192,91900,128,0,92150:0:0:0:0:
192,192,92000,128,0,92100:0:0:0:0:
320,192,92000,1,0,0:0:0:0:
64,192,92100,128,0,92200:0:0:0:0:
320,192,92200,128,0,92350:0:0:0:0:
192,192,92200,128,0,92300:0:0:0:0:
64,192,92300,128,0,92400:0:0:0:0:
448,192,92300,1,0,0:0:0:0:
320,192,92400,128,0,93150:0:0:0:0:
192,192,92400,128,0,92500:0:0:0:0:
448,192,92500,128,0,92600:0:0:0:0:
192,192,92600,128,0,92700:0:0:0:0:
64,192,92700,128,0,92800:0:0:0:0:
192,192,92800,128,0,92900:0:0:0:0:
448,192,92800,1,0,0:0:0:0:
448,192,93000,128,0,93100:0:0:0:0:
64,192,93000,1,0,0:0:0:0:
64,192,93200,128,0,93700:0:0:0:0:
448,192,93200,128,0,93300:0:0:0:0:
448,192,93400,128,0,93550:0:0:0:0:
192,192,93600,1,0,0:0:0:0:
320,192,93600,1,0,0:0:0:0:
448,192,93600,128,0,93700:0:0:0:0:
192,192,93700,128,0,93800:0:0:0:0:
320,192,93800,128,0,93900:0:0:0:0:
64,192,93800,1,0,0:0:0:0:
448,192,93900,128,0,94000:0:0:0:0:
192,192,93900,1,0,0:0:0:0:
320,192,94000,128,0,94100:0:0:0:0:
64,192,94000,128,0,94350:0:0:0:0:
448,192,94100,128,0,94200:0:0:0:0:
320,192,94200,128,0,94300:0:0:0:0:
64,192,94400,128,0,94750:0:0:0:0:
192,192,94400,128,0,94500:0:0:0:0:
448,192,94400,1,0,0:0:0:0:
320,192,94600,128,0,94700:0:0:0:0:
64,192,94800,1,0,0:0:0:0:
192,192,94800,128,0,94900:0:0:0:0:
320,192,94800,1,0,0:0:0:0:
448,192,94800,128,0,95050:0:0:0:0:
64,192,95000,128,0,95100:0:0:0:0:
320,192,95100,128,0,95350:0:0:0:0:
64,192,95200,128,0,95300:0:0:0:0:
448,192,95200,1,0,0:0:0:0:
192,192,95300,128,0,95400:0:0:0:0:
448,192,95400,128,0,95550:0:0:0:0:
64,192,95400,128,0,95500:0:0:0:0:
192,192,95500,128,0,95600:0:0:0:0:
448,192,95600,128,0,95950:0:0:0:0:
320,192,95600,128,0,95700:0:0:0:0:
192,192,95700,128,0,95800:0:0:0:0:
64,192,95700,1,0,0:0:0:0:
320,192,95800,128,0,95950:0:0:0:0:
320,192,96000,128,0,96350:0:0:0:0:
448,192,96000,1,0,0:0:0:0:
192,192,96000,1,0,0:0:0:0:
64,192,96000,128,0,96100:0:0:0:0:
192,192,96200,128,0,96300:0:0:0:0:
448,192,96200,1,0,0:0:0:0:
320,192,96400,1,0,0:0:0:0:
448,192,96400,128,0,96500:0:0:0:0:
192,192,96400,1,0,0:0:0:0:
64,192,96400,128,0,97150:0:0:0:0:
320,192,96600,128,0,96700:0:0:0:0:
192,192,96800,128,0,96900:0:0:0:0:
448,192,96800,1,0,0:0:0:0:
320,192,96900,128,0,97000:0:0:0:0:
448,192,97000,128,0,97100:0:0:0:0:
320,192,97100,128,0,97200:0:0:0:0:
64,192,97200,128,0,97550:0:0:0:0:
448,192,97200,128,0,97300:0:0:0:0:
320,192,97300,128,0,97400:0:0:0:0:
192,192,97400,128,0,97500:0:0:0:0:
448,192,97600,128,0,97700:0:0:0:0:
320,192,97600,1,0,0:0:0:0:
192,192,97600,128,0,97950:0:0:0:0:
320,192,97800,128,0,97900:0:0:0:0:
64,192,97800,1,0,0:0:0:0:
448,192,98000,128,0,98100:0:0:0:0:
320,192,98000,128,0,98100:0:0:0:0:
64,192,98200,1,0,0:0:0:0:
320,192,98300,128,0,98400:0:0:0:0:
192,192,98300,128,0,98400:0:0:0:0:
448,192,98400,1,0,0:0:0:0:
64,192,98600,128,0,98700:0:0:0:0:
192,192,98600,128,0,98700:0:0:0:0:
448,192,98700,1,0,0:0:0:0:
192,192,98800,128,0,98900:0:0:0:0:
320,192,98800,128,0,98900:0:0:0:0:
448,192,99000,1,0,0:0:0:0:
64,192,99100,128,0,99200:0:0:0:0:
192,192,99100,128,0,99200:0:0:0:0:
320,192,99200,1,0,0:0:0:0:
192,192,99400,128,0,99550:0:0:0:0:
320,192,99400,128,0,99550:0:0:0:0:
64,192,99600,1,0,0:0:0:0:
192,192,99600,1,0,0:0:0:0:
448,192,99600,128,0,101100:0:0:0:0:
320,192,99600,128,0,99700:0:0:0:0:
192,192,99800,1,0,0:0:0:0:
64,192,100000,128,0,101100:0:0:0:0:
192,192,100000,1,0,0:0:0:0:
320,192,100000,1,0,0:0:0:0:
320,192,100200,1,0,0:0:0:0:
320,192,100400,128,0,101100:0:0:0:0:
192,192,100400,1,0,0:0:0:0:
192,192,100600,1,0,0:0:0:0:
192,192,100800,128,0,101100:0:0:0:0:
320,192,101200,128,0,101600:0:0:0:0:
192,192,101200,128,0,102500:0:0:0:0:
64,192,101200,1,0,0:0:0:0:
448,192,101400,1,0,0:0:0:0:
64,192,101600,1,0,0:0:0:0:
448,192,101600,1,0,0:0:0:0:
320,192,101700,1,0,0:0:0:0:
448,192,101800,1,0,0:0:0:0:
320,192,101900,1,0,0:0:0:0:
64,192,102000,1,0,0:0:0:0:
448,192,102000,1,0,0:0:0:0:
320,192,102100,1,0,0:0:0:0:
64,192,102300,1,0,0:0:0:0:
448,192,102400,1,0,0:0:0:0:
320,192,102400,1,0,0:0:0:0:
320,192,102600,1,0,0:0:0:0:
448,192,102600,1,0,0:0:0:0:
192,192,102600,1,0,0:0:0:0:
320,192,102700,1,0,0:0:0:0:
64,192,102800,128,0,103200:0:0:0:0:
192,192,102800,1,0,0:0:0:0:
448,192,102800,128,0,104350:0:0:0:0:
192,192,103000,1,0,0:0:0:0:
320,192,103200,1,0,0:0:0:0:
192,192,103200,1,0,0:0:0:0:
64,192,103300,1,0,0:0:0:0:
192,192,103400,1,0,0:0:0:0:
320,192,103500,1,0,0:0:0:0:
64,192,103600,1,0,0:0:0:0:
192,192,103600,1,0,0:0:0:0:
320,192,103700,128,0,103900:0:0:0:0:
192,192,103800,1,0,0:0:0:0:
64,192,103900,1,0,0:0:0:0:
320,192,104000,1,0,0:0:0:0:
192,192,104000,128,0,104150:0:0:0:0:
192,192,104200,1,0,0:0:0:0:
64,192,104200,128,0,104350:0:0:0:0:
320,192,104200,1,0,0:0:0:0:
64,192,104400,1,0,0:0:0:0:
448,192,104400,1,0,0:0:0:0:
448,192,104600,1,0,0:0:0:0:
320,192,104800,1,0,0:0:0:0:
192,192,105000,1,0,0:0:0:0:
64,192,105200,1,0,0:0:0:0:
448,192,105200,1,0,0:0:0:0:
320,192,106000,1,0,0:0:0:0:
448,192,106000,1,0,0:0:0:0:
64,192,106200,1,0,0:0:0:0:
192,192,106400,1,0,0:0:0:0:
320,192,106600,1,0,0:0:0:0:
448,192,106800,1,0,0:0:0:0:
64,192,106800,1,0,0:0:0:0:
64,192,107600,1,0,0:0:0:0:
448,192,107600,1,0,0:0:0:0:
192,192,107800,1,0,0:0:0:0:
320,192,108000,1,0,0:0:0:0:
448,192,108200,1,0,0:0:0:0:
64,192,108400,1,0,0:0:0:0:
192,192,108400,1,0,0:0:0:0:
64,192,109200,1,0,0:0:0:0:
320,192,109200,1,0,0:0:0:0:
192,192,109600,1,0,0:0:0:0:
448,192,109600,1,0,0:0:0:0:
320,192,110000,1,0,0:0:0:0:
448,192,110000,1,0,0:0:0:0:
64,192,110400,1,0,0:0:0:0:
192,192,110400,1,0,0:0:0:0:
448,192,110800,1,0,0:0:0:0:
192,192,110800,128,0,110866:0:0:0:0:
64,192,111000,1,0,0:0:0:0:
320,192,111200,1,0,0:0:0:0:
64,192,111400,1,0,0:0:0:0:
192,192,111400,128,0,111466:0:0:0:0:
448,192,111600,1,0,0:0:0:0:
192,192,111600,128,0,111666:0:0:0:0:
64,192,111800,1,0,0:0:0:0:
320,192,112000,1,0,0:0:0:0:
448,192,112000,1,0,0:0:0:0:
64,192,112200,1,0,0:0:0:0:
64,192,112400,1,0,0:0:0:0:
192,192,112400,128,0,112466:0:0:0:0:
448,192,112600,1,0,0:0:0:0:
320,192,112800,1,0,0:0:0:0:
64,192,112800,1,0,0:0:0:0:
448,192,113000,1,0,0:0:0:0:
192,192,113000,128,0,113066:0:0:0:0:
64,192,113200,1,0,0:0:0:0:
192,192,113200,128,0,113266:0:0:0:0:
320,192,113400,1,0,0:0:0:0:
64,192,113600,1,0,0:0:0:0:
320,192,113600,1,0,0:0:0:0:
64,192,113700,1,0,0:0:0:0:
64,192,113800,1,0,0:0:0:0:
448,192,113800,1,0,0:0:0:0:
448,192,114000,1,0,0:0:0:0:
192,192,114000,128,0,114066:0:0:0:0:
64,192,114200,1,0,0:0:0:0:
320,192,114400,1,0,0:0:0:0:
448,192,114400,1,0,0:0:0:0:
64,192,114600,1,0,0:0:0:0:
192,192,114600,128,0,114666:0:0:0:0:
448,192,114800,1,0,0:0:0:0:
192,192,114800,128,0,114866:0:0:0:0:
64,192,115000,1,0,0:0:0:0:
320,192,115200,1,0,0:0:0:0:
448,192,115200,1,0,0:0:0:0:
192,192,115400,1,0,0:0:0:0:
64,192,115600,1,0,0:0:0:0:
448,192,115600,1,0,0:0:0:0:
192,192,115800,1,0,0:0:0:0:
64,192,115900,1,0,0:0:0:0:
320,192,116000,1,0,0:0:0:0:
448,192,116000,1,0,0:0:0:0:
64,192,116200,1,0,0:0:0:0:
192,192,116200,1,0,0:0:0:0:
64,192,116400,1,0,0:0:0:0:
448,192,116400,1,0,0:0:0:0:
192,192,116400,1,0,0:0:0:0:
320,192,116500,1,0,0:0:0:0:
448,192,116600,1,0,0:0:0:0:
64,192,116600,1,0,0:0:0:0:
192,192,116700,1,0,0:0:0:0:
448,192,116800,1,0,0:0:0:0:
64,192,116800,1,0,0:0:0:0:
320,192,116800,1,0,0:0:0:0:
64,192,117000,1,0,0:0:0:0:
192,192,117000,1,0,0:0:0:0:
320,192,117000,1,0,0:0:0:0:
448,192,117200,1,0,0:0:0:0:
320,192,117200,128,0,118000:0:0:0:0:
64,192,117200,128,0,117350:0:0:0:0:
64,192,117400,1,0,0:0:0:0:
64,192,117500,128,0,117600:0:0:0:0:
448,192,117600,128,0,117750:0:0:0:0:
192,192,117600,1,0,0:0:0:0:
448,192,117800,1,0,0:0:0:0:
64,192,117800,1,0,0:0:0:0:
192,192,117900,128,0,118000:0:0:0:0:
448,192,118000,128,0,118400:0:0:0:0:
64,192,118000,128,0,118150:0:0:0:0:
64,192,118200,1,0,0:0:0:0:
64,192,118300,128,0,118400:0:0:0:0:
320,192,118400,128,0,118800:0:0:0:0:
192,192,118400,128,0,118550:0:0:0:0:
192,192,118600,1,0,0:0:0:0:
448,192,118600,1,0,0:0:0:0:
192,192,118700,128,0,118800:0:0:0:0:
64,192,118800,128,0,119100:0:0:0:0:
448,192,118800,128,0,118950:0:0:0:0:
448,192,119000,1,0,0:0:0:0:
192,192,119100,128,0,119400:0:0:0:0:
320,192,119100,128,0,119200:0:0:0:0:
448,192,119200,1,0,0:0:0:0:
64,192,119200,128,0,119350:0:0:0:0:
64,192,119400,1,0,0:0:0:0:
448,192,119400,128,0,119600:0:0:0:0:
192,192,119500,128,0,119600:0:0:0:0:
320,192,119600,128,0,120200:0:0:0:0:
64,192,119600,128,0,119750:0:0:0:0:
448,192,119700,1,0,0:0:0:0:
64,192,119800,1,0,0:0:0:0:
64,192,119900,128,0,120000:0:0:0:0:
192,192,120000,1,0,0:0:0:0:
448,192,120000,128,0,120150:0:0:0:0:
448,192,120200,1,0,0:0:0:0:
64,192,120200,1,0,0:0:0:0:
192,192,120200,1,0,0:0:0:0:
64,192,120300,1,0,0:0:0:0:
320,192,120400,1,0,0:0:0:0:
448,192,120400,128,0,120700:0:0:0:0:
192,192,120400,128,0,120550:0:0:0:0:
192,192,120600,1,0,0:0:0:0:
320,192,120700,128,0,121000:0:0:0:0:
192,192,120700,128,0,120800:0:0:0:0:
64,192,120800,1,0,0:0:0:0:
448,192,120800,128,0,120950:0:0:0:0:
448,192,121000,1,0,0:0:0:0:
192,192,121000,128,0,121200:0:0:0:0:
64,192,121100,1,0,0:0:0:0:
320,192,121100,128,0,121200:0:0:0:0:
64,192,121200,128,0,121500:0:0:0:0:
448,192,121200,128,0,121350:0:0:0:0:
192,192,121300,1,0,0:0:0:0:
448,192,121400,1,0,0:0:0:0:
192,192,121500,128,0,121800:0:0:0:0:
448,192,121500,128,0,121600:0:0:0:0:
320,192,121600,1,0,0:0:0:0:
64,192,121600,128,0,121750:0:0:0:0:
64,192,121800,1,0,0:0:0:0:
320,192,121800,128,0,122000:0:0:0:0:
448,192,121800,1,0,0:0:0:0:
64,192,121900,128,0,122000:0:0:0:0:
448,192,122000,128,0,122300:0:0:0:0:
192,192,122000,128,0,122150:0:0:0:0:
192,192,122200,1,0,0:0:0:0:
192,192,122300,128,0,122400:0:0:0:0:
320,192,122300,128,0,122600:0:0:0:0:
64,192,122400,1,0,0:0:0:0:
448,192,122400,128,0,122550:0:0:0:0:
448,192,122600,1,0,0:0:0:0:
192,192,122600,128,0,122800:0:0:0:0:
64,192,122800,128,0,123600:0:0:0:0:
320,192,122800,128,0,122950:0:0:0:0:
448,192,122800,1,0,0:0:0:0:
320,192,123000,1,0,0:0:0:0:
192,192,123100,128,0,123200:0:0:0:0:
320,192,123200,128,0,123350:0:0:0:0:
448,192,123200,1,0,0:0:0:0:
320,192,123400,1,0,0:0:0:0:
448,192,123400,1,0,0:0:0:0:
320,192,123500,128,0,123600:0:0:0:0:
448,192,123600,128,0,123750:0:0:0:0:
192,192,123600,128,0,123650:0:0:0:0:
64,192,123700,128,0,123750:0:0:0:0:
192,192,123800,128,0,123850:0:0:0:0:
320,192,123900,128,0,124000:0:0:0:0:
448,192,123900,128,0,123950:0:0:0:0:
64,192,124000,128,0,124150:0:0:0:0:
192,192,124000,128,0,124050:0:0:0:0:
448,192,124100,128,0,124150:0:0:0:0:
320,192,124200,128,0,124250:0:0:0:0:
64,192,124300,128,0,124400:0:0:0:0:
192,192,124300,128,0,124350:0:0:0:0:
448,192,124400,128,0,124550:0:0:0:0:
320,192,124400,128,0,124450:0:0:0:0:
192,192,124500,128,0,124550:0:0:0:0:
64,192,124600,128,0,124650:0:0:0:0:
320,192,124700,128,0,124750:0:0:0:0:
448,192,124700,128,0,124800:0:0:0:0:
192,192,124800,128,0,124950:0:0:0:0:
64,192,124800,128,0,124850:0:0:0:0:
448,192,124900,128,0,124950:0:0:0:0:
320,192,125000,128,0,125050:0:0:0:0:
192,192,125100,128,0,125150:0:0:0:0:
64,192,125100,128,0,125200:0:0:0:0:
320,192,125200,128,0,125350:0:0:0:0:
448,192,125200,128,0,125250:0:0:0:0:
192,192,125300,128,0,125350:0:0:0:0:
64,192,125400,128,0,125450:0:0:0:0:
192,192,125500,128,0,125600:0:0:0:0:
448,192,125500,128,0,125550:0:0:0:0:
320,192,125600,128,0,125750:0:0:0:0:
64,192,125600,128,0,125650:0:0:0:0:
448,192,125700,128,0,125750:0:0:0:0:
192,192,125800,128,0,125850:0:0:0:0:
448,192,125900,128,0,126000:0:0:0:0:
320,192,125900,128,0,125950:0:0:0:0:
192,192,126000,128,0,126150:0:0:0:0:
64,192,126000,128,0,126050:0:0:0:0:
320,192,126100,128,0,126150:0:0:0:0:
448,192,126200,128,0,126250:0:0:0:0:
64,192,126300,128,0,126350:0:0:0:0:
320,192,126300,128,0,126400:0:0:0:0:
192,192,126400,128,0,126450:0:0:0:0:
448,192,126400,128,0,126550:0:0:0:0:
320,192,126500,128,0,126550:0:0:0:0:
192,192,126600,128,0,126650:0:0:0:0:
64,192,126700,128,0,126750:0:0:0:0:
448,192,126700,128,0,126800:0:0:0:0:
320,192,126800,128,0,126950:0:0:0:0:
192,192,126800,128,0,126850:0:0:0:0:
448,192,126900,128,0,126950:0:0:0:0:
192,192,127000,128,0,127050:0:0:0:0:
64,192,127100,128,0,127150:0:0:0:0:
320,192,127100,128,0,127200:0:0:0:0:
192,192,127200,128,0,127250:0:0:0:0:
448,192,127200,128,0,127350:0:0:0:0:
320,192,127300,128,0,127350:0:0:0:0:
64,192,127400,128,0,127450:0:0:0:0:
448,192,127500,128,0,127600:0:0:0:0:
192,192,127500,128,0,127550:0:0:0:0:
64,192,127600,128,0,127650:0:0:0:0:
320,192,127600,128,0,127750:0:0:0:0:
448,192,127700,128,0,127750:0:0:0:0:
192,192,127800,128,0,127850:0:0:0:0:
320,192,127900,128,0,128000:0:0:0:0:
448,192,127900,128,0,127950:0:0:0:0:
192,192,128000,128,0,128150:0:0:0:0:
64,192,128000,128,0,128050:0:0:0:0:
320,192,128100,128,0,128150:0:0:0:0:
64,192,128200,128,0,128250:0:0:0:0:
192,192,128300,128,0,128400:0:0:0:0:
448,192,128300,128,0,128350:0:0:0:0:
64,192,128400,128,0,128550:0:0:0:0:
320,192,128400,128,0,128450:0:0:0:0:
448,192,128500,128,0,128550:0:0:0:0:
320,192,128600,128,0,128650:0:0:0:0:
64,192,128700,128,0,128800:0:0:0:0:
192,192,128700,128,0,128750:0:0:0:0:
320,192,128800,128,0,128950:0:0:0:0:
448,192,128800,128,0,128850:0:0:0:0:
192,192,128900,128,0,128950:0:0:0:0:
64,192,129000,128,0,129050:0:0:0:0:
192,192,129050,128,0,129100:0:0:0:0:
320,192,129100,128,0,129200:0:0:0:0:
448,192,129200,128,0,129250:0:0:0:0:
64,192,129200,128,0,129350:0:0:0:0:
192,192,129250,128,0,129300:0:0:0:0:
320,192,129350,128,0,129400:0:0:0:0:
64,192,129500,128,0,129600:0:0:0:0:
320,192,129500,128,0,129550:0:0:0:0:
448,192,129550,128,0,129700:0:0:0:0:
192,192,129600,128,0,129650:0:0:0:0:
64,192,129700,128,0,129750:0:0:0:0:
192,192,129800,128,0,129850:0:0:0:0:
448,192,129850,128,0,129950:0:0:0:0:
320,192,129900,128,0,129950:0:0:0:0:
64,192,130000,128,0,130500:0:0:0:0:
192,192,130050,128,0,130450:0:0:0:0:
320,192,130100,128,0,130400:0:0:0:0:
448,192,130150,128,0,130350:0:0:0:0:
448,192,130450,128,0,130850:0:0:0:0:
320,192,130500,128,0,130800:0:0:0:0:
192,192,130550,128,0,130750:0:0:0:0:
64,192,130600,128,0,130700:0:0:0:0:
64,192,130800,128,0,131250:0:0:0:0:
192,192,130850,128,0,131200:0:0:0:0:
320,192,130900,128,0,131150:0:0:0:0:
448,192,130950,128,0,131100:0:0:0:0:
448,192,131200,1,0,0:0:0:0:
320,192,131250,1,0,0:0:0:0:
192,192,131300,1,0,0:0:0:0:
64,192,131350,1,0,0:0:0:0:
448,192,131400,1,0,0:0:0:0:
320,192,131450,1,0,0:0:0:0:
192,192,131500,1,0,0:0:0:0:
64,192,131550,1,0,0:0:0:0:
192,192,131600,128,0,131700:0:0:0:0:
320,192,131600,128,0,132300:0:0:0:0:
448,192,131600,128,0,131900:0:0:0:0:
64,192,131700,128,0,131900:0:0:0:0:
192,192,131800,1,0,0:0:0:0:
192,192,131900,128,0,132100:0:0:0:0:
448,192,132000,1,0,0:0:0:0:
64,192,132000,128,0,132700:0:0:0:0:
448,192,132100,128,0,132500:0:0:0:0:
192,192,132200,1,0,0:0:0:0:
192,192,132300,128,0,132900:0:0:0:0:
320,192,132400,1,0,0:0:0:0:
320,192,132500,128,0,133100:0:0:0:0:
448,192,132600,1,0,0:0:0:0:
448,192,132700,128,0,133100:0:0:0:0:
64,192,132800,1,0,0:0:0:0:
64,192,132900,128,0,133100:0:0:0:0:
192,192,133000,1,0,0:0:0:0:
192,192,133100,128,0,133700:0:0:0:0:
64,192,133200,128,0,133500:0:0:0:0:
320,192,133200,1,0,0:0:0:0:
448,192,133200,128,0,133300:0:0:0:0:
320,192,133300,128,0,134100:0:0:0:0:
448,192,133400,1,0,0:0:0:0:
448,192,133500,128,0,133900:0:0:0:0:
64,192,133600,1,0,0:0:0:0:
64,192,133700,128,0,134300:0:0:0:0:
192,192,133800,1,0,0:0:0:0:
192,192,133900,128,0,134500:0:0:0:0:
448,192,134000,1,0,0:0:0:0:
448,192,134100,128,0,134700:0:0:0:0:
320,192,134200,1,0,0:0:0:0:
320,192,134300,128,0,134700:0:0:0:0:
64,192,134400,1,0,0:0:0:0:
64,192,134500,128,0,134700:0:0:0:0:
192,192,134600,1,0,0:0:0:0:
192,192,134700,128,0,135100:0:0:0:0:
448,192,134800,1,0,0:0:0:0:
320,192,134800,128,0,134900:0:0:0:0:
64,192,134800,128,0,135500:0:0:0:0:
448,192,134900,128,0,135300:0:0:0:0:
320,192,135000,1,0,0:0:0:0:
320,192,135100,128,0,135500:0:0:0:0:
192,192,135200,1,0,0:0:0:0:
192,192,135300,128,0,135700:0:0:0:0:
448,192,135400,1,0,0:0:0:0:
448,192,135500,128,0,136100:0:0:0:0:
64,192,135600,1,0,0:0:0:0:
320,192,135600,128,0,135900:0:0:0:0:
64,192,135700,128,0,136300:0:0:0:0:
192,192,135800,1,0,0:0:0:0:
192,192,135900,128,0,136300:0:0:0:0:
320,192,136000,1,0,0:0:0:0:
320,192,136100,128,0,136300:0:0:0:0:
448,192,136200,1,0,0:0:0:0:
448,192,136300,128,0,136700:0:0:0:0:
320,192,136400,1,0,0:0:0:0:
64,192,136400,128,0,136500:0:0:0:0:
192,192,136400,128,0,136700:0:0:0:0:
320,192,136500,128,0,136900:0:0:0:0:
64,192,136600,1,0,0:0:0:0:
64,192,136700,128,0,137100:0:0:0:0:
192,192,136800,128,0,137100:0:0:0:0:
448,192,136800,1,0,0:0:0:0:
448,192,136900,128,0,137700:0:0:0:0:
320,192,137000,1,0,0:0:0:0:
320,192,137100,128,0,137500:0:0:0:0:
192,192,137200,1,0,0:0:0:0:
64,192,137200,128,0,137300:0:0:0:0:
192,192,137300,128,0,137700:0:0:0:0:
64,192,137400,1,0,0:0:0:0:
64,192,137500,128,0,137950:0:0:0:0:
320,192,137600,1,0,0:0:0:0:
320,192,137700,128,0,137950:0:0:0:0:
192,192,137800,128,0,137950:0:0:0:0:
448,192,137800,1,0,0:0:0:0:
448,192,137900,128,0,137950:0:0:0:0:
192,192,138000,1,0,0:0:0:0:
64,192,138000,128,0,138300:0:0:0:0:
320,192,138000,128,0,138100:0:0:0:0:
448,192,138000,128,0,138300:0:0:0:0:
192,192,138100,128,0,138900:0:0:0:0:
320,192,138200,1,0,0:0:0:0:
320,192,138300,128,0,138500:0:0:0:0:
448,192,138400,1,0,0:0:0:0:
64,192,138400,128,0,139100:0:0:0:0:
448,192,138500,128,0,138700:0:0:0:0:
320,192,138600,1,0,0:0:0:0:
320,192,138700,128,0,139500:0:0:0:0:
448,192,138800,1,0,0:0:0:0:
448,192,138900,128,0,139500:0:0:0:0:
192,192,139000,1,0,0:0:0:0:
192,192,139100,128,0,139300:0:0:0:0:
64,192,139200,1,0,0:0:0:0:
64,192,139300,128,0,139500:0:0:0:0:
192,192,139400,1,0,0:0:0:0:
192,192,139500,128,0,139900:0:0:0:0:
64,192,139600,128,0,140700:0:0:0:0:
320,192,139600,1,0,0:0:0:0:
448,192,139600,128,0,139700:0:0:0:0:
320,192,139700,128,0,140100:0:0:0:0:
448,192,139800,1,0,0:0:0:0:
448,192,139900,128,0,140300:0:0:0:0:
192,192,140000,1,0,0:0:0:0:
192,192,140100,128,0,140900:0:0:0:0:
320,192,140200,1,0,0:0:0:0:
320,192,140300,128,0,140500:0:0:0:0:
448,192,140400,1,0,0:0:0:0:
448,192,140500,128,0,141100:0:0:0:0:
320,192,140600,1,0,0:0:0:0:
320,192,140700,128,0,140900:0:0:0:0:
64,192,140800,1,0,0:0:0:0:
64,192,140900,128,0,141100:0:0:0:0:
192,192,141000,1,0,0:0:0:0:
320,192,141000,128,0,141100:0:0:0:0:
192,192,141100,128,0,142100:0:0:0:0:
448,192,141200,1,0,0:0:0:0:
320,192,141200,128,0,141300:0:0:0:0:
64,192,141200,128,0,141500:0:0:0:0:
448,192,141300,128,0,141700:0:0:0:0:
320,192,141400,1,0,0:0:0:0:
320,192,141500,128,0,142300:0:0:0:0:
64,192,141600,1,0,0:0:0:0:
64,192,141700,128,0,141900:0:0:0:0:
448,192,141800,1,0,0:0:0:0:
448,192,141900,128,0,142500:0:0:0:0:
64,192,142000,1,0,0:0:0:0:
64,192,142100,128,0,142700:0:0:0:0:
192,192,142200,1,0,0:0:0:0:
192,192,142300,128,0,142700:0:0:0:0:
320,192,142400,1,0,0:0:0:0:
320,192,142500,128,0,142700:0:0:0:0:
448,192,142600,1,0,0:0:0:0:
448,192,142700,128,0,143100:0:0:0:0:
320,192,142800,1,0,0:0:0:0:
64,192,142800,128,0,142900:0:0:0:0:
192,192,142800,128,0,143500:0:0:0:0:
320,192,142900,128,0,143300:0:0:0:0:
64,192,143000,1,0,0:0:0:0:
64,192,143100,128,0,143700:0:0:0:0:
448,192,143200,1,0,0:0:0:0:
448,192,143300,128,0,144350:0:0:0:0:
320,192,143400,1,0,0:0:0:0:
320,192,143500,128,0,144100:0:0:0:0:
192,192,143600,1,0,0:0:0:0:
192,192,143700,128,0,143900:0:0:0:0:
64,192,143800,1,0,0:0:0:0:
64,192,143900,128,0,144100:0:0:0:0:
192,192,144000,1,0,0:0:0:0:
192,192,144100,128,0,144350:0:0:0:0:
320,192,144200,1,0,0:0:0:0:
64,192,144200,128,0,144350:0:0:0:0:
320,192,144300,128,0,144350:0:0:0:0:
192,192,144400,1,0,0:0:0:0:
64,192,144400,128,0,144700:0:0:0:0:
320,192,144400,128,0,144500:0:0:0:0:
448,192,144400,128,0,144700:0:0:0:0:
192,192,144500,128,0,144900:0:0:0:0:
320,192,144600,1,0,0:0:0:0:
320,192,144700,128,0,145100:0:0:0:0:
448,192,144800,1,0,0:0:0:0:
64,192,144800,128,0,145000:0:0:0:0:
448,192,144900,128,0,145900:0:0:0:0:
192,192,145000,1,0,0:0:0:0:
64,192,145100,128,0,145200:0:0:0:0:
192,192,145100,128,0,145300:0:0:0:0:
320,192,145200,1,0,0:0:0:0:
320,192,145300,128,0,145900:0:0:0:0:
64,192,145300,128,0,145500:0:0:0:0:
192,192,145400,1,0,0:0:0:0:
192,192,145500,128,0,145700:0:0:0:0:
64,192,145600,1,0,0:0:0:0:
64,192,145700,128,0,145900:0:0:0:0:
192,192,145800,1,0,0:0:0:0:
192,192,145900,128,0,146600:0:0:0:0:
64,192,146000,128,0,146300:0:0:0:0:
320,192,146000,1,0,0:0:0:0:
448,192,146000,128,0,146100:0:0:0:0:
320,192,146100,128,0,146500:0:0:0:0:
448,192,146200,1,0,0:0:0:0:
448,192,146300,128,0,146700:0:0:0:0:
64,192,146400,1,0,0:0:0:0:
64,192,146500,128,0,147200:0:0:0:0:
320,192,146600,1,0,0:0:0:0:
192,192,146700,128,0,146800:0:0:0:0:
320,192,146700,128,0,146900:0:0:0:0:
448,192,146800,1,0,0:0:0:0:
448,192,146900,128,0,147500:0:0:0:0:
192,192,146900,128,0,147100:0:0:0:0:
320,192,147000,1,0,0:0:0:0:
320,192,147100,128,0,147300:0:0:0:0:
192,192,147200,1,0,0:0:0:0:
192,192,147300,128,0,147500:0:0:0:0:
64,192,147300,128,0,147500:0:0:0:0:
320,192,147400,128,0,147900:0:0:0:0:
448,192,147600,1,0,0:0:0:0:
192,192,147600,128,0,147700:0:0:0:0:
64,192,147600,128,0,147900:0:0:0:0:
448,192,147700,128,0,148100:0:0:0:0:
192,192,147800,1,0,0:0:0:0:
192,192,147900,128,0,148500:0:0:0:0:
64,192,148000,1,0,0:0:0:0:
320,192,148000,128,0,148200:0:0:0:0:
64,192,148100,128,0,148300:0:0:0:0:
448,192,148200,1,0,0:0:0:0:
320,192,148300,128,0,148400:0:0:0:0:
448,192,148300,128,0,148900:0:0:0:0:
64,192,148400,1,0,0:0:0:0:
320,192,148500,128,0,148700:0:0:0:0:
64,192,148500,128,0,149100:0:0:0:0:
192,192,148600,1,0,0:0:0:0:
192,192,148700,128,0,149100:0:0:0:0:
320,192,148800,1,0,0:0:0:0:
320,192,148900,128,0,149100:0:0:0:0:
448,192,149000,1,0,0:0:0:0:
448,192,149100,128,0,149500:0:0:0:0:
320,192,149200,1,0,0:0:0:0:
64,192,149200,128,0,149300:0:0:0:0:
192,192,149200,128,0,149500:0:0:0:0:
320,192,149300,128,0,149700:0:0:0:0:
64,192,149400,1,0,0:0:0:0:
64,192,149500,128,0,150100:0:0:0:0:
448,192,149600,1,0,0:0:0:0:
192,192,149600,128,0,149900:0:0:0:0:
448,192,149700,128,0,150750:0:0:0:0:
320,192,149800,1,0,0:0:0:0:
320,192,149900,128,0,150500:0:0:0:0:
192,192,150000,1,0,0:0:0:0:
192,192,150100,128,0,150300:0:0:0:0:
64,192,150200,1,0,0:0:0:0:
64,192,150300,128,0,150500:0:0:0:0:
192,192,150400,1,0,0:0:0:0:
192,192,150500,128,0,150750:0:0:0:0:
64,192,150600,128,0,150750:0:0:0:0:
320,192,150600,1,0,0:0:0:0:
320,192,150700,128,0,150750:0:0:0:0:
64,192,150800,1,0,0:0:0:0:
192,192,150800,128,0,150900:0:0:0:0:
448,192,150800,128,0,151100:0:0:0:0:
320,192,150800,128,0,151500:0:0:0:0:
64,192,150900,128,0,151100:0:0:0:0:
192,192,151000,1,0,0:0:0:0:
192,192,151100,128,0,151300:0:0:0:0:
448,192,151200,1,0,0:0:0:0:
64,192,151200,128,0,151400:0:0:0:0:
448,192,151300,128,0,152300:0:0:0:0:
192,192,151400,1,0,0:0:0:0:
192,192,151500,128,0,151700:0:0:0:0:
64,192,151500,128,0,151600:0:0:0:0:
320,192,151600,1,0,0:0:0:0:
320,192,151700,128,0,152300:0:0:0:0:
64,192,151700,128,0,151900:0:0:0:0:
192,192,151800,1,0,0:0:0:0:
192,192,151900,128,0,152100:0:0:0:0:
64,192,152000,1,0,0:0:0:0:
64,192,152100,128,0,152300:0:0:0:0:
192,192,152200,1,0,0:0:0:0:
192,192,152300,128,0,152700:0:0:0:0:
320,192,152400,1,0,0:0:0:0:
448,192,152400,128,0,152500:0:0:0:0:
64,192,152400,128,0,153500:0:0:0:0:
320,192,152500,128,0,152900:0:0:0:0:
448,192,152600,1,0,0:0:0:0:
448,192,152700,128,0,153100:0:0:0:0:
192,192,152800,1,0,0:0:0:0:
192,192,152900,128,0,153700:0:0:0:0:
320,192,153000,1,0,0:0:0:0:
320,192,153100,128,0,153300:0:0:0:0:
448,192,153200,1,0,0:0:0:0:
448,192,153300,128,0,153500:0:0:0:0:
320,192,153400,1,0,0:0:0:0:
320,192,153500,128,0,153900:0:0:0:0:
64,192,153600,1,0,0:0:0:0:
448,192,153600,128,0,153900:0:0:0:0:
64,192,153700,128,0,153900:0:0:0:0:
192,192,153800,1,0,0:0:0:0:
192,192,153900,128,0,154300:0:0:0:0:
448,192,154000,1,0,0:0:0:0:
320,192,154000,128,0,154100:0:0:0:0:
64,192,154000,128,0,154700:0:0:0:0:
448,192,154100,128,0,154500:0:0:0:0:
320,192,154200,1,0,0:0:0:0:
320,192,154300,128,0,154600:0:0:0:0:
192,192,154400,1,0,0:0:0:0:
192,192,154500,128,0,154900:0:0:0:0:
448,192,154600,1,0,0:0:0:0:
320,192,154700,128,0,154800:0:0:0:0:
448,192,154700,128,0,154900:0:0:0:0:
64,192,154800,1,0,0:0:0:0:
320,192,154900,128,0,155100:0:0:0:0:
64,192,154900,128,0,155500:0:0:0:0:
192,192,155000,1,0,0:0:0:0:
448,192,155000,128,0,155300:0:0:0:0:
192,192,155100,128,0,155500:0:0:0:0:
320,192,155200,1,0,0:0:0:0:
320,192,155300,128,0,155800:0:0:0:0:
448,192,155400,1,0,0:0:0:0:
448,192,155500,128,0,155900:0:0:0:0:
192,192,155600,1,0,0:0:0:0:
64,192,155600,128,0,155700:0:0:0:0:
192,192,155700,128,0,156100:0:0:0:0:
64,192,155800,1,0,0:0:0:0:
320,192,155900,128,0,156200:0:0:0:0:
64,192,155900,128,0,156300:0:0:0:0:
448,192,156000,1,0,0:0:0:0:
448,192,156100,128,0,156900:0:0:0:0:
192,192,156200,1,0,0:0:0:0:
192,192,156300,128,0,156500:0:0:0:0:
320,192,156300,128,0,156400:0:0:0:0:
64,192,156400,1,0,0:0:0:0:
64,192,156500,128,0,157150:0:0:0:0:
320,192,156500,128,0,156700:0:0:0:0:
192,192,156600,1,0,0:0:0:0:
192,192,156700,128,0,156900:0:0:0:0:
320,192,156800,1,0,0:0:0:0:
320,192,156900,128,0,157150:0:0:0:0:
192,192,157000,128,0,157150:0:0:0:0:
448,192,157000,1,0,0:0:0:0:
448,192,157100,128,0,157150:0:0:0:0:
64,192,157200,1,0,0:0:0:0:
192,192,157200,1,0,0:0:0:0:
320,192,157200,1,0,0:0:0:0:
448,192,157200,1,0,0:0:0:0:
192,192,157400,1,0,0:0:0:0:
448,192,157400,1,0,0:0:0:0:
64,192,157600,1,0,0:0:0:0:
448,192,157600,1,0,0:0:0:0:
320,192,157800,1,0,0:0:0:0:
448,192,157800,1,0,0:0:0:0:
192,192,157900,1,0,0:0:0:0:
64,192,158000,1,0,0:0:0:0:
448,192,158000,1,0,0:0:0:0:
320,192,158100,1,0,0:0:0:0:
192,192,158200,1,0,0:0:0:0:
64,192,158200,1,0,0:0:0:0:
320,192,158400,1,0,0:0:0:0:
448,192,158400,1,0,0:0:0:0:
192,192,158600,1,0,0:0:0:0:
64,192,158600,1,0,0:0:0:0:
448,192,158800,128,0,158950:0:0:0:0:
320,192,158850,128,0,159000:0:0:0:0:
192,192,158900,128,0,159050:0:0:0:0:
64,192,158950,128,0,159100:0:0:0:0:
448,192,159000,128,0,159150:0:0:0:0:
320,192,159050,128,0,159200:0:0:0:0:
192,192,159100,128,0,159250:0:0:0:0:
64,192,159150,128,0,159300:0:0:0:0:
448,192,159200,128,0,159350:0:0:0:0:
320,192,159250,128,0,159400:0:0:0:0:
192,192,159300,128,0,159450:0:0:0:0:
64,192,159350,128,0,159500:0:0:0:0:
448,192,159400,128,0,159550:0:0:0:0:
320,192,159450,128,0,159600:0:0:0:0:
192,192,159500,128,0,159650:0:0:0:0:
64,192,159550,128,0,159700:0:0:0:0:
448,192,159600,128,0,160000:0:0:0:0:
320,192,159700,1,0,0:0:0:0:
192,192,159800,1,0,0:0:0:0:
64,192,159900,1,0,0:0:0:0:
192,192,160000,128,0,160100:0:0:0:0:
320,192,160000,128,0,160100:0:0:0:0:
64,192,160100,128,0,160200:0:0:0:0:
448,192,160100,128,0,160200:0:0:0:0:
192,192,160200,128,0,160300:0:0:0:0:
320,192,160200,128,0,160300:0:0:0:0:
64,192,160300,128,0,160400:0:0:0:0:
448,192,160300,128,0,160400:0:0:0:0:
192,192,160400,1,0,0:0:0:0:
320,192,160450,1,0,0:0:0:0:
448,192,160500,128,0,160950:0:0:0:0:
64,192,160550,1,0,0:0:0:0:
192,192,160600,1,0,0:0:0:0:
320,192,160650,1,0,0:0:0:0:
64,192,160700,1,0,0:0:0:0:
192,192,160750,1,0,0:0:0:0:
320,192,160800,1,0,0:0:0:0:
64,192,160850,1,0,0:0:0:0:
192,192,160900,1,0,0:0:0:0:
320,192,160950,1,0,0:0:0:0:
64,192,161000,128,0,161600:0:0:0:0:
192,192,161000,128,0,161100:0:0:0:0:
320,192,161100,128,0,161200:0:0:0:0:
448,192,161200,1,0,0:0:0:0:
320,192,161250,1,0,0:0:0:0:
192,192,161300,1,0,0:0:0:0:
448,192,161350,1,0,0:0:0:0:
320,192,161400,1,0,0:0:0:0:
192,192,161450,1,0,0:0:0:0:
448,192,161500,1,0,0:0:0:0:
320,192,161550,1,0,0:0:0:0:
192,192,161600,1,0,0:0:0:0:
448,192,161600,1,0,0:0:0:0:
320,192,161700,1,0,0:0:0:0:
64,192,161800,1,0,0:0:0:0:
448,192,161800,1,0,0:0:0:0:
192,192,161900,1,0,0:0:0:0:
64,192,162000,1,0,0:0:0:0:
448,192,162000,128,0,162400:0:0:0:0:
320,192,162000,128,0,162100:0:0:0:0:
192,192,162100,1,0,0:0:0:0:
320,192,162200,1,0,0:0:0:0:
64,192,162200,128,0,162300:0:0:0:0:
192,192,162300,1,0,0:0:0:0:
64,192,162400,128,0,162800:0:0:0:0:
320,192,162400,128,0,162500:0:0:0:0:
192,192,162500,1,0,0:0:0:0:
448,192,162600,128,0,162700:0:0:0:0:
320,192,162600,1,0,0:0:0:0:
192,192,162700,1,0,0:0:0:0:
448,192,162800,128,0,163200:0:0:0:0:
320,192,162800,128,0,162900:0:0:0:0:
192,192,162900,128,0,163000:0:0:0:0:
64,192,163000,128,0,163100:0:0:0:0:
320,192,163100,128,0,163200:0:0:0:0:
64,192,163200,128,0,163300:0:0:0:0:
192,192,163200,128,0,163300:0:0:0:0:
320,192,163300,128,0,163400:0:0:0:0:
448,192,163400,128,0,163500:0:0:0:0:
64,192,163400,128,0,163500:0:0:0:0:
192,192,163500,128,0,163600:0:0:0:0:
320,192,163600,128,0,163700:0:0:0:0:
448,192,163600,128,0,163700:0:0:0:0:
64,192,163700,128,0,163800:0:0:0:0:
192,192,163700,128,0,163800:0:0:0:0:
320,192,163800,128,0,163900:0:0:0:0:
448,192,163800,128,0,163900:0:0:0:0:
64,192,163900,128,0,164000:0:0:0:0:
192,192,163900,128,0,164100:0:0:0:0:
320,192,164000,128,0,164100:0:0:0:0:
64,192,164100,128,0,164200:0:0:0:0:
448,192,164100,128,0,164200:0:0:0:0:
192,192,164200,128,0,164300:0:0:0:0:
320,192,164200,128,0,164300:0:0:0:0:
64,192,164300,128,0,164400:0:0:0:0:
448,192,164300,128,0,164400:0:0:0:0:
192,192,164400,128,0,164450:0:0:0:0:
320,192,164450,128,0,164500:0:0:0:0:
448,192,164500,128,0,164550:0:0:0:0:
64,192,164550,128,0,164600:0:0:0:0:
192,192,164600,128,0,164650:0:0:0:0:
320,192,164600,128,0,164650:0:0:0:0:
448,192,164650,128,0,164700:0:0:0:0:
64,192,164700,128,0,164750:0:0:0:0:
192,192,164750,128,0,164800:0:0:0:0:
448,192,164800,128,0,165150:0:0:0:0:
320,192,164800,128,0,164900:0:0:0:0:
192,192,164900,128,0,165000:0:0:0:0:
320,192,165000,128,0,165100:0:0:0:0:
192,192,165100,128,0,165150:0:0:0:0:
64,192,165200,128,0,165300:0:0:0:0:
320,192,165200,128,0,165300:0:0:0:0:
448,192,165200,128,0,165300:0:0:0:0:
192,192,165300,128,0,165400:0:0:0:0:
64,192,165400,128,0,165500:0:0:0:0:
448,192,165400,128,0,165500:0:0:0:0:
320,192,165500,128,0,165600:0:0:0:0:
192,192,165600,128,0,165700:0:0:0:0:
64,192,165600,128,0,165700:0:0:0:0:
448,192,165600,128,0,165700:0:0:0:0:
320,192,165700,128,0,165800:0:0:0:0:
64,192,165800,128,0,165900:0:0:0:0:
448,192,165800,128,0,165900:0:0:0:0:
192,192,165900,128,0,166000:0:0:0:0:
64,192,166000,128,0,166100:0:0:0:0:
320,192,166000,128,0,166100:0:0:0:0:
448,192,166000,128,0,166100:0:0:0:0:
192,192,166100,128,0,166200:0:0:0:0:
64,192,166200,128,0,166300:0:0:0:0:
448,192,166200,128,0,166300:0:0:0:0:
320,192,166300,128,0,166400:0:0:0:0:
192,192,166400,128,0,166500:0:0:0:0:
64,192,166400,128,0,166500:0:0:0:0:
320,192,166500,128,0,166600:0:0:0:0:
448,192,166500,128,0,166600:0:0:0:0:
64,192,166600,128,0,166700:0:0:0:0:
192,192,166600,128,0,166700:0:0:0:0:
320,192,166700,128,0,166750:0:0:0:0:
448,192,166700,128,0,166750:0:0:0:0:
64,192,166800,128,0,166950:0:0:0:0:
192,192,166800,128,0,166950:0:0:0:0:
320,192,166800,1,0,0:0:0:0:
448,192,166800,1,0,0:0:0:0:
320,192,167000,128,0,167150:0:0:0:0:
448,192,167000,128,0,167150:0:0:0:0:
64,192,167000,128,0,167150:0:0:0:0:
64,192,167200,128,0,167350:0:0:0:0:
192,192,167200,128,0,167350:0:0:0:0:
320,192,167200,128,0,167350:0:0:0:0:
192,192,167400,128,0,167550:0:0:0:0:
320,192,167400,128,0,167550:0:0:0:0:
448,192,167400,128,0,167550:0:0:0:0:
448,192,167600,128,0,168350:0:0:0:0:
64,192,167600,128,0,168000:0:0:0:0:
192,192,167600,128,0,167700:0:0:0:0:
320,192,167700,128,0,167800:0:0:0:0:
192,192,167800,128,0,167900:0:0:0:0:
320,192,167900,128,0,168000:0:0:0:0:
192,192,168000,128,0,168100:0:0:0:0:
64,192,168100,128,0,168350:0:0:0:0:
192,192,168200,128,0,168300:0:0:0:0:
320,192,168300,128,0,168350:0:0:0:0:
64,192,168400,128,0,168500:0:0:0:0:
192,192,168400,128,0,168500:0:0:0:0:
320,192,168400,128,0,168500:0:0:0:0:
448,192,168500,128,0,168600:0:0:0:0:
320,192,168600,128,0,168700:0:0:0:0:
64,192,168600,128,0,168700:0:0:0:0:
192,192,168700,128,0,168800:0:0:0:0:
64,192,168800,128,0,168900:0:0:0:0:
448,192,168800,128,0,168900:0:0:0:0:
320,192,168900,128,0,169000:0:0:0:0:
192,192,169000,128,0,169100:0:0:0:0:
448,192,169000,128,0,169100:0:0:0:0:
64,192,169100,128,0,169200:0:0:0:0:
192,192,169200,128,0,169300:0:0:0:0:
320,192,169200,128,0,169300:0:0:0:0:
448,192,169200,128,0,169300:0:0:0:0:
64,192,169300,128,0,169400:0:0:0:0:
192,192,169400,128,0,169500:0:0:0:0:
320,192,169500,128,0,169600:0:0:0:0:
448,192,169600,128,0,169700:0:0:0:0:
192,192,169600,128,0,169700:0:0:0:0:
64,192,169700,128,0,169800:0:0:0:0:
320,192,169700,128,0,169800:0:0:0:0:
192,192,169800,128,0,169900:0:0:0:0:
448,192,169800,128,0,169900:0:0:0:0:
64,192,169900,128,0,169950:0:0:0:0:
320,192,169900,128,0,169950:0:0:0:0:
64,192,170000,128,0,170100:0:0:0:0:
192,192,170000,128,0,170100:0:0:0:0:
448,192,170000,128,0,170100:0:0:0:0:
320,192,170100,128,0,170200:0:0:0:0:
192,192,170200,128,0,170300:0:0:0:0:
448,192,170200,128,0,170300:0:0:0:0:
320,192,170300,128,0,170400:0:0:0:0:
64,192,170400,128,0,170500:0:0:0:0:
448,192,170400,128,0,170500:0:0:0:0:
192,192,170500,128,0,170600:0:0:0:0:
64,192,170600,128,0,170700:0:0:0:0:
320,192,170600,128,0,170700:0:0:0:0:
192,192,170700,128,0,170800:0:0:0:0:
64,192,170800,128,0,170900:0:0:0:0:
320,192,170800,128,0,170900:0:0:0:0:
448,192,170900,128,0,171000:0:0:0:0:
64,192,171000,128,0,171100:0:0:0:0:
320,192,171000,128,0,171100:0:0:0:0:
448,192,171100,128,0,171200:0:0:0:0:
320,192,171200,128,0,171300:0:0:0:0:
192,192,171200,128,0,171300:0:0:0:0:
64,192,171300,128,0,171400:0:0:0:0:
192,192,171400,128,0,171500:0:0:0:0:
320,192,171400,128,0,171500:0:0:0:0:
64,192,171500,128,0,171600:0:0:0:0:
320,192,171600,1,0,0:0:0:0:
448,192,171600,1,0,0:0:0:0:
64,192,171700,1,0,0:0:0:0:
192,192,171700,1,0,0:0:0:0:
320,192,171800,1,0,0:0:0:0:
448,192,171800,1,0,0:0:0:0:
64,192,171900,1,0,0:0:0:0:
192,192,171900,1,0,0:0:0:0:
320,192,172000,1,0,0:0:0:0:
448,192,172000,1,0,0:0:0:0:
64,192,172100,1,0,0:0:0:0:
192,192,172100,1,0,0:0:0:0:
320,192,172200,1,0,0:0:0:0:
448,192,172200,1,0,0:0:0:0:
64,192,172300,1,0,0:0:0:0:
192,192,172300,1,0,0:0:0:0:
320,192,172400,1,0,0:0:0:0:
448,192,172400,1,0,0:0:0:0:
64,192,172500,1,0,0:0:0:0:
192,192,172500,1,0,0:0:0:0:
320,192,172600,1,0,0:0:0:0:
448,192,172600,1,0,0:0:0:0:
64,192,172700,1,0,0:0:0:0:
192,192,172700,1,0,0:0:0:0:
320,192,172800,1,0,0:0:0:0:
448,192,172800,1,0,0:0:0:0:
64,192,172900,1,0,0:0:0:0:
192,192,172900,1,0,0:0:0:0:
320,192,173000,1,0,0:0:0:0:
448,192,173000,1,0,0:0:0:0:
64,192,173100,1,0,0:0:0:0:
192,192,173100,1,0,0:0:0:0:
448,192,173200,128,0,174000:0:0:0:0:
64,192,173400,1,0,0:0:0:0:
64,192,173800,1,0,0:0:0:0:
192,192,174000,128,0,174800:0:0:0:0:
448,192,174200,1,0,0:0:0:0:
448,192,174600,1,0,0:0:0:0:
320,192,174800,128,0,175600:0:0:0:0:
64,192,175000,1,0,0:0:0:0:
64,192,175400,1,0,0:0:0:0:
448,192,175600,128,0,176400:0:0:0:0:
192,192,175800,1,0,0:0:0:0:
192,192,176200,1,0,0:0:0:0:
64,192,176400,128,0,177200:0:0:0:0:
448,192,176600,1,0,0:0:0:0:
192,192,176800,1,0,0:0:0:0:
448,192,177000,1,0,0:0:0:0:
320,192,177200,128,0,178000:0:0:0:0:
64,192,177400,1,0,0:0:0:0:
64,192,177800,1,0,0:0:0:0:
192,192,178000,128,0,178800:0:0:0:0:
448,192,178000,1,0,0:0:0:0:
320,192,178200,1,0,0:0:0:0:
320,192,178600,1,0,0:0:0:0:
448,192,178800,128,0,179600:0:0:0:0:
64,192,179000,1,0,0:0:0:0:
64,192,179400,1,0,0:0:0:0:
64,192,179600,1,0,0:0:0:0:
192,192,179600,1,0,0:0:0:0:
192,192,181000,1,0,0:0:0:0:
320,192,181000,1,0,0:0:0:0:
192,192,181200,1,0,0:0:0:0:
320,192,181200,1,0,0:0:0:0:
64,192,182800,128,0,183500:0:0:0:0:
448,192,182800,128,0,183500:0:0:0:0:
192,192,182800,1,0,0:0:0:0:
64,192,183600,128,0,184300:0:0:0:0:
448,192,183600,128,0,184300:0:0:0:0:
320,192,183600,1,0,0:0:0:0:
64,192,184400,1,0,0:0:0:0:
448,192,184400,1,0,0:0:0:0:
192,192,184600,128,0,184800:0:0:0:0:
320,192,184600,128,0,184800:0:0:0:0:
448,192,184800,1,0,0:0:0:0:
64,192,184800,1,0,0:0:0:0:
64,192,185000,128,0,185200:0:0:0:0:
448,192,185000,128,0,185200:0:0:0:0:
320,192,185000,1,0,0:0:0:0:
192,192,185100,1,0,0:0:0:0:
320,192,185200,1,0,0:0:0:0:
192,192,185250,1,0,0:0:0:0:
64,192,185300,1,0,0:0:0:0:
448,192,185350,1,0,0:0:0:0:
320,192,185400,128,0,185600:0:0:0:0:
192,192,185400,128,0,185600:0:0:0:0:
64,192,185600,1,0,0:0:0:0:
448,192,185600,1,0,0:0:0:0:
192,192,185700,1,0,0:0:0:0:
64,192,185800,1,0,0:0:0:0:
448,192,185800,1,0,0:0:0:0:
320,192,185900,1,0,0:0:0:0:
448,192,186000,128,0,186800:0:0:0:0:
64,192,186000,1,0,0:0:0:0:
192,192,186100,128,0,186200:0:0:0:0:
320,192,186100,1,0,0:0:0:0:
64,192,186200,1,0,0:0:0:0:
320,192,186300,128,0,186400:0:0:0:0:
192,192,186300,1,0,0:0:0:0:
64,192,186400,128,0,186600:0:0:0:0:
320,192,186500,1,0,0:0:0:0:
192,192,186600,1,0,0:0:0:0:
64,192,186700,128,0,186800:0:0:0:0:
320,192,186700,128,0,186800:0:0:0:0:
192,192,186800,1,0,0:0:0:0:
64,192,186900,1,0,0:0:0:0:
448,192,186900,128,0,187000:0:0:0:0:
192,192,187000,1,0,0:0:0:0:
320,192,187100,128,0,187200:0:0:0:0:
448,192,187100,1,0,0:0:0:0:
192,192,187200,128,0,187400:0:0:0:0:
64,192,187200,1,0,0:0:0:0:
448,192,187300,128,0,187400:0:0:0:0:
320,192,187400,1,0,0:0:0:0:
192,192,187500,1,0,0:0:0:0:
64,192,187500,128,0,187600:0:0:0:0:
320,192,187600,128,0,188400:0:0:0:0:
448,192,187600,1,0,0:0:0:0:
192,192,187700,128,0,187800:0:0:0:0:
64,192,187800,1,0,0:0:0:0:
448,192,187900,128,0,188000:0:0:0:0:
192,192,187900,1,0,0:0:0:0:
64,192,188000,128,0,188200:0:0:0:0:
448,192,188100,1,0,0:0:0:0:
192,192,188200,1,0,0:0:0:0:
64,192,188300,128,0,188400:0:0:0:0:
448,192,188300,128,0,188400:0:0:0:0:
192,192,188400,1,0,0:0:0:0:
320,192,188500,128,0,188600:0:0:0:0:
64,192,188500,1,0,0:0:0:0:
192,192,188600,1,0,0:0:0:0:
320,192,188700,1,0,0:0:0:0:
64,192,188700,128,0,188800:0:0:0:0:
448,192,188800,1,0,0:0:0:0:
192,192,188800,128,0,189000:0:0:0:0:
320,192,188900,128,0,189000:0:0:0:0:
64,192,189000,1,0,0:0:0:0:
192,192,189100,1,0,0:0:0:0:
448,192,189100,128,0,189200:0:0:0:0:
64,192,189200,128,0,190000:0:0:0:0:
320,192,189200,1,0,0:0:0:0:
192,192,189300,128,0,189400:0:0:0:0:
448,192,189300,1,0,0:0:0:0:
320,192,189400,1,0,0:0:0:0:
192,192,189500,128,0,189600:0:0:0:0:
320,192,189600,128,0,189800:0:0:0:0:
448,192,189600,128,0,189700:0:0:0:0:
192,192,189800,1,0,0:0:0:0:
448,192,189900,128,0,190000:0:0:0:0:
192,192,189900,128,0,190000:0:0:0:0:
320,192,190000,1,0,0:0:0:0:
64,192,190100,128,0,190200:0:0:0:0:
448,192,190100,1,0,0:0:0:0:
320,192,190200,1,0,0:0:0:0:
192,192,190300,128,0,190400:0:0:0:0:
448,192,190300,1,0,0:0:0:0:
64,192,190400,128,0,190600:0:0:0:0:
320,192,190400,1,0,0:0:0:0:
448,192,190500,128,0,190600:0:0:0:0:
192,192,190600,1,0,0:0:0:0:
320,192,190700,128,0,190800:0:0:0:0:
64,192,190700,1,0,0:0:0:0:
448,192,190800,128,0,191600:0:0:0:0:
192,192,190800,1,0,0:0:0:0:
64,192,190900,128,0,191000:0:0:0:0:
192,192,191000,1,0,0:0:0:0:
320,192,191100,128,0,191200:0:0:0:0:
192,192,191200,1,0,0:0:0:0:
64,192,191300,128,0,191400:0:0:0:0:
192,192,191400,1,0,0:0:0:0:
320,192,191500,128,0,191600:0:0:0:0:
192,192,191500,128,0,191600:0:0:0:0:
64,192,191600,1,0,0:0:0:0:
192,192,191700,128,0,191800:0:0:0:0:
320,192,191700,1,0,0:0:0:0:
448,192,191800,1,0,0:0:0:0:
64,192,191800,1,0,0:0:0:0:
320,192,191900,128,0,192000:0:0:0:0:
64,192,192000,1,0,0:0:0:0:
448,192,192000,128,0,192400:0:0:0:0:
192,192,192000,1,0,0:0:0:0:
320,192,192100,1,0,0:0:0:0:
64,192,192200,1,0,0:0:0:0:
192,192,192200,1,0,0:0:0:0:
320,192,192300,1,0,0:0:0:0:
192,192,192400,1,0,0:0:0:0:
64,192,192400,128,0,193200:0:0:0:0:
320,192,192500,128,0,192600:0:0:0:0:
192,192,192600,1,0,0:0:0:0:
448,192,192700,128,0,192800:0:0:0:0:
320,192,192800,128,0,193000:0:0:0:0:
192,192,192800,1,0,0:0:0:0:
448,192,192900,128,0,193000:0:0:0:0:
192,192,193000,1,0,0:0:0:0:
320,192,193100,128,0,193200:0:0:0:0:
448,192,193100,128,0,193200:0:0:0:0:
192,192,193200,1,0,0:0:0:0:
64,192,193300,128,0,193400:0:0:0:0:
448,192,193300,1,0,0:0:0:0:
320,192,193400,1,0,0:0:0:0:
192,192,193500,1,0,0:0:0:0:
448,192,193500,128,0,193600:0:0:0:0:
320,192,193600,128,0,193800:0:0:0:0:
64,192,193600,1,0,0:0:0:0:
192,192,193700,128,0,193800:0:0:0:0:
448,192,193800,1,0,0:0:0:0:
64,192,193900,128,0,194000:0:0:0:0:
192,192,194000,128,0,194800:0:0:0:0:
448,192,194000,1,0,0:0:0:0:
320,192,194100,128,0,194200:0:0:0:0:
64,192,194200,1,0,0:0:0:0:
448,192,194300,128,0,194400:0:0:0:0:
320,192,194400,1,0,0:0:0:0:
64,192,194400,128,0,194600:0:0:0:0:
448,192,194500,128,0,194600:0:0:0:0:
320,192,194600,1,0,0:0:0:0:
448,192,194700,128,0,194800:0:0:0:0:
64,192,194700,128,0,194800:0:0:0:0:
320,192,194800,1,0,0:0:0:0:
192,192,194900,128,0,195000:0:0:0:0:
448,192,194900,1,0,0:0:0:0:
320,192,195000,1,0,0:0:0:0:
192,192,195100,1,0,0:0:0:0:
64,192,195100,128,0,195200:0:0:0:0:
320,192,195200,128,0,195400:0:0:0:0:
448,192,195200,1,0,0:0:0:0:
192,192,195300,128,0,195400:0:0:0:0:
64,192,195400,1,0,0:0:0:0:
448,192,195500,128,0,195600:0:0:0:0:
320,192,195600,128,0,196400:0:0:0:0:
64,192,195600,1,0,0:0:0:0:
192,192,195700,128,0,195800:0:0:0:0:
448,192,195800,1,0,0:0:0:0:
64,192,195900,128,0,196000:0:0:0:0:
192,192,196000,1,0,0:0:0:0:
448,192,196000,128,0,196200:0:0:0:0:
64,192,196100,128,0,196200:0:0:0:0:
192,192,196200,1,0,0:0:0:0:
64,192,196300,128,0,196400:0:0:0:0:
448,192,196300,128,0,196400:0:0:0:0:
192,192,196400,1,0,0:0:0:0:
320,192,196500,128,0,196600:0:0:0:0:
64,192,196500,1,0,0:0:0:0:
192,192,196600,1,0,0:0:0:0:
448,192,196700,128,0,196800:0:0:0:0:
320,192,196700,1,0,0:0:0:0:
64,192,196800,128,0,197000:0:0:0:0:
192,192,196800,1,0,0:0:0:0:
448,192,196900,128,0,197000:0:0:0:0:
320,192,197000,1,0,0:0:0:0:
192,192,197100,1,0,0:0:0:0:
64,192,197100,128,0,197200:0:0:0:0:
448,192,197200,128,0,197500:0:0:0:0:
320,192,197300,128,0,197600:0:0:0:0:
192,192,197400,128,0,197700:0:0:0:0:
64,192,197500,128,0,197600:0:0:0:0:
448,192,197600,128,0,197700:0:0:0:0:
64,192,197700,128,0,198000:0:0:0:0:
192,192,197800,128,0,198100:0:0:0:0:
448,192,197800,1,0,0:0:0:0:
320,192,197900,1,0,0:0:0:0:
448,192,198000,128,0,198300:0:0:0:0:
64,192,198100,128,0,198300:0:0:0:0:
320,192,198100,1,0,0:0:0:0:
192,192,198200,128,0,198300:0:0:0:0:
320,192,198300,128,0,198400:0:0:0:0:
64,192,198400,128,0,198700:0:0:0:0:
192,192,198500,128,0,198700:0:0:0:0:
320,192,198600,128,0,198700:0:0:0:0:
448,192,198700,128,0,198800:0:0:0:0:
64,192,198800,1,0,0:0:0:0:
320,192,198800,1,0,0:0:0:0:
192,192,198900,128,0,199100:0:0:0:0:
320,192,198900,1,0,0:0:0:0:
320,192,199000,128,0,199200:0:0:0:0:
448,192,199000,1,0,0:0:0:0:
448,192,199100,128,0,199300:0:0:0:0:
64,192,199100,1,0,0:0:0:0:
64,192,199200,128,0,199400:0:0:0:0:
192,192,199200,1,0,0:0:0:0:
192,192,199300,128,0,199500:0:0:0:0:
320,192,199300,1,0,0:0:0:0:
320,192,199400,128,0,199600:0:0:0:0:
448,192,199400,1,0,0:0:0:0:
448,192,199500,128,0,199700:0:0:0:0:
64,192,199500,1,0,0:0:0:0:
192,192,199600,1,0,0:0:0:0:
320,192,199700,1,0,0:0:0:0:
448,192,199800,128,0,200000:0:0:0:0:
64,192,199800,1,0,0:0:0:0:
320,192,199900,128,0,200100:0:0:0:0:
192,192,199900,1,0,0:0:0:0:
192,192,200000,128,0,200200:0:0:0:0:
64,192,200100,128,0,200300:0:0:0:0:
448,192,200100,1,0,0:0:0:0:
320,192,200200,1,0,0:0:0:0:
448,192,200200,128,0,200500:0:0:0:0:
192,192,200300,1,0,0:0:0:0:
320,192,200300,128,0,200500:0:0:0:0:
64,192,200400,128,0,200700:0:0:0:0:
192,192,200400,128,0,200700:0:0:0:0:
320,192,200600,128,0,200900:0:0:0:0:
448,192,200600,128,0,200900:0:0:0:0:
64,192,200800,128,0,201100:0:0:0:0:
192,192,200800,128,0,201100:0:0:0:0:
320,192,201000,128,0,201200:0:0:0:0:
448,192,201000,128,0,201200:0:0:0:0:
64,192,201200,128,0,201400:0:0:0:0:
192,192,201200,1,0,0:0:0:0:
192,192,201300,128,0,201500:0:0:0:0:
320,192,201300,1,0,0:0:0:0:
448,192,201400,128,0,201600:0:0:0:0:
320,192,201500,128,0,201700:0:0:0:0:
64,192,201500,1,0,0:0:0:0:
192,192,201600,1,0,0:0:0:0:
448,192,201700,1,0,0:0:0:0:
64,192,201700,128,0,201900:0:0:0:0:
320,192,201800,1,0,0:0:0:0:
192,192,201800,128,0,202000:0:0:0:0:
448,192,201900,128,0,202000:0:0:0:0:
64,192,202000,128,0,202300:0:0:0:0:
320,192,202000,128,0,202200:0:0:0:0:
192,192,202100,128,0,202300:0:0:0:0:
448,192,202200,128,0,202300:0:0:0:0:
320,192,202300,128,0,202700:0:0:0:0:
64,192,202400,128,0,202500:0:0:0:0:
192,192,202400,128,0,202600:0:0:0:0:
448,192,202400,128,0,202800:0:0:0:0:
64,192,202600,1,0,0:0:0:0:
192,192,202700,1,0,0:0:0:0:
64,192,202700,128,0,203100:0:0:0:0:
320,192,202800,1,0,0:0:0:0:
192,192,202800,128,0,203100:0:0:0:0:
448,192,202900,1,0,0:0:0:0:
320,192,202900,128,0,203100:0:0:0:0:
448,192,203000,128,0,203100:0:0:0:0:
64,192,203200,1,0,0:0:0:0:
192,192,203200,1,0,0:0:0:0:
64,192,203300,128,0,203500:0:0:0:0:
192,192,203300,128,0,203500:0:0:0:0:
320,192,203400,1,0,0:0:0:0:
448,192,203400,1,0,0:0:0:0:
320,192,203500,128,0,203700:0:0:0:0:
448,192,203500,128,0,203700:0:0:0:0:
64,192,203600,1,0,0:0:0:0:
192,192,203600,1,0,0:0:0:0:
64,192,203700,128,0,203900:0:0:0:0:
192,192,203800,128,0,204000:0:0:0:0:
448,192,203800,1,0,0:0:0:0:
448,192,203900,128,0,204100:0:0:0:0:
320,192,203900,1,0,0:0:0:0:
320,192,204000,128,0,204200:0:0:0:0:
64,192,204000,1,0,0:0:0:0:
192,192,204100,1,0,0:0:0:0:
448,192,204200,1,0,0:0:0:0:
64,192,204200,128,0,204400:0:0:0:0:
320,192,204300,1,0,0:0:0:0:
448,192,204300,128,0,204500:0:0:0:0:
320,192,204400,128,0,204600:0:0:0:0:
192,192,204400,1,0,0:0:0:0:
192,192,204500,128,0,204600:0:0:0:0:
64,192,204600,128,0,205100:0:0:0:0:
192,192,204700,128,0,205100:0:0:0:0:
320,192,204800,128,0,205100:0:0:0:0:
448,192,204900,128,0,205100:0:0:0:0:
448,192,205200,128,0,205300:0:0:0:0:
320,192,205200,128,0,205400:0:0:0:0:
192,192,205200,128,0,205500:0:0:0:0:
64,192,205200,128,0,205600:0:0:0:0:
448,192,205400,128,0,205900:0:0:0:0:
320,192,205500,128,0,205800:0:0:0:0:
192,192,205600,128,0,205700:0:0:0:0:
64,192,205700,128,0,206100:0:0:0:0:
192,192,205800,128,0,206200:0:0:0:0:
320,192,205900,128,0,206000:0:0:0:0:
448,192,206000,128,0,206300:0:0:0:0:
320,192,206100,128,0,206400:0:0:0:0:
64,192,206200,128,0,206300:0:0:0:0:
192,192,206300,128,0,206500:0:0:0:0:
64,192,206400,128,0,206600:0:0:0:0:
448,192,206400,128,0,206700:0:0:0:0:
320,192,206500,128,0,206700:0:0:0:0:
192,192,206600,128,0,206700:0:0:0:0:
64,192,206700,128,0,206800:0:0:0:0:
192,192,206800,128,0,206900:0:0:0:0:
448,192,206800,128,0,206900:0:0:0:0:
320,192,206800,128,0,207000:0:0:0:0:
64,192,206900,128,0,207100:0:0:0:0:
192,192,207000,128,0,207100:0:0:0:0:
448,192,207000,128,0,207100:0:0:0:0:
320,192,207100,128,0,207200:0:0:0:0:
64,192,207200,128,0,207300:0:0:0:0:
192,192,207200,128,0,207400:0:0:0:0:
448,192,207200,128,0,207300:0:0:0:0:
320,192,207300,128,0,207500:0:0:0:0:
64,192,207400,128,0,207500:0:0:0:0:
448,192,207400,128,0,207500:0:0:0:0:
192,192,207500,128,0,207800:0:0:0:0:
64,192,207600,128,0,207700:0:0:0:0:
448,192,207600,128,0,208000:0:0:0:0:
320,192,207600,128,0,207900:0:0:0:0:
64,192,207800,128,0,208000:0:0:0:0:
192,192,207900,128,0,208100:0:0:0:0:
320,192,208000,128,0,208200:0:0:0:0:
448,192,208100,128,0,208300:0:0:0:0:
64,192,208100,1,0,0:0:0:0:
192,192,208200,1,0,0:0:0:0:
320,192,208300,1,0,0:0:0:0:
448,192,208400,1,0,0:0:0:0:
192,192,208400,1,0,0:0:0:0:
64,192,208400,1,0,0:0:0:0:
320,192,208500,1,0,0:0:0:0:
192,192,208600,1,0,0:0:0:0:
448,192,208600,1,0,0:0:0:0:
64,192,208700,128,0,208900:0:0:0:0:
192,192,208800,128,0,209000:0:0:0:0:
320,192,208900,128,0,209100:0:0:0:0:
64,192,209000,1,0,0:0:0:0:
448,192,209000,128,0,209200:0:0:0:0:
192,192,209100,1,0,0:0:0:0:
64,192,209100,128,0,209600:0:0:0:0:
320,192,209200,1,0,0:0:0:0:
192,192,209200,128,0,209600:0:0:0:0:
448,192,209300,1,0,0:0:0:0:
320,192,209300,128,0,209600:0:0:0:0:
448,192,209400,128,0,209600:0:0:0:0:
320,192,209700,128,0,209900:0:0:0:0:
64,192,209700,128,0,209900:0:0:0:0:
192,192,209800,1,0,0:0:0:0:
448,192,209900,128,0,210100:0:0:0:0:
192,192,209900,128,0,210100:0:0:0:0:
320,192,210000,1,0,0:0:0:0:
64,192,210100,128,0,210300:0:0:0:0:
448,192,210200,128,0,210400:0:0:0:0:
192,192,210300,128,0,210500:0:0:0:0:
64,192,210400,128,0,210600:0:0:0:0:
320,192,210400,128,0,210600:0:0:0:0:
448,192,210500,128,0,210700:0:0:0:0:
192,192,210600,128,0,210800:0:0:0:0:
64,192,210700,128,0,210900:0:0:0:0:
448,192,210800,128,0,210900:0:0:0:0:
320,192,210800,128,0,211000:0:0:0:0:
192,192,210900,128,0,211100:0:0:0:0:
64,192,211000,128,0,211200:0:0:0:0:
448,192,211000,128,0,211500:0:0:0:0:
320,192,211100,128,0,211500:0:0:0:0:
192,192,211200,128,0,211500:0:0:0:0:
64,192,211300,128,0,211500:0:0:0:0:
64,192,211600,128,0,212300:0:0:0:0:
192,192,211600,128,0,211700:0:0:0:0:
320,192,211700,128,0,211800:0:0:0:0:
448,192,211800,128,0,211900:0:0:0:0:
320,192,211900,128,0,212000:0:0:0:0:
192,192,212000,128,0,212100:0:0:0:0:
448,192,212100,128,0,212200:0:0:0:0:
320,192,212200,128,0,212300:0:0:0:0:
192,192,212300,128,0,212400:0:0:0:0:
64,192,212400,128,0,212800:0:0:0:0:
320,192,212400,128,0,212500:0:0:0:0:
448,192,212500,128,0,212600:0:0:0:0:
192,192,212600,128,0,212700:0:0:0:0:
448,192,212700,128,0,212800:0:0:0:0:
192,192,212800,128,0,213200:0:0:0:0:
320,192,212800,128,0,212900:0:0:0:0:
64,192,212900,128,0,213000:0:0:0:0:
320,192,213000,128,0,213100:0:0:0:0:
448,192,213100,128,0,213200:0:0:0:0:
320,192,213200,128,0,213400:0:0:0:0:
64,192,213200,128,0,213300:0:0:0:0:
448,192,213300,128,0,213400:0:0:0:0:
192,192,213400,128,0,213500:0:0:0:0:
64,192,213400,128,0,213800:0:0:0:0:
320,192,213500,128,0,213600:0:0:0:0:
448,192,213600,128,0,213700:0:0:0:0:
320,192,213700,128,0,213800:0:0:0:0:
192,192,213800,128,0,213900:0:0:0:0:
448,192,213800,128,0,213900:0:0:0:0:
320,192,213900,128,0,214000:0:0:0:0:
192,192,214000,128,0,214800:0:0:0:0:
64,192,214000,128,0,214100:0:0:0:0:
448,192,214100,128,0,214200:0:0:0:0:
320,192,214200,128,0,214300:0:0:0:0:
64,192,214300,128,0,214400:0:0:0:0:
320,192,214400,128,0,214500:0:0:0:0:
448,192,214500,128,0,214600:0:0:0:0:
64,192,214600,128,0,214700:0:0:0:0:
320,192,214700,128,0,214800:0:0:0:0:
448,192,214800,128,0,214900:0:0:0:0:
64,192,214800,128,0,215100:0:0:0:0:
320,192,214900,128,0,215000:0:0:0:0:
192,192,215000,128,0,215100:0:0:0:0:
64,192,215200,128,0,215400:0:0:0:0:
192,192,215200,128,0,215300:0:0:0:0:
320,192,215200,128,0,215300:0:0:0:0:
448,192,215200,128,0,215400:0:0:0:0:
192,192,215400,1,0,0:0:0:0:
320,192,215400,1,0,0:0:0:0:
448,192,215500,1,0,0:0:0:0:
320,192,215500,1,0,0:0:0:0:
64,192,215600,128,0,215900:0:0:0:0:
192,192,215600,128,0,215700:0:0:0:0:
448,192,215700,128,0,215800:0:0:0:0:
320,192,215800,128,0,215900:0:0:0:0:
192,192,215900,128,0,216000:0:0:0:0:
64,192,216000,128,0,216350:0:0:0:0:
448,192,216000,128,0,216100:0:0:0:0:
192,192,216100,128,0,216200:0:0:0:0:
320,192,216200,128,0,216300:0:0:0:0:
448,192,216300,128,0,216350:0:0:0:0:
448,192,216400,1,0,0:0:0:0:
64,192,216400,1,0,0:0:0:0:
320,192,216400,128,0,216500:0:0:0:0:
192,192,216400,128,0,216700:0:0:0:0:
64,192,216500,128,0,216600:0:0:0:0:
448,192,216600,128,0,216700:0:0:0:0:
320,192,216700,128,0,217000:0:0:0:0:
64,192,216700,128,0,216800:0:0:0:0:
192,192,216800,128,0,216900:0:0:0:0:
448,192,216900,128,0,217000:0:0:0:0:
192,192,217000,128,0,217100:0:0:0:0:
64,192,217000,128,0,217100:0:0:0:0:
320,192,217100,128,0,217200:0:0:0:0:
64,192,217200,128,0,217550:0:0:0:0:
448,192,217200,128,0,217300:0:0:0:0:
320,192,217300,128,0,217400:0:0:0:0:
192,192,217400,128,0,217500:0:0:0:0:
448,192,217500,128,0,217550:0:0:0:0:
448,192,217600,128,0,218000:0:0:0:0:
64,192,217600,1,0,0:0:0:0:
192,192,217600,128,0,217700:0:0:0:0:
320,192,217700,128,0,217800:0:0:0:0:
64,192,217800,128,0,217900:0:0:0:0:
192,192,217900,128,0,218000:0:0:0:0:
64,192,218000,128,0,218700:0:0:0:0:
320,192,218000,1,0,0:0:0:0:
192,192,218100,1,0,0:0:0:0:
448,192,218200,1,0,0:0:0:0:
192,192,218300,1,0,0:0:0:0:
320,192,218400,1,0,0:0:0:0:
448,192,218500,1,0,0:0:0:0:
320,192,218600,1,0,0:0:0:0:
192,192,218700,1,0,0:0:0:0:
448,192,218800,1,0,0:0:0:0:
64,192,218800,128,0,219200:0:0:0:0:
320,192,218900,1,0,0:0:0:0:
192,192,219000,1,0,0:0:0:0:
320,192,219100,1,0,0:0:0:0:
192,192,219200,128,0,219600:0:0:0:0:
448,192,219200,1,0,0:0:0:0:
320,192,219300,1,0,0:0:0:0:
64,192,219400,1,0,0:0:0:0:
448,192,219500,1,0,0:0:0:0:
320,192,219600,128,0,219900:0:0:0:0:
64,192,219600,1,0,0:0:0:0:
192,192,219700,1,0,0:0:0:0:
448,192,219800,1,0,0:0:0:0:
64,192,219900,128,0,220200:0:0:0:0:
192,192,219900,1,0,0:0:0:0:
320,192,220000,1,0,0:0:0:0:
448,192,220100,1,0,0:0:0:0:
192,192,220200,128,0,220400:0:0:0:0:
320,192,220200,1,0,0:0:0:0:
64,192,220300,1,0,0:0:0:0:
448,192,220400,128,0,220700:0:0:0:0:
320,192,220400,1,0,0:0:0:0:
64,192,220500,1,0,0:0:0:0:
192,192,220600,1,0,0:0:0:0:
320,192,220700,128,0,221000:0:0:0:0:
64,192,220700,1,0,0:0:0:0:
448,192,220800,1,0,0:0:0:0:
64,192,220900,1,0,0:0:0:0:
192,192,221000,128,0,221200:0:0:0:0:
448,192,221100,1,0,0:0:0:0:
320,192,221200,1,0,0:0:0:0:
64,192,221200,128,0,222700:0:0:0:0:
448,192,221400,1,0,0:0:0:0:
320,192,221600,1,0,0:0:0:0:
448,192,221600,128,0,222700:0:0:0:0:
192,192,221800,1,0,0:0:0:0:
192,192,222000,128,0,222700:0:0:0:0:
320,192,222000,1,0,0:0:0:0:
320,192,222200,1,0,0:0:0:0:
320,192,222400,128,0,222700:0:0:0:0:
64,192,222800,128,0,224100:0:0:0:0:
448,192,222800,1,0,0:0:0:0:
192,192,222800,1,0,0:0:0:0:
320,192,223000,1,0,0:0:0:0:
192,192,223100,1,0,0:0:0:0:
320,192,223200,1,0,0:0:0:0:
448,192,223200,1,0,0:0:0:0:
192,192,223400,1,0,0:0:0:0:
320,192,223500,1,0,0:0:0:0:
192,192,223600,1,0,0:0:0:0:
320,192,223700,1,0,0:0:0:0:
192,192,223800,1,0,0:0:0:0:
448,192,223800,1,0,0:0:0:0:
320,192,223900,1,0,0:0:0:0:
192,192,224000,1,0,0:0:0:0:
448,192,224000,1,0,0:0:0:0:
64,192,224200,1,0,0:0:0:0:
192,192,224200,1,0,0:0:0:0:
320,192,224300,1,0,0:0:0:0:
448,192,224300,1,0,0:0:0:0:
64,192,224400,128,0,224500:0:0:0:0:
192,192,224400,1,0,0:0:0:0:
448,192,224400,1,0,0:0:0:0:
192,192,224600,128,0,224700:0:0:0:0:
320,192,224800,128,0,224900:0:0:0:0:
64,192,224800,1,0,0:0:0:0:
448,192,224900,128,0,225000:0:0:0:0:
320,192,225000,128,0,225100:0:0:0:0:
192,192,225100,128,0,225200:0:0:0:0:
64,192,225200,128,0,225300:0:0:0:0:
448,192,225200,1,0,0:0:0:0:
320,192,225200,1,0,0:0:0:0:
192,192,225300,128,0,225400:0:0:0:0:
320,192,225400,128,0,225500:0:0:0:0:
448,192,225500,1,0,0:0:0:0:
192,192,225500,1,0,0:0:0:0:
64,192,225500,1,0,0:0:0:0:
320,192,225600,128,0,225700:0:0:0:0:
192,192,225700,128,0,225800:0:0:0:0:
64,192,225800,128,0,225900:0:0:0:0:
320,192,225800,1,0,0:0:0:0:
448,192,225900,128,0,226000:0:0:0:0:
320,192,226000,128,0,226200:0:0:0:0:
192,192,226000,128,0,226100:0:0:0:0:
64,192,226200,128,0,226300:0:0:0:0:
320,192,226300,128,0,226500:0:0:0:0:
64,192,226400,128,0,226500:0:0:0:0:
192,192,226500,128,0,226700:0:0:0:0:
448,192,226600,128,0,226700:0:0:0:0:
192,192,226800,128,0,227600:0:0:0:0:
64,192,226800,128,0,226900:0:0:0:0:
448,192,226900,128,0,227000:0:0:0:0:
64,192,227000,128,0,227100:0:0:0:0:
320,192,227100,128,0,227200:0:0:0:0:
448,192,227200,128,0,227300:0:0:0:0:
320,192,227300,128,0,227400:0:0:0:0:
64,192,227400,128,0,227500:0:0:0:0:
320,192,227500,128,0,227600:0:0:0:0:
64,192,227600,128,0,228000:0:0:0:0:
448,192,227600,128,0,227700:0:0:0:0:
448,192,227800,128,0,227900:0:0:0:0:
192,192,228000,1,0,0:0:0:0:
320,192,228000,1,0,0:0:0:0:
448,192,228000,1,0,0:0:0:0:
448,192,228200,1,0,0:0:0:0:
320,192,228200,1,0,0:0:0:0:
192,192,228300,1,0,0:0:0:0:
320,192,228300,1,0,0:0:0:0:
64,192,228400,128,0,228700:0:0:0:0:
192,192,228400,128,0,228700:0:0:0:0:
448,192,228500,128,0,228600:0:0:0:0:
320,192,228600,128,0,228700:0:0:0:0:
448,192,228700,128,0,228800:0:0:0:0:
64,192,228800,128,0,229100:0:0:0:0:
192,192,228800,128,0,229100:0:0:0:0:
320,192,228900,128,0,229000:0:0:0:0:
448,192,229000,128,0,229100:0:0:0:0:
64,192,229200,1,0,0:0:0:0:
448,192,229200,1,0,0:0:0:0:
320,192,229200,128,0,229400:0:0:0:0:
192,192,229200,128,0,229300:0:0:0:0:
192,192,229400,1,0,0:0:0:0:
320,192,229500,1,0,0:0:0:0:
448,192,229500,128,0,229800:0:0:0:0:
64,192,229600,1,0,0:0:0:0:
192,192,229700,1,0,0:0:0:0:
320,192,229800,1,0,0:0:0:0:
64,192,229800,128,0,229900:0:0:0:0:
192,192,229900,1,0,0:0:0:0:
64,192,230000,128,0,230300:0:0:0:0:
448,192,230000,128,0,230100:0:0:0:0:
320,192,230100,128,0,230200:0:0:0:0:
192,192,230200,128,0,230300:0:0:0:0:
448,192,230300,128,0,230400:0:0:0:0:
320,192,230400,128,0,230500:0:0:0:0:
448,192,230500,128,0,230700:0:0:0:0:
192,192,230500,128,0,230600:0:0:0:0:
64,192,230600,128,0,230700:0:0:0:0:
64,192,230800,128,0,231600:0:0:0:0:
192,192,230800,128,0,230900:0:0:0:0:
320,192,231000,128,0,231100:0:0:0:0:
448,192,231200,128,0,231300:0:0:0:0:
320,192,231400,128,0,231500:0:0:0:0:
192,192,231600,128,0,232000:0:0:0:0:
448,192,231600,128,0,231700:0:0:0:0:
64,192,231800,128,0,231900:0:0:0:0:
320,192,232000,128,0,232300:0:0:0:0:
448,192,232000,128,0,232100:0:0:0:0:
64,192,232200,128,0,232300:0:0:0:0:
320,192,232400,128,0,232500:0:0:0:0:
448,192,232400,128,0,232500:0:0:0:0:
64,192,232600,1,0,0:0:0:0:
192,192,232700,128,0,232800:0:0:0:0:
320,192,232700,128,0,232800:0:0:0:0:
448,192,232900,1,0,0:0:0:0:
64,192,233000,128,0,233100:0:0:0:0:
192,192,233000,128,0,233100:0:0:0:0:
320,192,233100,1,0,0:0:0:0:
448,192,233200,128,0,233300:0:0:0:0:
64,192,233200,128,0,233300:0:0:0:0:
320,192,233400,1,0,0:0:0:0:
192,192,233500,128,0,233600:0:0:0:0:
448,192,233500,128,0,233600:0:0:0:0:
64,192,233700,1,0,0:0:0:0:
192,192,233800,128,0,233900:0:0:0:0:
320,192,233800,128,0,233900:0:0:0:0:
448,192,234000,128,0,235500:0:0:0:0:
64,192,234000,1,0,0:0:0:0:
320,192,234200,1,0,0:0:0:0:
64,192,234400,128,0,235500:0:0:0:0:
192,192,234400,1,0,0:0:0:0:
320,192,234600,1,0,0:0:0:0:
320,192,234800,128,0,235500:0:0:0:0:
192,192,234800,1,0,0:0:0:0:
192,192,235000,1,0,0:0:0:0:
192,192,235200,128,0,235500:0:0:0:0:
448,192,235600,128,0,237100:0:0:0:0:
64,192,235600,128,0,235700:0:0:0:0:
192,192,235800,128,0,235900:0:0:0:0:
320,192,236000,128,0,236100:0:0:0:0:
64,192,236200,128,0,236300:0:0:0:0:
320,192,236400,128,0,236500:0:0:0:0:
192,192,236600,128,0,236700:0:0:0:0:
64,192,236800,128,0,236900:0:0:0:0:
192,192,237000,128,0,237100:0:0:0:0:
64,192,237200,1,0,0:0:0:0:
192,192,237200,1,0,0:0:0:0:
320,192,237200,1,0,0:0:0:0:
448,192,237200,1,0,0:0:0:0:
