osu file format v14

[General]
AudioFilename: hesitation.mp3
AudioLeadIn: 0
PreviewTime: 35257
Countdown: 0
SampleSet: Soft
StackLeniency: 0.7
Mode: 3
LetterboxInBreaks: 0
SpecialStyle: 0
WidescreenStoryboard: 1

[Editor]
DistanceSpacing: 1
BeatDivisor: 4
GridSize: 8
TimelineZoom: 2.5

[Metadata]
Title:fripside LN Collection
TitleUnicode:fripside LN Collection
Artist:fripside
ArtistUnicode:fripside
Creator:Raediaufar
Version:hesitation snow
Source:
Tags:anime 4k ln pack noodle hatsuyuki sakura juliet of the boarding school
BeatmapID:1962408
BeatmapSetID:939529

[Difficulty]
HPDrainRate:7
CircleSize:4
OverallDifficulty:0
ApproachRate:5
SliderMultiplier:1.4
SliderTickRate:1

[Events]
//Background and Video events
0,0,"hs_cnt0_1.jpg",0,0
//Break Periods
//Storyboard Layer 0 (Background)
//Storyboard Layer 1 (Fail)
//Storyboard Layer 2 (Pass)
//Storyboard Layer 3 (Foreground)
//Storyboard Sound Samples

[TimingPoints]
146,444.444444444444,4,2,1,5,1,0
35257,-1000,4,2,1,5,0,0
35479,-71.4285714285714,4,2,1,5,0,0
35701,-100,4,2,1,5,0,0
93479,-20,4,2,1,5,0,0
93590,-27.027027027027,4,2,1,5,0,0
93701,-39.2156862745098,4,2,1,5,0,0
93757,-50,4,2,1,5,0,0
93812,-69.4444444444444,4,2,1,5,0,0
93840,-125,4,2,1,5,0,0
93868,-200,4,2,1,5,0,0
93923,-250,4,2,1,5,0,0
94034,-333.333333333333,4,2,1,5,0,0
94145,-500,4,2,1,5,0,0
94368,-100,4,2,1,5,0,1
108368,-100,4,2,1,5,0,0
108590,-100,4,2,1,5,0,1
123701,-100,4,2,1,5,0,0
123812,-200,4,2,1,5,0,0
137034,461.538461538462,4,2,1,5,1,0
137034,-200,4,2,1,5,0,0
138884,540.540540540541,4,2,1,5,1,0
138884,-200,4,2,1,5,0,0

[HitObjects]
192,192,146,128,0,1479:0:0:0:0:
448,192,146,1,0,0:0:0:0:
320,192,368,1,0,0:0:0:0:
64,192,479,1,0,0:0:0:0:
448,192,590,1,0,0:0:0:0:
64,192,812,1,0,0:0:0:0:
320,192,1034,1,0,0:0:0:0:
64,192,1257,1,0,0:0:0:0:
448,192,1479,1,0,0:0:0:0:
320,192,1479,128,0,1701:0:0:0:0:
448,192,1701,128,0,2145:0:0:0:0:
64,192,1701,1,0,0:0:0:0:
192,192,1923,1,0,0:0:0:0:
320,192,2145,128,0,3701:0:0:0:0:
64,192,2145,1,0,0:0:0:0:
192,192,2368,1,0,0:0:0:0:
448,192,2590,1,0,0:0:0:0:
192,192,2812,128,0,3701:0:0:0:0:
64,192,3701,128,0,5479:0:0:0:0:
448,192,3701,1,0,0:0:0:0:
320,192,3923,1,0,0:0:0:0:
448,192,4145,1,0,0:0:0:0:
320,192,4368,1,0,0:0:0:0:
192,192,4590,1,0,0:0:0:0:
448,192,4812,1,0,0:0:0:0:
192,192,5034,1,0,0:0:0:0:
320,192,5257,1,0,0:0:0:0:
448,192,5479,1,0,0:0:0:0:
192,192,5479,128,0,7257:0:0:0:0:
320,192,5701,1,0,0:0:0:0:
448,192,5923,1,0,0:0:0:0:
64,192,6145,1,0,0:0:0:0:
320,192,6368,128,0,7257:0:0:0:0:
448,192,7257,1,0,0:0:0:0:
64,192,7257,128,0,7923:0:0:0:0:
192,192,7479,1,0,0:0:0:0:
320,192,7701,1,0,0:0:0:0:
192,192,7923,1,0,0:0:0:0:
448,192,7923,128,0,8590:0:0:0:0:
64,192,8145,1,0,0:0:0:0:
192,192,8368,1,0,0:0:0:0:
320,192,8590,128,0,8812:0:0:0:0:
64,192,8590,1,0,0:0:0:0:
192,192,8812,128,0,9257:0:0:0:0:
448,192,8812,1,0,0:0:0:0:
64,192,9034,1,0,0:0:0:0:
448,192,9257,1,0,0:0:0:0:
64,192,9257,128,0,10812:0:0:0:0:
320,192,9479,1,0,0:0:0:0:
192,192,9701,1,0,0:0:0:0:
448,192,9923,128,0,10812:0:0:0:0:
192,192,10812,1,0,0:0:0:0:
320,192,10812,128,0,12590:0:0:0:0:
64,192,11034,1,0,0:0:0:0:
448,192,11257,1,0,0:0:0:0:
64,192,11479,1,0,0:0:0:0:
192,192,11701,1,0,0:0:0:0:
448,192,11923,1,0,0:0:0:0:
192,192,12145,1,0,0:0:0:0:
64,192,12368,1,0,0:0:0:0:
448,192,12590,1,0,0:0:0:0:
192,192,12590,128,0,14368:0:0:0:0:
320,192,12812,1,0,0:0:0:0:
64,192,13034,1,0,0:0:0:0:
320,192,13257,1,0,0:0:0:0:
448,192,13479,128,0,14368:0:0:0:0:
320,192,14368,128,0,16145:0:0:0:0:
64,192,14368,1,0,0:0:0:0:
192,192,14590,1,0,0:0:0:0:
448,192,14812,1,0,0:0:0:0:
192,192,15034,1,0,0:0:0:0:
64,192,15257,1,0,0:0:0:0:
192,192,15479,1,0,0:0:0:0:
64,192,15701,128,0,16145:0:0:0:0:
448,192,15923,128,0,16145:0:0:0:0:
192,192,16145,128,0,17923:0:0:0:0:
448,192,16368,128,0,17034:0:0:0:0:
320,192,16590,1,0,0:0:0:0:
64,192,16812,1,0,0:0:0:0:
320,192,17034,128,0,17479:0:0:0:0:
64,192,17257,1,0,0:0:0:0:
64,192,17479,128,0,17701:0:0:0:0:
448,192,17701,128,0,17923:0:0:0:0:
320,192,17923,128,0,19034:0:0:0:0:
64,192,17923,1,0,0:0:0:0:
192,192,18145,1,0,0:0:0:0:
448,192,18368,1,0,0:0:0:0:
64,192,18590,1,0,0:0:0:0:
448,192,18812,1,0,0:0:0:0:
64,192,19034,128,0,19701:0:0:0:0:
192,192,19257,128,0,19701:0:0:0:0:
320,192,19479,128,0,19701:0:0:0:0:
448,192,19701,128,0,21368:0:0:0:0:
64,192,19923,128,0,20812:0:0:0:0:
192,192,20145,1,0,0:0:0:0:
320,192,20368,1,0,0:0:0:0:
192,192,20590,1,0,0:0:0:0:
320,192,20812,128,0,21479:0:0:0:0:
192,192,21034,128,0,21479:0:0:0:0:
64,192,21257,128,0,21479:0:0:0:0:
448,192,21479,128,0,23257:0:0:0:0:
64,192,21701,1,0,0:0:0:0:
192,192,21923,1,0,0:0:0:0:
320,192,22145,128,0,22812:0:0:0:0:
192,192,22368,1,0,0:0:0:0:
64,192,22590,1,0,0:0:0:0:
192,192,22812,128,0,23257:0:0:0:0:
64,192,23034,128,0,23257:0:0:0:0:
320,192,23257,128,0,25034:0:0:0:0:
192,192,23479,128,0,24145:0:0:0:0:
448,192,23701,1,0,0:0:0:0:
64,192,23923,1,0,0:0:0:0:
448,192,24145,128,0,24590:0:0:0:0:
192,192,24368,1,0,0:0:0:0:
64,192,24590,128,0,25034:0:0:0:0:
192,192,24812,128,0,25034:0:0:0:0:
448,192,25034,128,0,26145:0:0:0:0:
64,192,25257,1,0,0:0:0:0:
192,192,25479,1,0,0:0:0:0:
320,192,25701,1,0,0:0:0:0:
192,192,25923,1,0,0:0:0:0:
64,192,26145,128,0,26812:0:0:0:0:
192,192,26368,128,0,26812:0:0:0:0:
320,192,26590,128,0,26812:0:0:0:0:
448,192,26812,128,0,27701:0:0:0:0:
64,192,27034,1,0,0:0:0:0:
320,192,27145,1,0,0:0:0:0:
64,192,27257,1,0,0:0:0:0:
192,192,27479,1,0,0:0:0:0:
320,192,27701,128,0,28590:0:0:0:0:
64,192,27701,1,0,0:0:0:0:
192,192,27812,1,0,0:0:0:0:
64,192,27923,1,0,0:0:0:0:
448,192,28145,1,0,0:0:0:0:
64,192,28368,1,0,0:0:0:0:
192,192,28479,1,0,0:0:0:0:
448,192,28590,1,0,0:0:0:0:
64,192,28590,128,0,31701:0:0:0:0:
320,192,28701,1,0,0:0:0:0:
192,192,28812,1,0,0:0:0:0:
320,192,28923,1,0,0:0:0:0:
448,192,29034,1,0,0:0:0:0:
192,192,29145,1,0,0:0:0:0:
320,192,29257,1,0,0:0:0:0:
192,192,29368,1,0,0:0:0:0:
448,192,29479,1,0,0:0:0:0:
320,192,29590,1,0,0:0:0:0:
192,192,29701,1,0,0:0:0:0:
320,192,29812,1,0,0:0:0:0:
448,192,29923,1,0,0:0:0:0:
192,192,30034,1,0,0:0:0:0:
448,192,30145,1,0,0:0:0:0:
320,192,30257,1,0,0:0:0:0:
192,192,30368,1,0,0:0:0:0:
320,192,30479,1,0,0:0:0:0:
448,192,30590,1,0,0:0:0:0:
320,192,30701,1,0,0:0:0:0:
448,192,30812,1,0,0:0:0:0:
192,192,30923,1,0,0:0:0:0:
320,192,31034,1,0,0:0:0:0:
192,192,31145,1,0,0:0:0:0:
448,192,31257,1,0,0:0:0:0:
192,192,31368,1,0,0:0:0:0:
320,192,31479,1,0,0:0:0:0:
192,192,31590,1,0,0:0:0:0:
320,192,31701,1,0,0:0:0:0:
448,192,31701,1,0,0:0:0:0:
192,192,31812,1,0,0:0:0:0:
64,192,31923,1,0,0:0:0:0:
448,192,31923,1,0,0:0:0:0:
320,192,32034,1,0,0:0:0:0:
64,192,32145,1,0,0:0:0:0:
192,192,32145,1,0,0:0:0:0:
448,192,32145,128,0,32590:0:0:0:0:
64,192,32257,1,0,0:0:0:0:
192,192,32368,1,0,0:0:0:0:
320,192,32368,1,0,0:0:0:0:
64,192,32479,1,0,0:0:0:0:
320,192,32590,128,0,33034:0:0:0:0:
192,192,32590,1,0,0:0:0:0:
64,192,32701,1,0,0:0:0:0:
192,192,32812,1,0,0:0:0:0:
448,192,32812,1,0,0:0:0:0:
64,192,32923,1,0,0:0:0:0:
192,192,33034,1,0,0:0:0:0:
448,192,33034,128,0,33479:0:0:0:0:
64,192,33145,1,0,0:0:0:0:
192,192,33257,1,0,0:0:0:0:
320,192,33257,1,0,0:0:0:0:
64,192,33368,1,0,0:0:0:0:
320,192,33479,128,0,33923:0:0:0:0:
192,192,33479,1,0,0:0:0:0:
64,192,33590,1,0,0:0:0:0:
192,192,33701,1,0,0:0:0:0:
448,192,33701,1,0,0:0:0:0:
64,192,33812,1,0,0:0:0:0:
192,192,33868,1,0,0:0:0:0:
448,192,33923,1,0,0:0:0:0:
64,192,33923,1,0,0:0:0:0:
320,192,34034,1,0,0:0:0:0:
192,192,34145,1,0,0:0:0:0:
64,192,34145,1,0,0:0:0:0:
320,192,34257,1,0,0:0:0:0:
64,192,34368,1,0,0:0:0:0:
448,192,34368,1,0,0:0:0:0:
192,192,34479,1,0,0:0:0:0:
320,192,34590,1,0,0:0:0:0:
448,192,34590,1,0,0:0:0:0:
192,192,34701,1,0,0:0:0:0:
64,192,34812,1,0,0:0:0:0:
448,192,34812,1,0,0:0:0:0:
192,192,34868,1,0,0:0:0:0:
320,192,34923,1,0,0:0:0:0:
448,192,34923,1,0,0:0:0:0:
64,192,34979,1,0,0:0:0:0:
192,192,35034,1,0,0:0:0:0:
320,192,35034,1,0,0:0:0:0:
448,192,35090,1,0,0:0:0:0:
64,192,35145,1,0,0:0:0:0:
192,192,35145,1,0,0:0:0:0:
320,192,35701,128,0,36368:0:0:0:0:
64,192,35701,1,0,0:0:0:0:
448,192,35701,1,0,0:0:0:0:
192,192,35701,1,0,0:0:0:0:
448,192,35923,1,0,0:0:0:0:
64,192,35923,1,0,0:0:0:0:
448,192,36145,1,0,0:0:0:0:
192,192,36145,1,0,0:0:0:0:
64,192,36257,1,0,0:0:0:0:
448,192,36368,1,0,0:0:0:0:
192,192,36368,1,0,0:0:0:0:
64,192,36479,128,0,37034:0:0:0:0:
320,192,36590,1,0,0:0:0:0:
192,192,36590,1,0,0:0:0:0:
448,192,36701,1,0,0:0:0:0:
192,192,36812,1,0,0:0:0:0:
320,192,36812,1,0,0:0:0:0:
448,192,36923,1,0,0:0:0:0:
320,192,37034,1,0,0:0:0:0:
448,192,37034,1,0,0:0:0:0:
192,192,37257,1,0,0:0:0:0:
320,192,37257,1,0,0:0:0:0:
320,192,37479,1,0,0:0:0:0:
448,192,37479,1,0,0:0:0:0:
64,192,37701,1,0,0:0:0:0:
448,192,37701,1,0,0:0:0:0:
192,192,37812,1,0,0:0:0:0:
320,192,37923,1,0,0:0:0:0:
448,192,37923,1,0,0:0:0:0:
448,192,38034,1,0,0:0:0:0:
192,192,38034,1,0,0:0:0:0:
64,192,38145,1,0,0:0:0:0:
320,192,38145,1,0,0:0:0:0:
192,192,38257,128,0,38812:0:0:0:0:
448,192,38368,1,0,0:0:0:0:
320,192,38368,1,0,0:0:0:0:
64,192,38479,1,0,0:0:0:0:
320,192,38590,1,0,0:0:0:0:
448,192,38590,1,0,0:0:0:0:
320,192,38812,1,0,0:0:0:0:
448,192,38812,1,0,0:0:0:0:
64,192,38812,1,0,0:0:0:0:
64,192,39034,1,0,0:0:0:0:
192,192,39034,1,0,0:0:0:0:
320,192,39034,1,0,0:0:0:0:
448,192,39034,1,0,0:0:0:0:
192,192,39257,128,0,39590:0:0:0:0:
64,192,39257,128,0,40034:0:0:0:0:
320,192,39257,1,0,0:0:0:0:
448,192,39257,1,0,0:0:0:0:
448,192,39479,1,0,0:0:0:0:
320,192,39701,128,0,40034:0:0:0:0:
448,192,39701,1,0,0:0:0:0:
192,192,39701,1,0,0:0:0:0:
448,192,39812,1,0,0:0:0:0:
192,192,39923,1,0,0:0:0:0:
448,192,40145,128,0,40923:0:0:0:0:
320,192,40145,128,0,40479:0:0:0:0:
64,192,40145,1,0,0:0:0:0:
192,192,40257,1,0,0:0:0:0:
192,192,40368,1,0,0:0:0:0:
64,192,40368,1,0,0:0:0:0:
192,192,40590,128,0,40923:0:0:0:0:
320,192,40590,1,0,0:0:0:0:
64,192,40590,1,0,0:0:0:0:
320,192,40812,1,0,0:0:0:0:
64,192,41034,128,0,41368:0:0:0:0:
320,192,41034,128,0,41257:0:0:0:0:
192,192,41034,1,0,0:0:0:0:
448,192,41257,128,0,41479:0:0:0:0:
192,192,41257,1,0,0:0:0:0:
320,192,41368,128,0,41590:0:0:0:0:
64,192,41479,1,0,0:0:0:0:
192,192,41590,1,0,0:0:0:0:
448,192,41590,128,0,41812:0:0:0:0:
320,192,41701,1,0,0:0:0:0:
192,192,41812,128,0,42145:0:0:0:0:
64,192,41923,1,0,0:0:0:0:
320,192,41923,1,0,0:0:0:0:
448,192,42034,1,0,0:0:0:0:
64,192,42145,1,0,0:0:0:0:
320,192,42145,1,0,0:0:0:0:
192,192,42257,1,0,0:0:0:0:
320,192,42368,1,0,0:0:0:0:
448,192,42368,1,0,0:0:0:0:
64,192,42479,1,0,0:0:0:0:
320,192,42590,1,0,0:0:0:0:
192,192,42590,1,0,0:0:0:0:
448,192,42701,1,0,0:0:0:0:
448,192,42812,1,0,0:0:0:0:
320,192,42812,1,0,0:0:0:0:
192,192,42812,128,0,43257:0:0:0:0:
64,192,43034,1,0,0:0:0:0:
320,192,43034,1,0,0:0:0:0:
320,192,43257,1,0,0:0:0:0:
448,192,43257,1,0,0:0:0:0:
192,192,43368,1,0,0:0:0:0:
64,192,43368,128,0,43923:0:0:0:0:
320,192,43479,1,0,0:0:0:0:
448,192,43590,128,0,44145:0:0:0:0:
192,192,43701,1,0,0:0:0:0:
320,192,43812,1,0,0:0:0:0:
192,192,43923,1,0,0:0:0:0:
64,192,44034,1,0,0:0:0:0:
192,192,44145,1,0,0:0:0:0:
320,192,44145,1,0,0:0:0:0:
64,192,44257,1,0,0:0:0:0:
192,192,44368,1,0,0:0:0:0:
448,192,44368,1,0,0:0:0:0:
320,192,44368,1,0,0:0:0:0:
64,192,44590,128,0,45812:0:0:0:0:
448,192,44590,1,0,0:0:0:0:
192,192,44590,1,0,0:0:0:0:
320,192,44701,1,0,0:0:0:0:
192,192,44812,1,0,0:0:0:0:
448,192,44812,1,0,0:0:0:0:
192,192,45034,1,0,0:0:0:0:
448,192,45145,1,0,0:0:0:0:
320,192,45145,1,0,0:0:0:0:
192,192,45257,1,0,0:0:0:0:
448,192,45257,1,0,0:0:0:0:
320,192,45368,128,0,45812:0:0:0:0:
448,192,45479,128,0,45812:0:0:0:0:
192,192,45479,1,0,0:0:0:0:
192,192,45701,1,0,0:0:0:0:
64,192,45923,1,0,0:0:0:0:
448,192,45923,1,0,0:0:0:0:
320,192,45923,1,0,0:0:0:0:
64,192,46145,1,0,0:0:0:0:
192,192,46145,1,0,0:0:0:0:
448,192,46145,1,0,0:0:0:0:
64,192,46368,1,0,0:0:0:0:
320,192,46368,1,0,0:0:0:0:
192,192,46368,1,0,0:0:0:0:
448,192,46479,1,0,0:0:0:0:
64,192,46590,1,0,0:0:0:0:
192,192,46590,1,0,0:0:0:0:
320,192,46701,1,0,0:0:0:0:
448,192,46812,1,0,0:0:0:0:
64,192,46812,1,0,0:0:0:0:
192,192,46923,1,0,0:0:0:0:
320,192,46923,1,0,0:0:0:0:
320,192,47034,1,0,0:0:0:0:
448,192,47034,1,0,0:0:0:0:
64,192,47257,128,0,47701:0:0:0:0:
192,192,47257,1,0,0:0:0:0:
448,192,47257,1,0,0:0:0:0:
320,192,47368,1,0,0:0:0:0:
192,192,47479,1,0,0:0:0:0:
448,192,47479,1,0,0:0:0:0:
320,192,47590,1,0,0:0:0:0:
192,192,47701,1,0,0:0:0:0:
320,192,47701,1,0,0:0:0:0:
448,192,47923,128,0,48590:0:0:0:0:
192,192,47923,1,0,0:0:0:0:
320,192,47923,1,0,0:0:0:0:
64,192,48145,1,0,0:0:0:0:
320,192,48145,1,0,0:0:0:0:
192,192,48257,1,0,0:0:0:0:
320,192,48368,1,0,0:0:0:0:
192,192,48368,1,0,0:0:0:0:
64,192,48479,1,0,0:0:0:0:
192,192,48590,1,0,0:0:0:0:
320,192,48590,1,0,0:0:0:0:
448,192,48701,1,0,0:0:0:0:
64,192,48701,1,0,0:0:0:0:
320,192,48812,1,0,0:0:0:0:
192,192,48923,1,0,0:0:0:0:
64,192,49034,1,0,0:0:0:0:
448,192,49034,128,0,49923:0:0:0:0:
192,192,49145,1,0,0:0:0:0:
320,192,49257,1,0,0:0:0:0:
64,192,49257,1,0,0:0:0:0:
192,192,49368,1,0,0:0:0:0:
320,192,49479,1,0,0:0:0:0:
64,192,49479,128,0,49923:0:0:0:0:
192,192,49590,1,0,0:0:0:0:
320,192,49701,1,0,0:0:0:0:
192,192,49812,1,0,0:0:0:0:
320,192,49923,128,0,52701:0:0:0:0:
448,192,50145,1,0,0:0:0:0:
192,192,50145,1,0,0:0:0:0:
64,192,50368,1,0,0:0:0:0:
192,192,50368,1,0,0:0:0:0:
448,192,50479,1,0,0:0:0:0:
64,192,50590,1,0,0:0:0:0:
192,192,50590,1,0,0:0:0:0:
448,192,50701,1,0,0:0:0:0:
64,192,50812,1,0,0:0:0:0:
192,192,50812,1,0,0:0:0:0:
448,192,50923,1,0,0:0:0:0:
448,192,51034,1,0,0:0:0:0:
192,192,51034,1,0,0:0:0:0:
64,192,51257,1,0,0:0:0:0:
448,192,51257,1,0,0:0:0:0:
192,192,51479,1,0,0:0:0:0:
448,192,51479,1,0,0:0:0:0:
64,192,51701,1,0,0:0:0:0:
448,192,51701,1,0,0:0:0:0:
192,192,51812,1,0,0:0:0:0:
64,192,51812,1,0,0:0:0:0:
192,192,51923,1,0,0:0:0:0:
448,192,51923,1,0,0:0:0:0:
64,192,52145,1,0,0:0:0:0:
448,192,52145,1,0,0:0:0:0:
192,192,52257,1,0,0:0:0:0:
64,192,52368,1,0,0:0:0:0:
192,192,52479,1,0,0:0:0:0:
448,192,52590,1,0,0:0:0:0:
64,192,52590,1,0,0:0:0:0:
320,192,52812,128,0,52923:0:0:0:0:
64,192,52812,1,0,0:0:0:0:
448,192,52812,1,0,0:0:0:0:
320,192,53034,128,0,53257:0:0:0:0:
64,192,53034,1,0,0:0:0:0:
448,192,53034,1,0,0:0:0:0:
192,192,53257,1,0,0:0:0:0:
448,192,53257,1,0,0:0:0:0:
64,192,53479,128,0,53923:0:0:0:0:
192,192,53479,1,0,0:0:0:0:
448,192,53479,1,0,0:0:0:0:
320,192,53701,1,0,0:0:0:0:
448,192,53701,1,0,0:0:0:0:
192,192,53923,1,0,0:0:0:0:
448,192,53923,1,0,0:0:0:0:
320,192,54034,1,0,0:0:0:0:
64,192,54034,1,0,0:0:0:0:
192,192,54145,1,0,0:0:0:0:
64,192,54145,1,0,0:0:0:0:
320,192,54257,1,0,0:0:0:0:
448,192,54257,128,0,54590:0:0:0:0:
192,192,54368,1,0,0:0:0:0:
64,192,54368,1,0,0:0:0:0:
320,192,54479,1,0,0:0:0:0:
64,192,54590,1,0,0:0:0:0:
320,192,54590,1,0,0:0:0:0:
192,192,54590,1,0,0:0:0:0:
192,192,54812,1,0,0:0:0:0:
320,192,54812,1,0,0:0:0:0:
448,192,54812,1,0,0:0:0:0:
64,192,55034,1,0,0:0:0:0:
448,192,55034,1,0,0:0:0:0:
320,192,55034,1,0,0:0:0:0:
320,192,55257,128,0,55701:0:0:0:0:
448,192,55257,1,0,0:0:0:0:
64,192,55257,1,0,0:0:0:0:
192,192,55368,1,0,0:0:0:0:
448,192,55479,1,0,0:0:0:0:
64,192,55479,1,0,0:0:0:0:
192,192,55590,1,0,0:0:0:0:
64,192,55701,1,0,0:0:0:0:
192,192,55701,1,0,0:0:0:0:
448,192,55701,1,0,0:0:0:0:
320,192,55812,1,0,0:0:0:0:
64,192,55812,1,0,0:0:0:0:
192,192,55923,1,0,0:0:0:0:
320,192,56034,128,0,56590:0:0:0:0:
64,192,56145,1,0,0:0:0:0:
448,192,56145,1,0,0:0:0:0:
192,192,56257,1,0,0:0:0:0:
64,192,56368,1,0,0:0:0:0:
448,192,56368,1,0,0:0:0:0:
192,192,56479,1,0,0:0:0:0:
64,192,56590,1,0,0:0:0:0:
192,192,56590,1,0,0:0:0:0:
448,192,56590,1,0,0:0:0:0:
320,192,56701,1,0,0:0:0:0:
448,192,56812,1,0,0:0:0:0:
64,192,56812,1,0,0:0:0:0:
192,192,56923,1,0,0:0:0:0:
64,192,57034,1,0,0:0:0:0:
448,192,57034,128,0,57479:0:0:0:0:
320,192,57034,1,0,0:0:0:0:
192,192,57257,1,0,0:0:0:0:
320,192,57257,1,0,0:0:0:0:
64,192,57479,1,0,0:0:0:0:
192,192,57479,1,0,0:0:0:0:
320,192,57479,1,0,0:0:0:0:
448,192,57590,1,0,0:0:0:0:
192,192,57590,1,0,0:0:0:0:
64,192,57701,1,0,0:0:0:0:
320,192,57701,1,0,0:0:0:0:
192,192,57812,128,0,58145:0:0:0:0:
64,192,57812,1,0,0:0:0:0:
320,192,57923,1,0,0:0:0:0:
448,192,57923,1,0,0:0:0:0:
64,192,58034,1,0,0:0:0:0:
320,192,58145,1,0,0:0:0:0:
448,192,58145,1,0,0:0:0:0:
64,192,58368,1,0,0:0:0:0:
192,192,58368,1,0,0:0:0:0:
448,192,58368,1,0,0:0:0:0:
320,192,58368,1,0,0:0:0:0:
320,192,58590,1,0,0:0:0:0:
448,192,58590,1,0,0:0:0:0:
192,192,58590,1,0,0:0:0:0:
64,192,58812,128,0,59257:0:0:0:0:
192,192,58812,1,0,0:0:0:0:
448,192,58812,1,0,0:0:0:0:
320,192,59034,1,0,0:0:0:0:
448,192,59034,1,0,0:0:0:0:
192,192,59257,1,0,0:0:0:0:
448,192,59257,1,0,0:0:0:0:
320,192,59368,1,0,0:0:0:0:
64,192,59368,1,0,0:0:0:0:
192,192,59479,1,0,0:0:0:0:
320,192,59479,1,0,0:0:0:0:
64,192,59590,1,0,0:0:0:0:
448,192,59590,128,0,59923:0:0:0:0:
192,192,59701,1,0,0:0:0:0:
320,192,59701,1,0,0:0:0:0:
64,192,59812,1,0,0:0:0:0:
192,192,59923,1,0,0:0:0:0:
320,192,59923,1,0,0:0:0:0:
448,192,60145,128,0,60590:0:0:0:0:
320,192,60145,1,0,0:0:0:0:
64,192,60145,1,0,0:0:0:0:
64,192,60368,1,0,0:0:0:0:
192,192,60368,1,0,0:0:0:0:
192,192,60590,128,0,61034:0:0:0:0:
64,192,60590,1,0,0:0:0:0:
320,192,60590,1,0,0:0:0:0:
448,192,60812,1,0,0:0:0:0:
64,192,60812,1,0,0:0:0:0:
320,192,61034,1,0,0:0:0:0:
448,192,61034,1,0,0:0:0:0:
64,192,61034,1,0,0:0:0:0:
192,192,61145,1,0,0:0:0:0:
320,192,61145,1,0,0:0:0:0:
64,192,61257,1,0,0:0:0:0:
448,192,61257,1,0,0:0:0:0:
320,192,61368,128,0,61701:0:0:0:0:
64,192,61479,1,0,0:0:0:0:
192,192,61479,1,0,0:0:0:0:
448,192,61590,1,0,0:0:0:0:
64,192,61701,1,0,0:0:0:0:
192,192,61701,1,0,0:0:0:0:
448,192,61701,1,0,0:0:0:0:
64,192,61923,1,0,0:0:0:0:
192,192,61923,1,0,0:0:0:0:
320,192,61923,1,0,0:0:0:0:
448,192,61923,1,0,0:0:0:0:
192,192,62145,1,0,0:0:0:0:
320,192,62145,1,0,0:0:0:0:
448,192,62145,1,0,0:0:0:0:
64,192,62368,128,0,62812:0:0:0:0:
320,192,62368,1,0,0:0:0:0:
448,192,62368,1,0,0:0:0:0:
192,192,62590,1,0,0:0:0:0:
320,192,62590,1,0,0:0:0:0:
448,192,62701,1,0,0:0:0:0:
320,192,62812,1,0,0:0:0:0:
192,192,62812,1,0,0:0:0:0:
64,192,62923,1,0,0:0:0:0:
320,192,62923,1,0,0:0:0:0:
192,192,63034,1,0,0:0:0:0:
448,192,63034,1,0,0:0:0:0:
320,192,63145,128,0,64145:0:0:0:0:
448,192,63145,1,0,0:0:0:0:
64,192,63257,1,0,0:0:0:0:
192,192,63368,1,0,0:0:0:0:
448,192,63368,1,0,0:0:0:0:
64,192,63479,1,0,0:0:0:0:
448,192,63479,1,0,0:0:0:0:
192,192,63590,1,0,0:0:0:0:
64,192,63701,1,0,0:0:0:0:
448,192,63701,1,0,0:0:0:0:
192,192,63812,1,0,0:0:0:0:
448,192,63923,1,0,0:0:0:0:
64,192,63923,1,0,0:0:0:0:
192,192,63923,1,0,0:0:0:0:
448,192,64034,1,0,0:0:0:0:
64,192,64145,128,0,64368:0:0:0:0:
192,192,64145,1,0,0:0:0:0:
320,192,64257,1,0,0:0:0:0:
448,192,64368,1,0,0:0:0:0:
192,192,64368,128,0,64590:0:0:0:0:
320,192,64590,128,0,64812:0:0:0:0:
448,192,64590,1,0,0:0:0:0:
64,192,64590,1,0,0:0:0:0:
448,192,64812,1,0,0:0:0:0:
192,192,64812,128,0,65034:0:0:0:0:
320,192,64923,1,0,0:0:0:0:
64,192,65034,128,0,65923:0:0:0:0:
448,192,65034,1,0,0:0:0:0:
192,192,65257,1,0,0:0:0:0:
320,192,65368,1,0,0:0:0:0:
448,192,65479,1,0,0:0:0:0:
192,192,65479,1,0,0:0:0:0:
192,192,65590,1,0,0:0:0:0:
320,192,65701,1,0,0:0:0:0:
448,192,65701,1,0,0:0:0:0:
192,192,65812,1,0,0:0:0:0:
448,192,65923,128,0,66368:0:0:0:0:
320,192,65923,1,0,0:0:0:0:
192,192,66145,128,0,66368:0:0:0:0:
64,192,66145,1,0,0:0:0:0:
320,192,66368,128,0,66590:0:0:0:0:
64,192,66368,1,0,0:0:0:0:
192,192,66479,1,0,0:0:0:0:
448,192,66590,1,0,0:0:0:0:
64,192,66590,128,0,67257:0:0:0:0:
192,192,66701,1,0,0:0:0:0:
320,192,66812,1,0,0:0:0:0:
448,192,66812,1,0,0:0:0:0:
192,192,66923,1,0,0:0:0:0:
192,192,67034,1,0,0:0:0:0:
448,192,67034,1,0,0:0:0:0:
320,192,67145,1,0,0:0:0:0:
192,192,67257,1,0,0:0:0:0:
448,192,67257,1,0,0:0:0:0:
64,192,67479,1,0,0:0:0:0:
320,192,67479,1,0,0:0:0:0:
448,192,67701,128,0,67923:0:0:0:0:
64,192,67701,1,0,0:0:0:0:
320,192,67701,1,0,0:0:0:0:
192,192,67812,1,0,0:0:0:0:
64,192,67923,1,0,0:0:0:0:
320,192,67923,128,0,68145:0:0:0:0:
192,192,68034,1,0,0:0:0:0:
64,192,68145,128,0,68368:0:0:0:0:
448,192,68145,1,0,0:0:0:0:
320,192,68368,128,0,68590:0:0:0:0:
192,192,68368,1,0,0:0:0:0:
448,192,68590,128,0,69479:0:0:0:0:
64,192,68590,1,0,0:0:0:0:
192,192,68701,1,0,0:0:0:0:
320,192,68812,1,0,0:0:0:0:
64,192,69034,1,0,0:0:0:0:
320,192,69034,1,0,0:0:0:0:
192,192,69034,1,0,0:0:0:0:
320,192,69257,1,0,0:0:0:0:
192,192,69368,1,0,0:0:0:0:
64,192,69479,128,0,69923:0:0:0:0:
320,192,69479,1,0,0:0:0:0:
192,192,69479,1,0,0:0:0:0:
320,192,69701,128,0,69923:0:0:0:0:
192,192,69701,1,0,0:0:0:0:
192,192,69923,128,0,70145:0:0:0:0:
448,192,69923,1,0,0:0:0:0:
320,192,70034,1,0,0:0:0:0:
64,192,70145,1,0,0:0:0:0:
448,192,70145,128,0,70812:0:0:0:0:
320,192,70257,1,0,0:0:0:0:
64,192,70368,1,0,0:0:0:0:
192,192,70368,1,0,0:0:0:0:
320,192,70479,1,0,0:0:0:0:
64,192,70590,1,0,0:0:0:0:
192,192,70701,1,0,0:0:0:0:
320,192,70812,1,0,0:0:0:0:
64,192,70812,1,0,0:0:0:0:
192,192,71034,1,0,0:0:0:0:
320,192,71034,1,0,0:0:0:0:
320,192,71145,1,0,0:0:0:0:
448,192,71257,128,0,71590:0:0:0:0:
64,192,71257,1,0,0:0:0:0:
192,192,71257,1,0,0:0:0:0:
320,192,71368,1,0,0:0:0:0:
320,192,71479,128,0,71701:0:0:0:0:
64,192,71479,1,0,0:0:0:0:
192,192,71701,1,0,0:0:0:0:
64,192,71701,1,0,0:0:0:0:
448,192,71701,128,0,71923:0:0:0:0:
320,192,71923,128,0,72034:0:0:0:0:
64,192,71923,1,0,0:0:0:0:
192,192,72034,128,0,72368:0:0:0:0:
448,192,72034,1,0,0:0:0:0:
64,192,72145,1,0,0:0:0:0:
448,192,72368,128,0,72590:0:0:0:0:
64,192,72368,128,0,72479:0:0:0:0:
320,192,72590,128,0,72812:0:0:0:0:
192,192,72590,1,0,0:0:0:0:
64,192,72701,128,0,72812:0:0:0:0:
192,192,72812,1,0,0:0:0:0:
448,192,72812,128,0,73034:0:0:0:0:
192,192,73034,1,0,0:0:0:0:
64,192,73034,128,0,73479:0:0:0:0:
320,192,73145,1,0,0:0:0:0:
448,192,73257,1,0,0:0:0:0:
192,192,73257,128,0,73479:0:0:0:0:
320,192,73479,128,0,73701:0:0:0:0:
448,192,73479,1,0,0:0:0:0:
64,192,73701,128,0,73812:0:0:0:0:
192,192,73701,1,0,0:0:0:0:
448,192,73812,1,0,0:0:0:0:
192,192,73812,128,0,74368:0:0:0:0:
320,192,73923,1,0,0:0:0:0:
64,192,74145,1,0,0:0:0:0:
448,192,74145,128,0,74257:0:0:0:0:
448,192,74368,1,0,0:0:0:0:
64,192,74368,1,0,0:0:0:0:
320,192,74479,128,0,74590:0:0:0:0:
64,192,74590,1,0,0:0:0:0:
192,192,74590,1,0,0:0:0:0:
64,192,74812,128,0,75145:0:0:0:0:
448,192,74812,128,0,74923:0:0:0:0:
320,192,74812,1,0,0:0:0:0:
192,192,74923,1,0,0:0:0:0:
320,192,75034,1,0,0:0:0:0:
448,192,75145,128,0,75257:0:0:0:0:
192,192,75145,1,0,0:0:0:0:
320,192,75257,1,0,0:0:0:0:
64,192,75257,1,0,0:0:0:0:
192,192,75479,1,0,0:0:0:0:
320,192,75479,128,0,75590:0:0:0:0:
448,192,75701,128,0,76145:0:0:0:0:
64,192,75701,1,0,0:0:0:0:
192,192,75701,1,0,0:0:0:0:
320,192,75812,1,0,0:0:0:0:
64,192,75812,128,0,75923:0:0:0:0:
192,192,75923,1,0,0:0:0:0:
64,192,76145,128,0,76257:0:0:0:0:
192,192,76145,1,0,0:0:0:0:
320,192,76145,1,0,0:0:0:0:
320,192,76368,1,0,0:0:0:0:
64,192,76368,1,0,0:0:0:0:
192,192,76479,1,0,0:0:0:0:
64,192,76590,1,0,0:0:0:0:
448,192,76590,128,0,77034:0:0:0:0:
320,192,76590,1,0,0:0:0:0:
64,192,76812,1,0,0:0:0:0:
192,192,76923,1,0,0:0:0:0:
64,192,77034,1,0,0:0:0:0:
192,192,77034,1,0,0:0:0:0:
320,192,77034,128,0,77923:0:0:0:0:
64,192,77257,1,0,0:0:0:0:
192,192,77257,1,0,0:0:0:0:
448,192,77368,1,0,0:0:0:0:
64,192,77479,1,0,0:0:0:0:
192,192,77479,1,0,0:0:0:0:
448,192,77590,1,0,0:0:0:0:
64,192,77701,1,0,0:0:0:0:
448,192,77701,128,0,78034:0:0:0:0:
192,192,77812,128,0,78145:0:0:0:0:
64,192,77923,128,0,78034:0:0:0:0:
320,192,78034,128,0,78145:0:0:0:0:
448,192,78145,128,0,78368:0:0:0:0:
64,192,78145,128,0,78257:0:0:0:0:
192,192,78257,1,0,0:0:0:0:
320,192,78368,128,0,78812:0:0:0:0:
64,192,78368,1,0,0:0:0:0:
448,192,78479,1,0,0:0:0:0:
192,192,78479,1,0,0:0:0:0:
192,192,78590,128,0,78812:0:0:0:0:
64,192,78590,1,0,0:0:0:0:
448,192,78812,128,0,79145:0:0:0:0:
64,192,78812,1,0,0:0:0:0:
192,192,78923,1,0,0:0:0:0:
320,192,79034,128,0,79257:0:0:0:0:
192,192,79145,128,0,79368:0:0:0:0:
64,192,79257,128,0,79479:0:0:0:0:
448,192,79257,1,0,0:0:0:0:
320,192,79368,128,0,79590:0:0:0:0:
448,192,79479,128,0,79701:0:0:0:0:
192,192,79479,1,0,0:0:0:0:
64,192,79701,1,0,0:0:0:0:
192,192,79701,128,0,79923:0:0:0:0:
320,192,79701,128,0,79923:0:0:0:0:
448,192,79923,1,0,0:0:0:0:
64,192,79923,128,0,80034:0:0:0:0:
320,192,80034,128,0,82701:0:0:0:0:
448,192,80145,1,0,0:0:0:0:
64,192,80145,128,0,80923:0:0:0:0:
192,192,80257,1,0,0:0:0:0:
448,192,80368,1,0,0:0:0:0:
448,192,80590,1,0,0:0:0:0:
192,192,80590,1,0,0:0:0:0:
192,192,80812,1,0,0:0:0:0:
192,192,81034,1,0,0:0:0:0:
64,192,81034,1,0,0:0:0:0:
448,192,81034,128,0,81257:0:0:0:0:
192,192,81257,128,0,81479:0:0:0:0:
64,192,81257,1,0,0:0:0:0:
64,192,81479,128,0,81701:0:0:0:0:
448,192,81479,1,0,0:0:0:0:
192,192,81590,1,0,0:0:0:0:
448,192,81701,1,0,0:0:0:0:
192,192,81812,1,0,0:0:0:0:
64,192,81923,1,0,0:0:0:0:
448,192,81923,128,0,84479:0:0:0:0:
192,192,82145,1,0,0:0:0:0:
64,192,82145,1,0,0:0:0:0:
192,192,82368,128,0,82590:0:0:0:0:
64,192,82368,1,0,0:0:0:0:
64,192,82590,1,0,0:0:0:0:
192,192,82701,128,0,82923:0:0:0:0:
64,192,82812,128,0,83034:0:0:0:0:
320,192,82812,1,0,0:0:0:0:
320,192,83034,128,0,83257:0:0:0:0:
192,192,83034,1,0,0:0:0:0:
64,192,83257,128,0,83479:0:0:0:0:
192,192,83257,1,0,0:0:0:0:
192,192,83479,128,0,83701:0:0:0:0:
320,192,83479,1,0,0:0:0:0:
320,192,83590,1,0,0:0:0:0:
64,192,83701,128,0,85368:0:0:0:0:
192,192,83923,1,0,0:0:0:0:
320,192,83923,1,0,0:0:0:0:
320,192,84034,128,0,84590:0:0:0:0:
192,192,84145,1,0,0:0:0:0:
192,192,84368,1,0,0:0:0:0:
192,192,84590,1,0,0:0:0:0:
448,192,84590,128,0,84812:0:0:0:0:
320,192,84701,1,0,0:0:0:0:
192,192,84812,128,0,85034:0:0:0:0:
448,192,84923,1,0,0:0:0:0:
320,192,85034,128,0,85257:0:0:0:0:
448,192,85257,128,0,85479:0:0:0:0:
192,192,85257,1,0,0:0:0:0:
64,192,85479,128,0,86368:0:0:0:0:
320,192,85479,128,0,85812:0:0:0:0:
192,192,85479,1,0,0:0:0:0:
448,192,85701,1,0,0:0:0:0:
192,192,85923,1,0,0:0:0:0:
320,192,85923,128,0,86145:0:0:0:0:
448,192,85923,1,0,0:0:0:0:
192,192,86145,1,0,0:0:0:0:
320,192,86257,128,0,86701:0:0:0:0:
448,192,86368,128,0,86812:0:0:0:0:
192,192,86368,128,0,86479:0:0:0:0:
64,192,86590,128,0,86812:0:0:0:0:
192,192,86590,1,0,0:0:0:0:
192,192,86812,128,0,87034:0:0:0:0:
320,192,86812,1,0,0:0:0:0:
320,192,87034,128,0,87257:0:0:0:0:
64,192,87034,1,0,0:0:0:0:
448,192,87034,1,0,0:0:0:0:
448,192,87257,128,0,88145:0:0:0:0:
64,192,87257,1,0,0:0:0:0:
192,192,87257,1,0,0:0:0:0:
64,192,87479,1,0,0:0:0:0:
64,192,87590,128,0,88590:0:0:0:0:
192,192,87701,1,0,0:0:0:0:
320,192,87701,1,0,0:0:0:0:
192,192,87923,1,0,0:0:0:0:
320,192,88145,128,0,88368:0:0:0:0:
192,192,88145,1,0,0:0:0:0:
448,192,88368,1,0,0:0:0:0:
192,192,88368,128,0,88590:0:0:0:0:
320,192,88590,128,0,88812:0:0:0:0:
448,192,88590,1,0,0:0:0:0:
192,192,88812,128,0,89034:0:0:0:0:
448,192,88812,1,0,0:0:0:0:
320,192,88923,1,0,0:0:0:0:
64,192,89034,128,0,90812:0:0:0:0:
448,192,89034,128,0,89257:0:0:0:0:
192,192,89145,1,0,0:0:0:0:
320,192,89257,1,0,0:0:0:0:
320,192,89368,128,0,89701:0:0:0:0:
448,192,89368,1,0,0:0:0:0:
192,192,89479,1,0,0:0:0:0:
448,192,89701,128,0,89923:0:0:0:0:
192,192,89701,1,0,0:0:0:0:
192,192,89923,1,0,0:0:0:0:
320,192,89923,128,0,90145:0:0:0:0:
448,192,90034,1,0,0:0:0:0:
192,192,90145,1,0,0:0:0:0:
320,192,90257,128,0,90590:0:0:0:0:
192,192,90257,1,0,0:0:0:0:
448,192,90368,1,0,0:0:0:0:
192,192,90479,1,0,0:0:0:0:
448,192,90590,1,0,0:0:0:0:
192,192,90590,128,0,90812:0:0:0:0:
448,192,90812,128,0,92145:0:0:0:0:
320,192,90812,1,0,0:0:0:0:
192,192,90923,1,0,0:0:0:0:
64,192,91034,1,0,0:0:0:0:
320,192,91034,1,0,0:0:0:0:
192,192,91145,1,0,0:0:0:0:
64,192,91257,1,0,0:0:0:0:
320,192,91257,1,0,0:0:0:0:
192,192,91368,1,0,0:0:0:0:
320,192,91368,1,0,0:0:0:0:
64,192,91479,1,0,0:0:0:0:
192,192,91590,1,0,0:0:0:0:
320,192,91590,1,0,0:0:0:0:
64,192,91701,1,0,0:0:0:0:
192,192,91812,1,0,0:0:0:0:
320,192,91812,1,0,0:0:0:0:
64,192,91923,1,0,0:0:0:0:
320,192,91923,1,0,0:0:0:0:
192,192,92034,1,0,0:0:0:0:
64,192,92145,1,0,0:0:0:0:
192,192,92145,1,0,0:0:0:0:
320,192,92145,1,0,0:0:0:0:
448,192,92257,1,0,0:0:0:0:
320,192,92257,1,0,0:0:0:0:
448,192,92368,1,0,0:0:0:0:
64,192,92368,1,0,0:0:0:0:
320,192,92479,1,0,0:0:0:0:
192,192,92590,128,0,93479:0:0:0:0:
64,192,92590,1,0,0:0:0:0:
448,192,92590,1,0,0:0:0:0:
320,192,92701,1,0,0:0:0:0:
448,192,92812,1,0,0:0:0:0:
64,192,92812,1,0,0:0:0:0:
320,192,92923,1,0,0:0:0:0:
64,192,93034,1,0,0:0:0:0:
448,192,93034,1,0,0:0:0:0:
320,192,93034,1,0,0:0:0:0:
64,192,93108,1,0,0:0:0:0:
448,192,93183,1,0,0:0:0:0:
320,192,93257,1,0,0:0:0:0:
64,192,93257,1,0,0:0:0:0:
448,192,93257,1,0,0:0:0:0:
64,192,93331,1,0,0:0:0:0:
448,192,93405,1,0,0:0:0:0:
448,192,93479,1,0,0:0:0:0:
64,192,93479,1,0,0:0:0:0:
320,192,93479,1,0,0:0:0:0:
192,192,94368,128,0,94812:0:0:0:0:
64,192,94368,1,0,0:0:0:0:
448,192,94368,1,0,0:0:0:0:
320,192,94368,1,0,0:0:0:0:
448,192,94590,1,0,0:0:0:0:
64,192,94590,1,0,0:0:0:0:
320,192,94812,1,0,0:0:0:0:
448,192,94812,1,0,0:0:0:0:
64,192,94812,128,0,95479:0:0:0:0:
320,192,94923,128,0,95145:0:0:0:0:
192,192,95034,1,0,0:0:0:0:
448,192,95145,128,0,95701:0:0:0:0:
320,192,95257,1,0,0:0:0:0:
192,192,95257,1,0,0:0:0:0:
192,192,95368,1,0,0:0:0:0:
320,192,95479,1,0,0:0:0:0:
192,192,95590,1,0,0:0:0:0:
64,192,95701,1,0,0:0:0:0:
320,192,95701,1,0,0:0:0:0:
192,192,95701,1,0,0:0:0:0:
192,192,95923,1,0,0:0:0:0:
320,192,95923,1,0,0:0:0:0:
448,192,95923,1,0,0:0:0:0:
64,192,96145,128,0,96590:0:0:0:0:
448,192,96145,128,0,96368:0:0:0:0:
320,192,96145,1,0,0:0:0:0:
192,192,96368,1,0,0:0:0:0:
320,192,96368,1,0,0:0:0:0:
320,192,96479,128,0,96923:0:0:0:0:
192,192,96590,1,0,0:0:0:0:
64,192,96701,1,0,0:0:0:0:
448,192,96701,128,0,97145:0:0:0:0:
192,192,96812,1,0,0:0:0:0:
64,192,96923,128,0,97368:0:0:0:0:
320,192,97034,1,0,0:0:0:0:
192,192,97145,1,0,0:0:0:0:
320,192,97257,1,0,0:0:0:0:
448,192,97257,1,0,0:0:0:0:
192,192,97257,1,0,0:0:0:0:
192,192,97479,1,0,0:0:0:0:
320,192,97479,1,0,0:0:0:0:
64,192,97479,1,0,0:0:0:0:
64,192,97701,1,0,0:0:0:0:
192,192,97701,1,0,0:0:0:0:
448,192,97701,1,0,0:0:0:0:
64,192,97923,128,0,98701:0:0:0:0:
320,192,97923,128,0,98257:0:0:0:0:
448,192,97923,1,0,0:0:0:0:
192,192,97923,1,0,0:0:0:0:
192,192,98034,1,0,0:0:0:0:
448,192,98145,1,0,0:0:0:0:
192,192,98368,128,0,98701:0:0:0:0:
448,192,98368,1,0,0:0:0:0:
320,192,98368,1,0,0:0:0:0:
320,192,98479,1,0,0:0:0:0:
448,192,98590,1,0,0:0:0:0:
448,192,98812,128,0,99701:0:0:0:0:
192,192,98812,1,0,0:0:0:0:
64,192,98812,128,0,99145:0:0:0:0:
320,192,98923,1,0,0:0:0:0:
192,192,99034,1,0,0:0:0:0:
320,192,99034,1,0,0:0:0:0:
192,192,99257,128,0,99701:0:0:0:0:
320,192,99257,1,0,0:0:0:0:
64,192,99257,1,0,0:0:0:0:
320,192,99479,1,0,0:0:0:0:
64,192,99479,1,0,0:0:0:0:
320,192,99701,128,0,99923:0:0:0:0:
64,192,99701,128,0,100145:0:0:0:0:
192,192,99923,1,0,0:0:0:0:
448,192,99923,128,0,100145:0:0:0:0:
320,192,100034,128,0,100257:0:0:0:0:
192,192,100145,1,0,0:0:0:0:
64,192,100257,1,0,0:0:0:0:
448,192,100257,128,0,100479:0:0:0:0:
192,192,100368,1,0,0:0:0:0:
320,192,100368,1,0,0:0:0:0:
320,192,100479,128,0,100812:0:0:0:0:
64,192,100590,1,0,0:0:0:0:
192,192,100590,1,0,0:0:0:0:
448,192,100701,1,0,0:0:0:0:
448,192,100812,1,0,0:0:0:0:
64,192,100812,1,0,0:0:0:0:
320,192,100923,1,0,0:0:0:0:
192,192,101034,1,0,0:0:0:0:
64,192,101034,1,0,0:0:0:0:
320,192,101145,1,0,0:0:0:0:
192,192,101257,1,0,0:0:0:0:
64,192,101257,1,0,0:0:0:0:
448,192,101257,1,0,0:0:0:0:
64,192,101368,1,0,0:0:0:0:
320,192,101479,128,0,101923:0:0:0:0:
192,192,101479,1,0,0:0:0:0:
448,192,101479,1,0,0:0:0:0:
64,192,101701,1,0,0:0:0:0:
448,192,101701,1,0,0:0:0:0:
192,192,101923,1,0,0:0:0:0:
448,192,101923,1,0,0:0:0:0:
64,192,101923,128,0,102590:0:0:0:0:
320,192,102034,128,0,102257:0:0:0:0:
192,192,102145,1,0,0:0:0:0:
448,192,102257,128,0,102812:0:0:0:0:
192,192,102368,1,0,0:0:0:0:
320,192,102368,1,0,0:0:0:0:
320,192,102479,1,0,0:0:0:0:
192,192,102590,1,0,0:0:0:0:
64,192,102701,1,0,0:0:0:0:
192,192,102812,1,0,0:0:0:0:
320,192,102812,1,0,0:0:0:0:
64,192,102812,1,0,0:0:0:0:
448,192,103034,1,0,0:0:0:0:
320,192,103034,1,0,0:0:0:0:
192,192,103034,1,0,0:0:0:0:
192,192,103257,128,0,103590:0:0:0:0:
320,192,103368,128,0,103479:0:0:0:0:
64,192,103479,128,0,103923:0:0:0:0:
448,192,103479,128,0,103812:0:0:0:0:
320,192,103590,128,0,103812:0:0:0:0:
192,192,103701,128,0,104257:0:0:0:0:
448,192,103923,128,0,104145:0:0:0:0:
320,192,103923,1,0,0:0:0:0:
64,192,104034,1,0,0:0:0:0:
320,192,104145,1,0,0:0:0:0:
64,192,104145,128,0,104368:0:0:0:0:
448,192,104257,128,0,104590:0:0:0:0:
320,192,104257,1,0,0:0:0:0:
192,192,104368,1,0,0:0:0:0:
64,192,104479,1,0,0:0:0:0:
320,192,104479,1,0,0:0:0:0:
64,192,104590,1,0,0:0:0:0:
192,192,104590,1,0,0:0:0:0:
320,192,104590,1,0,0:0:0:0:
64,192,104812,1,0,0:0:0:0:
192,192,104812,1,0,0:0:0:0:
448,192,104812,1,0,0:0:0:0:
320,192,105034,128,0,105479:0:0:0:0:
64,192,105034,1,0,0:0:0:0:
448,192,105034,1,0,0:0:0:0:
192,192,105145,1,0,0:0:0:0:
64,192,105257,1,0,0:0:0:0:
448,192,105257,1,0,0:0:0:0:
64,192,105479,1,0,0:0:0:0:
192,192,105479,1,0,0:0:0:0:
448,192,105479,1,0,0:0:0:0:
64,192,105701,1,0,0:0:0:0:
320,192,105701,1,0,0:0:0:0:
448,192,105701,1,0,0:0:0:0:
320,192,105812,1,0,0:0:0:0:
64,192,105923,128,0,106257:0:0:0:0:
448,192,105923,128,0,106257:0:0:0:0:
192,192,105923,1,0,0:0:0:0:
320,192,106034,1,0,0:0:0:0:
192,192,106145,1,0,0:0:0:0:
320,192,106257,128,0,106590:0:0:0:0:
192,192,106257,1,0,0:0:0:0:
64,192,106368,1,0,0:0:0:0:
448,192,106368,1,0,0:0:0:0:
192,192,106479,1,0,0:0:0:0:
64,192,106590,128,0,106812:0:0:0:0:
448,192,106590,128,0,106812:0:0:0:0:
192,192,106812,1,0,0:0:0:0:
320,192,106812,1,0,0:0:0:0:
192,192,107034,1,0,0:0:0:0:
320,192,107034,1,0,0:0:0:0:
448,192,107145,1,0,0:0:0:0:
64,192,107257,1,0,0:0:0:0:
192,192,107257,1,0,0:0:0:0:
320,192,107257,1,0,0:0:0:0:
448,192,107368,1,0,0:0:0:0:
192,192,107368,1,0,0:0:0:0:
320,192,107479,1,0,0:0:0:0:
64,192,107479,1,0,0:0:0:0:
448,192,107479,1,0,0:0:0:0:
320,192,107590,1,0,0:0:0:0:
64,192,107701,128,0,108034:0:0:0:0:
448,192,107701,128,0,108034:0:0:0:0:
192,192,107701,1,0,0:0:0:0:
320,192,107812,1,0,0:0:0:0:
192,192,107923,1,0,0:0:0:0:
320,192,108034,1,0,0:0:0:0:
64,192,108145,1,0,0:0:0:0:
448,192,108145,1,0,0:0:0:0:
192,192,108145,128,0,108479:0:0:0:0:
320,192,108257,1,0,0:0:0:0:
64,192,108368,1,0,0:0:0:0:
448,192,108368,1,0,0:0:0:0:
320,192,108479,1,0,0:0:0:0:
64,192,108590,1,0,0:0:0:0:
192,192,108590,1,0,0:0:0:0:
448,192,108590,1,0,0:0:0:0:
192,192,108812,1,0,0:0:0:0:
320,192,108812,1,0,0:0:0:0:
448,192,108812,1,0,0:0:0:0:
64,192,109034,1,0,0:0:0:0:
192,192,109034,1,0,0:0:0:0:
448,192,109034,1,0,0:0:0:0:
320,192,109145,1,0,0:0:0:0:
192,192,109145,1,0,0:0:0:0:
64,192,109257,1,0,0:0:0:0:
320,192,109257,1,0,0:0:0:0:
448,192,109368,128,0,109923:0:0:0:0:
64,192,109479,1,0,0:0:0:0:
192,192,109479,1,0,0:0:0:0:
320,192,109479,1,0,0:0:0:0:
64,192,109590,1,0,0:0:0:0:
192,192,109701,1,0,0:0:0:0:
320,192,109701,1,0,0:0:0:0:
320,192,109812,1,0,0:0:0:0:
64,192,109923,1,0,0:0:0:0:
192,192,109923,1,0,0:0:0:0:
192,192,110145,1,0,0:0:0:0:
320,192,110145,1,0,0:0:0:0:
448,192,110145,1,0,0:0:0:0:
64,192,110368,1,0,0:0:0:0:
448,192,110368,1,0,0:0:0:0:
320,192,110368,1,0,0:0:0:0:
192,192,110590,1,0,0:0:0:0:
320,192,110590,1,0,0:0:0:0:
448,192,110590,1,0,0:0:0:0:
64,192,110812,1,0,0:0:0:0:
192,192,110812,1,0,0:0:0:0:
448,192,110812,1,0,0:0:0:0:
320,192,110923,1,0,0:0:0:0:
448,192,110923,1,0,0:0:0:0:
192,192,111034,1,0,0:0:0:0:
320,192,111034,1,0,0:0:0:0:
64,192,111145,128,0,111701:0:0:0:0:
192,192,111257,1,0,0:0:0:0:
320,192,111257,1,0,0:0:0:0:
448,192,111257,1,0,0:0:0:0:
448,192,111368,1,0,0:0:0:0:
192,192,111479,1,0,0:0:0:0:
320,192,111479,1,0,0:0:0:0:
192,192,111701,1,0,0:0:0:0:
320,192,111701,1,0,0:0:0:0:
448,192,111701,1,0,0:0:0:0:
64,192,111923,1,0,0:0:0:0:
192,192,111923,1,0,0:0:0:0:
320,192,111923,1,0,0:0:0:0:
64,192,112145,128,0,112923:0:0:0:0:
192,192,112145,128,0,112479:0:0:0:0:
448,192,112145,1,0,0:0:0:0:
320,192,112145,1,0,0:0:0:0:
320,192,112257,1,0,0:0:0:0:
448,192,112368,1,0,0:0:0:0:
320,192,112590,128,0,112923:0:0:0:0:
192,192,112590,1,0,0:0:0:0:
448,192,112590,1,0,0:0:0:0:
448,192,112701,1,0,0:0:0:0:
192,192,112812,1,0,0:0:0:0:
448,192,113034,128,0,113812:0:0:0:0:
64,192,113034,1,0,0:0:0:0:
320,192,113034,128,0,113368:0:0:0:0:
192,192,113145,1,0,0:0:0:0:
64,192,113257,1,0,0:0:0:0:
192,192,113257,1,0,0:0:0:0:
192,192,113479,128,0,113923:0:0:0:0:
64,192,113479,1,0,0:0:0:0:
320,192,113479,1,0,0:0:0:0:
320,192,113701,1,0,0:0:0:0:
64,192,113701,1,0,0:0:0:0:
64,192,113923,1,0,0:0:0:0:
320,192,113923,1,0,0:0:0:0:
448,192,113923,1,0,0:0:0:0:
192,192,114145,1,0,0:0:0:0:
320,192,114145,1,0,0:0:0:0:
448,192,114145,1,0,0:0:0:0:
320,192,114257,1,0,0:0:0:0:
64,192,114368,1,0,0:0:0:0:
192,192,114368,1,0,0:0:0:0:
320,192,114368,1,0,0:0:0:0:
448,192,114479,1,0,0:0:0:0:
192,192,114479,1,0,0:0:0:0:
320,192,114590,1,0,0:0:0:0:
192,192,114590,1,0,0:0:0:0:
64,192,114701,128,0,115257:0:0:0:0:
448,192,114701,1,0,0:0:0:0:
192,192,114812,1,0,0:0:0:0:
320,192,114812,1,0,0:0:0:0:
448,192,114923,1,0,0:0:0:0:
192,192,115034,1,0,0:0:0:0:
320,192,115034,1,0,0:0:0:0:
320,192,115145,1,0,0:0:0:0:
448,192,115145,1,0,0:0:0:0:
192,192,115257,1,0,0:0:0:0:
448,192,115257,1,0,0:0:0:0:
64,192,115479,1,0,0:0:0:0:
448,192,115479,1,0,0:0:0:0:
320,192,115479,1,0,0:0:0:0:
64,192,115701,1,0,0:0:0:0:
192,192,115701,1,0,0:0:0:0:
448,192,115701,1,0,0:0:0:0:
320,192,115812,1,0,0:0:0:0:
64,192,115923,1,0,0:0:0:0:
192,192,115923,1,0,0:0:0:0:
320,192,115923,1,0,0:0:0:0:
64,192,116145,1,0,0:0:0:0:
192,192,116145,1,0,0:0:0:0:
448,192,116145,1,0,0:0:0:0:
320,192,116257,1,0,0:0:0:0:
192,192,116368,1,0,0:0:0:0:
64,192,116479,128,0,117034:0:0:0:0:
448,192,116479,128,0,117034:0:0:0:0:
320,192,116590,1,0,0:0:0:0:
192,192,116701,1,0,0:0:0:0:
320,192,116812,1,0,0:0:0:0:
192,192,116923,1,0,0:0:0:0:
320,192,117034,1,0,0:0:0:0:
64,192,117257,1,0,0:0:0:0:
448,192,117257,1,0,0:0:0:0:
320,192,117479,128,0,118812:0:0:0:0:
64,192,117479,1,0,0:0:0:0:
192,192,117479,1,0,0:0:0:0:
64,192,117701,1,0,0:0:0:0:
448,192,117701,1,0,0:0:0:0:
192,192,117812,1,0,0:0:0:0:
448,192,117923,1,0,0:0:0:0:
64,192,117923,1,0,0:0:0:0:
192,192,118034,128,0,118145:0:0:0:0:
64,192,118034,1,0,0:0:0:0:
448,192,118145,1,0,0:0:0:0:
192,192,118257,128,0,118812:0:0:0:0:
64,192,118257,1,0,0:0:0:0:
448,192,118368,1,0,0:0:0:0:
64,192,118479,1,0,0:0:0:0:
448,192,118590,1,0,0:0:0:0:
64,192,118590,1,0,0:0:0:0:
448,192,118812,1,0,0:0:0:0:
64,192,118812,1,0,0:0:0:0:
64,192,119034,1,0,0:0:0:0:
192,192,119034,1,0,0:0:0:0:
448,192,119034,1,0,0:0:0:0:
320,192,119145,1,0,0:0:0:0:
64,192,119257,128,0,119701:0:0:0:0:
192,192,119257,128,0,119701:0:0:0:0:
448,192,119257,1,0,0:0:0:0:
320,192,119479,1,0,0:0:0:0:
448,192,119479,1,0,0:0:0:0:
320,192,119701,1,0,0:0:0:0:
448,192,119701,1,0,0:0:0:0:
192,192,119812,1,0,0:0:0:0:
320,192,119812,1,0,0:0:0:0:
64,192,119923,1,0,0:0:0:0:
192,192,119923,1,0,0:0:0:0:
320,192,120145,128,0,120479:0:0:0:0:
448,192,120145,1,0,0:0:0:0:
64,192,120145,1,0,0:0:0:0:
192,192,120257,1,0,0:0:0:0:
448,192,120368,1,0,0:0:0:0:
192,192,120479,128,0,120812:0:0:0:0:
64,192,120479,1,0,0:0:0:0:
64,192,120590,1,0,0:0:0:0:
448,192,120590,1,0,0:0:0:0:
320,192,120590,1,0,0:0:0:0:
448,192,120812,128,0,121257:0:0:0:0:
320,192,120812,128,0,121257:0:0:0:0:
64,192,120812,1,0,0:0:0:0:
64,192,121034,1,0,0:0:0:0:
192,192,121034,1,0,0:0:0:0:
64,192,121257,1,0,0:0:0:0:
192,192,121257,1,0,0:0:0:0:
320,192,121368,1,0,0:0:0:0:
448,192,121479,1,0,0:0:0:0:
192,192,121479,1,0,0:0:0:0:
64,192,121479,1,0,0:0:0:0:
192,192,121590,1,0,0:0:0:0:
320,192,121590,1,0,0:0:0:0:
64,192,121701,1,0,0:0:0:0:
448,192,121701,1,0,0:0:0:0:
320,192,121812,1,0,0:0:0:0:
64,192,121923,1,0,0:0:0:0:
448,192,121923,1,0,0:0:0:0:
192,192,121923,1,0,0:0:0:0:
192,192,122034,1,0,0:0:0:0:
320,192,122034,1,0,0:0:0:0:
320,192,122145,1,0,0:0:0:0:
448,192,122145,1,0,0:0:0:0:
192,192,122257,1,0,0:0:0:0:
320,192,122257,1,0,0:0:0:0:
64,192,122368,1,0,0:0:0:0:
192,192,122368,1,0,0:0:0:0:
448,192,122368,1,0,0:0:0:0:
64,192,122590,1,0,0:0:0:0:
320,192,122590,1,0,0:0:0:0:
448,192,122590,1,0,0:0:0:0:
192,192,122701,1,0,0:0:0:0:
320,192,122701,1,0,0:0:0:0:
192,192,122812,128,0,123257:0:0:0:0:
64,192,122812,128,0,122923:0:0:0:0:
448,192,122812,128,0,122923:0:0:0:0:
320,192,122923,128,0,123034:0:0:0:0:
64,192,123034,128,0,123145:0:0:0:0:
448,192,123034,128,0,123145:0:0:0:0:
320,192,123145,128,0,123257:0:0:0:0:
448,192,123257,128,0,123627:0:0:0:0:
64,192,123257,128,0,123627:0:0:0:0:
320,192,123331,1,0,0:0:0:0:
192,192,123405,1,0,0:0:0:0:
320,192,123479,1,0,0:0:0:0:
192,192,123553,1,0,0:0:0:0:
320,192,123627,1,0,0:0:0:0:
64,192,123701,1,0,0:0:0:0:
448,192,123701,1,0,0:0:0:0:
192,192,124590,1,0,0:0:0:0:
320,192,125923,1,0,0:0:0:0:
448,192,126145,1,0,0:0:0:0:
192,192,126590,1,0,0:0:0:0:
64,192,128145,1,0,0:0:0:0:
320,192,129923,1,0,0:0:0:0:
64,192,131701,1,0,0:0:0:0:
448,192,131701,1,0,0:0:0:0:
192,192,131923,1,0,0:0:0:0:
320,192,132145,1,0,0:0:0:0:
448,192,132368,1,0,0:0:0:0:
192,192,132368,1,0,0:0:0:0:
64,192,133034,1,0,0:0:0:0:
320,192,133034,1,0,0:0:0:0:
192,192,133257,1,0,0:0:0:0:
448,192,133257,1,0,0:0:0:0:
320,192,133701,1,0,0:0:0:0:
64,192,135257,1,0,0:0:0:0:
320,192,136145,1,0,0:0:0:0:
448,192,136145,1,0,0:0:0:0:
192,192,136368,1,0,0:0:0:0:
64,192,136590,1,0,0:0:0:0:
320,192,136812,1,0,0:0:0:0:
448,192,137034,128,0,138880:0:0:0:0:
192,192,137957,128,0,138880:0:0:0:0:
64,192,138880,1,0,0:0:0:0:
320,192,138880,1,0,0:0:0:0:
192,192,139154,1,0,0:0:0:0:
320,192,139424,1,0,0:0:0:0:
448,192,139694,1,0,0:0:0:0:
64,192,139965,1,0,0:0:0:0:
192,192,140235,1,0,0:0:0:0:
320,192,140235,1,0,0:0:0:0:
320,192,140505,1,0,0:0:0:0:
448,192,140505,1,0,0:0:0:0:
64,192,140775,1,0,0:0:0:0:
192,192,140775,1,0,0:0:0:0:
64,192,141046,1,0,0:0:0:0:
192,192,141079,1,0,0:0:0:0:
448,192,141079,128,0,145370:0:0:0:0:
