osu file format v14

[General]
AudioFilename: dual existence.mp3
AudioLeadIn: 0
PreviewTime: 11954
Countdown: 0
SampleSet: Soft
StackLeniency: 0.7
Mode: 0
LetterboxInBreaks: 0
WidescreenStoryboard: 0

[Editor]
Bookmarks: 17200,73428,74744,75621
DistanceSpacing: 1
BeatDivisor: 4
GridSize: 32
TimelineZoom: 2.3

[Metadata]
Title:dual existence (TV Size)
TitleUnicode:dual existence (TV Size)
Artist:fripSide
ArtistUnicode:fripSide
Creator:Toumei Dragon
Version:Lightning of Railgun
Source:とある科学の超電磁砲T
Tags:toaru kagaku no railgun t opening yoshino nanjo index dailycare kawashiro [_lost_] Sarawatlism conner anime japanese pop jpop c_o_n_n_e_r
BeatmapID:2545348
BeatmapSetID:1223739

[Difficulty]
HPDrainRate:5
CircleSize:4.2
OverallDifficulty:9
ApproachRate:9.6
SliderMultiplier:3.02
SliderTickRate:1

[Events]
//Background and Video events
0,0,"BG.jpg",0,0
Video,0,"fripSide_dual existence.mp4"
//Break Periods
//Storyboard Layer 0 (Background)
//Storyboard Layer 1 (Fail)
//Storyboard Layer 2 (Pass)
//Storyboard Layer 3 (Foreground)
//Storyboard Layer 4 (Overlay)
//Storyboard Sound Samples

[TimingPoints]
552,631.578947368421,4,2,1,40,1,0
552,-200,4,2,3,40,0,0
10639,350.877192982456,4,2,1,40,1,0
11516,-100,4,2,1,80,0,0
12042,-83.3333333333333,4,2,2,80,0,1
12129,-83.3333333333333,4,2,1,80,0,1
18182,-166.666666666667,4,2,1,80,0,1
18533,-111.111111111111,4,2,1,80,0,1
18884,-83.3333333333333,4,2,1,80,0,1
19234,-66.6666666666667,4,2,1,80,0,1
19585,-55.5555555555556,4,2,1,80,0,1
20989,-66.6666666666667,4,2,1,80,0,1
21340,-83.3333333333333,4,2,1,80,0,1
22041,-66.6666666666667,4,2,1,80,0,1
22568,-83.3333333333333,4,2,1,80,0,1
23270,-83.3333333333333,4,2,2,80,0,0
23445,-83.3333333333333,4,2,1,80,0,0
23971,-100,4,2,1,80,0,0
28884,-285.714285714286,4,2,3,40,0,0
38708,-133.333333333333,4,2,1,70,0,0
40112,-133.333333333333,4,2,2,60,0,0
40287,-133.333333333333,4,2,1,60,0,0
51340,-111.111111111111,4,2,2,70,0,0
51515,-111.111111111111,4,2,1,70,0,0
63971,-83.3333333333333,4,2,1,70,0,0
65375,-83.3333333333333,4,2,2,80,0,1
65463,-83.3333333333333,4,2,1,80,0,1
75024,-66.6666666666667,4,2,1,80,0,1
76603,-83.3333333333333,4,2,2,80,0,1
76778,-83.3333333333333,4,2,1,80,0,1
82743,-166.666666666667,4,2,1,80,0,1
83094,-111.111111111111,4,2,1,80,0,1
83445,-83.3333333333334,4,2,1,80,0,1
83796,-66.6666666666667,4,2,1,80,0,1
84147,-55.5555555555556,4,2,1,80,0,1
85550,-66.6666666666667,4,2,1,80,0,1
85901,-83.3333333333333,4,2,1,80,0,1
86603,-66.6666666666667,4,2,1,80,0,1
87129,-83.3333333333333,4,2,1,80,0,1
87831,-83.3333333333333,4,2,1,80,0,0

[Colours]
Combo1 : 242,167,167
Combo2 : 191,75,129
Combo3 : 162,197,242
Combo4 : 242,56,56
SliderBorder : 250,255,253
SliderTrackOverride : 0,0,15

[HitObjects]
235,120,552,5,2,0:0:0:0:
161,135,867,1,2,0:0:0:0:
87,150,1183,1,2,0:0:0:0:
111,78,1499,1,2,0:0:0:0:
211,192,1815,6,0,P|295:209|346:164,1,151,2|2,0:0|0:0,0:0:0:0:
372,102,2762,1,2,0:0:0:0:
310,285,3078,5,2,0:0:0:0:
237,306,3394,1,2,0:0:0:0:
255,232,3709,1,2,0:0:0:0:
292,358,4025,1,2,0:0:0:0:
164,327,4341,6,0,B|116:302|116:302|137:182,1,151,2|2,0:0|0:0,0:0:0:0:
152,133,5288,1,2,0:0:0:0:
272,35,5604,5,2,0:0:0:0:
212,84,5920,1,2,0:0:0:0:
201,11,6236,1,2,0:0:0:0:
272,35,6552,1,2,0:0:0:0:
368,144,6867,101,2,0:0:0:0:
315,195,7183,1,2,0:0:0:0:
264,139,7499,1,2,0:0:0:0:
318,90,7815,1,2,0:0:0:0:
241,284,8131,5,2,0:0:0:0:
256,192,8288,12,0,11340,0:0:0:0:
254,99,11516,5,2,0:0:0:0:
451,136,11690,1,8,0:0:0:0:
417,119,11779,1,8,0:0:0:0:
380,117,11867,1,8,0:0:0:0:
345,130,11954,1,8,0:0:0:0:
319,157,12042,6,0,P|282:184|215:180,1,90.5999972351075,6|0,0:0|0:0,0:0:0:0:
106,75,12217,2,0,P|147:93|177:153,1,90.5999972351075,0|0,0:0|0:0,0:0:0:0:
142,301,12393,2,0,P|137:255|174:199,1,90.5999972351075,8|0,0:0|0:0,0:0:0:0:
268,14,12568,2,0,P|272:58|235:114,1,90.5999972351075,0|0,0:0|0:0,0:0:0:0:
89,164,12743,6,0,L|0:149,1,90.5999972351075,2|0,0:0|0:0,0:0:0:0:
226,271,12919,2,0,L|315:285,1,90.5999972351075,2|0,0:0|0:0,0:0:0:0:
435,96,13094,1,8,0:0:0:0:
428,90,13182,1,0,0:0:0:0:
420,84,13270,6,0,B|354:38|354:38|381:249,1,271.799991705323,2|0,0:0|0:0,0:0:0:0:
335,369,13621,2,0,P|312:323|320:269,1,90.5999972351075,2|0,0:0|0:0,0:0:0:0:
462,250,13796,2,0,P|433:291|383:311,1,90.5999972351075,8|0,0:0|0:0,0:0:0:0:
230,259,13971,6,0,P|294:201|377:226,1,181.199994470215,0|2,0:0|0:0,0:0:0:0:
447,65,14234,1,0,0:0:0:0:
439,72,14322,2,0,L|431:170,1,90.5999972351075
469,340,14498,2,0,L|461:249,1,90.5999972351075,8|0,0:0|0:0,0:0:0:0:
356,37,14673,2,0,L|348:135,1,90.5999972351075,0|0,0:0|0:0,0:0:0:0:
257,342,14849,6,0,P|226:349|168:320,1,90.5999972351075,2|0,0:0|0:0,0:0:0:0:
30,249,15024,2,0,P|61:242|119:271,1,90.5999972351075,0|0,0:0|0:0,0:0:0:0:
282,192,15200,2,0,P|272:222|218:258,1,90.5999972351075,8|0,0:0|0:0,0:0:0:0:
77,157,15375,2,0,L|84:66,1,90.5999972351075,0|0,0:0|0:0,0:0:0:0:
348,127,15550,6,0,P|369:150|373:215,1,90.5999972351075,2|0,0:0|0:0,0:0:0:0:
228,256,15726,2,0,P|237:225|291:189,1,90.5999972351075,2|0,0:0|0:0,0:0:0:0:
402,295,15901,2,0,P|371:302|313:273,1,90.5999972351075,8|0,0:0|0:0,0:0:0:0:
39,188,16077,6,0,B|128:158|128:158|201:215|201:215|283:191,1,271.799991705323,2|0,0:0|0:0,0:0:0:0:
123,344,16428,2,0,P|109:304|123:241,1,90.5999972351075,2|0,0:0|0:0,0:0:0:0:
32,101,16603,2,0,P|25:145|39:188,1,90.5999972351075,8|0,0:0|0:0,0:0:0:0:
199,296,16778,6,0,B|390:331|390:331|346:309|341:259,1,271.799991705323,2|0,0:0|0:0,0:0:0:0:
442,160,17129,2,0,L|433:250,1,90.5999972351075,2|0,0:0|0:0,0:0:0:0:
252,38,17305,2,0,L|270:225,1,181.199994470215,8|2,0:0|0:0,0:0:0:0:
343,272,17568,1,8,0:0:0:0:
433,250,17656,6,0,L|442:160,1,90.5999972351075,6|0,0:0|0:0,0:0:0:0:
189,205,17831,2,0,L|198:295,1,90.5999972351075
378,90,18007,2,0,L|387:0,1,90.5999972351075,8|0,0:0|0:0,0:0:0:0:
119,0,18182,6,0,L|131:135,1,135.899995852661,2|0,0:0|0:0,0:0:0:0:
99,163,18533,2,0,B|160:130|210:163|182:186|235:213|286:195,1,203.849993778992,8|0,0:0|0:0,0:0:0:0:
363,146,18884,6,0,P|451:143|421:293,1,271.799991705323,2|0,0:0|0:0,0:0:0:0:
369,376,19234,2,0,B|301:333|238:380|238:380|305:294|284:192,1,339.750012960434,8|0,0:0|0:0,0:0:0:0:
211,77,19585,6,0,B|173:-45|122:8|48:3|48:3|68:73|35:132|150:147,1,407.699987557984,8|0,0:0|0:0,0:0:0:0:
285,193,19936,1,2,0:0:0:0:
27,244,20112,1,8,0:0:0:0:
349,262,20287,5,2,0:0:0:0:
377,173,20375,1,8,0:0:0:0:
314,105,20463,6,0,B|454:59|454:59|372:363,1,407.699987557984,6|0,0:0|0:0,0:0:0:0:
182,356,20814,2,0,P|267:361|315:321,1,135.899995852661,8|0,0:0|0:0,0:0:0:0:
126,53,20989,6,0,B|133:149|133:149|103:203|103:203|139:273|139:273|65:318|103:416,1,339.750012960434,2|0,0:0|0:0,0:0:0:0:
51,81,21340,2,0,B|55:133|55:133|18:198|18:198|47:258|47:258|18:291|13:354,1,271.799991705323,8|0,0:0|0:0,0:0:0:0:
181,355,21691,6,0,P|305:334|304:209,1,271.799991705323,2|0,0:0|0:0,0:0:0:0:
297,123,22042,2,0,P|246:142|218:196,1,113.250004320145,8|0,0:0|0:0,0:0:0:0:
378,379,22217,5,2,0:0:0:0:
451,331,22304,1,2,0:0:0:0:
456,244,22392,1,2,0:0:0:0:
389,188,22480,1,2,0:0:0:0:
304,209,22568,6,0,P|281:229|234:227,2,60.3999981567383,2|0|0,0:0|0:0|0:0,0:0:0:0:
227,307,22744,2,0,P|198:297|176:255,2,60.3999981567383,2|0|0,0:0|0:0|0:0,0:0:0:0:
103,289,22919,2,0,P|97:259|122:219,2,60.3999981567383,8|0|0,0:0|0:0|0:0,0:0:0:0:
56,172,23095,2,0,P|79:152|126:154,2,60.3999981567383,2|0|0,0:0|0:0|0:0,0:0:0:0:
180,193,23270,5,6,0:0:0:0:
301,0,23445,1,0,0:0:0:0:
474,163,23620,1,8,0:0:0:0:
124,64,23796,1,0,0:0:0:0:
403,41,23971,2,0,L|376:270,1,226.5,2|0,0:0|0:0,0:0:0:0:
366,349,24322,5,8,0:0:0:0:
101,279,24498,1,0,0:0:0:0:
474,163,24673,1,2,0:0:0:0:
200,34,24849,1,2,0:0:0:0:
249,318,25024,2,0,P|279:198|246:103,1,226.5,8|0,0:0|0:0,0:0:0:0:
200,34,25375,5,2,0:0:0:0:
101,279,25550,1,2,0:0:0:0:
346,378,25726,1,8,0:0:0:0:
445,133,25901,1,2,0:0:0:0:
101,279,26077,5,6,0:0:0:0:
396,256,26252,1,2,0:0:0:0:
85,121,26427,1,8,0:0:0:0:
433,45,26603,1,2,0:0:0:0:
240,338,26778,5,8,0:0:0:0:
159,10,26954,1,2,0:0:0:0:
477,139,27129,1,8,0:0:0:0:
79,286,27305,5,12,0:0:0:0:
455,25,27656,1,8,0:0:0:0:
366,384,28006,1,8,0:0:0:0:
179,97,28357,1,8,0:0:0:0:
455,25,28533,5,8,0:0:0:0:
432,114,28620,1,2,0:0:0:0:
410,204,28708,1,2,0:0:0:0:
388,294,28796,1,2,0:0:0:0:
366,384,28884,6,0,L|252:354,1,105.699996774292,6|2,0:0|0:0,0:0:0:0:
156,252,29410,2,0,P|207:244|250:275,1,105.699996774292,2|2,0:0|0:0,0:0:0:0:
186,326,29936,1,0,0:0:0:0:
126,178,30287,6,0,L|148:55,1,105.699996774292,2|0,0:0|0:0,0:0:0:0:
158,0,30813,1,2,0:0:0:0:
0,96,30989,1,2,0:0:0:0:
0,96,31691,6,0,B|24:124|24:124|7:199,1,105.699996774292,2|2,0:0|0:0,0:0:0:0:
104,294,32217,2,0,B|80:266|80:266|97:191,1,105.699996774292,2|2,0:0|0:0,0:0:0:0:
112,119,32743,1,0,0:0:0:0:
175,246,33095,6,0,P|231:272|294:259,1,105.699996774292,2|0,0:0|0:0,0:0:0:0:
357,251,33620,1,2,0:0:0:0:
271,88,33796,1,2,0:0:0:0:
271,88,34498,6,0,P|212:76|155:111,1,105.699996774292,2|2,0:0|0:0,0:0:0:0:
111,155,35024,2,0,P|62:173|11:160,1,105.699996774292,2|2,0:0|0:0,0:0:0:0:
60,89,35550,1,0,0:0:0:0:
162,221,35902,6,0,L|278:231,1,105.699996774292,2|2,0:0|0:0,0:0:0:0:
322,304,36428,2,0,L|438:294,1,105.699996774292,2|2,0:0|0:0,0:0:0:0:
476,216,36954,1,0,0:0:0:0:
326,54,37305,6,0,P|298:97|305:162,1,105.699996774292,2|2,0:0|0:0,0:0:0:0:
267,230,37831,2,0,P|318:231|371:193,1,105.699996774292,2|2,0:0|0:0,0:0:0:0:
214,163,38357,1,2,0:0:0:0:
214,163,38708,6,0,P|183:185|143:181,1,56.6250021600724,2|0,0:0|0:0,0:0:0:0:
142,261,38884,2,0,P|107:245|90:208,1,56.6250021600724,2|0,0:0|0:0,0:0:0:0:
108,38,39059,6,0,L|95:151,1,113.250004320145,8|2,0:0|0:0,0:0:0:0:
31,257,39322,1,8,0:0:0:0:
23,249,39410,6,0,P|19:211|42:178,1,56.6250021600724,2|0,0:0|0:0,0:0:0:0:
76,319,39586,2,0,P|79:356|56:389,1,56.6250021600724,2|0,0:0|0:0,0:0:0:0:
142,261,39761,5,8,0:0:0:0:
182,251,39848,1,2,0:0:0:0:
220,269,39936,1,2,0:0:0:0:
238,306,40024,1,2,0:0:0:0:
229,347,40112,6,0,L|384:339,1,113.250004320145,6|0,0:0|0:0,0:0:0:0:
435,335,40463,1,2,0:0:0:0:
342,122,40638,2,0,L|187:114,1,113.250004320145,0|2,0:0|0:0,0:0:0:0:
43,230,40989,2,0,B|135:218|135:218|187:245|187:245|266:235,1,226.50000864029,0|0,0:0|0:0,0:0:0:0:
110,116,41515,6,0,P|88:71|102:-1,1,113.250004320145,2|0,0:0|0:0,0:0:0:0:
261,235,41866,1,2,0:0:0:0:
179,54,42041,1,0,0:0:0:0:
216,313,42217,2,0,P|273:329|325:300,1,113.250004320145,2|0,0:0|0:0,0:0:0:0:
458,218,42568,2,0,P|401:202|349:231,1,113.250004320145,2|0,0:0|0:0,0:0:0:0:
143,360,42919,6,0,P|108:325|120:238,1,113.250004320145,2|0,0:0|0:0,0:0:0:0:
141,181,43270,1,2,0:0:0:0:
321,27,43445,2,0,L|304:160,1,113.250004320145,0|2,0:0|0:0,0:0:0:0:
402,312,43796,2,0,B|387:161|387:161|378:200|337:220,1,226.50000864029,0|0,0:0|0:0,0:0:0:0:
112,302,44323,6,0,B|173:346|173:346|332:292,1,226.50000864029,2|2,0:0|0:0,0:0:0:0:
43,238,44849,1,0,0:0:0:0:
239,60,45024,2,0,P|224:178|219:238,1,169.875006480217,2|0,0:0|0:0,0:0:0:0:
218,256,45375,1,2,0:0:0:0:
33,100,45550,1,2,0:0:0:0:
307,175,45726,6,0,P|369:189|426:169,1,113.250004320145,6|0,0:0|0:0,0:0:0:0:
512,9,46077,2,0,P|468:55|457:115,1,113.250004320145,2|0,0:0|0:0,0:0:0:0:
501,178,46427,5,2,0:0:0:0:
287,84,46603,1,0,0:0:0:0:
510,204,46778,1,2,0:0:0:0:
251,237,46954,1,0,0:0:0:0:
381,25,47129,6,0,L|369:180,1,113.250004320145,6|0,0:0|0:0,0:0:0:0:
413,331,47480,2,0,L|421:218,1,113.250004320145,2|0,0:0|0:0,0:0:0:0:
251,237,47831,5,2,0:0:0:0:
471,143,48006,1,0,0:0:0:0:
251,60,48182,1,2,0:0:0:0:
70,210,48357,1,0,0:0:0:0:
309,307,48533,6,0,P|345:251|330:195,1,113.250004320145,6|0,0:0|0:0,0:0:0:0:
150,261,48884,2,0,P|217:264|258:223,1,113.250004320145,2|0,0:0|0:0,0:0:0:0:
268,47,49234,6,0,L|272:160,1,113.250004320145,6|0,0:0|0:0,0:0:0:0:
250,236,49498,2,0,L|245:122,1,113.250004320145
268,47,49761,1,0,0:0:0:0:
351,261,49936,6,0,P|408:292|491:237,1,169.875006480217,2|0,0:0|0:0,0:0:0:0:
484,158,50287,1,8,0:0:0:0:
383,368,50463,1,0,0:0:0:0:
203,219,50638,5,8,0:0:0:0:
200,204,50726,1,8,0:0:0:0:
199,190,50814,2,0,L|192:114,1,56.6250021600724,8|0,0:0|0:0,0:0:0:0:
304,173,50989,5,8,0:0:0:0:
300,252,51076,1,8,0:0:0:0:
241,307,51164,1,8,0:0:0:0:
161,305,51253,1,8,0:0:0:0:
107,245,51340,6,0,L|89:63,1,135.899995852661,6|2,0:0|0:0,0:0:0:0:
219,44,51691,1,8,0:0:0:0:
19,183,51866,1,0,0:0:0:0:
246,275,52041,6,0,L|383:248,1,135.899995852661,2|0,0:0|0:0,0:0:0:0:
434,188,52305,2,0,L|388:320,1,135.899995852661,2|0,0:0|0:0,0:0:0:0:
312,349,52568,1,2,0:0:0:0:
396,108,52743,6,0,P|467:106|517:160,1,135.899995852661,2|2,0:0|0:0,0:0:0:0:
291,173,53094,1,8,0:0:0:0:
511,147,53270,1,0,0:0:0:0:
222,242,53445,2,0,P|195:183|228:109,1,135.899995852661,2|2,0:0|0:0,0:0:0:0:
396,108,53796,2,0,P|358:160|277:169,1,135.899995852661,8|2,0:0|0:0,0:0:0:0:
148,66,54059,1,8,0:0:0:0:
139,67,54147,6,0,B|100:54|74:12|74:12|39:61|37:133|84:195,1,271.799991705323,6|8,0:0|0:0,0:0:0:0:
137,253,54674,1,0,0:0:0:0:
315,57,54849,6,0,P|340:152|303:193,1,135.899995852661,2|0,0:0|0:0,0:0:0:0:
250,234,55112,2,0,P|228:296|259:355,1,135.899995852661,2|0,0:0|0:0,0:0:0:0:
322,291,55375,1,2,0:0:0:0:
458,197,55550,6,0,L|324:178,1,135.899995852661,2|2,0:0|0:0,0:0:0:0:
125,376,55901,2,0,L|259:356,1,135.899995852661,8|0,0:0|0:0,0:0:0:0:
269,116,56252,2,0,L|134:96,1,135.899995852661,2|2,0:0|0:0,0:0:0:0:
31,248,56603,1,8,0:0:0:0:
240,362,56778,1,2,0:0:0:0:
251,361,56867,1,8,0:0:0:0:
260,356,56954,6,0,P|318:238|269:116,1,271.799991705323,6|8,0:0|0:0,0:0:0:0:
137,167,57480,2,0,P|173:174|204:158,1,67.9499979263306
289,35,57656,6,0,P|369:30|404:88,1,135.899995852661,2|0,0:0|0:0,0:0:0:0:
473,120,57919,2,0,P|428:52|461:-6,1,135.899995852661,2|0,0:0|0:0,0:0:0:0:
512,52,58182,1,2,0:0:0:0:
225,97,58357,5,6,0:0:0:0:
348,287,58533,1,2,0:0:0:0:
145,144,58708,2,0,P|74:163|54:225,1,135.899995852661,8|0,0:0|0:0,0:0:0:0:
141,300,58971,1,0,0:0:0:0:
134,222,59059,6,0,L|121:23,1,135.899995852661,2|0,0:0|0:0,0:0:0:0:
252,31,59322,2,0,L|243:166,1,135.899995852661,2|0,0:0|0:0,0:0:0:0:
125,86,59586,2,0,L|118:-13,1,67.9499979263306,2|0,0:0|0:0,0:0:0:0:
297,233,59761,6,0,L|432:241,1,135.899995852661,6|0,0:0|0:0,0:0:0:0:
143,100,60112,2,0,L|8:108,1,135.899995852661,8|0,0:0|0:0,0:0:0:0:
7,109,60375,1,0,0:0:0:0:
0,120,60463,1,2,0:0:0:0:
149,265,60638,1,2,0:0:0:0:
252,31,60813,1,8,0:0:0:0:
457,94,60989,1,0,0:0:0:0:
444,168,61077,1,0,0:0:0:0:
432,241,61164,5,2,0:0:0:0:
342,2,61340,1,0,0:0:0:0:
176,237,61515,5,8,0:0:0:0:
481,164,61691,1,0,0:0:0:0:
167,36,61866,5,2,0:0:0:0:
435,89,62041,1,2,0:0:0:0:
151,254,62217,6,0,P|278:263|299:248,1,135.899995852661,8|2,0:0|0:0,0:0:0:0:
346,212,62480,1,8,0:0:0:0:
401,142,62568,6,0,P|491:137|444:287,1,271.799991705323,6|8,0:0|0:0,0:0:0:0:
412,336,63094,1,0,0:0:0:0:
196,191,63270,6,0,P|124:176|73:238,1,135.899995852661,2|0,0:0|0:0,0:0:0:0:
114,371,63533,2,0,P|162:316|134:240,1,135.899995852661,2|0,0:0|0:0,0:0:0:0:
20,270,63796,2,0,P|47:293|85:296,1,67.9499979263306,2|0,0:0|0:0,0:0:0:0:
258,127,63971,6,0,B|311:96|311:96|494:142,1,181.199994470215,8|0,0:0|0:0,0:0:0:0:
412,336,64234,2,0,P|352:274|378:191,1,181.199994470215,8|0,0:0|0:0,0:0:0:0:
443,256,64498,1,8,0:0:0:0:
443,256,64849,5,2,0:0:0:0:
269,364,65024,1,8,0:0:0:0:
239,274,65112,1,8,0:0:0:0:
289,200,65200,1,8,0:0:0:0:
378,191,65288,1,8,0:0:0:0:
443,256,65375,6,0,L|433:346,1,90.5999972351075,6|0,0:0|0:0,0:0:0:0:
297,108,65550,2,0,L|306:17,1,90.5999972351075
503,97,65726,2,0,P|508:143|485:183,1,90.5999972351075,8|0,0:0|0:0,0:0:0:0:
279,290,65901,2,0,L|293:155,1,90.5999972351075,0|0,0:0|0:0,0:0:0:0:
416,32,66077,6,0,L|425:122,1,90.5999972351075,2|0,0:0|0:0,0:0:0:0:
212,146,66252,2,0,L|221:55,1,90.5999972351075,2|0,0:0|0:0,0:0:0:0:
478,169,66427,1,8,0:0:0:0:
484,175,66515,1,0,0:0:0:0:
489,181,66603,6,0,B|517:354|517:354|501:305|449:287,1,271.799991705323,2|0,0:0|0:0,0:0:0:0:
319,232,66954,2,0,P|364:236|405:217,1,90.5999972351075,2|0,0:0|0:0,0:0:0:0:
448,52,67129,2,0,P|422:88|417:133,1,90.5999972351075,8|0,0:0|0:0,0:0:0:0:
310,318,67305,6,0,P|237:274|245:188,1,181.199994470215,2|0,0:0|0:0,0:0:0:0:
283,20,67568,1,0,0:0:0:0:
290,28,67656,2,0,P|302:68|284:120,1,90.5999972351075,2|0,0:0|0:0,0:0:0:0:
128,156,67831,2,0,P|156:125|210:115,1,90.5999972351075,8|0,0:0|0:0,0:0:0:0:
319,232,68007,2,0,P|278:222|241:181,1,90.5999972351075,2|0,0:0|0:0,0:0:0:0:
55,106,68182,6,0,P|37:153|52:205,1,90.5999972351075,6|0,0:0|0:0,0:0:0:0:
310,318,68358,2,0,P|328:271|313:219,1,90.5999972351075
100,260,68533,2,0,L|109:350,1,90.5999972351075,8|0,0:0|0:0,0:0:0:0:
328,147,68708,2,0,L|337:56,1,90.5999972351075,0|0,0:0|0:0,0:0:0:0:
390,291,68884,6,0,P|356:317|305:316,1,90.5999972351075,2|0,0:0|0:0,0:0:0:0:
176,203,69059,2,0,P|215:219|240:264,1,90.5999972351075,2|0,0:0|0:0,0:0:0:0:
337,56,69235,2,0,L|327:146,1,90.5999972351075,8|0,0:0|0:0,0:0:0:0:
154,285,69410,6,0,L|124:14,1,271.799991705323,2|0,0:0|0:0,0:0:0:0:
328,147,69761,2,0,L|238:137,1,90.5999972351075,2|0,0:0|0:0,0:0:0:0:
124,14,69936,2,0,L|214:4,1,90.5999972351075,8|0,0:0|0:0,0:0:0:0:
419,117,70112,6,0,B|413:191|413:191|395:209|395:209|389:289,1,181.199994470215,2|0,0:0|0:0,0:0:0:0:
384,378,70375,1,0,0:0:0:0:
395,379,70463,2,0,P|444:364|469:323,1,90.5999972351075,2|0,0:0|0:0,0:0:0:0:
328,147,70638,6,0,L|137:179,1,181.199994470215,8|2,0:0|0:0,0:0:0:0:
161,268,70902,1,2,0:0:0:0:
229,327,70989,6,0,L|336:309,1,90.5999972351075,6|0,0:0|0:0,0:0:0:0:
409,175,71165,2,0,L|516:158,1,90.5999972351075
273,30,71340,2,0,L|166:48,1,90.5999972351075,8|0,0:0|0:0,0:0:0:0:
93,182,71516,2,0,L|-14:199,1,90.5999972351075,0|0,0:0|0:0,0:0:0:0:
318,311,71691,6,0,L|341:210,1,90.5999972351075,2|0,0:0|0:0,0:0:0:0:
183,45,71866,2,0,L|258:115,1,90.5999972351075,2|0,0:0|0:0,0:0:0:0:
497,76,72041,1,8,0:0:0:0:
488,68,72129,1,0,0:0:0:0:
480,61,72217,6,0,L|211:145,1,271.799991705323,2|0,0:0|0:0,0:0:0:0:
237,226,72568,2,0,P|192:229|155:203,1,90.5999972351075,2|0,0:0|0:0,0:0:0:0:
118,37,72743,2,0,P|142:73|139:118,1,90.5999972351075,8|0,0:0|0:0,0:0:0:0:
422,288,72919,6,0,B|357:323|307:279|307:279|331:254|322:210,1,181.199994470215,2|0,0:0|0:0,0:0:0:0:
479,225,73182,1,0,0:0:0:0:
487,232,73270,2,0,P|509:272|503:317,1,90.5999972351075,2|0,0:0|0:0,0:0:0:0:
237,226,73445,2,0,P|215:186|221:141,1,90.5999972351075,8|0,0:0|0:0,0:0:0:0:
452,67,73621,2,0,L|435:202,1,90.5999972351075,2|0,0:0|0:0,0:0:0:0:
205,312,73796,6,0,P|79:310|76:172,1,271.799991705323,6|0,0:0|0:0,0:0:0:0:
220,142,74147,2,0,P|179:149|118:117,1,90.5999972351075,8|0,0:0|0:0,0:0:0:0:
254,53,74322,6,0,B|273:103|273:103|225:263,1,181.199994470215,2|0,0:0|0:0,0:0:0:0:
212,306,74585,1,0,0:0:0:0:
205,312,74673,2,0,P|79:310|76:172,1,271.799991705323,8|0,0:0|0:0,0:0:0:0:
307,361,75024,6,0,P|437:356|407:191,1,339.750012960434,2|0,0:0|0:0,0:0:0:0:
189,217,75375,2,0,P|185:161|234:111,1,113.250004320145,2|0,0:0|0:0,0:0:0:0:
419,70,75550,2,0,P|372:101|304:84,1,113.250004320145,8|0,0:0|0:0,0:0:0:0:
113,250,75726,6,0,P|104:136|204:34,1,226.50000864029,2|0,0:0|0:0,0:0:0:0:
324,83,75989,1,0,0:0:0:0:
319,94,76077,2,0,P|272:125|204:108,1,113.250004320145,2|0,0:0|0:0,0:0:0:0:
33,31,76252,5,8,0:0:0:0:
145,29,76340,1,8,0:0:0:0:
217,117,76428,1,8,0:0:0:0:
193,227,76515,1,8,0:0:0:0:
90,276,76603,6,0,B|156:258|156:258|284:310,1,181.199994470215,6|0,0:0|0:0,0:0:0:0:
314,362,76866,1,0,0:0:0:0:
233,378,76954,2,0,L|143:342,1,90.5999972351075,8|0,0:0|0:0,0:0:0:0:
77,186,77129,2,0,L|90:281,1,90.5999972351075,0|0,0:0|0:0,0:0:0:0:
260,300,77305,2,0,L|272:210,1,90.5999972351075,2|0,0:0|0:0,0:0:0:0:
35,12,77480,6,0,L|64:213,1,181.199994470215,2|8,0:0|0:0,0:0:0:0:
344,132,77743,1,0,0:0:0:0:
383,52,77831,2,0,B|280:37|280:37|213:69|213:69|119:57,1,271.799991705323,2|0,0:0|0:0,0:0:0:0:
292,195,78182,2,0,P|340:217|386:202,1,90.5999972351075,2|0,0:0|0:0,0:0:0:0:
512,164,78358,2,0,P|464:142|418:157,1,90.5999972351075,8|0,0:0|0:0,0:0:0:0:
367,333,78533,6,0,P|363:245|291:194,1,181.199994470215,2|0,0:0|0:0,0:0:0:0:
177,299,78796,1,0,0:0:0:0:
187,304,78884,2,0,L|317:280,1,90.5999972351075,2|0,0:0|0:0,0:0:0:0:
322,108,79059,2,0,L|277:232,1,90.5999972351075,8|0,0:0|0:0,0:0:0:0:
424,322,79235,2,0,L|338:221,1,90.5999972351075,2|0,0:0|0:0,0:0:0:0:
206,220,79410,6,0,L|116:234,1,90.5999972351075,6|0,0:0|0:0,0:0:0:0:
2,136,79586,2,0,L|92:150,1,90.5999972351075
258,153,79761,2,0,P|292:198|289:241,1,90.5999972351075,8|0,0:0|0:0,0:0:0:0:
197,365,79936,2,0,P|218:313|257:293,1,90.5999972351075,0|0,0:0|0:0,0:0:0:0:
411,311,80112,6,0,P|353:318|318:294,1,90.5999972351075,2|0,0:0|0:0,0:0:0:0:
222,80,80287,2,0,P|279:72|314:96,1,90.5999972351075,2|0,0:0|0:0,0:0:0:0:
133,294,80463,2,0,P|75:301|40:277,1,90.5999972351075,8|0,0:0|0:0,0:0:0:0:
361,18,80638,6,0,P|439:119|377:232,1,271.799991705323,2|0,0:0|0:0,0:0:0:0:
208,222,80989,2,0,P|261:213|300:238,1,90.5999972351075,2|0,0:0|0:0,0:0:0:0:
362,379,81165,2,0,P|327:337|329:291,1,90.5999972351075,8|0,0:0|0:0,0:0:0:0:
167,149,81340,6,0,P|276:130|357:182,1,181.199994470215,2|0,0:0|0:0,0:0:0:0:
127,220,81603,1,0,0:0:0:0:
117,216,81691,2,0,P|82:174|84:128,1,90.5999972351075,2|0,0:0|0:0,0:0:0:0:
327,6,81866,5,8,0:0:0:0:
313,95,81953,1,2,0:0:0:0:
300,185,82041,1,2,0:0:0:0:
286,274,82129,1,2,0:0:0:0:
273,364,82217,6,0,L|169:344,1,90.5999972351075,6|0,0:0|0:0,0:0:0:0:
398,177,82393,2,0,L|502:157,1,90.5999972351075
184,346,82568,2,0,L|95:328,1,90.5999972351075,8|0,0:0|0:0,0:0:0:0:
486,159,82743,6,0,L|512:26,1,135.899995852661,2|0,0:0|0:0,0:0:0:0:
486,13,83094,2,0,L|259:57,1,203.849993778992,8|0,0:0|0:0,0:0:0:0:
197,72,83445,6,0,B|246:60|267:9|267:9|320:53|316:140|288:192,1,271.799991705323,2|0,0:0|0:0,0:0:0:0:
405,206,83796,2,0,B|299:148|222:205|260:245|168:292|80:261,1,339.750012960434,8|0,0:0|0:0,0:0:0:0:
30,128,84147,6,0,B|123:188|162:372|-42:389|-78:227|51:203,1,407.699987557984,8|0,0:0|0:0,0:0:0:0:
152,124,84498,1,2,0:0:0:0:
72,383,84673,1,8,0:0:0:0:
292,180,84849,5,2,0:0:0:0:
347,254,84936,1,8,0:0:0:0:
301,335,85024,6,0,P|400:368|394:150,1,407.699987557984,6|0,0:0|0:0,0:0:0:0:
220,276,85375,2,0,P|174:308|100:293,1,135.899995852661,8|0,0:0|0:0,0:0:0:0:
88,110,85550,6,0,B|131:96|177:18|177:18|153:242,1,339.750012960434,2|0,0:0|0:0,0:0:0:0:
316,109,85901,2,0,B|285:91|262:23|262:23|244:199,1,271.799991705323,8|0,0:0|0:0,0:0:0:0:
380,327,86252,6,0,P|272:384|219:275,1,271.799991705323,2|0,0:0|0:0,0:0:0:0:
202,100,86603,2,0,P|244:139|241:199,1,113.250004320145,8|0,0:0|0:0,0:0:0:0:
84,343,86778,5,2,0:0:0:0:
11,295,86867,1,2,0:0:0:0:
6,208,86954,1,2,0:0:0:0:
73,152,87042,1,2,0:0:0:0:
158,173,87130,6,0,P|181:193|228:191,2,60.3999981567383,2|0|0,0:0|0:0|0:0,0:0:0:0:
235,271,87305,2,0,P|264:261|286:219,2,60.3999981567383,2|0|0,0:0|0:0|0:0,0:0:0:0:
359,253,87481,2,0,P|365:223|340:183,2,60.3999981567383,8|0|0,0:0|0:0|0:0,0:0:0:0:
406,136,87656,2,0,P|383:116|336:118,2,60.3999981567383,2|0|0,0:0|0:0|0:0,0:0:0:0:
282,157,87831,5,6,0:0:0:0:
