osu file format v14

[General]
AudioFilename: audio.ogg
AudioLeadIn: 0
PreviewTime: 60611
Countdown: 0
SampleSet: Drum
StackLeniency: 0.7
Mode: 3
LetterboxInBreaks: 0
SpecialStyle: 0
WidescreenStoryboard: 0

[Editor]
DistanceSpacing: 0.8
BeatDivisor: 4
GridSize: 16
TimelineZoom: 1.2

[Metadata]
Title:Red Liberation (TV Size)
TitleUnicode:Red Liberation (TV Size)
Artist:fripSide
ArtistUnicode:fripSide
Creator:Critical_Star
Version:Easy
Source:ひきこまり吸血姫の悶々
Tags:opening op anime vexations of a shut in shut-in vampire princess Hikikomari Kyuuketsuki no Monmon japanese j-rock rock jrock j-pop pop jpop countess
BeatmapID:4364541
BeatmapSetID:2083710

[Difficulty]
HPDrainRate:6.5
CircleSize:4
OverallDifficulty:6.5
ApproachRate:5
SliderMultiplier:1.4
SliderTickRate:1

[Events]
//Background and Video events
Video,0,"komarinop.mp4"
0,0,"kmr.jpg",0,0
//Break Periods
//Storyboard Layer 0 (Background)
//Storyboard Layer 1 (Fail)
//Storyboard Layer 2 (Pass)
//Storyboard Layer 3 (Foreground)
//Storyboard Layer 4 (Overlay)
//Storyboard Sound Samples

[TimingPoints]
4499,338.028169014084,4,3,1,40,1,0
60611,-100.0,4,3,1,40,0,1
82752,-100.0,4,3,1,40,0,0

[HitObjects]
64,192,4498,128,6,7203:0:0:0:0:
448,192,7203,128,6,8386:0:0:0:0:
64,192,8386,1,2,0:0:0:0:
192,192,9231,128,2,9907:0:0:0:0:
320,192,9907,1,6,0:0:0:0:
64,192,10245,1,8,0:0:0:0:
320,192,10583,1,2,0:0:0:0:
64,192,10921,1,8,0:0:0:0:
448,192,11259,1,2,0:0:0:0:
192,192,11597,1,8,0:0:0:0:
448,192,11935,1,2,0:0:0:0:
192,192,12273,1,8,0:0:0:0:
320,192,12611,1,2,0:0:0:0:
448,192,12949,1,8,0:0:0:0:
320,192,13287,1,2,0:0:0:0:
448,192,13625,1,8,0:0:0:0:
192,192,13963,1,2,0:0:0:0:
64,192,14301,1,8,0:0:0:0:
192,192,14639,1,2,0:0:0:0:
64,192,14977,1,8,0:0:0:0:
448,192,15315,1,6,0:0:0:0:
192,192,15653,1,8,0:0:0:0:
448,192,15991,1,2,0:0:0:0:
192,192,16329,1,8,0:0:0:0:
448,192,16668,1,2,0:0:0:0:
320,192,17006,1,8,0:0:0:0:
192,192,17344,1,2,0:0:0:0:
64,192,17682,1,8,0:0:0:0:
448,192,18020,1,12,0:0:0:0:
448,192,18358,1,8,0:0:0:0:
64,192,18696,1,8,0:0:0:0:
64,192,19034,1,8,0:0:0:0:
320,192,19372,1,8,0:0:0:0:
320,192,19710,1,8,0:0:0:0:
192,192,20048,1,8,0:0:0:0:
192,192,20386,1,12,0:0:0:0:
448,192,20724,128,6,21231:0:0:0:0:
64,192,21231,1,6,0:0:0:0:
192,192,21569,1,2,0:0:0:0:
320,192,21907,1,6,0:0:0:0:
64,192,22245,128,2,22752:0:0:0:0:
448,192,22752,1,8,0:0:0:0:
448,192,23090,1,8,0:0:0:0:
192,192,23428,128,6,23935:0:0:0:0:
64,192,23935,1,6,0:0:0:0:
448,192,24273,1,2,0:0:0:0:
192,192,24611,1,6,0:0:0:0:
320,192,24949,128,2,25456:0:0:0:0:
64,192,25456,1,8,0:0:0:0:
64,192,25794,1,8,0:0:0:0:
448,192,26132,1,6,0:0:0:0:
448,192,26470,1,2,0:0:0:0:
448,192,26808,1,2,0:0:0:0:
448,192,27146,1,2,0:0:0:0:
320,192,27484,1,2,0:0:0:0:
320,192,27822,1,2,0:0:0:0:
320,192,28160,1,2,0:0:0:0:
320,192,28498,1,2,0:0:0:0:
64,192,28837,1,2,0:0:0:0:
192,192,29175,1,2,0:0:0:0:
320,192,29513,1,2,0:0:0:0:
448,192,29851,1,2,0:0:0:0:
192,192,30189,1,2,0:0:0:0:
64,192,30527,1,2,0:0:0:0:
448,192,30865,1,2,0:0:0:0:
320,192,31203,1,2,0:0:0:0:
64,192,31541,1,2,0:0:0:0:
64,192,31879,1,2,0:0:0:0:
64,192,32217,1,2,0:0:0:0:
448,192,32555,128,2,32893:0:0:0:0:
192,192,32893,1,2,0:0:0:0:
192,192,33231,1,2,0:0:0:0:
192,192,33569,1,2,0:0:0:0:
64,192,33907,128,2,34245:0:0:0:0:
320,192,34245,1,2,0:0:0:0:
320,192,34583,1,2,0:0:0:0:
320,192,34921,1,2,0:0:0:0:
192,192,35259,128,2,35597:0:0:0:0:
64,192,35597,128,2,35935:0:0:0:0:
448,192,35935,128,2,36273:0:0:0:0:
320,192,36273,128,8,36611:0:0:0:0:
192,192,36611,128,8,36949:0:0:0:0:
448,192,36949,1,6,0:0:0:0:
320,192,37287,128,8,37625:0:0:0:0:
64,192,37625,1,2,0:0:0:0:
192,192,37963,128,8,38301:0:0:0:0:
448,192,38301,1,2,0:0:0:0:
64,192,38639,128,8,38977:0:0:0:0:
320,192,38977,1,2,0:0:0:0:
192,192,39315,1,8,0:0:0:0:
64,192,39653,128,2,39991:0:0:0:0:
320,192,39991,1,8,0:0:0:0:
192,192,40329,128,2,40668:0:0:0:0:
448,192,40668,1,8,0:0:0:0:
64,192,41006,1,2,0:0:0:0:
320,192,41344,128,8,41682:0:0:0:0:
192,192,41682,1,2,0:0:0:0:
448,192,42020,128,8,42358:0:0:0:0:
64,192,42358,128,6,43372:0:0:0:0:
320,192,42696,1,8,0:0:0:0:
320,192,43372,1,8,0:0:0:0:
448,192,43710,128,6,44724:0:0:0:0:
192,192,44048,1,8,0:0:0:0:
192,192,44724,1,8,0:0:0:0:
320,192,45062,128,6,46076:0:0:0:0:
64,192,45400,1,8,0:0:0:0:
64,192,46076,1,8,0:0:0:0:
192,192,46414,128,6,47428:0:0:0:0:
448,192,46752,1,8,0:0:0:0:
448,192,47428,1,8,0:0:0:0:
64,192,47766,128,6,48780:0:0:0:0:
448,192,48780,1,8,0:0:0:0:
320,192,49118,128,2,50132:0:0:0:0:
64,192,50132,1,8,0:0:0:0:
448,192,50470,128,2,51484:0:0:0:0:
192,192,51484,1,8,0:0:0:0:
448,192,51822,1,2,0:0:0:0:
320,192,52160,1,2,0:0:0:0:
192,192,52498,1,2,0:0:0:0:
64,192,52837,1,8,0:0:0:0:
448,192,53175,128,6,53851:0:0:0:0:
192,192,53851,128,10,54527:0:0:0:0:
320,192,54527,128,10,55203:0:0:0:0:
64,192,55203,128,10,55879:0:0:0:0:
448,192,55879,128,2,56217:0:0:0:0:
320,192,56217,128,2,56555:0:0:0:0:
192,192,56555,128,2,56893:0:0:0:0:
64,192,56893,128,2,57231:0:0:0:0:
320,192,57231,1,2,0:0:0:0:
448,192,57231,1,8,0:0:0:0:
64,192,57569,1,8,0:0:0:0:
192,192,57569,1,2,0:0:0:0:
320,192,57907,1,2,0:0:0:0:
448,192,57907,1,8,0:0:0:0:
64,192,58245,1,8,0:0:0:0:
192,192,58245,1,2,0:0:0:0:
192,192,58583,1,2,0:0:0:0:
320,192,58583,1,0,0:0:0:0:
448,192,59090,128,0,60611:0:0:0:0:
320,192,61118,128,6,61625:0:0:0:0:
64,192,61625,1,8,0:0:0:0:
192,192,61963,1,2,0:0:0:0:
448,192,62301,1,8,0:0:0:0:
64,192,62470,128,0,62977:0:0:0:0:
320,192,62977,1,8,0:0:0:0:
192,192,63315,1,2,0:0:0:0:
64,192,63653,1,8,0:0:0:0:
448,192,63822,128,0,64329:0:0:0:0:
192,192,64329,1,8,0:0:0:0:
320,192,64668,1,2,0:0:0:0:
64,192,65006,1,8,0:0:0:0:
192,192,65175,128,0,65682:0:0:0:0:
448,192,65682,1,8,0:0:0:0:
64,192,66020,1,2,0:0:0:0:
192,192,66358,1,8,0:0:0:0:
320,192,66527,128,8,67034:0:0:0:0:
448,192,67034,1,8,0:0:0:0:
320,192,67372,1,2,0:0:0:0:
64,192,67710,1,8,0:0:0:0:
448,192,67879,128,0,68386:0:0:0:0:
192,192,68386,1,8,0:0:0:0:
320,192,68724,1,2,0:0:0:0:
448,192,69062,1,8,0:0:0:0:
64,192,69231,128,0,69738:0:0:0:0:
320,192,69738,1,8,0:0:0:0:
192,192,70076,1,2,0:0:0:0:
448,192,70414,1,8,0:0:0:0:
320,192,70583,128,8,71090:0:0:0:0:
64,192,71090,1,8,0:0:0:0:
448,192,71428,1,2,0:0:0:0:
320,192,71766,1,8,0:0:0:0:
192,192,71935,128,6,72442:0:0:0:0:
448,192,72442,1,8,0:0:0:0:
64,192,72780,1,2,0:0:0:0:
192,192,73118,1,8,0:0:0:0:
448,192,73287,128,0,73794:0:0:0:0:
320,192,73794,1,8,0:0:0:0:
64,192,74132,1,2,0:0:0:0:
448,192,74470,1,8,0:0:0:0:
320,192,74639,128,0,75146:0:0:0:0:
192,192,75146,1,8,0:0:0:0:
320,192,75484,1,2,0:0:0:0:
448,192,75822,1,8,0:0:0:0:
64,192,75991,128,0,76498:0:0:0:0:
320,192,76498,1,8,0:0:0:0:
64,192,76837,1,2,0:0:0:0:
448,192,77175,1,8,0:0:0:0:
192,192,77344,128,8,77851:0:0:0:0:
64,192,77851,1,8,0:0:0:0:
448,192,78189,1,2,0:0:0:0:
320,192,78527,1,8,0:0:0:0:
64,192,78696,128,0,79203:0:0:0:0:
192,192,79203,1,8,0:0:0:0:
448,192,79541,1,2,0:0:0:0:
64,192,79879,1,8,0:0:0:0:
320,192,80048,128,0,80555:0:0:0:0:
192,192,80555,1,8,0:0:0:0:
320,192,80893,1,2,0:0:0:0:
64,192,81231,1,8,0:0:0:0:
448,192,81400,128,6,81907:0:0:0:0:
320,192,81907,1,2,0:0:0:0:
192,192,82245,1,10,0:0:0:0:
64,192,82583,1,10,0:0:0:0:
320,192,82752,1,10,0:0:0:0:
448,192,82752,1,4,0:0:0:0:
64,192,85625,1,6,0:0:0:0:
64,192,85963,1,8,0:0:0:0:
320,192,86132,1,0,0:0:0:0:
192,192,86470,1,0,0:0:0:0:
64,192,86808,1,0,0:0:0:0:
448,192,87315,1,8,0:0:0:0:
320,192,87653,1,2,0:0:0:0:
64,192,87991,1,8,0:0:0:0:
192,192,88329,1,2,0:0:0:0:
192,192,88668,1,8,0:0:0:0:
448,192,88837,1,2,0:0:0:0:
320,192,89175,1,2,0:0:0:0:
192,192,89513,1,2,0:0:0:0:
64,192,89851,1,2,0:0:0:0:
320,192,90020,1,8,0:0:0:0:
448,192,90358,1,8,0:0:0:0:
192,192,90527,1,2,0:0:0:0:
448,192,90696,1,8,0:0:0:0:
64,192,90865,1,8,0:0:0:0:
