osu file format v14

[General]
AudioFilename: audio.mp3
AudioLeadIn: 0
PreviewTime: 242297
Countdown: 0
SampleSet: Normal
StackLeniency: 0.7
Mode: 1
LetterboxInBreaks: 0
WidescreenStoryboard: 0

[Editor]
Bookmarks: 705,7371,20705,34038,47371,60705,77371,90704,110704,124037,137370,150704,167370,180703,199036,212370,229036,242369,262369,275702,297369
DistanceSpacing: 0.9
BeatDivisor: 4
GridSize: 32
TimelineZoom: 2.399999

[Metadata]
Title:white forces
TitleUnicode:white forces
Artist:fripSide
ArtistUnicode:fripSide
Creator:Roger
Version:despair energy
Source:シュヴァルツェスマーケン
Tags:taiko anime japanese pop jpop j-pop opening op Schwarzesmarken 南條愛乃 Nanjou Yoshino 八木沼悟志 Yaginuma Satoshi ][ -GH- ][ Blackener
BeatmapID:2225417
BeatmapSetID:1062702

[Difficulty]
HPDrainRate:4.5
CircleSize:2
OverallDifficulty:6.5
ApproachRate:0
SliderMultiplier:1.4
SliderTickRate:1

[Events]
//Background and Video events
0,0,"schwar.jpg",0,90
//Break Periods
//Storyboard Layer 0 (Background)
//Storyboard Layer 1 (Fail)
//Storyboard Layer 2 (Pass)
//Storyboard Layer 3 (Foreground)
//Storyboard Layer 4 (Overlay)
//Storyboard Sound Samples

[TimingPoints]
703,416.666666666667,4,1,0,70,1,0
703,-125,4,1,0,70,0,0
6536,-125,4,1,0,80,0,0
6953,-100,4,1,0,80,0,0
7369,-83.3333333333333,4,1,0,90,0,1
17369,-83.3333333333333,4,1,0,80,0,1
17682,-86.9565217391304,4,1,0,80,0,1
17994,-90.9090909090909,4,1,0,80,0,1
18307,-95.2380952380952,4,1,0,80,0,1
18619,-100,4,1,0,80,0,1
19036,-100,4,1,0,60,0,0
19140,-111.111111111111,4,1,0,40,0,0
20598,-111.111111111111,4,1,0,80,0,0
20703,-90.9090909090909,4,1,0,90,0,0
34036,-90.9090909090909,4,1,0,70,0,0
34244,-92.5925925925926,4,1,0,70,0,0
34453,-94.3396226415094,4,1,0,70,0,0
34661,-96.1538461538461,4,1,0,70,0,0
34869,-98.0392156862745,4,1,0,70,0,0
35286,-100,4,1,0,70,0,0
35494,-102.040816326531,4,1,0,70,0,0
35703,-104.166666666667,4,1,0,70,0,0
35911,-106.382978723404,4,1,0,70,0,0
36119,-108.695652173913,4,1,0,70,0,0
36536,-111.111111111111,4,1,0,70,0,0
47369,-100,4,1,0,80,0,0
75703,-100,4,1,0,40,0,0
75807,-100,4,1,0,10,0,0
77264,-100,4,1,0,80,0,0
77369,416.666666666667,4,1,0,90,1,1
77369,-83.3333333333333,4,1,0,90,0,1
107369,-83.3333333333333,4,1,0,80,0,1
107681,-86.9565217391304,4,1,0,80,0,1
107994,-90.9090909090909,4,1,0,80,0,1
108306,-95.2380952380952,4,1,0,80,0,1
108619,-100,4,1,0,80,0,1
109035,-100,4,1,0,60,0,0
109139,-111.111111111111,4,1,0,40,0,0
110597,-111.111111111111,4,1,0,80,0,0
110702,-90.9090909090909,4,1,0,90,0,0
124035,-90.9090909090909,4,1,0,80,0,0
124139,-111.111111111111,4,1,0,70,0,0
137369,-100,4,1,0,80,0,0
165702,-100,4,1,0,60,0,0
166535,-90.9090909090909,4,1,0,80,0,0
167368,416.666666666667,4,1,0,90,1,1
167368,-83.3333333333333,4,1,0,90,0,1
197368,-83.3333333333333,4,1,0,80,0,1
197680,-86.9565217391304,4,1,0,80,0,1
197993,-90.9090909090909,4,1,0,80,0,1
198305,-95.2380952380952,4,1,0,80,0,1
198618,-100,4,1,0,80,0,1
199034,-100,4,1,0,75,0,0
205701,-100,4,1,0,80,0,0
209972,-99.009900990099,4,1,0,80,0,0
210076,-98.0392156862745,4,1,0,80,0,0
210180,-97.0873786407767,4,1,0,80,0,0
210284,-96.1538461538461,4,1,0,80,0,0
210388,-95.2380952380952,4,1,0,80,0,0
210493,-94.3396226415094,4,1,0,80,0,0
210597,-93.4579439252336,4,1,0,80,0,0
210701,-92.5925925925926,4,1,0,80,0,0
210805,-91.743119266055,4,1,0,80,0,0
210909,-90.9090909090909,4,1,0,80,0,0
211013,-90.0900900900901,4,1,0,80,0,0
211118,-89.2857142857143,4,1,0,80,0,0
211222,-88.4955752212389,4,1,0,80,0,0
211326,-87.719298245614,4,1,0,80,0,0
211430,-86.9565217391304,4,1,0,80,0,0
211534,-86.2068965517241,4,1,0,85,0,0
211604,-85.7191839533688,4,1,0,85,0,0
211673,-85.2275148508945,4,1,0,85,0,0
211743,-84.7457627118644,4,1,0,85,0,0
211812,-84.2701363490806,4,1,0,85,0,0
211881,-83.7991167573094,4,1,0,85,0,0
211951,-83.3333333333333,4,1,0,85,0,0
212055,-82.6446280991736,4,1,0,85,0,0
212159,-81.9672131147541,4,1,0,85,0,0
212263,-81.3008130081301,4,1,0,85,0,0
212366,-76.9230769230769,4,1,0,90,0,0
212368,-76.9230769230769,4,1,0,90,0,1
227368,-76.9230769230769,4,1,0,40,0,0
227472,-100,4,1,0,10,0,0
228930,-100,4,1,0,40,0,0
229034,416.666666666667,4,1,0,70,1,0
229034,-125,4,1,0,70,0,0
235700,-111.111111111111,4,1,0,75,0,0
240804,-109.58904109589,4,1,0,75,0,0
240909,-108.108108108108,4,1,0,75,0,0
241013,-106.666666666667,4,1,0,75,0,0
241117,-105.263157894737,4,1,0,75,0,0
241221,-103.896103896104,4,1,0,75,0,0
241325,-102.564102564103,4,1,0,75,0,0
241429,-101.26582278481,4,1,0,75,0,0
241534,-100,4,1,0,80,0,0
241603,-99.009900990099,4,1,0,80,0,0
241672,-98.0392156862745,4,1,0,80,0,0
241742,-97.0873786407767,4,1,0,80,0,0
241811,-96.1538461538461,4,1,0,80,0,0
241881,-95.2380952380952,4,1,0,80,0,0
241950,-94.3396226415094,4,1,0,80,0,0
242054,-93.2400932400932,4,1,0,80,0,0
242159,-92.1658986175115,4,1,0,80,0,0
242263,-91.1161731207289,4,1,0,80,0,0
242367,-83.3333333333333,4,1,0,90,0,1
259034,-83.3333333333333,4,1,0,80,0,1
259346,-86.9565217391304,4,1,0,80,0,1
259659,-90.9090909090909,4,1,0,80,0,1
259971,-95.2380952380952,4,1,0,80,0,1
260284,-100,4,1,0,80,0,1
260700,-100,4,1,0,60,0,0
260804,-111.111111111111,4,1,0,40,0,0
262263,-111.111111111111,4,1,0,80,0,0
262367,-90.9090909090909,4,1,0,90,0,0
275700,-83.3333333333333,4,1,0,90,0,1
290284,-83.3333333333333,4,1,0,80,0,0
290387,-50,4,1,0,30,0,0
292367,-50,4,1,0,30,0,0
294033,-50,4,1,0,30,0,0
295700,-50,4,1,0,30,0,0
297158,-50,4,1,0,20,0,0
297262,-50,4,1,0,10,0,0
297367,-50,4,1,0,5,0,0

[HitObjects]
128,352,703,5,0,0:0:0:0:
128,352,911,1,0,0:0:0:0:
128,352,1119,1,8,0:0:0:0:
128,352,1328,1,8,0:0:0:0:
128,352,1536,1,0,0:0:0:0:
128,352,2161,1,0,0:0:0:0:
128,352,2369,1,0,0:0:0:0:
128,352,2578,1,8,0:0:0:0:
128,352,2786,1,8,0:0:0:0:
128,352,2994,1,0,0:0:0:0:
128,352,3203,1,8,0:0:0:0:
128,352,3619,1,8,0:0:0:0:
128,352,4036,1,0,0:0:0:0:
128,352,4244,1,0,0:0:0:0:
128,352,4453,1,8,0:0:0:0:
128,352,4661,1,0,0:0:0:0:
128,352,4869,1,8,0:0:0:0:
128,352,5286,1,8,0:0:0:0:
128,352,5494,1,0,0:0:0:0:
128,352,5703,1,0,0:0:0:0:
128,352,5911,1,8,0:0:0:0:
128,352,6119,1,8,0:0:0:0:
128,352,6328,1,0,0:0:0:0:
128,352,6536,1,12,0:0:0:0:
128,352,6953,1,12,0:0:0:0:
128,352,7369,1,4,0:0:0:0:
128,352,7578,1,0,0:0:0:0:
128,352,7682,1,0,0:0:0:0:
128,352,7786,1,8,0:0:0:0:
128,352,7994,1,0,0:0:0:0:
128,352,8203,1,8,0:0:0:0:
128,352,8307,1,0,0:0:0:0:
128,352,8515,1,0,0:0:0:0:
128,352,8619,1,8,0:0:0:0:
128,352,8828,1,0,0:0:0:0:
128,352,8932,1,0,0:0:0:0:
128,352,9036,1,8,0:0:0:0:
128,352,9244,1,8,0:0:0:0:
128,352,9348,1,0,0:0:0:0:
128,352,9453,1,8,0:0:0:0:
128,352,9661,1,0,0:0:0:0:
128,352,9869,1,8,0:0:0:0:
128,352,9973,1,8,0:0:0:0:
128,352,10182,1,0,0:0:0:0:
128,352,10286,1,8,0:0:0:0:
128,352,10494,1,0,0:0:0:0:
128,352,10703,1,12,0:0:0:0:
128,352,11015,1,0,0:0:0:0:
128,352,11119,1,8,0:0:0:0:
128,352,11328,1,8,0:0:0:0:
128,352,11432,1,8,0:0:0:0:
128,352,11536,1,0,0:0:0:0:
128,352,11640,1,0,0:0:0:0:
128,352,11848,1,0,0:0:0:0:
128,352,11953,1,8,0:0:0:0:
128,352,12161,1,0,0:0:0:0:
128,352,12369,1,8,0:0:0:0:
128,352,12473,1,8,0:0:0:0:
128,352,12578,1,0,0:0:0:0:
128,352,12682,1,0,0:0:0:0:
128,352,12786,1,8,0:0:0:0:
128,352,12994,1,0,0:0:0:0:
128,352,13203,1,0,0:0:0:0:
128,352,13307,1,8,0:0:0:0:
128,352,13515,1,0,0:0:0:0:
128,352,13619,1,8,0:0:0:0:
128,352,13723,1,8,0:0:0:0:
128,352,13828,1,0,0:0:0:0:
128,352,14036,1,4,0:0:0:0:
128,352,14244,1,8,0:0:0:0:
128,352,14348,1,0,0:0:0:0:
128,352,14453,1,8,0:0:0:0:
128,352,14557,1,8,0:0:0:0:
128,352,14661,1,0,0:0:0:0:
128,352,14869,1,8,0:0:0:0:
128,352,14973,1,0,0:0:0:0:
128,352,15078,1,0,0:0:0:0:
128,352,15182,1,8,0:0:0:0:
128,352,15286,1,0,0:0:0:0:
128,352,15390,1,0,0:0:0:0:
128,352,15494,1,8,0:0:0:0:
128,352,15703,1,0,0:0:0:0:
128,352,15807,1,8,0:0:0:0:
128,352,15911,1,8,0:0:0:0:
128,352,16015,1,0,0:0:0:0:
128,352,16119,1,8,0:0:0:0:
128,352,16223,1,8,0:0:0:0:
128,352,16328,1,0,0:0:0:0:
128,352,16432,1,0,0:0:0:0:
128,352,16536,1,8,0:0:0:0:
128,352,16605,1,0,0:0:0:0:
128,352,16675,1,0,0:0:0:0:
128,352,16744,1,8,0:0:0:0:
128,352,16814,1,0,0:0:0:0:
128,352,16883,1,0,0:0:0:0:
128,352,16953,1,8,0:0:0:0:
128,352,17057,1,0,0:0:0:0:
128,352,17161,1,8,0:0:0:0:
128,352,17265,1,8,0:0:0:0:
128,352,17369,1,0,0:0:0:0:
128,352,17682,1,0,0:0:0:0:
128,352,17994,1,0,0:0:0:0:
128,352,18307,1,0,0:0:0:0:
128,352,18619,1,8,0:0:0:0:
128,352,18828,1,8,0:0:0:0:
128,352,19036,1,0,0:0:0:0:
128,352,19453,1,8,0:0:0:0:
128,352,19661,1,0,0:0:0:0:
128,352,19869,1,8,0:0:0:0:
128,352,19973,1,0,0:0:0:0:
128,352,20182,1,0,0:0:0:0:
128,352,20286,1,8,0:0:0:0:
128,352,20390,1,8,0:0:0:0:
128,352,20494,1,0,0:0:0:0:
128,352,20703,1,12,0:0:0:0:
128,352,20911,1,0,0:0:0:0:
128,352,21015,1,0,0:0:0:0:
128,352,21119,1,8,0:0:0:0:
128,352,21328,1,8,0:0:0:0:
128,352,21536,1,0,0:0:0:0:
128,352,21848,1,8,0:0:0:0:
128,352,21953,1,0,0:0:0:0:
128,352,22161,1,8,0:0:0:0:
128,352,22265,1,8,0:0:0:0:
128,352,22369,1,0,0:0:0:0:
128,352,22578,1,0,0:0:0:0:
128,352,22682,1,0,0:0:0:0:
128,352,22786,1,8,0:0:0:0:
128,352,22994,1,8,0:0:0:0:
128,352,23203,1,0,0:0:0:0:
128,352,23515,1,0,0:0:0:0:
128,352,23619,1,8,0:0:0:0:
128,352,23828,1,0,0:0:0:0:
128,352,24036,1,12,0:0:0:0:
128,352,24244,1,0,0:0:0:0:
128,352,24348,1,0,0:0:0:0:
128,352,24453,1,8,0:0:0:0:
128,352,24557,1,8,0:0:0:0:
128,352,24661,1,0,0:0:0:0:
128,352,24869,1,8,0:0:0:0:
128,352,24973,1,0,0:0:0:0:
128,352,25182,1,0,0:0:0:0:
128,352,25286,1,8,0:0:0:0:
128,352,25494,1,8,0:0:0:0:
128,352,25911,1,8,0:0:0:0:
128,352,26015,1,8,0:0:0:0:
128,352,26119,1,0,0:0:0:0:
128,352,26328,1,8,0:0:0:0:
128,352,26536,1,0,0:0:0:0:
128,352,26640,1,0,0:0:0:0:
128,352,26848,1,0,0:0:0:0:
128,352,26953,1,8,0:0:0:0:
128,352,27161,1,8,0:0:0:0:
128,352,27369,1,4,0:0:0:0:
128,352,27578,1,0,0:0:0:0:
128,352,27682,1,0,0:0:0:0:
128,352,27786,1,8,0:0:0:0:
128,352,27994,1,0,0:0:0:0:
128,352,28203,1,8,0:0:0:0:
128,352,28307,1,0,0:0:0:0:
128,352,28515,1,0,0:0:0:0:
128,352,28619,1,8,0:0:0:0:
128,352,28828,1,8,0:0:0:0:
128,352,29036,1,4,0:0:0:0:
128,352,29244,1,0,0:0:0:0:
128,352,29348,1,0,0:0:0:0:
128,352,29453,1,8,0:0:0:0:
128,352,29661,1,0,0:0:0:0:
128,352,29869,1,8,0:0:0:0:
128,352,29973,1,8,0:0:0:0:
128,352,30182,1,0,0:0:0:0:
128,352,30286,1,8,0:0:0:0:
128,352,30494,1,0,0:0:0:0:
128,352,30703,1,12,0:0:0:0:
128,352,30911,1,0,0:0:0:0:
128,352,31015,1,8,0:0:0:0:
128,352,31119,1,8,0:0:0:0:
128,352,31223,1,8,0:0:0:0:
128,352,31328,1,0,0:0:0:0:
128,352,31536,1,8,0:0:0:0:
128,352,31640,1,0,0:0:0:0:
128,352,31744,1,0,0:0:0:0:
128,352,31848,1,8,0:0:0:0:
128,352,31953,1,0,0:0:0:0:
128,352,32057,1,0,0:0:0:0:
128,352,32161,1,8,0:0:0:0:
128,352,32369,1,0,0:0:0:0:
128,352,32473,1,8,0:0:0:0:
128,352,32578,1,8,0:0:0:0:
128,352,32682,1,0,0:0:0:0:
128,352,32786,1,8,0:0:0:0:
128,352,32890,1,8,0:0:0:0:
128,352,32994,1,0,0:0:0:0:
128,352,33098,1,0,0:0:0:0:
128,352,33203,1,8,0:0:0:0:
128,352,33272,1,0,0:0:0:0:
128,352,33341,1,0,0:0:0:0:
128,352,33411,1,8,0:0:0:0:
128,352,33480,1,0,0:0:0:0:
128,352,33550,1,0,0:0:0:0:
128,352,33619,1,8,0:0:0:0:
128,352,33723,1,0,0:0:0:0:
128,352,33828,1,8,0:0:0:0:
128,352,33932,1,8,0:0:0:0:
128,352,34036,1,0,0:0:0:0:
128,352,34244,1,0,0:0:0:0:
128,352,34453,1,8,0:0:0:0:
128,352,34661,1,0,0:0:0:0:
128,352,34869,1,8,0:0:0:0:
128,352,35286,1,8,0:0:0:0:
128,352,35494,1,0,0:0:0:0:
128,352,35703,1,8,0:0:0:0:
128,352,35911,1,8,0:0:0:0:
128,352,36119,1,0,0:0:0:0:
128,352,36536,1,8,0:0:0:0:
128,352,36744,1,8,0:0:0:0:
128,352,36953,1,0,0:0:0:0:
128,352,37161,1,0,0:0:0:0:
128,352,37369,1,8,0:0:0:0:
128,352,37578,1,0,0:0:0:0:
128,352,37786,1,0,0:0:0:0:
128,352,37994,1,8,0:0:0:0:
128,352,38203,1,8,0:0:0:0:
128,352,38619,1,0,0:0:0:0:
128,352,38828,1,0,0:0:0:0:
128,352,39036,1,8,0:0:0:0:
128,352,39244,1,0,0:0:0:0:
128,352,39453,1,8,0:0:0:0:
128,352,39661,1,8,0:0:0:0:
128,352,39869,1,0,0:0:0:0:
128,352,40286,1,0,0:0:0:0:
128,352,40494,1,8,0:0:0:0:
128,352,40598,1,8,0:0:0:0:
128,352,40703,1,0,0:0:0:0:
128,352,40911,1,0,0:0:0:0:
128,352,41119,1,8,0:0:0:0:
128,352,41328,1,0,0:0:0:0:
128,352,41536,1,8,0:0:0:0:
128,352,41848,1,0,0:0:0:0:
128,352,41953,1,8,0:0:0:0:
128,352,42161,1,8,0:0:0:0:
128,352,42369,1,0,0:0:0:0:
128,352,42682,1,8,0:0:0:0:
128,352,42786,1,0,0:0:0:0:
128,352,42994,1,0,0:0:0:0:
128,352,43203,1,8,0:0:0:0:
128,352,43619,1,8,0:0:0:0:
128,352,43828,1,0,0:0:0:0:
128,352,44036,1,8,0:0:0:0:
128,352,44348,1,8,0:0:0:0:
128,352,44453,1,0,0:0:0:0:
128,352,44661,1,8,0:0:0:0:
128,352,45078,1,0,0:0:0:0:
128,352,45286,1,8,0:0:0:0:
128,352,45494,1,8,0:0:0:0:
128,352,45703,1,0,0:0:0:0:
128,352,46015,1,8,0:0:0:0:
128,352,46119,1,0,0:0:0:0:
128,352,46328,1,8,0:0:0:0:
128,352,46536,1,0,0:0:0:0:
128,352,46744,1,0,0:0:0:0:
128,352,46848,1,0,0:0:0:0:
128,352,46953,1,8,0:0:0:0:
128,352,47057,1,8,0:0:0:0:
128,352,47161,1,0,0:0:0:0:
128,352,47369,1,12,0:0:0:0:
128,352,47578,1,0,0:0:0:0:
128,352,47682,1,0,0:0:0:0:
128,352,47786,1,8,0:0:0:0:
128,352,47994,1,8,0:0:0:0:
128,352,48203,1,0,0:0:0:0:
128,352,48515,1,0,0:0:0:0:
128,352,48619,1,8,0:0:0:0:
128,352,48828,1,0,0:0:0:0:
128,352,49036,1,8,0:0:0:0:
128,352,49140,1,8,0:0:0:0:
128,352,49244,1,0,0:0:0:0:
128,352,49348,1,0,0:0:0:0:
128,352,49453,1,8,0:0:0:0:
128,352,49869,1,0,0:0:0:0:
128,352,50078,1,8,0:0:0:0:
128,352,50182,1,0,0:0:0:0:
128,352,50286,1,8,0:0:0:0:
128,352,50494,1,0,0:0:0:0:
128,352,50703,1,8,0:0:0:0:
128,352,50911,1,0,0:0:0:0:
128,352,51015,1,0,0:0:0:0:
128,352,51119,1,8,0:0:0:0:
128,352,51328,1,8,0:0:0:0:
128,352,51432,1,8,0:0:0:0:
128,352,51536,1,0,0:0:0:0:
128,352,51848,1,8,0:0:0:0:
128,352,51953,1,0,0:0:0:0:
128,352,52161,1,8,0:0:0:0:
128,352,52369,1,0,0:0:0:0:
128,352,52473,1,0,0:0:0:0:
128,352,52578,1,8,0:0:0:0:
128,352,52682,1,0,0:0:0:0:
128,352,52786,1,8,0:0:0:0:
128,352,52994,1,8,0:0:0:0:
128,352,53203,1,0,0:0:0:0:
128,352,53307,1,0,0:0:0:0:
128,352,53515,1,0,0:0:0:0:
128,352,53619,1,8,0:0:0:0:
128,352,53828,1,8,0:0:0:0:
128,352,53932,1,8,0:0:0:0:
128,352,54036,1,8,0:0:0:0:
128,352,54244,1,0,0:0:0:0:
128,352,54453,1,8,0:0:0:0:
128,352,54661,1,8,0:0:0:0:
128,352,54765,1,8,0:0:0:0:
128,352,54869,1,0,0:0:0:0:
128,352,55182,1,8,0:0:0:0:
128,352,55286,1,0,0:0:0:0:
128,352,55494,1,8,0:0:0:0:
128,352,55703,1,0,0:0:0:0:
128,352,55807,1,0,0:0:0:0:
128,352,55911,1,8,0:0:0:0:
128,352,56015,1,8,0:0:0:0:
128,352,56119,1,0,0:0:0:0:
128,352,56328,1,8,0:0:0:0:
128,352,56536,1,0,0:0:0:0:
128,352,56848,1,0,0:0:0:0:
128,352,56953,1,8,0:0:0:0:
128,352,57161,1,8,0:0:0:0:
128,352,57369,1,0,0:0:0:0:
128,352,57473,1,0,0:0:0:0:
128,352,57682,1,0,0:0:0:0:
128,352,57786,1,8,0:0:0:0:
128,352,57994,1,0,0:0:0:0:
128,352,58098,1,0,0:0:0:0:
128,352,58203,1,8,0:0:0:0:
128,352,58307,1,8,0:0:0:0:
128,352,58515,1,8,0:0:0:0:
128,352,58619,1,0,0:0:0:0:
128,352,58828,1,8,0:0:0:0:
128,352,59036,1,0,0:0:0:0:
128,352,59244,1,0,0:0:0:0:
128,352,59348,1,8,0:0:0:0:
128,352,59453,1,8,0:0:0:0:
128,352,59557,1,8,0:0:0:0:
128,352,59661,1,0,0:0:0:0:
128,352,59869,1,8,0:0:0:0:
128,352,59973,1,8,0:0:0:0:
128,352,60078,1,0,0:0:0:0:
128,352,60182,1,0,0:0:0:0:
128,352,60286,1,8,0:0:0:0:
128,352,60494,1,8,0:0:0:0:
128,352,60703,1,4,0:0:0:0:
128,352,60911,1,8,0:0:0:0:
128,352,61119,1,0,0:0:0:0:
128,352,61223,1,0,0:0:0:0:
128,352,61432,1,0,0:0:0:0:
128,352,61536,1,8,0:0:0:0:
128,352,61744,1,0,0:0:0:0:
128,352,61953,1,8,0:0:0:0:
128,352,62057,1,0,0:0:0:0:
128,352,62161,1,8,0:0:0:0:
128,352,62265,1,8,0:0:0:0:
128,352,62369,1,0,0:0:0:0:
128,352,62578,1,8,0:0:0:0:
128,352,62786,1,0,0:0:0:0:
128,352,62890,1,8,0:0:0:0:
128,352,63098,1,8,0:0:0:0:
128,352,63203,1,0,0:0:0:0:
128,352,63411,1,0,0:0:0:0:
128,352,63515,1,0,0:0:0:0:
128,352,63619,1,8,0:0:0:0:
128,352,63723,1,0,0:0:0:0:
128,352,63828,1,8,0:0:0:0:
128,352,64036,1,0,0:0:0:0:
128,352,64244,1,8,0:0:0:0:
128,352,64453,1,8,0:0:0:0:
128,352,64557,1,0,0:0:0:0:
128,352,64765,1,0,0:0:0:0:
128,352,64869,1,8,0:0:0:0:
128,352,64973,1,8,0:0:0:0:
128,352,65078,1,0,0:0:0:0:
128,352,65286,1,8,0:0:0:0:
128,352,65494,1,0,0:0:0:0:
128,352,65598,1,0,0:0:0:0:
128,352,65703,1,8,0:0:0:0:
128,352,65911,1,0,0:0:0:0:
128,352,66119,1,8,0:0:0:0:
128,352,66223,1,8,0:0:0:0:
128,352,66328,1,0,0:0:0:0:
128,352,66536,1,8,0:0:0:0:
128,352,66640,1,8,0:0:0:0:
128,352,66744,1,0,0:0:0:0:
128,352,66848,1,0,0:0:0:0:
128,352,66953,1,8,0:0:0:0:
128,352,67161,1,0,0:0:0:0:
128,352,67369,1,12,0:0:0:0:
128,352,67578,1,0,0:0:0:0:
128,352,67682,1,0,0:0:0:0:
128,352,67890,1,8,0:0:0:0:
128,352,67994,1,0,0:0:0:0:
128,352,68203,1,8,0:0:0:0:
128,352,68307,1,8,0:0:0:0:
128,352,68411,1,0,0:0:0:0:
128,352,68515,1,0,0:0:0:0:
128,352,68619,1,8,0:0:0:0:
128,352,68828,1,8,0:0:0:0:
128,352,69036,1,0,0:0:0:0:
128,352,69244,1,8,0:0:0:0:
128,352,69348,1,0,0:0:0:0:
128,352,69557,1,8,0:0:0:0:
128,352,69661,1,0,0:0:0:0:
128,352,69765,1,0,0:0:0:0:
128,352,69869,1,8,0:0:0:0:
128,352,70078,1,8,0:0:0:0:
128,352,70182,1,8,0:0:0:0:
128,352,70286,1,0,0:0:0:0:
128,352,70494,1,0,0:0:0:0:
128,352,70703,1,12,0:0:0:0:
128,352,71015,1,8,0:0:0:0:
128,352,71119,1,0,0:0:0:0:
128,352,71328,1,0,0:0:0:0:
128,352,71432,1,0,0:0:0:0:
128,352,71536,1,8,0:0:0:0:
128,352,71640,1,0,0:0:0:0:
128,352,71848,1,0,0:0:0:0:
128,352,71953,1,8,0:0:0:0:
128,352,72161,1,0,0:0:0:0:
128,352,72265,1,0,0:0:0:0:
128,352,72369,1,8,0:0:0:0:
128,352,72578,1,8,0:0:0:0:
128,352,72682,1,8,0:0:0:0:
128,352,72786,1,0,0:0:0:0:
128,352,72890,1,0,0:0:0:0:
128,352,72994,1,8,0:0:0:0:
128,352,73098,1,0,0:0:0:0:
128,352,73203,1,8,0:0:0:0:
128,352,73411,1,0,0:0:0:0:
128,352,73515,1,0,0:0:0:0:
128,352,73619,1,8,0:0:0:0:
128,352,73723,1,0,0:0:0:0:
128,352,73828,1,8,0:0:0:0:
128,352,73932,1,8,0:0:0:0:
128,352,74036,1,0,0:0:0:0:
128,352,74348,1,0,0:0:0:0:
128,352,74661,1,0,0:0:0:0:
128,352,74765,1,0,0:0:0:0:
128,352,74869,1,8,0:0:0:0:
128,352,74939,1,0,0:0:0:0:
128,352,75008,1,0,0:0:0:0:
128,352,75078,1,8,0:0:0:0:
128,352,75147,1,0,0:0:0:0:
128,352,75216,1,0,0:0:0:0:
128,352,75286,1,8,0:0:0:0:
128,352,75390,1,0,0:0:0:0:
128,352,75494,1,8,0:0:0:0:
128,352,75598,1,8,0:0:0:0:
128,352,75703,1,0,0:0:0:0:
256,192,75807,8,0,77161,0:0:0:0:
128,352,77369,5,4,0:0:0:0:
128,352,77577,1,8,0:0:0:0:
128,352,77681,1,8,0:0:0:0:
128,352,77785,1,0,0:0:0:0:
128,352,77994,1,8,0:0:0:0:
128,352,78202,1,0,0:0:0:0:
128,352,78306,1,0,0:0:0:0:
128,352,78514,1,0,0:0:0:0:
128,352,78619,1,8,0:0:0:0:
128,352,78827,1,0,0:0:0:0:
128,352,78931,1,8,0:0:0:0:
128,352,79035,1,0,0:0:0:0:
128,352,79244,1,0,0:0:0:0:
128,352,79348,1,0,0:0:0:0:
128,352,79452,1,8,0:0:0:0:
128,352,79660,1,0,0:0:0:0:
128,352,79869,1,8,0:0:0:0:
128,352,79973,1,8,0:0:0:0:
128,352,80181,1,0,0:0:0:0:
128,352,80285,1,8,0:0:0:0:
128,352,80494,1,0,0:0:0:0:
128,352,80702,1,12,0:0:0:0:
128,352,80910,1,0,0:0:0:0:
128,352,81014,1,0,0:0:0:0:
128,352,81119,1,8,0:0:0:0:
128,352,81327,1,0,0:0:0:0:
128,352,81535,1,8,0:0:0:0:
128,352,81639,1,8,0:0:0:0:
128,352,81744,1,0,0:0:0:0:
128,352,81848,1,0,0:0:0:0:
128,352,81952,1,8,0:0:0:0:
128,352,82160,1,8,0:0:0:0:
128,352,82264,1,8,0:0:0:0:
128,352,82369,1,0,0:0:0:0:
128,352,82577,1,8,0:0:0:0:
128,352,82681,1,0,0:0:0:0:
128,352,82785,1,8,0:0:0:0:
128,352,82994,1,0,0:0:0:0:
128,352,83202,1,8,0:0:0:0:
128,352,83306,1,8,0:0:0:0:
128,352,83410,1,0,0:0:0:0:
128,352,83514,1,0,0:0:0:0:
128,352,83619,1,8,0:0:0:0:
128,352,83723,1,0,0:0:0:0:
128,352,83827,1,8,0:0:0:0:
128,352,84035,1,4,0:0:0:0:
128,352,84244,1,0,0:0:0:0:
128,352,84348,1,0,0:0:0:0:
128,352,84452,1,8,0:0:0:0:
128,352,84660,1,8,0:0:0:0:
128,352,84869,1,0,0:0:0:0:
128,352,84973,1,0,0:0:0:0:
128,352,85181,1,0,0:0:0:0:
128,352,85285,1,8,0:0:0:0:
128,352,85494,1,8,0:0:0:0:
128,352,85598,1,8,0:0:0:0:
128,352,85702,1,0,0:0:0:0:
128,352,85910,1,0,0:0:0:0:
128,352,86014,1,0,0:0:0:0:
128,352,86119,1,8,0:0:0:0:
128,352,86327,1,0,0:0:0:0:
128,352,86535,1,0,0:0:0:0:
128,352,86639,1,8,0:0:0:0:
128,352,86848,1,0,0:0:0:0:
128,352,86952,1,8,0:0:0:0:
128,352,87160,1,0,0:0:0:0:
128,352,87369,1,12,0:0:0:0:
128,352,87681,1,0,0:0:0:0:
128,352,87785,1,8,0:0:0:0:
128,352,87994,1,0,0:0:0:0:
128,352,88098,1,0,0:0:0:0:
128,352,88202,1,8,0:0:0:0:
128,352,88306,1,8,0:0:0:0:
128,352,88514,1,0,0:0:0:0:
128,352,88619,1,8,0:0:0:0:
128,352,88827,1,0,0:0:0:0:
128,352,89035,1,8,0:0:0:0:
128,352,89139,1,0,0:0:0:0:
128,352,89244,1,8,0:0:0:0:
128,352,89348,1,8,0:0:0:0:
128,352,89452,1,0,0:0:0:0:
128,352,89660,1,0,0:0:0:0:
128,352,89764,1,0,0:0:0:0:
128,352,89869,1,8,0:0:0:0:
128,352,89938,1,0,0:0:0:0:
128,352,90007,1,0,0:0:0:0:
128,352,90077,1,8,0:0:0:0:
128,352,90146,1,0,0:0:0:0:
128,352,90216,1,0,0:0:0:0:
128,352,90285,1,8,0:0:0:0:
128,352,90389,1,0,0:0:0:0:
128,352,90494,1,0,0:0:0:0:
128,352,90598,1,0,0:0:0:0:
128,352,90702,1,12,0:0:0:0:
128,352,90910,1,0,0:0:0:0:
128,352,91014,1,0,0:0:0:0:
128,352,91119,1,8,0:0:0:0:
128,352,91327,1,8,0:0:0:0:
128,352,91535,1,0,0:0:0:0:
128,352,91639,1,0,0:0:0:0:
128,352,91848,1,0,0:0:0:0:
128,352,91952,1,8,0:0:0:0:
128,352,92160,1,8,0:0:0:0:
128,352,92369,1,0,0:0:0:0:
128,352,92473,1,8,0:0:0:0:
128,352,92577,1,0,0:0:0:0:
128,352,92681,1,0,0:0:0:0:
128,352,92785,1,8,0:0:0:0:
128,352,92994,1,0,0:0:0:0:
128,352,93202,1,0,0:0:0:0:
128,352,93306,1,8,0:0:0:0:
128,352,93514,1,0,0:0:0:0:
128,352,93619,1,8,0:0:0:0:
128,352,93827,1,0,0:0:0:0:
128,352,94035,1,12,0:0:0:0:
128,352,94244,1,0,0:0:0:0:
128,352,94348,1,0,0:0:0:0:
128,352,94452,1,8,0:0:0:0:
128,352,94660,1,8,0:0:0:0:
128,352,94764,1,0,0:0:0:0:
128,352,94869,1,8,0:0:0:0:
128,352,95077,1,0,0:0:0:0:
128,352,95285,1,8,0:0:0:0:
128,352,95389,1,0,0:0:0:0:
128,352,95494,1,8,0:0:0:0:
128,352,95598,1,8,0:0:0:0:
128,352,95702,1,0,0:0:0:0:
128,352,95910,1,0,0:0:0:0:
128,352,96014,1,0,0:0:0:0:
128,352,96119,1,8,0:0:0:0:
128,352,96327,1,0,0:0:0:0:
128,352,96535,1,8,0:0:0:0:
128,352,96639,1,8,0:0:0:0:
128,352,96744,1,0,0:0:0:0:
128,352,96848,1,0,0:0:0:0:
128,352,96952,1,8,0:0:0:0:
128,352,97056,1,0,0:0:0:0:
128,352,97160,1,8,0:0:0:0:
128,352,97369,1,4,0:0:0:0:
128,352,97577,1,8,0:0:0:0:
128,352,97681,1,8,0:0:0:0:
128,352,97785,1,0,0:0:0:0:
128,352,97994,1,8,0:0:0:0:
128,352,98202,1,0,0:0:0:0:
128,352,98306,1,0,0:0:0:0:
128,352,98514,1,0,0:0:0:0:
128,352,98619,1,8,0:0:0:0:
128,352,98827,1,8,0:0:0:0:
128,352,98931,1,8,0:0:0:0:
128,352,99035,1,0,0:0:0:0:
128,352,99244,1,8,0:0:0:0:
128,352,99348,1,0,0:0:0:0:
128,352,99452,1,8,0:0:0:0:
128,352,99660,1,0,0:0:0:0:
128,352,99869,1,0,0:0:0:0:
128,352,99973,1,8,0:0:0:0:
128,352,100181,1,0,0:0:0:0:
128,352,100285,1,8,0:0:0:0:
128,352,100494,1,0,0:0:0:0:
128,352,100702,1,12,0:0:0:0:
128,352,101014,1,0,0:0:0:0:
128,352,101119,1,8,0:0:0:0:
128,352,101327,1,0,0:0:0:0:
128,352,101431,1,0,0:0:0:0:
128,352,101535,1,8,0:0:0:0:
128,352,101639,1,0,0:0:0:0:
128,352,101848,1,0,0:0:0:0:
128,352,101952,1,8,0:0:0:0:
128,352,102160,1,0,0:0:0:0:
128,352,102369,1,8,0:0:0:0:
128,352,102473,1,8,0:0:0:0:
128,352,102577,1,0,0:0:0:0:
128,352,102681,1,0,0:0:0:0:
128,352,102785,1,8,0:0:0:0:
128,352,102994,1,0,0:0:0:0:
128,352,103202,1,0,0:0:0:0:
128,352,103306,1,8,0:0:0:0:
128,352,103514,1,0,0:0:0:0:
128,352,103619,1,8,0:0:0:0:
128,352,103723,1,8,0:0:0:0:
128,352,103827,1,0,0:0:0:0:
128,352,104035,1,4,0:0:0:0:
128,352,104244,1,0,0:0:0:0:
128,352,104348,1,0,0:0:0:0:
128,352,104452,1,8,0:0:0:0:
128,352,104556,1,8,0:0:0:0:
128,352,104660,1,0,0:0:0:0:
128,352,104869,1,8,0:0:0:0:
128,352,104973,1,0,0:0:0:0:
128,352,105077,1,0,0:0:0:0:
128,352,105181,1,8,0:0:0:0:
128,352,105285,1,0,0:0:0:0:
128,352,105389,1,0,0:0:0:0:
128,352,105494,1,8,0:0:0:0:
128,352,105702,1,0,0:0:0:0:
128,352,105806,1,8,0:0:0:0:
128,352,105910,1,8,0:0:0:0:
128,352,106014,1,0,0:0:0:0:
128,352,106119,1,8,0:0:0:0:
128,352,106223,1,8,0:0:0:0:
128,352,106327,1,0,0:0:0:0:
128,352,106431,1,0,0:0:0:0:
128,352,106535,1,8,0:0:0:0:
128,352,106605,1,0,0:0:0:0:
128,352,106674,1,0,0:0:0:0:
128,352,106744,1,8,0:0:0:0:
128,352,106813,1,0,0:0:0:0:
128,352,106882,1,0,0:0:0:0:
128,352,106952,1,8,0:0:0:0:
128,352,107056,1,0,0:0:0:0:
128,352,107160,1,8,0:0:0:0:
128,352,107264,1,8,0:0:0:0:
128,352,107369,1,0,0:0:0:0:
128,352,107681,1,0,0:0:0:0:
128,352,107994,1,0,0:0:0:0:
128,352,108306,1,0,0:0:0:0:
128,352,108619,1,8,0:0:0:0:
128,352,108827,1,8,0:0:0:0:
128,352,109035,1,0,0:0:0:0:
128,352,109452,1,8,0:0:0:0:
128,352,109660,1,0,0:0:0:0:
128,352,109869,1,8,0:0:0:0:
128,352,109973,1,0,0:0:0:0:
128,352,110181,1,0,0:0:0:0:
128,352,110285,1,8,0:0:0:0:
128,352,110389,1,8,0:0:0:0:
128,352,110494,1,0,0:0:0:0:
128,352,110702,1,12,0:0:0:0:
128,352,110910,1,0,0:0:0:0:
128,352,111014,1,0,0:0:0:0:
128,352,111119,1,8,0:0:0:0:
128,352,111327,1,8,0:0:0:0:
128,352,111535,1,0,0:0:0:0:
128,352,111848,1,8,0:0:0:0:
128,352,111952,1,0,0:0:0:0:
128,352,112160,1,8,0:0:0:0:
128,352,112264,1,8,0:0:0:0:
128,352,112369,1,0,0:0:0:0:
128,352,112577,1,0,0:0:0:0:
128,352,112681,1,0,0:0:0:0:
128,352,112785,1,8,0:0:0:0:
128,352,112994,1,8,0:0:0:0:
128,352,113202,1,0,0:0:0:0:
128,352,113514,1,0,0:0:0:0:
128,352,113619,1,8,0:0:0:0:
128,352,113827,1,0,0:0:0:0:
128,352,114035,1,12,0:0:0:0:
128,352,114244,1,0,0:0:0:0:
128,352,114348,1,0,0:0:0:0:
128,352,114452,1,8,0:0:0:0:
128,352,114556,1,8,0:0:0:0:
128,352,114660,1,0,0:0:0:0:
128,352,114869,1,8,0:0:0:0:
128,352,114973,1,0,0:0:0:0:
128,352,115181,1,0,0:0:0:0:
128,352,115285,1,8,0:0:0:0:
128,352,115494,1,8,0:0:0:0:
128,352,115910,1,8,0:0:0:0:
128,352,116014,1,8,0:0:0:0:
128,352,116119,1,0,0:0:0:0:
128,352,116327,1,8,0:0:0:0:
128,352,116535,1,0,0:0:0:0:
128,352,116639,1,0,0:0:0:0:
128,352,116848,1,0,0:0:0:0:
128,352,116952,1,8,0:0:0:0:
128,352,117160,1,8,0:0:0:0:
128,352,117369,1,4,0:0:0:0:
128,352,117577,1,0,0:0:0:0:
128,352,117681,1,0,0:0:0:0:
128,352,117785,1,8,0:0:0:0:
128,352,117994,1,0,0:0:0:0:
128,352,118202,1,8,0:0:0:0:
128,352,118306,1,0,0:0:0:0:
128,352,118514,1,0,0:0:0:0:
128,352,118619,1,8,0:0:0:0:
128,352,118827,1,8,0:0:0:0:
128,352,119035,1,4,0:0:0:0:
128,352,119244,1,0,0:0:0:0:
128,352,119348,1,0,0:0:0:0:
128,352,119452,1,8,0:0:0:0:
128,352,119660,1,0,0:0:0:0:
128,352,119869,1,8,0:0:0:0:
128,352,119973,1,8,0:0:0:0:
128,352,120181,1,0,0:0:0:0:
128,352,120285,1,8,0:0:0:0:
128,352,120494,1,0,0:0:0:0:
128,352,120702,1,12,0:0:0:0:
128,352,120910,1,0,0:0:0:0:
128,352,121014,1,8,0:0:0:0:
128,352,121119,1,8,0:0:0:0:
128,352,121223,1,8,0:0:0:0:
128,352,121327,1,0,0:0:0:0:
128,352,121535,1,8,0:0:0:0:
128,352,121639,1,0,0:0:0:0:
128,352,121744,1,0,0:0:0:0:
128,352,121848,1,8,0:0:0:0:
128,352,121952,1,0,0:0:0:0:
128,352,122056,1,0,0:0:0:0:
128,352,122160,1,8,0:0:0:0:
128,352,122369,1,0,0:0:0:0:
128,352,122473,1,8,0:0:0:0:
128,352,122577,1,8,0:0:0:0:
128,352,122681,1,0,0:0:0:0:
128,352,122785,1,8,0:0:0:0:
128,352,122889,1,8,0:0:0:0:
128,352,122994,1,0,0:0:0:0:
128,352,123098,1,0,0:0:0:0:
128,352,123202,1,8,0:0:0:0:
128,352,123271,1,0,0:0:0:0:
128,352,123341,1,0,0:0:0:0:
128,352,123410,1,8,0:0:0:0:
128,352,123480,1,0,0:0:0:0:
128,352,123549,1,0,0:0:0:0:
128,352,123619,1,8,0:0:0:0:
128,352,123723,1,0,0:0:0:0:
128,352,123827,1,8,0:0:0:0:
128,352,123931,1,8,0:0:0:0:
128,352,124035,1,0,0:0:0:0:
128,352,124869,1,8,0:0:0:0:
128,352,125494,1,0,0:0:0:0:
128,352,125702,1,0,0:0:0:0:
128,352,126535,1,8,0:0:0:0:
128,352,126952,1,8,0:0:0:0:
128,352,127369,1,0,0:0:0:0:
128,352,128202,1,8,0:0:0:0:
128,352,128827,1,0,0:0:0:0:
128,352,129035,1,0,0:0:0:0:
128,352,129660,1,8,0:0:0:0:
128,352,129869,1,8,0:0:0:0:
128,352,130702,1,8,0:0:0:0:
128,352,131119,1,0,0:0:0:0:
128,352,131535,1,8,0:0:0:0:
128,352,131952,1,0,0:0:0:0:
128,352,132160,1,0,0:0:0:0:
128,352,132369,1,8,0:0:0:0:
128,352,132785,1,8,0:0:0:0:
128,352,133202,1,0,0:0:0:0:
128,352,133619,1,8,0:0:0:0:
128,352,133827,1,8,0:0:0:0:
128,352,134035,1,0,0:0:0:0:
128,352,134452,1,8,0:0:0:0:
128,352,134660,1,0,0:0:0:0:
128,352,135077,1,0,0:0:0:0:
128,352,135285,1,8,0:0:0:0:
128,352,135494,1,8,0:0:0:0:
128,352,135702,1,0,0:0:0:0:
128,352,136119,1,8,0:0:0:0:
128,352,136327,1,0,0:0:0:0:
128,352,136535,1,8,0:0:0:0:
128,352,136744,1,0,0:0:0:0:
128,352,136848,1,0,0:0:0:0:
128,352,136952,1,8,0:0:0:0:
128,352,137056,1,8,0:0:0:0:
128,352,137160,1,8,0:0:0:0:
128,352,137369,1,4,0:0:0:0:
128,352,137577,1,8,0:0:0:0:
128,352,137681,1,0,0:0:0:0:
128,352,137785,1,8,0:0:0:0:
128,352,137994,1,0,0:0:0:0:
128,352,138202,1,8,0:0:0:0:
128,352,138514,1,0,0:0:0:0:
128,352,138619,1,8,0:0:0:0:
128,352,138827,1,0,0:0:0:0:
128,352,139035,1,8,0:0:0:0:
128,352,139139,1,0,0:0:0:0:
128,352,139244,1,8,0:0:0:0:
128,352,139348,1,8,0:0:0:0:
128,352,139452,1,0,0:0:0:0:
128,352,139869,1,8,0:0:0:0:
128,352,140077,1,0,0:0:0:0:
128,352,140181,1,0,0:0:0:0:
128,352,140285,1,8,0:0:0:0:
128,352,140494,1,8,0:0:0:0:
128,352,140702,1,0,0:0:0:0:
128,352,140910,1,8,0:0:0:0:
128,352,141014,1,0,0:0:0:0:
128,352,141119,1,8,0:0:0:0:
128,352,141327,1,8,0:0:0:0:
128,352,141431,1,8,0:0:0:0:
128,352,141535,1,0,0:0:0:0:
128,352,141848,1,8,0:0:0:0:
128,352,141952,1,0,0:0:0:0:
128,352,142160,1,8,0:0:0:0:
128,352,142369,1,0,0:0:0:0:
128,352,142473,1,8,0:0:0:0:
128,352,142577,1,0,0:0:0:0:
128,352,142681,1,0,0:0:0:0:
128,352,142785,1,8,0:0:0:0:
128,352,142994,1,0,0:0:0:0:
128,352,143202,1,8,0:0:0:0:
128,352,143306,1,0,0:0:0:0:
128,352,143514,1,0,0:0:0:0:
128,352,143619,1,8,0:0:0:0:
128,352,143827,1,8,0:0:0:0:
128,352,143931,1,8,0:0:0:0:
128,352,144035,1,0,0:0:0:0:
128,352,144244,1,0,0:0:0:0:
128,352,144452,1,8,0:0:0:0:
128,352,144660,1,0,0:0:0:0:
128,352,144764,1,0,0:0:0:0:
128,352,144869,1,8,0:0:0:0:
128,352,145181,1,8,0:0:0:0:
128,352,145285,1,0,0:0:0:0:
128,352,145494,1,0,0:0:0:0:
128,352,145702,1,8,0:0:0:0:
128,352,145806,1,8,0:0:0:0:
128,352,145910,1,0,0:0:0:0:
128,352,146014,1,0,0:0:0:0:
128,352,146119,1,8,0:0:0:0:
128,352,146327,1,0,0:0:0:0:
128,352,146535,1,8,0:0:0:0:
128,352,146848,1,0,0:0:0:0:
128,352,146952,1,8,0:0:0:0:
128,352,147160,1,0,0:0:0:0:
128,352,147369,1,8,0:0:0:0:
128,352,147473,1,0,0:0:0:0:
128,352,147681,1,0,0:0:0:0:
128,352,147785,1,8,0:0:0:0:
128,352,147994,1,8,0:0:0:0:
128,352,148098,1,8,0:0:0:0:
128,352,148202,1,0,0:0:0:0:
128,352,148306,1,0,0:0:0:0:
128,352,148514,1,8,0:0:0:0:
128,352,148619,1,0,0:0:0:0:
128,352,148827,1,0,0:0:0:0:
128,352,149035,1,8,0:0:0:0:
128,352,149244,1,0,0:0:0:0:
128,352,149348,1,8,0:0:0:0:
128,352,149452,1,8,0:0:0:0:
128,352,149556,1,8,0:0:0:0:
128,352,149660,1,0,0:0:0:0:
128,352,149869,1,8,0:0:0:0:
128,352,149973,1,8,0:0:0:0:
128,352,150077,1,0,0:0:0:0:
128,352,150181,1,0,0:0:0:0:
128,352,150285,1,8,0:0:0:0:
128,352,150494,1,8,0:0:0:0:
128,352,150702,1,4,0:0:0:0:
128,352,150910,1,8,0:0:0:0:
128,352,151119,1,0,0:0:0:0:
128,352,151223,1,0,0:0:0:0:
128,352,151431,1,0,0:0:0:0:
128,352,151535,1,8,0:0:0:0:
128,352,151744,1,0,0:0:0:0:
128,352,151952,1,8,0:0:0:0:
128,352,152056,1,0,0:0:0:0:
128,352,152160,1,8,0:0:0:0:
128,352,152264,1,8,0:0:0:0:
128,352,152369,1,0,0:0:0:0:
128,352,152577,1,8,0:0:0:0:
128,352,152785,1,0,0:0:0:0:
128,352,152889,1,8,0:0:0:0:
128,352,153098,1,8,0:0:0:0:
128,352,153202,1,0,0:0:0:0:
128,352,153410,1,8,0:0:0:0:
128,352,153514,1,8,0:0:0:0:
128,352,153619,1,0,0:0:0:0:
128,352,153723,1,0,0:0:0:0:
128,352,153827,1,8,0:0:0:0:
128,352,154035,1,0,0:0:0:0:
128,352,154244,1,8,0:0:0:0:
128,352,154452,1,8,0:0:0:0:
128,352,154556,1,0,0:0:0:0:
128,352,154764,1,0,0:0:0:0:
128,352,154869,1,8,0:0:0:0:
128,352,154973,1,8,0:0:0:0:
128,352,155077,1,0,0:0:0:0:
128,352,155285,1,8,0:0:0:0:
128,352,155494,1,0,0:0:0:0:
128,352,155598,1,0,0:0:0:0:
128,352,155702,1,8,0:0:0:0:
128,352,155910,1,0,0:0:0:0:
128,352,156119,1,8,0:0:0:0:
128,352,156223,1,8,0:0:0:0:
128,352,156327,1,0,0:0:0:0:
128,352,156535,1,8,0:0:0:0:
128,352,156639,1,8,0:0:0:0:
128,352,156744,1,0,0:0:0:0:
128,352,156848,1,0,0:0:0:0:
128,352,156952,1,8,0:0:0:0:
128,352,157160,1,0,0:0:0:0:
128,352,157369,1,12,0:0:0:0:
128,352,157577,1,0,0:0:0:0:
128,352,157681,1,0,0:0:0:0:
128,352,157889,1,8,0:0:0:0:
128,352,157994,1,0,0:0:0:0:
128,352,158202,1,0,0:0:0:0:
128,352,158306,1,8,0:0:0:0:
128,352,158410,1,0,0:0:0:0:
128,352,158514,1,0,0:0:0:0:
128,352,158619,1,8,0:0:0:0:
128,352,158827,1,8,0:0:0:0:
128,352,159035,1,0,0:0:0:0:
128,352,159244,1,8,0:0:0:0:
128,352,159348,1,0,0:0:0:0:
128,352,159556,1,0,0:0:0:0:
128,352,159660,1,8,0:0:0:0:
128,352,159764,1,8,0:0:0:0:
128,352,159869,1,0,0:0:0:0:
128,352,160077,1,0,0:0:0:0:
128,352,160181,1,0,0:0:0:0:
128,352,160285,1,8,0:0:0:0:
128,352,160494,1,0,0:0:0:0:
128,352,160702,1,12,0:0:0:0:
128,352,161014,1,8,0:0:0:0:
128,352,161119,1,0,0:0:0:0:
128,352,161327,1,0,0:0:0:0:
128,352,161431,1,0,0:0:0:0:
128,352,161535,1,8,0:0:0:0:
128,352,161639,1,0,0:0:0:0:
128,352,161848,1,0,0:0:0:0:
128,352,161952,1,8,0:0:0:0:
128,352,162160,1,0,0:0:0:0:
128,352,162264,1,0,0:0:0:0:
128,352,162369,1,8,0:0:0:0:
128,352,162577,1,8,0:0:0:0:
128,352,162681,1,0,0:0:0:0:
128,352,162785,1,8,0:0:0:0:
128,352,162889,1,8,0:0:0:0:
128,352,162994,1,0,0:0:0:0:
128,352,163098,1,0,0:0:0:0:
128,352,163202,1,8,0:0:0:0:
128,352,163410,1,0,0:0:0:0:
128,352,163514,1,0,0:0:0:0:
128,352,163619,1,8,0:0:0:0:
128,352,163723,1,0,0:0:0:0:
128,352,163827,1,8,0:0:0:0:
128,352,163931,1,8,0:0:0:0:
128,352,164035,1,0,0:0:0:0:
128,352,164348,1,0,0:0:0:0:
128,352,164660,1,0,0:0:0:0:
128,352,164764,1,0,0:0:0:0:
128,352,164869,1,8,0:0:0:0:
128,352,164938,1,0,0:0:0:0:
128,352,165007,1,0,0:0:0:0:
128,352,165077,1,8,0:0:0:0:
128,352,165146,1,0,0:0:0:0:
128,352,165216,1,0,0:0:0:0:
128,352,165285,1,8,0:0:0:0:
128,352,165389,1,0,0:0:0:0:
128,352,165494,1,8,0:0:0:0:
128,352,165598,1,8,0:0:0:0:
128,352,165702,1,0,0:0:0:0:
128,352,165910,1,8,0:0:0:0:
128,352,166014,1,8,0:0:0:0:
128,352,166223,1,8,0:0:0:0:
128,352,166327,1,0,0:0:0:0:
128,352,166535,1,8,0:0:0:0:
128,352,166605,1,8,0:0:0:0:
128,352,166674,1,8,0:0:0:0:
128,352,166744,1,8,0:0:0:0:
128,352,166813,1,8,0:0:0:0:
128,352,166882,1,8,0:0:0:0:
128,352,166952,1,8,0:0:0:0:
128,352,167056,1,8,0:0:0:0:
128,352,167160,1,8,0:0:0:0:
128,352,167264,1,8,0:0:0:0:
128,352,167368,1,4,0:0:0:0:
128,352,167576,1,0,0:0:0:0:
128,352,167680,1,0,0:0:0:0:
128,352,167784,1,8,0:0:0:0:
128,352,167993,1,0,0:0:0:0:
128,352,168201,1,8,0:0:0:0:
128,352,168305,1,0,0:0:0:0:
128,352,168513,1,0,0:0:0:0:
128,352,168618,1,8,0:0:0:0:
128,352,168826,1,8,0:0:0:0:
128,352,168930,1,0,0:0:0:0:
128,352,169034,1,8,0:0:0:0:
128,352,169243,1,8,0:0:0:0:
128,352,169347,1,8,0:0:0:0:
128,352,169451,1,0,0:0:0:0:
128,352,169659,1,8,0:0:0:0:
128,352,169868,1,0,0:0:0:0:
128,352,169972,1,8,0:0:0:0:
128,352,170180,1,0,0:0:0:0:
128,352,170284,1,8,0:0:0:0:
128,352,170493,1,0,0:0:0:0:
128,352,170701,1,12,0:0:0:0:
128,352,170909,1,0,0:0:0:0:
128,352,171013,1,0,0:0:0:0:
128,352,171118,1,8,0:0:0:0:
128,352,171326,1,8,0:0:0:0:
128,352,171534,1,0,0:0:0:0:
128,352,171638,1,8,0:0:0:0:
128,352,171743,1,0,0:0:0:0:
128,352,171847,1,0,0:0:0:0:
128,352,171951,1,8,0:0:0:0:
128,352,172159,1,8,0:0:0:0:
128,352,172263,1,0,0:0:0:0:
128,352,172368,1,8,0:0:0:0:
128,352,172576,1,0,0:0:0:0:
128,352,172680,1,0,0:0:0:0:
128,352,172784,1,8,0:0:0:0:
128,352,172993,1,0,0:0:0:0:
128,352,173201,1,8,0:0:0:0:
128,352,173305,1,8,0:0:0:0:
128,352,173409,1,0,0:0:0:0:
128,352,173513,1,0,0:0:0:0:
128,352,173618,1,8,0:0:0:0:
128,352,173722,1,0,0:0:0:0:
128,352,173826,1,8,0:0:0:0:
128,352,174034,1,4,0:0:0:0:
128,352,174243,1,8,0:0:0:0:
128,352,174347,1,0,0:0:0:0:
128,352,174451,1,8,0:0:0:0:
128,352,174659,1,0,0:0:0:0:
128,352,174868,1,8,0:0:0:0:
128,352,174972,1,0,0:0:0:0:
128,352,175180,1,0,0:0:0:0:
128,352,175284,1,8,0:0:0:0:
128,352,175493,1,0,0:0:0:0:
128,352,175701,1,8,0:0:0:0:
128,352,175805,1,8,0:0:0:0:
128,352,175909,1,0,0:0:0:0:
128,352,176013,1,0,0:0:0:0:
128,352,176118,1,8,0:0:0:0:
128,352,176326,1,0,0:0:0:0:
128,352,176534,1,8,0:0:0:0:
128,352,176638,1,8,0:0:0:0:
128,352,176847,1,0,0:0:0:0:
128,352,176951,1,8,0:0:0:0:
128,352,177159,1,8,0:0:0:0:
128,352,177368,1,4,0:0:0:0:
128,352,177680,1,0,0:0:0:0:
128,352,177784,1,8,0:0:0:0:
128,352,177993,1,0,0:0:0:0:
128,352,178097,1,0,0:0:0:0:
128,352,178201,1,8,0:0:0:0:
128,352,178305,1,0,0:0:0:0:
128,352,178513,1,0,0:0:0:0:
128,352,178618,1,8,0:0:0:0:
128,352,178826,1,0,0:0:0:0:
128,352,179034,1,8,0:0:0:0:
128,352,179138,1,8,0:0:0:0:
128,352,179243,1,0,0:0:0:0:
128,352,179347,1,0,0:0:0:0:
128,352,179451,1,8,0:0:0:0:
128,352,179659,1,0,0:0:0:0:
128,352,179763,1,0,0:0:0:0:
128,352,179868,1,8,0:0:0:0:
128,352,179937,1,0,0:0:0:0:
128,352,180006,1,0,0:0:0:0:
128,352,180076,1,8,0:0:0:0:
128,352,180145,1,0,0:0:0:0:
128,352,180215,1,0,0:0:0:0:
128,352,180284,1,8,0:0:0:0:
128,352,180388,1,0,0:0:0:0:
128,352,180493,1,0,0:0:0:0:
128,352,180597,1,0,0:0:0:0:
128,352,180701,1,12,0:0:0:0:
128,352,180909,1,0,0:0:0:0:
128,352,181013,1,8,0:0:0:0:
128,352,181118,1,0,0:0:0:0:
128,352,181326,1,8,0:0:0:0:
128,352,181534,1,0,0:0:0:0:
128,352,181638,1,0,0:0:0:0:
128,352,181847,1,0,0:0:0:0:
128,352,181951,1,8,0:0:0:0:
128,352,182159,1,0,0:0:0:0:
128,352,182263,1,0,0:0:0:0:
128,352,182368,1,8,0:0:0:0:
128,352,182576,1,8,0:0:0:0:
128,352,182680,1,8,0:0:0:0:
128,352,182784,1,0,0:0:0:0:
128,352,182993,1,8,0:0:0:0:
128,352,183201,1,0,0:0:0:0:
128,352,183305,1,8,0:0:0:0:
128,352,183513,1,0,0:0:0:0:
128,352,183618,1,8,0:0:0:0:
128,352,183826,1,0,0:0:0:0:
128,352,184034,1,12,0:0:0:0:
128,352,184243,1,0,0:0:0:0:
128,352,184347,1,0,0:0:0:0:
128,352,184451,1,8,0:0:0:0:
128,352,184659,1,8,0:0:0:0:
128,352,184763,1,0,0:0:0:0:
128,352,184868,1,8,0:0:0:0:
128,352,185076,1,0,0:0:0:0:
128,352,185284,1,8,0:0:0:0:
128,352,185388,1,0,0:0:0:0:
128,352,185493,1,8,0:0:0:0:
128,352,185597,1,8,0:0:0:0:
128,352,185701,1,0,0:0:0:0:
128,352,185909,1,0,0:0:0:0:
128,352,186013,1,0,0:0:0:0:
128,352,186118,1,8,0:0:0:0:
128,352,186326,1,0,0:0:0:0:
128,352,186534,1,8,0:0:0:0:
128,352,186638,1,8,0:0:0:0:
128,352,186743,1,0,0:0:0:0:
128,352,186847,1,0,0:0:0:0:
128,352,186951,1,8,0:0:0:0:
128,352,187055,1,0,0:0:0:0:
128,352,187159,1,8,0:0:0:0:
128,352,187368,1,4,0:0:0:0:
128,352,187576,1,8,0:0:0:0:
128,352,187680,1,8,0:0:0:0:
128,352,187784,1,0,0:0:0:0:
128,352,187993,1,8,0:0:0:0:
128,352,188201,1,0,0:0:0:0:
128,352,188305,1,0,0:0:0:0:
128,352,188513,1,0,0:0:0:0:
128,352,188618,1,8,0:0:0:0:
128,352,188826,1,8,0:0:0:0:
128,352,188930,1,0,0:0:0:0:
128,352,189034,1,8,0:0:0:0:
128,352,189243,1,8,0:0:0:0:
128,352,189347,1,8,0:0:0:0:
128,352,189451,1,0,0:0:0:0:
128,352,189659,1,8,0:0:0:0:
128,352,189868,1,0,0:0:0:0:
128,352,189972,1,8,0:0:0:0:
128,352,190180,1,0,0:0:0:0:
128,352,190284,1,8,0:0:0:0:
128,352,190493,1,8,0:0:0:0:
128,352,190701,1,4,0:0:0:0:
128,352,191013,1,0,0:0:0:0:
128,352,191118,1,8,0:0:0:0:
128,352,191326,1,8,0:0:0:0:
128,352,191430,1,8,0:0:0:0:
128,352,191534,1,0,0:0:0:0:
128,352,191638,1,0,0:0:0:0:
128,352,191847,1,0,0:0:0:0:
128,352,191951,1,8,0:0:0:0:
128,352,192159,1,8,0:0:0:0:
128,352,192368,1,0,0:0:0:0:
128,352,192472,1,8,0:0:0:0:
128,352,192576,1,0,0:0:0:0:
128,352,192680,1,0,0:0:0:0:
128,352,192784,1,8,0:0:0:0:
128,352,192993,1,0,0:0:0:0:
128,352,193201,1,8,0:0:0:0:
128,352,193305,1,0,0:0:0:0:
128,352,193513,1,0,0:0:0:0:
128,352,193618,1,8,0:0:0:0:
128,352,193722,1,8,0:0:0:0:
128,352,193826,1,0,0:0:0:0:
128,352,194034,1,4,0:0:0:0:
128,352,194243,1,8,0:0:0:0:
128,352,194347,1,0,0:0:0:0:
128,352,194451,1,8,0:0:0:0:
128,352,194555,1,8,0:0:0:0:
128,352,194659,1,0,0:0:0:0:
128,352,194868,1,8,0:0:0:0:
128,352,194972,1,0,0:0:0:0:
128,352,195076,1,0,0:0:0:0:
128,352,195180,1,8,0:0:0:0:
128,352,195284,1,0,0:0:0:0:
128,352,195388,1,0,0:0:0:0:
128,352,195493,1,8,0:0:0:0:
128,352,195701,1,0,0:0:0:0:
128,352,195805,1,8,0:0:0:0:
128,352,195909,1,8,0:0:0:0:
128,352,196013,1,0,0:0:0:0:
128,352,196118,1,8,0:0:0:0:
128,352,196222,1,8,0:0:0:0:
128,352,196326,1,0,0:0:0:0:
128,352,196430,1,0,0:0:0:0:
128,352,196534,1,8,0:0:0:0:
128,352,196604,1,0,0:0:0:0:
128,352,196673,1,0,0:0:0:0:
128,352,196743,1,8,0:0:0:0:
128,352,196812,1,0,0:0:0:0:
128,352,196881,1,0,0:0:0:0:
128,352,196951,1,8,0:0:0:0:
128,352,197055,1,0,0:0:0:0:
128,352,197159,1,8,0:0:0:0:
128,352,197263,1,8,0:0:0:0:
128,352,197368,1,0,0:0:0:0:
128,352,197680,1,0,0:0:0:0:
128,352,197993,1,0,0:0:0:0:
128,352,198305,1,0,0:0:0:0:
128,352,198618,1,8,0:0:0:0:
128,352,198826,1,8,0:0:0:0:
128,352,199034,1,4,0:0:0:0:
128,352,199243,1,8,0:0:0:0:
128,352,199347,1,8,0:0:0:0:
128,352,199555,1,8,0:0:0:0:
128,352,199659,1,8,0:0:0:0:
128,352,199868,1,0,0:0:0:0:
128,352,200076,1,0,0:0:0:0:
128,352,200180,1,0,0:0:0:0:
128,352,200388,1,0,0:0:0:0:
128,352,200493,1,0,0:0:0:0:
128,352,200701,1,8,0:0:0:0:
128,352,200909,1,8,0:0:0:0:
128,352,201013,1,8,0:0:0:0:
128,352,201222,1,8,0:0:0:0:
128,352,201326,1,8,0:0:0:0:
128,352,201534,1,0,0:0:0:0:
128,352,201743,1,0,0:0:0:0:
128,352,201847,1,0,0:0:0:0:
128,352,202055,1,0,0:0:0:0:
128,352,202159,1,0,0:0:0:0:
128,352,202368,1,12,0:0:0:0:
128,352,202576,1,0,0:0:0:0:
128,352,202680,1,0,0:0:0:0:
128,352,202888,1,0,0:0:0:0:
128,352,202993,1,8,0:0:0:0:
128,352,203201,1,0,0:0:0:0:
128,352,203409,1,8,0:0:0:0:
128,352,203513,1,8,0:0:0:0:
128,352,203722,1,8,0:0:0:0:
128,352,203826,1,0,0:0:0:0:
128,352,204034,1,8,0:0:0:0:
128,352,204243,1,0,0:0:0:0:
128,352,204347,1,0,0:0:0:0:
128,352,204555,1,0,0:0:0:0:
128,352,204659,1,8,0:0:0:0:
128,352,204868,1,0,0:0:0:0:
128,352,205076,1,0,0:0:0:0:
128,352,205180,1,0,0:0:0:0:
128,352,205284,1,8,0:0:0:0:
128,352,205493,1,0,0:0:0:0:
128,352,205701,1,12,0:0:0:0:
128,352,205909,1,0,0:0:0:0:
128,352,206013,1,0,0:0:0:0:
128,352,206118,1,8,0:0:0:0:
128,352,206326,1,8,0:0:0:0:
128,352,206430,1,0,0:0:0:0:
128,352,206534,1,8,0:0:0:0:
128,352,206951,1,8,0:0:0:0:
128,352,207159,1,0,0:0:0:0:
128,352,207263,1,0,0:0:0:0:
128,352,207368,1,8,0:0:0:0:
128,352,207576,1,8,0:0:0:0:
128,352,207680,1,0,0:0:0:0:
128,352,207784,1,8,0:0:0:0:
128,352,207888,1,8,0:0:0:0:
128,352,207993,1,0,0:0:0:0:
128,352,208097,1,0,0:0:0:0:
128,352,208201,1,8,0:0:0:0:
128,352,208409,1,8,0:0:0:0:
128,352,208513,1,8,0:0:0:0:
128,352,208618,1,0,0:0:0:0:
128,352,208826,1,0,0:0:0:0:
128,352,209034,1,12,0:0:0:0:
128,352,209243,1,0,0:0:0:0:
128,352,209347,1,0,0:0:0:0:
128,352,209451,1,8,0:0:0:0:
128,352,209659,1,0,0:0:0:0:
128,352,209868,1,8,0:0:0:0:
128,352,209972,1,0,0:0:0:0:
128,352,210076,1,8,0:0:0:0:
128,352,210180,1,8,0:0:0:0:
128,352,210284,1,0,0:0:0:0:
128,352,210388,1,0,0:0:0:0:
128,352,210493,1,8,0:0:0:0:
128,352,210597,1,0,0:0:0:0:
128,352,210701,1,8,0:0:0:0:
128,352,210805,1,0,0:0:0:0:
128,352,210909,1,0,0:0:0:0:
128,352,211013,1,8,0:0:0:0:
128,352,211118,1,0,0:0:0:0:
128,352,211222,1,0,0:0:0:0:
128,352,211326,1,8,0:0:0:0:
128,352,211430,1,0,0:0:0:0:
128,352,211534,1,8,0:0:0:0:
128,352,211604,1,0,0:0:0:0:
128,352,211673,1,0,0:0:0:0:
128,352,211743,1,8,0:0:0:0:
128,352,211812,1,0,0:0:0:0:
128,352,211881,1,0,0:0:0:0:
128,352,211951,1,8,0:0:0:0:
128,352,212055,1,0,0:0:0:0:
128,352,212159,1,0,0:0:0:0:
128,352,212263,1,0,0:0:0:0:
128,352,212368,1,12,0:0:0:0:
128,352,212576,1,0,0:0:0:0:
128,352,212784,1,8,0:0:0:0:
128,352,212888,1,8,0:0:0:0:
128,352,212993,1,0,0:0:0:0:
128,352,213097,1,0,0:0:0:0:
128,352,213201,1,8,0:0:0:0:
128,352,213305,1,0,0:0:0:0:
128,352,213409,1,0,0:0:0:0:
128,352,213513,1,8,0:0:0:0:
128,352,213618,1,8,0:0:0:0:
128,352,213722,1,0,0:0:0:0:
128,352,213826,1,8,0:0:0:0:
128,352,213930,1,8,0:0:0:0:
128,352,214034,1,0,0:0:0:0:
128,352,214104,1,0,0:0:0:0:
128,352,214173,1,0,0:0:0:0:
128,352,214243,1,8,0:0:0:0:
128,352,214347,1,0,0:0:0:0:
128,352,214451,1,8,0:0:0:0:
128,352,214555,1,0,0:0:0:0:
128,352,214659,1,8,0:0:0:0:
128,352,214763,1,8,0:0:0:0:
128,352,214868,1,0,0:0:0:0:
128,352,215180,1,0,0:0:0:0:
128,352,215284,1,8,0:0:0:0:
128,352,215493,1,0,0:0:0:0:
128,352,215701,1,12,0:0:0:0:
128,352,215909,1,0,0:0:0:0:
128,352,216118,1,8,0:0:0:0:
128,352,216222,1,8,0:0:0:0:
128,352,216326,1,0,0:0:0:0:
128,352,216430,1,0,0:0:0:0:
128,352,216534,1,8,0:0:0:0:
128,352,216638,1,0,0:0:0:0:
128,352,216743,1,0,0:0:0:0:
128,352,216847,1,8,0:0:0:0:
128,352,216951,1,0,0:0:0:0:
128,352,217055,1,0,0:0:0:0:
128,352,217159,1,8,0:0:0:0:
128,352,217263,1,0,0:0:0:0:
128,352,217368,1,8,0:0:0:0:
128,352,217472,1,8,0:0:0:0:
128,352,217576,1,0,0:0:0:0:
128,352,217680,1,8,0:0:0:0:
128,352,217784,1,8,0:0:0:0:
128,352,217888,1,0,0:0:0:0:
128,352,217993,1,8,0:0:0:0:
128,352,218097,1,0,0:0:0:0:
128,352,218201,1,8,0:0:0:0:
128,352,218270,1,0,0:0:0:0:
128,352,218340,1,0,0:0:0:0:
128,352,218409,1,8,0:0:0:0:
128,352,218479,1,0,0:0:0:0:
128,352,218548,1,0,0:0:0:0:
128,352,218618,1,8,0:0:0:0:
128,352,218722,1,0,0:0:0:0:
128,352,218826,1,0,0:0:0:0:
128,352,218930,1,0,0:0:0:0:
128,352,219034,1,12,0:0:0:0:
128,352,219243,1,0,0:0:0:0:
128,352,219451,1,8,0:0:0:0:
128,352,219555,1,8,0:0:0:0:
128,352,219659,1,0,0:0:0:0:
128,352,219763,1,0,0:0:0:0:
128,352,219868,1,8,0:0:0:0:
128,352,219972,1,0,0:0:0:0:
128,352,220076,1,0,0:0:0:0:
128,352,220180,1,8,0:0:0:0:
128,352,220388,1,0,0:0:0:0:
128,352,220493,1,8,0:0:0:0:
128,352,220597,1,0,0:0:0:0:
128,352,220701,1,8,0:0:0:0:
128,352,220805,1,0,0:0:0:0:
128,352,220909,1,0,0:0:0:0:
128,352,221013,1,8,0:0:0:0:
128,352,221222,1,8,0:0:0:0:
128,352,221326,1,0,0:0:0:0:
128,352,221430,1,0,0:0:0:0:
128,352,221534,1,8,0:0:0:0:
128,352,221638,1,0,0:0:0:0:
128,352,221743,1,8,0:0:0:0:
128,352,221812,1,8,0:0:0:0:
128,352,221881,1,8,0:0:0:0:
128,352,221951,1,0,0:0:0:0:
128,352,222159,1,0,0:0:0:0:
128,352,222368,1,12,0:0:0:0:
128,352,222576,1,0,0:0:0:0:
128,352,222680,1,0,0:0:0:0:
128,352,222784,1,8,0:0:0:0:
128,352,222888,1,0,0:0:0:0:
128,352,222993,1,0,0:0:0:0:
128,352,223097,1,8,0:0:0:0:
128,352,223201,1,8,0:0:0:0:
128,352,223409,1,0,0:0:0:0:
128,352,223513,1,8,0:0:0:0:
128,352,223618,1,8,0:0:0:0:
128,352,223722,1,8,0:0:0:0:
128,352,223826,1,0,0:0:0:0:
128,352,224034,1,12,0:0:0:0:
128,352,224243,1,0,0:0:0:0:
128,352,224451,1,8,0:0:0:0:
128,352,224659,1,8,0:0:0:0:
128,352,224763,1,0,0:0:0:0:
128,352,224868,1,0,0:0:0:0:
128,352,224972,1,8,0:0:0:0:
128,352,225076,1,8,0:0:0:0:
128,352,225180,1,0,0:0:0:0:
128,352,225284,1,8,0:0:0:0:
128,352,225388,1,8,0:0:0:0:
128,352,225493,1,0,0:0:0:0:
128,352,225597,1,0,0:0:0:0:
128,352,225701,1,8,0:0:0:0:
128,352,225805,1,0,0:0:0:0:
128,352,225909,1,0,0:0:0:0:
128,352,226013,1,8,0:0:0:0:
128,352,226118,1,0,0:0:0:0:
128,352,226222,1,0,0:0:0:0:
128,352,226326,1,8,0:0:0:0:
128,352,226430,1,0,0:0:0:0:
128,352,226534,1,8,0:0:0:0:
128,352,226604,1,0,0:0:0:0:
128,352,226673,1,0,0:0:0:0:
128,352,226743,1,8,0:0:0:0:
128,352,226812,1,0,0:0:0:0:
128,352,226881,1,0,0:0:0:0:
128,352,226951,1,8,0:0:0:0:
128,352,227055,1,0,0:0:0:0:
128,352,227159,1,8,0:0:0:0:
128,352,227263,1,8,0:0:0:0:
128,352,227368,1,0,0:0:0:0:
128,352,229034,1,8,0:0:0:0:
128,352,229450,1,8,0:0:0:0:
128,352,229867,1,0,0:0:0:0:
128,352,230700,1,0,0:0:0:0:
128,352,231117,1,8,0:0:0:0:
128,352,231534,1,0,0:0:0:0:
128,352,232367,1,8,0:0:0:0:
128,352,232784,1,8,0:0:0:0:
128,352,233200,1,0,0:0:0:0:
128,352,234034,1,8,0:0:0:0:
128,352,234450,1,0,0:0:0:0:
128,352,234867,1,8,0:0:0:0:
128,352,235075,1,8,0:0:0:0:
128,352,235284,1,0,0:0:0:0:
128,352,235700,1,8,0:0:0:0:
128,352,236013,1,0,0:0:0:0:
128,352,236325,1,0,0:0:0:0:
128,352,236534,1,8,0:0:0:0:
128,352,236950,1,0,0:0:0:0:
128,352,237159,1,0,0:0:0:0:
128,352,237367,1,8,0:0:0:0:
128,352,237679,1,8,0:0:0:0:
128,352,237992,1,0,0:0:0:0:
128,352,238200,1,8,0:0:0:0:
128,352,238617,1,8,0:0:0:0:
128,352,238825,1,0,0:0:0:0:
128,352,239034,1,8,0:0:0:0:
128,352,239346,1,8,0:0:0:0:
128,352,239659,1,8,0:0:0:0:
128,352,239867,1,0,0:0:0:0:
128,352,240284,1,8,0:0:0:0:
128,352,240492,1,0,0:0:0:0:
128,352,240700,1,8,0:0:0:0:
128,352,240804,1,0,0:0:0:0:
128,352,240909,1,8,0:0:0:0:
128,352,241013,1,8,0:0:0:0:
128,352,241117,1,0,0:0:0:0:
128,352,241221,1,8,0:0:0:0:
128,352,241325,1,0,0:0:0:0:
128,352,241429,1,0,0:0:0:0:
128,352,241534,1,8,0:0:0:0:
128,352,241603,1,0,0:0:0:0:
128,352,241672,1,0,0:0:0:0:
128,352,241742,1,8,0:0:0:0:
128,352,241811,1,0,0:0:0:0:
128,352,241881,1,0,0:0:0:0:
128,352,241950,1,8,0:0:0:0:
128,352,242054,1,0,0:0:0:0:
128,352,242159,1,0,0:0:0:0:
128,352,242263,1,0,0:0:0:0:
128,352,242367,1,12,0:0:0:0:
128,352,242575,1,0,0:0:0:0:
128,352,242679,1,0,0:0:0:0:
128,352,242784,1,8,0:0:0:0:
128,352,242992,1,8,0:0:0:0:
128,352,243200,1,0,0:0:0:0:
128,352,243304,1,0,0:0:0:0:
128,352,243513,1,0,0:0:0:0:
128,352,243617,1,8,0:0:0:0:
128,352,243825,1,8,0:0:0:0:
128,352,244034,1,0,0:0:0:0:
128,352,244138,1,8,0:0:0:0:
128,352,244242,1,0,0:0:0:0:
128,352,244346,1,0,0:0:0:0:
128,352,244450,1,8,0:0:0:0:
128,352,244659,1,0,0:0:0:0:
128,352,244867,1,0,0:0:0:0:
128,352,244971,1,8,0:0:0:0:
128,352,245179,1,0,0:0:0:0:
128,352,245284,1,8,0:0:0:0:
128,352,245492,1,0,0:0:0:0:
128,352,245700,1,12,0:0:0:0:
128,352,245909,1,0,0:0:0:0:
128,352,246013,1,0,0:0:0:0:
128,352,246117,1,8,0:0:0:0:
128,352,246325,1,0,0:0:0:0:
128,352,246534,1,8,0:0:0:0:
128,352,246638,1,8,0:0:0:0:
128,352,246742,1,0,0:0:0:0:
128,352,246846,1,0,0:0:0:0:
128,352,246950,1,8,0:0:0:0:
128,352,247159,1,8,0:0:0:0:
128,352,247263,1,8,0:0:0:0:
128,352,247367,1,0,0:0:0:0:
128,352,247575,1,0,0:0:0:0:
128,352,247679,1,0,0:0:0:0:
128,352,247784,1,8,0:0:0:0:
128,352,247992,1,0,0:0:0:0:
128,352,248200,1,8,0:0:0:0:
128,352,248304,1,8,0:0:0:0:
128,352,248409,1,0,0:0:0:0:
128,352,248513,1,0,0:0:0:0:
128,352,248617,1,8,0:0:0:0:
128,352,248721,1,0,0:0:0:0:
128,352,248825,1,8,0:0:0:0:
128,352,249034,1,4,0:0:0:0:
128,352,249242,1,8,0:0:0:0:
128,352,249346,1,8,0:0:0:0:
128,352,249450,1,0,0:0:0:0:
128,352,249659,1,8,0:0:0:0:
128,352,249867,1,0,0:0:0:0:
128,352,249971,1,0,0:0:0:0:
128,352,250179,1,0,0:0:0:0:
128,352,250284,1,8,0:0:0:0:
128,352,250492,1,8,0:0:0:0:
128,352,250596,1,0,0:0:0:0:
128,352,250700,1,8,0:0:0:0:
128,352,250909,1,8,0:0:0:0:
128,352,251013,1,8,0:0:0:0:
128,352,251117,1,0,0:0:0:0:
128,352,251325,1,8,0:0:0:0:
128,352,251534,1,0,0:0:0:0:
128,352,251638,1,8,0:0:0:0:
128,352,251846,1,0,0:0:0:0:
128,352,251950,1,8,0:0:0:0:
128,352,252159,1,8,0:0:0:0:
128,352,252367,1,4,0:0:0:0:
128,352,252679,1,0,0:0:0:0:
128,352,252784,1,8,0:0:0:0:
128,352,252992,1,0,0:0:0:0:
128,352,253096,1,0,0:0:0:0:
128,352,253200,1,8,0:0:0:0:
128,352,253304,1,0,0:0:0:0:
128,352,253513,1,0,0:0:0:0:
128,352,253617,1,8,0:0:0:0:
128,352,253825,1,0,0:0:0:0:
128,352,254034,1,8,0:0:0:0:
128,352,254138,1,8,0:0:0:0:
128,352,254242,1,0,0:0:0:0:
128,352,254346,1,0,0:0:0:0:
128,352,254450,1,8,0:0:0:0:
128,352,254659,1,0,0:0:0:0:
128,352,254867,1,0,0:0:0:0:
128,352,254971,1,8,0:0:0:0:
128,352,255179,1,0,0:0:0:0:
128,352,255284,1,8,0:0:0:0:
128,352,255388,1,8,0:0:0:0:
128,352,255492,1,0,0:0:0:0:
128,352,255700,1,4,0:0:0:0:
128,352,255909,1,0,0:0:0:0:
128,352,256013,1,0,0:0:0:0:
128,352,256117,1,8,0:0:0:0:
128,352,256221,1,8,0:0:0:0:
128,352,256325,1,0,0:0:0:0:
128,352,256534,1,8,0:0:0:0:
128,352,256638,1,0,0:0:0:0:
128,352,256742,1,0,0:0:0:0:
128,352,256846,1,8,0:0:0:0:
128,352,256950,1,0,0:0:0:0:
128,352,257054,1,0,0:0:0:0:
128,352,257159,1,8,0:0:0:0:
128,352,257367,1,0,0:0:0:0:
128,352,257471,1,8,0:0:0:0:
128,352,257575,1,8,0:0:0:0:
128,352,257679,1,0,0:0:0:0:
128,352,257784,1,8,0:0:0:0:
128,352,257888,1,8,0:0:0:0:
128,352,257992,1,0,0:0:0:0:
128,352,258096,1,0,0:0:0:0:
128,352,258200,1,8,0:0:0:0:
128,352,258270,1,0,0:0:0:0:
128,352,258339,1,0,0:0:0:0:
128,352,258409,1,8,0:0:0:0:
128,352,258478,1,0,0:0:0:0:
128,352,258547,1,0,0:0:0:0:
128,352,258617,1,8,0:0:0:0:
128,352,258721,1,0,0:0:0:0:
128,352,258825,1,8,0:0:0:0:
128,352,258929,1,8,0:0:0:0:
128,352,259034,1,0,0:0:0:0:
128,352,259346,1,0,0:0:0:0:
128,352,259659,1,0,0:0:0:0:
128,352,259971,1,0,0:0:0:0:
128,352,260284,1,8,0:0:0:0:
128,352,260492,1,8,0:0:0:0:
128,352,260700,1,0,0:0:0:0:
128,352,261117,1,8,0:0:0:0:
128,352,261325,1,0,0:0:0:0:
128,352,261534,1,8,0:0:0:0:
128,352,261638,1,0,0:0:0:0:
128,352,261846,1,0,0:0:0:0:
128,352,261950,1,8,0:0:0:0:
128,352,262054,1,8,0:0:0:0:
128,352,262159,1,0,0:0:0:0:
128,352,262367,1,12,0:0:0:0:
128,352,262575,1,0,0:0:0:0:
128,352,262679,1,0,0:0:0:0:
128,352,262784,1,8,0:0:0:0:
128,352,262992,1,8,0:0:0:0:
128,352,263200,1,0,0:0:0:0:
128,352,263513,1,8,0:0:0:0:
128,352,263617,1,0,0:0:0:0:
128,352,263825,1,8,0:0:0:0:
128,352,263929,1,8,0:0:0:0:
128,352,264034,1,0,0:0:0:0:
128,352,264242,1,8,0:0:0:0:
128,352,264346,1,0,0:0:0:0:
128,352,264450,1,8,0:0:0:0:
128,352,264659,1,8,0:0:0:0:
128,352,264867,1,0,0:0:0:0:
128,352,265179,1,0,0:0:0:0:
128,352,265284,1,8,0:0:0:0:
128,352,265492,1,0,0:0:0:0:
128,352,265700,1,12,0:0:0:0:
128,352,265909,1,0,0:0:0:0:
128,352,266013,1,0,0:0:0:0:
128,352,266117,1,8,0:0:0:0:
128,352,266221,1,8,0:0:0:0:
128,352,266325,1,0,0:0:0:0:
128,352,266534,1,8,0:0:0:0:
128,352,266638,1,0,0:0:0:0:
128,352,266846,1,0,0:0:0:0:
128,352,266950,1,8,0:0:0:0:
128,352,267159,1,8,0:0:0:0:
128,352,267575,1,8,0:0:0:0:
128,352,267679,1,8,0:0:0:0:
128,352,267784,1,0,0:0:0:0:
128,352,267992,1,8,0:0:0:0:
128,352,268200,1,0,0:0:0:0:
128,352,268304,1,0,0:0:0:0:
128,352,268513,1,0,0:0:0:0:
128,352,268617,1,8,0:0:0:0:
128,352,268825,1,8,0:0:0:0:
128,352,269034,1,4,0:0:0:0:
128,352,269242,1,0,0:0:0:0:
128,352,269346,1,0,0:0:0:0:
128,352,269450,1,8,0:0:0:0:
128,352,269659,1,0,0:0:0:0:
128,352,269867,1,8,0:0:0:0:
128,352,269971,1,0,0:0:0:0:
128,352,270179,1,0,0:0:0:0:
128,352,270284,1,8,0:0:0:0:
128,352,270492,1,8,0:0:0:0:
128,352,270700,1,4,0:0:0:0:
128,352,270909,1,0,0:0:0:0:
128,352,271013,1,0,0:0:0:0:
128,352,271117,1,8,0:0:0:0:
128,352,271325,1,0,0:0:0:0:
128,352,271534,1,8,0:0:0:0:
128,352,271638,1,8,0:0:0:0:
128,352,271846,1,0,0:0:0:0:
128,352,271950,1,8,0:0:0:0:
128,352,272159,1,0,0:0:0:0:
128,352,272367,1,12,0:0:0:0:
128,352,272575,1,0,0:0:0:0:
128,352,272679,1,8,0:0:0:0:
128,352,272784,1,8,0:0:0:0:
128,352,272888,1,8,0:0:0:0:
128,352,272992,1,0,0:0:0:0:
128,352,273200,1,8,0:0:0:0:
128,352,273304,1,0,0:0:0:0:
128,352,273409,1,0,0:0:0:0:
128,352,273513,1,8,0:0:0:0:
128,352,273617,1,0,0:0:0:0:
128,352,273721,1,0,0:0:0:0:
128,352,273825,1,8,0:0:0:0:
128,352,274034,1,0,0:0:0:0:
128,352,274138,1,8,0:0:0:0:
128,352,274242,1,8,0:0:0:0:
128,352,274346,1,0,0:0:0:0:
128,352,274450,1,8,0:0:0:0:
128,352,274554,1,8,0:0:0:0:
128,352,274659,1,0,0:0:0:0:
128,352,274763,1,0,0:0:0:0:
128,352,274867,1,8,0:0:0:0:
128,352,274936,1,0,0:0:0:0:
128,352,275006,1,0,0:0:0:0:
128,352,275075,1,8,0:0:0:0:
128,352,275145,1,0,0:0:0:0:
128,352,275214,1,0,0:0:0:0:
128,352,275284,1,8,0:0:0:0:
128,352,275388,1,0,0:0:0:0:
128,352,275492,1,0,0:0:0:0:
128,352,275596,1,0,0:0:0:0:
128,352,275700,1,12,0:0:0:0:
128,352,275909,1,0,0:0:0:0:
128,352,276013,1,0,0:0:0:0:
128,352,276117,1,8,0:0:0:0:
128,352,276325,1,0,0:0:0:0:
128,352,276534,1,0,0:0:0:0:
128,352,276638,1,8,0:0:0:0:
128,352,276846,1,8,0:0:0:0:
128,352,276950,1,0,0:0:0:0:
128,352,277159,1,8,0:0:0:0:
128,352,277263,1,8,0:0:0:0:
128,352,277367,1,0,0:0:0:0:
128,352,277575,1,8,0:0:0:0:
128,352,277679,1,0,0:0:0:0:
128,352,277784,1,8,0:0:0:0:
128,352,277992,1,8,0:0:0:0:
128,352,278200,1,0,0:0:0:0:
128,352,278304,1,0,0:0:0:0:
128,352,278513,1,0,0:0:0:0:
128,352,278617,1,8,0:0:0:0:
128,352,278825,1,0,0:0:0:0:
128,352,279034,1,12,0:0:0:0:
128,352,279242,1,0,0:0:0:0:
128,352,279346,1,0,0:0:0:0:
128,352,279450,1,8,0:0:0:0:
128,352,279554,1,8,0:0:0:0:
128,352,279659,1,0,0:0:0:0:
128,352,279867,1,8,0:0:0:0:
128,352,279971,1,0,0:0:0:0:
128,352,280179,1,0,0:0:0:0:
128,352,280284,1,8,0:0:0:0:
128,352,280492,1,8,0:0:0:0:
128,352,280700,1,0,0:0:0:0:
128,352,280909,1,8,0:0:0:0:
128,352,281013,1,8,0:0:0:0:
128,352,281117,1,0,0:0:0:0:
128,352,281221,1,0,0:0:0:0:
128,352,281325,1,8,0:0:0:0:
128,352,281534,1,0,0:0:0:0:
128,352,281638,1,0,0:0:0:0:
128,352,281846,1,8,0:0:0:0:
128,352,281950,1,0,0:0:0:0:
128,352,282054,1,0,0:0:0:0:
128,352,282159,1,8,0:0:0:0:
128,352,282367,1,4,0:0:0:0:
128,352,282575,1,0,0:0:0:0:
128,352,282679,1,0,0:0:0:0:
128,352,282784,1,8,0:0:0:0:
128,352,282888,1,8,0:0:0:0:
128,352,282992,1,0,0:0:0:0:
128,352,283200,1,8,0:0:0:0:
128,352,283304,1,0,0:0:0:0:
128,352,283513,1,8,0:0:0:0:
128,352,283617,1,8,0:0:0:0:
128,352,283721,1,0,0:0:0:0:
128,352,283825,1,8,0:0:0:0:
128,352,284034,1,4,0:0:0:0:
128,352,284242,1,0,0:0:0:0:
128,352,284346,1,0,0:0:0:0:
128,352,284450,1,8,0:0:0:0:
128,352,284554,1,8,0:0:0:0:
128,352,284659,1,0,0:0:0:0:
128,352,284867,1,8,0:0:0:0:
128,352,284971,1,8,0:0:0:0:
128,352,285179,1,0,0:0:0:0:
128,352,285284,1,8,0:0:0:0:
128,352,285388,1,8,0:0:0:0:
128,352,285492,1,0,0:0:0:0:
128,352,285700,1,12,0:0:0:0:
128,352,285909,1,0,0:0:0:0:
128,352,286013,1,8,0:0:0:0:
128,352,286117,1,8,0:0:0:0:
128,352,286221,1,8,0:0:0:0:
128,352,286325,1,0,0:0:0:0:
128,352,286534,1,8,0:0:0:0:
128,352,286638,1,0,0:0:0:0:
128,352,286742,1,0,0:0:0:0:
128,352,286846,1,8,0:0:0:0:
128,352,286950,1,0,0:0:0:0:
128,352,287054,1,0,0:0:0:0:
128,352,287159,1,8,0:0:0:0:
128,352,287367,1,0,0:0:0:0:
128,352,287471,1,8,0:0:0:0:
128,352,287575,1,8,0:0:0:0:
128,352,287679,1,0,0:0:0:0:
128,352,287784,1,8,0:0:0:0:
128,352,287888,1,8,0:0:0:0:
128,352,287992,1,0,0:0:0:0:
128,352,288096,1,0,0:0:0:0:
128,352,288200,1,8,0:0:0:0:
128,352,288270,1,0,0:0:0:0:
128,352,288339,1,0,0:0:0:0:
128,352,288409,1,8,0:0:0:0:
128,352,288478,1,0,0:0:0:0:
128,352,288547,1,0,0:0:0:0:
128,352,288617,1,8,0:0:0:0:
128,352,288721,1,0,0:0:0:0:
128,352,288825,1,0,0:0:0:0:
128,352,288929,1,0,0:0:0:0:
128,352,289034,1,8,0:0:0:0:
128,352,289138,1,0,0:0:0:0:
128,352,289242,1,0,0:0:0:0:
128,352,289346,1,8,0:0:0:0:
128,352,289450,1,0,0:0:0:0:
128,352,289554,1,0,0:0:0:0:
128,352,289659,1,8,0:0:0:0:
128,352,289763,1,0,0:0:0:0:
128,352,289867,1,8,0:0:0:0:
128,352,289936,1,8,0:0:0:0:
128,352,290006,1,8,0:0:0:0:
128,352,290075,1,0,0:0:0:0:
128,352,290145,1,0,0:0:0:0:
128,352,290214,1,0,0:0:0:0:
128,352,290284,1,12,0:0:0:0:
256,192,290388,8,0,297367,0:0:0:0:
