osu file format v14

[General]
AudioFilename: audio.mp3
AudioLeadIn: 0
PreviewTime: 102657
Countdown: 0
SampleSet: None
StackLeniency: 0.7
Mode: 0
LetterboxInBreaks: 0
WidescreenStoryboard: 0

[Editor]
DistanceSpacing: 1
BeatDivisor: 4
GridSize: 4
TimelineZoom: 1

[Metadata]
Title:snow blind(album version)
TitleUnicode:snow blind(album version)
Artist:fripSide
ArtistUnicode:fripSide
Creator:Rizia
Version:w
Source:
Tags:
BeatmapID:1492729
BeatmapSetID:705832

[Difficulty]
HPDrainRate:7
CircleSize:4
OverallDifficulty:7
ApproachRate:8
SliderMultiplier:1.6
SliderTickRate:1

[Events]
//Background and Video events
0,0,"BG.jpg",0,0
//Break Periods
2,30328,101170
2,142464,332428
//Storyboard Layer 0 (Background)
//Storyboard Layer 1 (Fail)
//Storyboard Layer 2 (Pass)
//Storyboard Layer 3 (Foreground)
//Storyboard Sound Samples

[TimingPoints]
7119,582.52427184466,4,2,1,40,1,0
23429,-200,4,2,1,40,0,0
25759,-100,4,2,1,40,0,0
102070,-100,4,2,2,80,0,0
102652,-83.3333333333333,4,2,2,80,0,0

[Colours]
Combo1 : 128,0,0
Combo2 : 72,107,156
Combo3 : 255,128,0
Combo4 : 0,64,128

[HitObjects]
104,188,7119,6,0,P|88:144|104:64,1,120,4|2,0:0|0:0,0:0:0:0:
200,16,7992,1,0,0:0:0:0:
256,80,8284,2,0,P|288:88|336:76,2,80,2|0|0,0:0|0:0|0:0,0:0:0:0:
256,80,9157,1,0,0:0:0:0:
412,73,9449,6,0,P|425:131|408:188,1,120,0|2,0:0|0:0,0:0:0:0:
292,272,10322,1,0,0:0:0:0:
208,228,10614,2,0,P|200:280|208:312,1,80,2|0,0:0|0:0,0:0:0:0:
292,272,11196,1,0,0:0:0:0:
292,272,11779,6,0,L|164:272,1,120,0|2,0:0|0:0,0:0:0:0:
140,296,12361,2,0,P|128:336|140:384,1,80
132,204,12944,2,0,P|172:194|208:160,1,80,2|0,0:0|2:0,2:0:0:0:
64,264,13526,2,0,P|35:233|-12:220,1,80,0|0,0:0|2:0,2:0:0:0:
100,116,14109,5,0,0:0:0:0:
172,52,14691,1,2,0:0:0:0:
100,116,15274,1,0,0:0:0:0:
184,160,15856,1,2,0:0:0:0:
100,116,16439,6,0,L|84:256,1,120,0|2,0:0|0:0,0:0:0:0:
156,364,17313,1,0,0:0:0:0:
244,324,17604,2,0,L|328:316,1,80,2|0,0:0|0:0,0:0:0:0:
452,248,18186,2,0,L|372:255,1,80
308,184,18769,6,0,P|336:156|436:160,1,120,0|2,0:0|0:0,0:0:0:0:
460,12,19643,1,0,0:0:0:0:
376,60,19934,2,0,P|327:63|280:42,1,80,2|0,0:0|0:0,0:0:0:0:
212,12,20517,2,0,P|172:39|120:44,1,80
48,60,21099,6,0,P|68:104|60:228,1,160,2|0,0:0|0:0,0:0:0:0:
12,292,21973,2,0,P|60:296|163:365,1,160,2|0,0:0|0:0,0:0:0:0:
248,332,22847,1,2,0:0:0:0:
436,360,23429,6,0,L|444:272,2,80,0|2|0,0:0|0:0|0:0,0:0:0:0:
72,104,25759,6,0,L|68:64,4,40
120,208,26633,1,0,0:0:0:0:
120,208,26779,1,0,0:0:0:0:
120,208,26924,2,0,P|152:192|204:196,1,80
288,164,27507,2,0,P|317:183|340:230,1,80
405,371,28089,6,0,P|432:319|428:260,1,120
404,220,28672,1,0,0:0:0:0:
444,132,28963,1,0,0:0:0:0:
444,132,29109,1,0,0:0:0:0:
444,132,29254,2,0,L|436:40,1,80
308,120,29837,2,0,L|314:199,1,80
496,192,102070,5,4,0:3:0:0:
56,260,102652,5,4,1:0:0:0:
144,88,103235,1,8,0:0:0:0:
232,124,103526,1,0,1:0:0:0:
188,208,103818,2,0,P|176:272|244:352,1,143.999995605469,0|0,1:0|0:0,0:0:0:0:
256,260,104400,2,0,P|296:244|356:252,1,95.9999970703126,8|0,0:0|1:0,0:0:0:0:
408,320,104983,1,0,1:0:0:0:
348,108,105274,6,0,L|332:156,1,47.9999985351563
312,16,105565,1,8,0:0:0:0:
347,248,105856,1,0,1:0:0:0:
256,76,106148,1,0,1:0:0:0:
256,76,106293,1,8,0:0:0:0:
256,76,106439,1,0,0:0:0:0:
192,148,106730,6,0,P|160:160|96:152,1,95.9999970703126,8|0,0:0|0:0,0:0:0:0:
264,288,107313,2,0,P|258:321|219:373,1,95.9999970703126,0|0,1:0|0:0,0:0:0:0:
300,180,107895,2,0,P|321:153|381:128,1,95.9999970703126,8|0,0:0|1:0,0:0:0:0:
192,208,108478,6,0,P|132:196|72:120,1,143.999995605469,0|0,1:0|0:0,0:0:0:0:
40,64,109060,2,0,P|60:120|52:180,1,95.9999970703126,8|0,0:0|1:0,0:0:0:0:
16,224,109497,1,0,1:0:0:0:
16,224,109643,1,0,1:0:0:0:
368,144,109934,5,0,0:0:0:0:
158,119,110225,1,8,0:0:0:0:
241,312,110517,1,0,1:0:0:0:
256,192,110808,1,0,1:0:0:0:
256,192,110953,1,8,0:0:0:0:
256,192,111099,1,0,0:0:0:0:
87,264,111390,5,8,0:0:0:0:
402,301,111681,1,4,0:0:0:0:
277,10,111973,1,4,1:0:0:0:
496,128,112410,5,0,0:0:0:0:
496,128,112555,2,0,P|492:184|452:228,1,95.9999970703126,8|0,0:0|1:0,0:0:0:0:
312,360,113138,6,0,P|320:280|236:176,1,191.999994140625,0|8,1:0|0:0,0:0:0:0:
144,172,114012,1,0,1:0:0:0:
16,240,114303,2,0,P|81:286|213:266,1,191.999994140625,0|8,1:0|0:0,0:0:0:0:
388,140,115177,5,0,1:0:0:0:
388,140,115322,1,8,0:0:0:0:
189,280,115614,1,8,0:0:0:0:
189,280,115759,1,0,0:0:0:0:
124,72,116051,1,8,0:0:0:0:
452,352,116342,1,0,0:0:0:0:
288,212,116633,6,0,P|216:216|96:224,1,191.999994140625,4|8,0:0|0:0,0:0:0:0:
324,88,117507,1,0,1:0:0:0:
256,340,117798,2,0,P|328:336|448:328,1,191.999994140625,0|8,1:0|0:0,0:0:0:0:
152,120,118672,5,0,1:0:0:0:
152,120,118818,1,0,1:0:0:0:
152,120,118963,2,0,P|96:112|40:96,1,95.9999970703126,0|0,1:0|0:0,0:0:0:0:
360,120,119546,2,0,P|416:112|472:96,1,95.9999970703126,8|0,0:0|1:0,0:0:0:0:
492,76,119983,2,0,P|480:136|480:188,1,95.9999970703126,8|8,0:0|0:0,0:0:0:0:
492,216,120419,1,0,0:0:0:0:
488,264,120565,1,8,0:0:0:0:
464,308,120711,1,8,0:0:0:0:
256,336,121002,1,0,0:0:0:0:
124,204,121293,6,0,P|88:180|-20:184,1,143.999995605469,4|0,1:0|0:0,0:0:0:0:
88,288,121876,2,0,P|132:292|188:268,1,95.9999970703126,8|0,0:0|1:0,0:0:0:0:
24,8,122458,2,0,P|60:68|56:180,1,143.999995605469,0|0,1:0|0:0,0:0:0:0:
28,212,123041,5,8,0:0:0:0:
124,296,123332,1,0,1:0:0:0:
256,292,123623,2,0,P|249:339|227:381,1,95.9999970703126
227,381,124060,1,0,0:0:0:0:
227,381,124206,1,8,0:0:0:0:
240,176,124497,1,0,1:0:0:0:
344,324,124788,6,0,L|356:384,1,47.9999985351563,0|8,0:0|0:0,0:0:0:0:
368,228,125080,1,0,0:0:0:0:
227,381,125371,1,8,0:0:0:0:
440,300,125662,1,0,0:0:0:0:
320,72,125953,6,0,P|280:88|224:104,1,95.9999970703126,0|0,1:0|0:0,0:0:0:0:
420,236,126536,2,0,P|460:220|516:204,1,95.9999970703126,8|0,0:0|1:0,0:0:0:0:
304,380,127118,2,0,P|308:324|314:202,1,143.999995605469,0|0,1:0|0:0,0:0:0:0:
322,197,127701,2,0,P|273:192|202:183,1,95.9999970703126,8|0,0:0|1:0,0:0:0:0:
158,150,128138,1,0,1:0:0:0:
92,190,128284,6,0,P|59:207|1:206,1,95.9999970703126,0|0,1:0|0:0,0:0:0:0:
223,267,128866,2,0,P|254:287|282:337,1,95.9999970703126,8|0,0:0|1:0,0:0:0:0:
227,122,129449,1,0,1:0:0:0:
231,74,129594,1,8,0:0:0:0:
258,35,129740,1,0,0:0:0:0:
362,113,130031,1,8,0:0:0:0:
99,32,130322,1,4,0:0:0:0:
162,302,130614,6,0,B|240:288|240:288|272:310|272:310|347:297,1,191.999994140625,4|8,1:0|0:0,0:0:0:0:
297,209,131487,1,0,1:0:0:0:
44,184,131779,2,0,P|15:140|97:40,1,191.999994140625,0|8,1:0|0:0,0:0:0:0:
167,336,132652,1,0,1:0:0:0:
8,276,132944,6,0,B|136:295|74:218|212:243,1,191.999994140625,0|8,1:0|0:0,0:0:0:0:
341,119,133818,2,0,L|351:56,1,47.9999985351563,0|8,1:0|0:0,0:0:0:0:
419,202,134109,2,0,L|412:141,1,47.9999985351563,0|8,0:0|0:0,0:0:0:0:
337,270,134400,1,0,0:0:0:0:
240,207,134691,1,8,0:0:0:0:
320,379,134983,1,0,0:0:0:0:
240,207,135274,6,0,P|207:252|79:244,1,191.999994140625,4|8,1:0|0:0,0:0:0:0:
117,92,136148,1,0,1:0:0:0:
149,182,136439,1,0,1:0:0:0:
26,87,136730,1,0,0:0:0:0:
175,14,137021,2,0,L|367:0,1,191.999994140625,8|0,0:0|1:0,0:0:0:0:
435,217,138041,5,0,0:0:0:0:
435,217,138186,1,8,0:0:0:0:
256,330,138478,1,0,0:0:0:0:
256,330,138623,1,8,0:0:0:0:
77,217,138915,1,8,0:0:0:0:
256,64,139206,1,0,0:0:0:0:
256,64,139352,1,8,0:0:0:0:
444,340,139643,1,0,0:0:0:0:
68,340,139934,1,4,1:0:0:0:
256,192,140080,12,0,142264,0:0:0:0:
256,192,333478,12,0,342652,0:0:0:0:
