osu file format v14

[General]
AudioFilename: snow blind.mp3
AudioLeadIn: 0
PreviewTime: 97208
Countdown: 0
SampleSet: Normal
StackLeniency: 0.7
Mode: 1
LetterboxInBreaks: 0
WidescreenStoryboard: 0

[Editor]
Bookmarks: 40793,97397,115510,135887,174378,210604,228718,264944
DistanceSpacing: 1
BeatDivisor: 4
GridSize: 32
TimelineZoom: 1.2

[Metadata]
Title:snow blind -after-
TitleUnicode:snow blind -after-
Artist:fripSide
ArtistUnicode:fripSide
Creator:chaica
Version:Taiko Oni
Source:
Tags:nao sat 八木沼悟志 Yaginuma Satoshi 岡本拓三 Okamoto Takumi Yuki-ka split tears Charlotte
BeatmapID:1140045
BeatmapSetID:538110

[Difficulty]
HPDrainRate:6
CircleSize:6
OverallDifficulty:5
ApproachRate:9
SliderMultiplier:1.4
SliderTickRate:1

[Events]
//Background and Video events
0,0,"fuyu.jpg",0,34
//Break Periods
//Storyboard Layer 0 (Background)
//Storyboard Layer 1 (Fail)
//Storyboard Layer 2 (Pass)
//Storyboard Layer 3 (Foreground)
//Storyboard Sound Samples

[TimingPoints]
2303,566.037735849057,4,1,0,80,1,0
20416,-100,4,1,0,90,0,0
40793,-100,4,1,0,80,0,0
58906,-100,4,1,0,75,0,0
77019,-100,4,1,0,90,0,0
97397,-100,4,1,0,100,0,1
115510,-100,4,1,0,90,0,0
135887,-100,4,1,0,80,0,0
154001,-100,4,1,0,90,0,0
174378,-100,4,1,0,100,0,1
210604,-100,4,1,0,80,0,0
219661,-100,4,1,0,85,0,0
226170,-102.040816326531,4,1,0,85,0,0
226312,-103.092783505155,4,1,0,85,0,0
226453,-104.166666666667,4,1,0,85,0,0
226736,-106.382978723404,4,1,0,85,0,0
227019,-108.695652173913,4,1,0,85,0,0
227161,-109.89010989011,4,1,0,85,0,0
227303,-111.111111111111,4,1,0,85,0,0
227444,-112.359550561798,4,1,0,85,0,0
227586,-113.636363636364,4,1,0,85,0,0
227727,-114.942528735632,4,1,0,85,0,0
227869,-116.279069767442,4,1,0,85,0,0
228010,-117.647058823529,4,1,0,85,0,0
228152,-119.047619047619,4,1,0,85,0,0
228293,-120.481927710843,4,1,0,85,0,0
228435,-121.951219512195,4,1,0,85,0,0
228718,-125,4,1,0,90,0,0
237774,-111.111111111111,4,1,0,95,0,0
246831,-100,4,1,0,100,0,1
263670,-99.009900990099,4,1,0,100,0,1
263953,-97.0873786407767,4,1,0,100,0,1
264095,-95.8772770853308,4,1,0,100,0,1
264236,-95.2380952380952,4,1,0,100,0,1
264378,-94.3396226415094,4,1,0,100,0,1
264661,-92.5925925925926,4,1,0,100,0,1
264944,-90.9090909090909,4,1,0,100,0,1
283057,-90.9090909090909,4,1,0,100,0,0

[HitObjects]
256,192,2303,5,0,0:0:0:0:
256,192,2586,1,8,0:0:0:0:
256,192,2869,1,8,0:0:0:0:
256,192,3152,1,0,0:0:0:0:
256,192,3435,1,8,0:0:0:0:
256,192,4284,1,0,0:0:0:0:
256,192,4567,1,8,0:0:0:0:
256,192,4850,1,0,0:0:0:0:
256,192,5133,1,8,0:0:0:0:
256,192,5416,1,0,0:0:0:0:
256,192,5557,1,8,0:0:0:0:
256,192,6831,1,0,0:0:0:0:
256,192,7114,1,8,0:0:0:0:
256,192,7397,1,8,0:0:0:0:
256,192,7680,1,0,0:0:0:0:
256,192,7963,1,8,0:0:0:0:
256,192,8812,1,0,0:0:0:0:
256,192,9095,1,8,0:0:0:0:
256,192,9378,1,0,0:0:0:0:
256,192,9661,1,0,0:0:0:0:
256,192,9944,1,8,0:0:0:0:
256,192,10086,1,0,0:0:0:0:
256,192,11359,1,0,0:0:0:0:
256,192,11642,1,0,0:0:0:0:
256,192,11784,1,8,0:0:0:0:
256,192,11925,1,8,0:0:0:0:
256,192,12208,1,0,0:0:0:0:
256,192,12491,1,8,0:0:0:0:
256,192,13340,1,8,0:0:0:0:
256,192,13623,1,0,0:0:0:0:
256,192,13906,1,0,0:0:0:0:
256,192,14048,1,8,0:0:0:0:
256,192,14189,1,8,0:0:0:0:
256,192,14472,1,0,0:0:0:0:
256,192,14614,1,8,0:0:0:0:
256,192,15604,1,8,0:0:0:0:
256,192,15887,1,0,0:0:0:0:
256,192,16170,1,0,0:0:0:0:
256,192,16312,1,8,0:0:0:0:
256,192,16453,1,8,0:0:0:0:
256,192,16736,1,0,0:0:0:0:
256,192,17019,1,8,0:0:0:0:
256,192,17869,1,8,0:0:0:0:
256,192,18152,1,0,0:0:0:0:
256,192,18435,1,0,0:0:0:0:
256,192,18576,1,8,0:0:0:0:
256,192,18718,1,8,0:0:0:0:
256,192,19001,1,8,0:0:0:0:
256,192,19142,1,0,0:0:0:0:
256,192,19850,1,12,0:0:0:0:
256,192,20416,1,4,0:0:0:0:
256,192,20982,1,0,0:0:0:0:
256,192,21265,1,0,0:0:0:0:
256,192,21406,1,0,0:0:0:0:
256,192,21548,1,8,0:0:0:0:
256,192,22114,1,0,0:0:0:0:
256,192,22397,1,0,0:0:0:0:
256,192,22680,1,8,0:0:0:0:
256,192,23104,1,0,0:0:0:0:
256,192,23246,1,8,0:0:0:0:
256,192,23529,1,0,0:0:0:0:
256,192,23812,1,8,0:0:0:0:
256,192,23953,1,0,0:0:0:0:
256,192,24236,1,0,0:0:0:0:
256,192,24378,1,8,0:0:0:0:
256,192,24661,1,8,0:0:0:0:
256,192,24944,1,0,0:0:0:0:
256,192,25510,1,8,0:0:0:0:
256,192,25793,1,0,0:0:0:0:
256,192,26076,1,8,0:0:0:0:
256,192,26218,1,0,0:0:0:0:
256,192,26501,1,0,0:0:0:0:
256,192,26642,1,8,0:0:0:0:
256,192,26925,1,0,0:0:0:0:
256,192,27208,1,8,0:0:0:0:
256,192,27633,1,0,0:0:0:0:
256,192,27774,1,0,0:0:0:0:
256,192,28057,1,8,0:0:0:0:
256,192,28340,1,8,0:0:0:0:
256,192,28482,1,8,0:0:0:0:
256,192,28623,1,0,0:0:0:0:
256,192,28906,1,0,0:0:0:0:
256,192,29189,1,8,0:0:0:0:
256,192,29472,1,4,0:0:0:0:
256,192,30038,1,0,0:0:0:0:
256,192,30321,1,0,0:0:0:0:
256,192,30462,1,0,0:0:0:0:
256,192,30604,1,8,0:0:0:0:
256,192,31170,1,0,0:0:0:0:
256,192,31453,1,0,0:0:0:0:
256,192,31736,1,8,0:0:0:0:
256,192,32160,1,0,0:0:0:0:
256,192,32302,1,8,0:0:0:0:
256,192,32585,1,0,0:0:0:0:
256,192,32868,1,8,0:0:0:0:
256,192,33010,1,0,0:0:0:0:
256,192,33293,1,8,0:0:0:0:
256,192,33434,1,8,0:0:0:0:
256,192,33717,1,8,0:0:0:0:
256,192,34000,1,0,0:0:0:0:
256,192,34566,1,8,0:0:0:0:
256,192,34849,1,0,0:0:0:0:
256,192,34991,1,0,0:0:0:0:
256,192,35132,1,8,0:0:0:0:
256,192,35274,1,0,0:0:0:0:
256,192,35557,1,0,0:0:0:0:
256,192,35698,1,8,0:0:0:0:
256,192,35981,1,0,0:0:0:0:
256,192,36123,1,0,0:0:0:0:
256,192,36264,1,8,0:0:0:0:
256,192,36548,1,0,0:0:0:0:
256,192,36689,1,8,0:0:0:0:
256,192,36972,1,0,0:0:0:0:
256,192,37113,1,8,0:0:0:0:
256,192,37255,1,0,0:0:0:0:
256,192,37538,1,8,0:0:0:0:
256,192,37680,1,0,0:0:0:0:
256,192,37821,1,0,0:0:0:0:
256,192,37962,1,8,0:0:0:0:
256,192,38245,1,8,0:0:0:0:
256,192,38528,1,0,0:0:0:0:
256,192,38953,1,0,0:0:0:0:
256,192,39095,1,8,0:0:0:0:
256,192,39661,1,0,0:0:0:0:
256,192,40369,1,0,0:0:0:0:
256,192,40510,1,8,0:0:0:0:
256,192,40793,1,0,0:0:0:0:
256,192,41076,1,0,0:0:0:0:
256,192,41218,1,8,0:0:0:0:
256,192,41642,1,0,0:0:0:0:
256,192,41925,1,8,0:0:0:0:
256,192,42208,1,8,0:0:0:0:
256,192,42491,1,0,0:0:0:0:
256,192,43057,1,0,0:0:0:0:
256,192,43340,1,8,0:0:0:0:
256,192,43482,1,0,0:0:0:0:
256,192,43906,1,8,0:0:0:0:
256,192,44189,1,0,0:0:0:0:
256,192,44472,1,0,0:0:0:0:
256,192,44755,1,8,0:0:0:0:
256,192,45321,1,0,0:0:0:0:
256,192,45604,1,0,0:0:0:0:
256,192,45745,1,8,0:0:0:0:
256,192,46170,1,0,0:0:0:0:
256,192,46453,1,8,0:0:0:0:
256,192,46736,1,8,0:0:0:0:
256,192,47019,1,0,0:0:0:0:
256,192,47303,1,8,0:0:0:0:
256,192,47586,1,0,0:0:0:0:
256,192,48010,1,0,0:0:0:0:
256,192,48435,1,0,0:0:0:0:
256,192,48718,1,8,0:0:0:0:
256,192,49001,1,0,0:0:0:0:
256,192,49284,1,8,0:0:0:0:
256,192,49425,1,8,0:0:0:0:
256,192,49567,1,0,0:0:0:0:
256,192,49850,1,0,0:0:0:0:
256,192,50133,1,0,0:0:0:0:
256,192,50274,1,8,0:0:0:0:
256,192,50699,1,0,0:0:0:0:
256,192,50982,1,8,0:0:0:0:
256,192,51265,1,8,0:0:0:0:
256,192,51548,1,0,0:0:0:0:
256,192,52114,1,0,0:0:0:0:
256,192,52397,1,8,0:0:0:0:
256,192,52539,1,0,0:0:0:0:
256,192,52963,1,8,0:0:0:0:
256,192,53246,1,0,0:0:0:0:
256,192,53529,1,0,0:0:0:0:
256,192,53812,1,8,0:0:0:0:
256,192,54095,1,0,0:0:0:0:
256,192,54378,1,8,0:0:0:0:
256,192,55227,1,0,0:0:0:0:
256,192,55510,1,8,0:0:0:0:
256,192,55793,1,0,0:0:0:0:
256,192,56076,1,8,0:0:0:0:
256,192,56359,1,8,0:0:0:0:
256,192,56642,1,0,0:0:0:0:
256,192,57067,1,0,0:0:0:0:
256,192,57491,1,0,0:0:0:0:
256,192,57774,1,8,0:0:0:0:
256,192,58057,1,0,0:0:0:0:
256,192,58340,1,0,0:0:0:0:
256,192,58482,1,0,0:0:0:0:
256,192,58623,1,8,0:0:0:0:
256,192,58906,1,4,0:0:0:0:
256,192,59189,1,0,0:0:0:0:
256,192,59331,1,8,0:0:0:0:
256,192,59614,1,8,0:0:0:0:
256,192,59755,1,0,0:0:0:0:
256,192,60038,1,8,0:0:0:0:
256,192,60321,1,8,0:0:0:0:
256,192,60604,1,0,0:0:0:0:
256,192,60887,1,8,0:0:0:0:
256,192,61029,1,8,0:0:0:0:
256,192,61170,1,0,0:0:0:0:
256,192,61453,1,8,0:0:0:0:
256,192,61595,1,0,0:0:0:0:
256,192,61878,1,0,0:0:0:0:
256,192,62019,1,8,0:0:0:0:
256,192,62303,1,0,0:0:0:0:
256,192,62586,1,0,0:0:0:0:
256,192,62869,1,8,0:0:0:0:
256,192,63152,1,8,0:0:0:0:
256,192,63293,1,8,0:0:0:0:
256,192,63435,1,0,0:0:0:0:
256,192,63718,1,0,0:0:0:0:
256,192,63859,1,8,0:0:0:0:
256,192,64142,1,8,0:0:0:0:
256,192,64284,1,0,0:0:0:0:
256,192,64567,1,8,0:0:0:0:
256,192,64850,1,8,0:0:0:0:
256,192,65133,1,0,0:0:0:0:
256,192,65416,1,8,0:0:0:0:
256,192,65699,1,0,0:0:0:0:
256,192,66123,1,0,0:0:0:0:
256,192,66548,1,8,0:0:0:0:
256,192,66831,1,0,0:0:0:0:
256,192,67114,1,8,0:0:0:0:
256,192,67397,1,0,0:0:0:0:
256,192,67538,1,0,0:0:0:0:
256,192,67680,1,8,0:0:0:0:
256,192,67963,1,0,0:0:0:0:
256,192,68246,1,8,0:0:0:0:
256,192,68387,1,0,0:0:0:0:
256,192,68670,1,0,0:0:0:0:
256,192,68812,1,8,0:0:0:0:
256,192,69095,1,0,0:0:0:0:
256,192,69378,1,8,0:0:0:0:
256,192,69661,1,8,0:0:0:0:
256,192,70227,1,0,0:0:0:0:
256,192,70510,1,0,0:0:0:0:
256,192,70652,1,8,0:0:0:0:
256,192,70935,1,8,0:0:0:0:
256,192,71076,1,0,0:0:0:0:
256,192,71359,1,8,0:0:0:0:
256,192,71642,1,0,0:0:0:0:
256,192,71925,1,8,0:0:0:0:
256,192,72208,1,8,0:0:0:0:
256,192,72491,1,0,0:0:0:0:
256,192,73340,1,0,0:0:0:0:
256,192,73623,1,8,0:0:0:0:
256,192,73906,1,0,0:0:0:0:
256,192,74189,1,8,0:0:0:0:
256,192,74472,1,8,0:0:0:0:
256,192,74755,1,0,0:0:0:0:
256,192,75180,1,0,0:0:0:0:
256,192,75604,1,8,0:0:0:0:
256,192,75887,1,0,0:0:0:0:
256,192,76029,1,0,0:0:0:0:
256,192,76170,1,8,0:0:0:0:
256,192,76453,1,8,0:0:0:0:
256,192,76595,1,0,0:0:0:0:
256,192,76736,1,8,0:0:0:0:
256,192,77019,1,4,0:0:0:0:
256,192,77303,1,0,0:0:0:0:
256,192,77444,1,0,0:0:0:0:
256,192,77586,1,8,0:0:0:0:
256,192,77869,1,0,0:0:0:0:
256,192,78010,1,8,0:0:0:0:
256,192,78293,1,8,0:0:0:0:
256,192,78435,1,0,0:0:0:0:
256,192,78718,1,8,0:0:0:0:
256,192,79001,1,8,0:0:0:0:
256,192,79142,1,8,0:0:0:0:
256,192,79284,1,0,0:0:0:0:
256,192,79567,1,8,0:0:0:0:
256,192,79850,1,0,0:0:0:0:
256,192,80133,1,0,0:0:0:0:
256,192,80274,1,8,0:0:0:0:
256,192,80557,1,8,0:0:0:0:
256,192,80699,1,0,0:0:0:0:
256,192,80982,1,8,0:0:0:0:
256,192,81548,1,0,0:0:0:0:
256,192,81831,1,8,0:0:0:0:
256,192,81972,1,8,0:0:0:0:
256,192,82114,1,0,0:0:0:0:
256,192,82397,1,0,0:0:0:0:
256,192,82538,1,8,0:0:0:0:
256,192,82821,1,8,0:0:0:0:
256,192,82963,1,0,0:0:0:0:
256,192,83246,1,8,0:0:0:0:
256,192,83529,1,0,0:0:0:0:
256,192,83671,1,0,0:0:0:0:
256,192,83812,1,8,0:0:0:0:
256,192,84378,1,0,0:0:0:0:
256,192,84661,1,8,0:0:0:0:
256,192,84803,1,0,0:0:0:0:
256,192,85086,1,0,0:0:0:0:
256,192,85227,1,8,0:0:0:0:
256,192,85369,1,8,0:0:0:0:
256,192,85510,1,0,0:0:0:0:
256,192,85793,1,8,0:0:0:0:
256,192,86076,1,4,0:0:0:0:
256,192,86359,1,8,0:0:0:0:
256,192,86642,1,0,0:0:0:0:
256,192,86925,1,0,0:0:0:0:
256,192,87067,1,8,0:0:0:0:
256,192,87350,1,8,0:0:0:0:
256,192,87491,1,0,0:0:0:0:
256,192,87774,1,8,0:0:0:0:
256,192,88057,1,0,0:0:0:0:
256,192,88199,1,0,0:0:0:0:
256,192,88340,1,8,0:0:0:0:
256,192,88906,1,0,0:0:0:0:
256,192,89189,1,0,0:0:0:0:
256,192,89331,1,8,0:0:0:0:
256,192,89614,1,8,0:0:0:0:
256,192,89755,1,0,0:0:0:0:
256,192,89897,1,0,0:0:0:0:
256,192,90038,1,8,0:0:0:0:
256,192,90321,1,8,0:0:0:0:
256,192,90604,1,4,0:0:0:0:
256,192,91170,1,8,0:0:0:0:
256,192,91453,1,0,0:0:0:0:
256,192,91595,1,0,0:0:0:0:
256,192,91736,1,8,0:0:0:0:
256,192,92019,1,0,0:0:0:0:
256,192,92303,1,0,0:0:0:0:
256,192,92869,1,12,0:0:0:0:
256,192,93152,1,0,0:0:0:0:
256,192,93435,1,0,0:0:0:0:
256,192,93718,1,8,0:0:0:0:
256,192,94001,1,0,0:0:0:0:
256,192,94142,1,8,0:0:0:0:
256,192,94284,1,0,0:0:0:0:
256,192,94567,1,8,0:0:0:0:
256,192,94708,1,0,0:0:0:0:
256,192,94850,1,8,0:0:0:0:
256,192,95133,1,0,0:0:0:0:
256,192,95274,1,8,0:0:0:0:
256,192,95416,1,0,0:0:0:0:
256,192,95557,1,0,0:0:0:0:
256,192,95699,1,8,0:0:0:0:
256,192,95840,1,0,0:0:0:0:
256,192,95982,1,8,0:0:0:0:
256,192,96123,1,8,0:0:0:0:
256,192,96265,1,0,0:0:0:0:
256,192,96406,1,8,0:0:0:0:
256,192,96689,1,8,0:0:0:0:
256,192,96831,1,0,0:0:0:0:
256,192,96972,1,0,0:0:0:0:
256,192,97114,1,8,0:0:0:0:
256,192,97397,1,4,0:0:0:0:
256,192,97680,1,0,0:0:0:0:
256,192,97821,1,0,0:0:0:0:
256,192,97963,1,8,0:0:0:0:
256,192,98246,1,0,0:0:0:0:
256,192,98529,1,8,0:0:0:0:
256,192,98812,1,0,0:0:0:0:
256,192,98953,1,8,0:0:0:0:
256,192,99378,1,8,0:0:0:0:
256,192,99519,1,0,0:0:0:0:
256,192,99661,1,8,0:0:0:0:
256,192,99944,1,0,0:0:0:0:
256,192,100227,1,8,0:0:0:0:
256,192,100510,1,8,0:0:0:0:
256,192,100652,1,0,0:0:0:0:
256,192,100793,1,0,0:0:0:0:
256,192,100935,1,8,0:0:0:0:
256,192,101218,1,0,0:0:0:0:
256,192,101359,1,8,0:0:0:0:
256,192,101642,1,8,0:0:0:0:
256,192,101925,1,4,0:0:0:0:
256,192,102208,1,0,0:0:0:0:
256,192,102491,1,8,0:0:0:0:
256,192,102774,1,0,0:0:0:0:
256,192,102916,1,8,0:0:0:0:
256,192,103057,1,8,0:0:0:0:
256,192,103340,1,0,0:0:0:0:
256,192,103482,1,8,0:0:0:0:
256,192,103906,1,8,0:0:0:0:
256,192,104048,1,0,0:0:0:0:
256,192,104189,1,8,0:0:0:0:
256,192,104472,1,0,0:0:0:0:
256,192,104755,1,8,0:0:0:0:
256,192,105038,1,8,0:0:0:0:
256,192,105180,1,0,0:0:0:0:
256,192,105463,1,8,0:0:0:0:
256,192,105604,1,0,0:0:0:0:
256,192,105746,1,0,0:0:0:0:
256,192,105887,1,8,0:0:0:0:
256,192,106170,1,8,0:0:0:0:
256,192,106453,1,4,0:0:0:0:
256,192,106736,1,0,0:0:0:0:
256,192,107019,1,8,0:0:0:0:
256,192,107303,1,0,0:0:0:0:
256,192,107444,1,8,0:0:0:0:
256,192,107586,1,8,0:0:0:0:
256,192,107869,1,0,0:0:0:0:
256,192,108010,1,8,0:0:0:0:
256,192,108435,1,8,0:0:0:0:
256,192,108576,1,8,0:0:0:0:
256,192,108718,1,8,0:0:0:0:
256,192,109001,1,0,0:0:0:0:
256,192,109284,1,8,0:0:0:0:
256,192,109567,1,8,0:0:0:0:
256,192,109708,1,0,0:0:0:0:
256,192,109850,1,0,0:0:0:0:
256,192,109991,1,8,0:0:0:0:
256,192,110274,1,0,0:0:0:0:
256,192,110416,1,8,0:0:0:0:
256,192,110699,1,8,0:0:0:0:
256,192,110982,1,4,0:0:0:0:
256,192,111265,1,0,0:0:0:0:
256,192,111406,1,0,0:0:0:0:
256,192,111548,1,8,0:0:0:0:
256,192,111831,1,0,0:0:0:0:
256,192,112114,1,8,0:0:0:0:
256,192,112397,1,0,0:0:0:0:
256,192,112538,1,8,0:0:0:0:
256,192,112963,1,8,0:0:0:0:
256,192,113104,1,8,0:0:0:0:
256,192,113246,1,0,0:0:0:0:
256,192,113529,1,0,0:0:0:0:
256,192,113670,1,0,0:0:0:0:
256,192,113812,1,8,0:0:0:0:
256,192,114095,1,8,0:0:0:0:
256,192,114236,1,0,0:0:0:0:
256,192,114378,1,0,0:0:0:0:
256,192,114519,1,8,0:0:0:0:
256,192,114661,1,0,0:0:0:0:
256,192,114803,1,0,0:0:0:0:
256,192,114944,1,8,0:0:0:0:
256,192,115227,1,8,0:0:0:0:
256,192,115510,1,4,0:0:0:0:
256,192,116076,1,0,0:0:0:0:
256,192,116359,1,0,0:0:0:0:
256,192,116500,1,0,0:0:0:0:
256,192,116642,1,8,0:0:0:0:
256,192,116784,1,0,0:0:0:0:
256,192,117208,1,0,0:0:0:0:
256,192,117491,1,0,0:0:0:0:
256,192,117774,1,8,0:0:0:0:
256,192,118198,1,8,0:0:0:0:
256,192,118340,1,0,0:0:0:0:
256,192,118623,1,8,0:0:0:0:
256,192,118906,1,0,0:0:0:0:
256,192,119048,1,8,0:0:0:0:
256,192,119330,1,0,0:0:0:0:
256,192,119472,1,8,0:0:0:0:
256,192,119755,1,8,0:0:0:0:
256,192,120038,1,0,0:0:0:0:
256,192,120604,1,8,0:0:0:0:
256,192,120887,1,0,0:0:0:0:
256,192,121170,1,8,0:0:0:0:
256,192,121312,1,0,0:0:0:0:
256,192,121595,1,0,0:0:0:0:
256,192,121736,1,8,0:0:0:0:
256,192,122019,1,0,0:0:0:0:
256,192,122302,1,8,0:0:0:0:
256,192,122727,1,8,0:0:0:0:
256,192,122868,1,0,0:0:0:0:
256,192,123151,1,8,0:0:0:0:
256,192,123434,1,0,0:0:0:0:
256,192,123576,1,8,0:0:0:0:
256,192,123717,1,0,0:0:0:0:
256,192,124000,1,0,0:0:0:0:
256,192,124283,1,8,0:0:0:0:
256,192,124566,1,4,0:0:0:0:
256,192,125132,1,0,0:0:0:0:
256,192,125415,1,0,0:0:0:0:
256,192,125556,1,0,0:0:0:0:
256,192,125698,1,8,0:0:0:0:
256,192,125840,1,0,0:0:0:0:
256,192,126264,1,0,0:0:0:0:
256,192,126548,1,0,0:0:0:0:
256,192,126830,1,8,0:0:0:0:
256,192,127254,1,8,0:0:0:0:
256,192,127396,1,0,0:0:0:0:
256,192,127679,1,8,0:0:0:0:
256,192,127962,1,8,0:0:0:0:
256,192,128104,1,0,0:0:0:0:
256,192,128386,1,0,0:0:0:0:
256,192,128528,1,8,0:0:0:0:
256,192,128811,1,8,0:0:0:0:
256,192,129094,1,0,0:0:0:0:
256,192,129660,1,8,0:0:0:0:
256,192,129943,1,0,0:0:0:0:
256,192,130086,1,0,0:0:0:0:
256,192,130226,1,8,0:0:0:0:
256,192,130510,1,0,0:0:0:0:
256,192,130652,1,0,0:0:0:0:
256,192,130792,1,8,0:0:0:0:
256,192,130935,1,8,0:0:0:0:
256,192,131076,1,0,0:0:0:0:
256,192,131359,1,8,0:0:0:0:
256,192,131642,1,0,0:0:0:0:
256,192,131784,1,0,0:0:0:0:
256,192,132067,1,0,0:0:0:0:
256,192,132208,1,0,0:0:0:0:
256,192,132350,1,0,0:0:0:0:
256,192,132633,1,0,0:0:0:0:
256,192,132774,1,0,0:0:0:0:
256,192,133057,1,0,0:0:0:0:
256,192,133199,1,0,0:0:0:0:
256,192,133340,1,8,0:0:0:0:
256,192,133623,1,0,0:0:0:0:
256,192,134048,1,0,0:0:0:0:
256,192,134189,1,8,0:0:0:0:
256,192,134755,1,0,0:0:0:0:
256,192,135604,1,8,0:0:0:0:
256,192,135887,1,0,0:0:0:0:
256,192,136170,1,0,0:0:0:0:
256,192,136312,1,8,0:0:0:0:
256,192,136736,1,8,0:0:0:0:
256,192,137019,1,0,0:0:0:0:
256,192,137444,1,0,0:0:0:0:
256,192,137586,1,8,0:0:0:0:
256,192,137869,1,8,0:0:0:0:
256,192,138152,1,0,0:0:0:0:
256,192,138435,1,0,0:0:0:0:
256,192,138576,1,8,0:0:0:0:
256,192,139001,1,8,0:0:0:0:
256,192,139284,1,0,0:0:0:0:
256,192,139708,1,8,0:0:0:0:
256,192,139850,1,0,0:0:0:0:
256,192,140133,1,8,0:0:0:0:
256,192,140416,1,0,0:0:0:0:
256,192,140699,1,0,0:0:0:0:
256,192,140840,1,8,0:0:0:0:
256,192,141265,1,0,0:0:0:0:
256,192,141548,1,8,0:0:0:0:
256,192,141831,1,0,0:0:0:0:
256,192,142114,1,8,0:0:0:0:
256,192,142397,1,8,0:0:0:0:
256,192,142680,1,0,0:0:0:0:
256,192,143104,1,0,0:0:0:0:
256,192,143529,1,8,0:0:0:0:
256,192,143812,1,0,0:0:0:0:
256,192,143953,1,8,0:0:0:0:
256,192,144095,1,8,0:0:0:0:
256,192,144378,1,0,0:0:0:0:
256,192,144661,1,8,0:0:0:0:
256,192,144944,1,0,0:0:0:0:
256,192,145227,1,0,0:0:0:0:
256,192,145369,1,8,0:0:0:0:
256,192,145793,1,8,0:0:0:0:
256,192,146076,1,0,0:0:0:0:
256,192,146501,1,0,0:0:0:0:
256,192,146643,1,8,0:0:0:0:
256,192,146926,1,8,0:0:0:0:
256,192,147209,1,0,0:0:0:0:
256,192,147492,1,0,0:0:0:0:
256,192,147633,1,8,0:0:0:0:
256,192,148058,1,8,0:0:0:0:
256,192,148341,1,0,0:0:0:0:
256,192,148623,1,8,0:0:0:0:
256,192,148765,1,8,0:0:0:0:
256,192,148907,1,0,0:0:0:0:
256,192,149190,1,8,0:0:0:0:
256,192,149473,1,0,0:0:0:0:
256,192,149756,1,0,0:0:0:0:
256,192,149897,1,8,0:0:0:0:
256,192,150322,1,8,0:0:0:0:
256,192,150605,1,0,0:0:0:0:
256,192,150888,1,8,0:0:0:0:
256,192,151171,1,8,0:0:0:0:
256,192,151454,1,0,0:0:0:0:
256,192,151737,1,0,0:0:0:0:
256,192,151878,1,0,0:0:0:0:
256,192,152161,1,0,0:0:0:0:
256,192,152303,1,8,0:0:0:0:
256,192,152586,1,0,0:0:0:0:
256,192,152869,1,0,0:0:0:0:
256,192,153010,1,8,0:0:0:0:
256,192,153152,1,0,0:0:0:0:
256,192,153435,1,0,0:0:0:0:
256,192,153576,1,0,0:0:0:0:
256,192,153718,1,8,0:0:0:0:
256,192,154001,1,4,0:0:0:0:
256,192,154567,1,8,0:0:0:0:
256,192,154850,1,0,0:0:0:0:
256,192,154991,1,8,0:0:0:0:
256,192,155274,1,8,0:0:0:0:
256,192,155416,1,8,0:0:0:0:
256,192,155699,1,0,0:0:0:0:
256,192,155982,1,8,0:0:0:0:
256,192,156265,1,0,0:0:0:0:
256,192,156548,1,0,0:0:0:0:
256,192,156689,1,0,0:0:0:0:
256,192,156831,1,8,0:0:0:0:
256,192,157114,1,8,0:0:0:0:
256,192,157255,1,0,0:0:0:0:
256,192,157538,1,8,0:0:0:0:
256,192,157680,1,8,0:0:0:0:
256,192,157963,1,0,0:0:0:0:
256,192,158246,1,8,0:0:0:0:
256,192,158529,1,0,0:0:0:0:
256,192,159095,1,8,0:0:0:0:
256,192,159378,1,0,0:0:0:0:
256,192,159519,1,0,0:0:0:0:
256,192,159803,1,0,0:0:0:0:
256,192,159944,1,8,0:0:0:0:
256,192,160227,1,0,0:0:0:0:
256,192,160510,1,0,0:0:0:0:
256,192,160652,1,0,0:0:0:0:
256,192,160793,1,8,0:0:0:0:
256,192,161076,1,0,0:0:0:0:
256,192,161359,1,8,0:0:0:0:
256,192,161642,1,0,0:0:0:0:
256,192,161783,1,8,0:0:0:0:
256,192,162066,1,8,0:0:0:0:
256,192,162208,1,0,0:0:0:0:
256,192,162491,1,0,0:0:0:0:
256,192,162774,1,8,0:0:0:0:
256,192,163057,1,4,0:0:0:0:
256,192,163623,1,8,0:0:0:0:
256,192,163906,1,0,0:0:0:0:
256,192,164047,1,0,0:0:0:0:
256,192,164330,1,8,0:0:0:0:
256,192,164472,1,8,0:0:0:0:
256,192,164755,1,0,0:0:0:0:
256,192,165038,1,0,0:0:0:0:
256,192,165180,1,0,0:0:0:0:
256,192,165321,1,8,0:0:0:0:
256,192,165604,1,0,0:0:0:0:
256,192,165887,1,8,0:0:0:0:
256,192,166170,1,8,0:0:0:0:
256,192,166311,1,0,0:0:0:0:
256,192,166595,1,8,0:0:0:0:
256,192,166736,1,8,0:0:0:0:
256,192,167019,1,0,0:0:0:0:
256,192,167302,1,8,0:0:0:0:
256,192,167585,1,4,0:0:0:0:
256,192,167869,1,0,0:0:0:0:
256,192,168010,1,0,0:0:0:0:
256,192,168152,1,8,0:0:0:0:
256,192,168435,1,0,0:0:0:0:
256,192,168576,1,0,0:0:0:0:
256,192,168718,1,8,0:0:0:0:
256,192,168859,1,0,0:0:0:0:
256,192,169142,1,0,0:0:0:0:
256,192,169284,1,8,0:0:0:0:
256,192,169567,1,8,0:0:0:0:
256,192,169850,1,4,0:0:0:0:
256,192,170274,1,0,0:0:0:0:
256,192,170416,1,8,0:0:0:0:
256,192,170699,1,0,0:0:0:0:
256,192,170840,1,8,0:0:0:0:
256,192,170982,1,8,0:0:0:0:
256,192,171123,1,0,0:0:0:0:
256,192,171265,1,8,0:0:0:0:
256,192,171406,1,0,0:0:0:0:
256,192,171548,1,8,0:0:0:0:
256,192,171689,1,8,0:0:0:0:
256,192,171831,1,0,0:0:0:0:
256,192,172114,1,4,0:0:0:0:
256,192,172397,1,0,0:0:0:0:
256,192,172538,1,8,0:0:0:0:
256,192,172680,1,0,0:0:0:0:
256,192,172821,1,0,0:0:0:0:
256,192,172963,1,8,0:0:0:0:
256,192,173246,1,4,0:0:0:0:
256,192,173812,1,4,0:0:0:0:
256,192,174378,1,4,0:0:0:0:
256,192,174661,1,0,0:0:0:0:
256,192,174803,1,0,0:0:0:0:
256,192,174944,1,8,0:0:0:0:
256,192,175227,1,8,0:0:0:0:
256,192,175510,1,0,0:0:0:0:
256,192,175793,1,0,0:0:0:0:
256,192,175935,1,8,0:0:0:0:
256,192,176359,1,8,0:0:0:0:
256,192,176501,1,0,0:0:0:0:
256,192,176642,1,8,0:0:0:0:
256,192,176925,1,0,0:0:0:0:
256,192,177208,1,8,0:0:0:0:
256,192,177491,1,0,0:0:0:0:
256,192,177633,1,8,0:0:0:0:
256,192,177916,1,8,0:0:0:0:
256,192,178057,1,0,0:0:0:0:
256,192,178340,1,8,0:0:0:0:
256,192,178623,1,8,0:0:0:0:
256,192,178765,1,8,0:0:0:0:
256,192,178906,1,0,0:0:0:0:
256,192,179189,1,0,0:0:0:0:
256,192,179331,1,0,0:0:0:0:
256,192,179472,1,8,0:0:0:0:
256,192,179755,1,8,0:0:0:0:
256,192,180038,1,0,0:0:0:0:
256,192,180321,1,8,0:0:0:0:
256,192,180463,1,0,0:0:0:0:
256,192,180887,1,0,0:0:0:0:
256,192,181029,1,8,0:0:0:0:
256,192,181170,1,0,0:0:0:0:
256,192,181453,1,8,0:0:0:0:
256,192,181736,1,0,0:0:0:0:
256,192,182019,1,0,0:0:0:0:
256,192,182161,1,8,0:0:0:0:
256,192,182444,1,8,0:0:0:0:
256,192,182586,1,0,0:0:0:0:
256,192,182727,1,0,0:0:0:0:
256,192,182869,1,8,0:0:0:0:
256,192,183152,1,8,0:0:0:0:
256,192,183293,1,8,0:0:0:0:
256,192,183435,1,0,0:0:0:0:
256,192,183718,1,0,0:0:0:0:
256,192,183859,1,0,0:0:0:0:
256,192,184001,1,8,0:0:0:0:
256,192,184284,1,8,0:0:0:0:
256,192,184567,1,0,0:0:0:0:
256,192,184850,1,0,0:0:0:0:
256,192,184991,1,8,0:0:0:0:
256,192,185416,1,0,0:0:0:0:
256,192,185557,1,0,0:0:0:0:
256,192,185699,1,8,0:0:0:0:
256,192,185982,1,0,0:0:0:0:
256,192,186265,1,8,0:0:0:0:
256,192,186548,1,0,0:0:0:0:
256,192,186689,1,8,0:0:0:0:
256,192,186972,1,8,0:0:0:0:
256,192,187114,1,0,0:0:0:0:
256,192,187397,1,8,0:0:0:0:
256,192,187680,1,8,0:0:0:0:
256,192,187821,1,8,0:0:0:0:
256,192,187963,1,0,0:0:0:0:
256,192,188246,1,0,0:0:0:0:
256,192,188387,1,0,0:0:0:0:
256,192,188529,1,8,0:0:0:0:
256,192,188812,1,8,0:0:0:0:
256,192,189095,1,0,0:0:0:0:
256,192,189378,1,8,0:0:0:0:
256,192,189519,1,0,0:0:0:0:
256,192,189944,1,8,0:0:0:0:
256,192,190086,1,8,0:0:0:0:
256,192,190227,1,0,0:0:0:0:
256,192,190510,1,8,0:0:0:0:
256,192,190793,1,0,0:0:0:0:
256,192,191076,1,0,0:0:0:0:
256,192,191218,1,8,0:0:0:0:
256,192,191501,1,8,0:0:0:0:
256,192,191643,1,0,0:0:0:0:
256,192,191784,1,0,0:0:0:0:
256,192,191926,1,8,0:0:0:0:
256,192,192067,1,0,0:0:0:0:
256,192,192209,1,8,0:0:0:0:
256,192,192492,1,4,0:0:0:0:
256,192,192775,1,0,0:0:0:0:
256,192,192916,1,0,0:0:0:0:
256,192,193058,1,8,0:0:0:0:
256,192,193340,1,8,0:0:0:0:
256,192,193623,1,0,0:0:0:0:
256,192,193906,1,0,0:0:0:0:
256,192,194048,1,8,0:0:0:0:
256,192,194472,1,8,0:0:0:0:
256,192,194614,1,0,0:0:0:0:
256,192,194755,1,8,0:0:0:0:
256,192,195038,1,0,0:0:0:0:
256,192,195321,1,8,0:0:0:0:
256,192,195604,1,0,0:0:0:0:
256,192,195746,1,8,0:0:0:0:
256,192,196029,1,8,0:0:0:0:
256,192,196170,1,0,0:0:0:0:
256,192,196453,1,8,0:0:0:0:
256,192,196595,1,0,0:0:0:0:
256,192,196736,1,8,0:0:0:0:
256,192,196878,1,8,0:0:0:0:
256,192,197019,1,0,0:0:0:0:
256,192,197302,1,0,0:0:0:0:
256,192,197444,1,0,0:0:0:0:
256,192,197585,1,8,0:0:0:0:
256,192,197868,1,8,0:0:0:0:
256,192,198151,1,0,0:0:0:0:
256,192,198434,1,8,0:0:0:0:
256,192,198576,1,0,0:0:0:0:
256,192,199000,1,0,0:0:0:0:
256,192,199142,1,8,0:0:0:0:
256,192,199283,1,0,0:0:0:0:
256,192,199566,1,8,0:0:0:0:
256,192,199849,1,0,0:0:0:0:
256,192,200132,1,0,0:0:0:0:
256,192,200274,1,8,0:0:0:0:
256,192,200557,1,8,0:0:0:0:
256,192,200699,1,8,0:0:0:0:
256,192,200840,1,0,0:0:0:0:
256,192,200982,1,8,0:0:0:0:
256,192,201123,1,0,0:0:0:0:
256,192,201265,1,8,0:0:0:0:
256,192,201548,1,4,0:0:0:0:
256,192,201831,1,0,0:0:0:0:
256,192,201972,1,0,0:0:0:0:
256,192,202114,1,8,0:0:0:0:
256,192,202397,1,8,0:0:0:0:
256,192,202680,1,0,0:0:0:0:
256,192,202963,1,0,0:0:0:0:
256,192,203104,1,8,0:0:0:0:
256,192,203529,1,0,0:0:0:0:
256,192,203670,1,0,0:0:0:0:
256,192,203812,1,8,0:0:0:0:
256,192,204095,1,0,0:0:0:0:
256,192,204378,1,8,0:0:0:0:
256,192,204661,1,0,0:0:0:0:
256,192,204802,1,8,0:0:0:0:
256,192,205085,1,8,0:0:0:0:
256,192,205227,1,0,0:0:0:0:
256,192,205510,1,8,0:0:0:0:
256,192,205652,1,0,0:0:0:0:
256,192,205793,1,8,0:0:0:0:
256,192,205934,1,8,0:0:0:0:
256,192,206076,1,0,0:0:0:0:
256,192,206359,1,0,0:0:0:0:
256,192,206500,1,0,0:0:0:0:
256,192,206642,1,8,0:0:0:0:
256,192,206925,1,8,0:0:0:0:
256,192,207208,1,0,0:0:0:0:
256,192,207491,1,8,0:0:0:0:
256,192,207632,1,0,0:0:0:0:
256,192,207916,1,8,0:0:0:0:
256,192,208057,1,0,0:0:0:0:
256,192,208199,1,8,0:0:0:0:
256,192,208340,1,0,0:0:0:0:
256,192,208482,1,0,0:0:0:0:
256,192,208623,1,8,0:0:0:0:
256,192,208765,1,8,0:0:0:0:
256,192,208906,1,0,0:0:0:0:
256,192,209189,1,0,0:0:0:0:
256,192,209331,1,8,0:0:0:0:
256,192,209614,1,8,0:0:0:0:
256,192,209756,1,0,0:0:0:0:
256,192,209897,1,0,0:0:0:0:
256,192,210039,1,8,0:0:0:0:
256,192,210180,1,0,0:0:0:0:
256,192,210322,1,8,0:0:0:0:
256,192,210604,1,4,0:0:0:0:
256,192,210887,1,8,0:0:0:0:
256,192,211029,1,0,0:0:0:0:
256,192,211312,1,0,0:0:0:0:
256,192,211453,1,8,0:0:0:0:
256,192,211595,1,0,0:0:0:0:
256,192,211878,1,0,0:0:0:0:
256,192,212019,1,8,0:0:0:0:
256,192,212303,1,0,0:0:0:0:
256,192,212586,1,8,0:0:0:0:
256,192,212869,1,0,0:0:0:0:
256,192,213152,1,8,0:0:0:0:
256,192,213293,1,0,0:0:0:0:
256,192,213576,1,0,0:0:0:0:
256,192,213718,1,8,0:0:0:0:
256,192,213859,1,8,0:0:0:0:
256,192,214142,1,0,0:0:0:0:
256,192,214284,1,8,0:0:0:0:
256,192,214425,1,8,0:0:0:0:
256,192,214567,1,0,0:0:0:0:
256,192,214850,1,8,0:0:0:0:
256,192,215133,1,0,0:0:0:0:
256,192,215416,1,8,0:0:0:0:
256,192,215557,1,0,0:0:0:0:
256,192,215841,1,0,0:0:0:0:
256,192,215982,1,8,0:0:0:0:
256,192,216124,1,0,0:0:0:0:
256,192,216407,1,0,0:0:0:0:
256,192,216548,1,8,0:0:0:0:
256,192,216832,1,0,0:0:0:0:
256,192,217115,1,8,0:0:0:0:
256,192,217398,1,0,0:0:0:0:
256,192,217681,1,8,0:0:0:0:
256,192,217821,1,0,0:0:0:0:
256,192,218105,1,0,0:0:0:0:
256,192,218247,1,8,0:0:0:0:
256,192,218388,1,8,0:0:0:0:
256,192,218671,1,0,0:0:0:0:
256,192,218813,1,8,0:0:0:0:
256,192,218953,1,8,0:0:0:0:
256,192,219096,1,0,0:0:0:0:
256,192,219379,1,8,0:0:0:0:
256,192,219661,1,4,0:0:0:0:
256,192,219944,1,8,0:0:0:0:
256,192,220086,1,0,0:0:0:0:
256,192,220369,1,0,0:0:0:0:
256,192,220510,1,8,0:0:0:0:
256,192,220652,1,0,0:0:0:0:
256,192,220935,1,0,0:0:0:0:
256,192,221076,1,8,0:0:0:0:
256,192,221218,1,8,0:0:0:0:
256,192,221360,1,0,0:0:0:0:
256,192,221643,1,8,0:0:0:0:
256,192,221784,1,8,0:0:0:0:
256,192,221926,1,0,0:0:0:0:
256,192,222209,1,8,0:0:0:0:
256,192,222350,1,0,0:0:0:0:
256,192,222633,1,0,0:0:0:0:
256,192,222775,1,8,0:0:0:0:
256,192,222916,1,8,0:0:0:0:
256,192,223199,1,0,0:0:0:0:
256,192,223341,1,8,0:0:0:0:
256,192,223482,1,8,0:0:0:0:
256,192,223624,1,0,0:0:0:0:
256,192,223907,1,8,0:0:0:0:
256,192,224048,1,8,0:0:0:0:
256,192,224190,1,0,0:0:0:0:
256,192,224473,1,8,0:0:0:0:
256,192,224614,1,0,0:0:0:0:
256,192,224898,1,0,0:0:0:0:
256,192,225039,1,8,0:0:0:0:
256,192,225181,1,0,0:0:0:0:
256,192,225464,1,0,0:0:0:0:
256,192,225605,1,8,0:0:0:0:
256,192,225746,1,8,0:0:0:0:
256,192,225887,1,0,0:0:0:0:
256,192,226170,1,8,0:0:0:0:
256,192,226312,1,8,0:0:0:0:
256,192,226453,1,0,0:0:0:0:
256,192,226736,1,8,0:0:0:0:
256,192,227019,1,0,0:0:0:0:
256,192,227161,1,0,0:0:0:0:
256,192,227303,1,8,0:0:0:0:
256,192,227444,1,8,0:0:0:0:
256,192,227586,1,0,0:0:0:0:
256,192,227727,1,8,0:0:0:0:
256,192,227869,1,0,0:0:0:0:
256,192,228010,1,0,0:0:0:0:
256,192,228152,1,8,0:0:0:0:
256,192,228293,1,0,0:0:0:0:
256,192,228435,1,8,0:0:0:0:
256,192,228718,1,4,0:0:0:0:
256,192,229850,1,8,0:0:0:0:
256,192,230982,1,0,0:0:0:0:
256,192,232114,1,8,0:0:0:0:
256,192,232680,1,8,0:0:0:0:
256,192,233246,1,0,0:0:0:0:
256,192,234378,1,8,0:0:0:0:
256,192,235510,1,0,0:0:0:0:
256,192,236642,1,8,0:0:0:0:
256,192,237208,1,0,0:0:0:0:
256,192,237774,1,4,0:0:0:0:
256,192,238340,1,8,0:0:0:0:
256,192,238623,1,0,0:0:0:0:
256,192,238906,1,8,0:0:0:0:
256,192,239189,1,0,0:0:0:0:
256,192,239331,1,8,0:0:0:0:
256,192,239755,1,8,0:0:0:0:
256,192,239897,1,8,0:0:0:0:
256,192,240038,1,0,0:0:0:0:
256,192,240321,1,8,0:0:0:0:
256,192,240604,1,0,0:0:0:0:
256,192,240887,1,0,0:0:0:0:
256,192,241029,1,8,0:0:0:0:
256,192,241312,1,8,0:0:0:0:
256,192,241453,1,0,0:0:0:0:
256,192,241736,1,8,0:0:0:0:
256,192,242019,1,8,0:0:0:0:
256,192,242161,1,8,0:0:0:0:
256,192,242303,1,0,0:0:0:0:
256,192,242586,1,0,0:0:0:0:
256,192,242727,1,0,0:0:0:0:
256,192,242869,1,8,0:0:0:0:
256,192,243152,1,0,0:0:0:0:
256,192,243435,1,8,0:0:0:0:
256,192,243718,1,0,0:0:0:0:
256,192,243860,1,8,0:0:0:0:
256,192,244142,1,0,0:0:0:0:
256,192,244284,1,8,0:0:0:0:
256,192,244425,1,8,0:0:0:0:
256,192,244567,1,0,0:0:0:0:
256,192,244850,1,8,0:0:0:0:
256,192,244991,1,0,0:0:0:0:
256,192,245133,1,8,0:0:0:0:
256,192,245275,1,8,0:0:0:0:
256,192,245416,1,0,0:0:0:0:
256,192,245557,1,8,0:0:0:0:
256,192,245699,1,0,0:0:0:0:
256,192,245840,1,0,0:0:0:0:
256,192,245982,1,0,0:0:0:0:
256,192,246123,1,0,0:0:0:0:
256,192,246265,1,8,0:0:0:0:
256,192,246548,1,8,0:0:0:0:
256,192,246831,1,4,0:0:0:0:
256,192,247114,1,0,0:0:0:0:
256,192,247255,1,0,0:0:0:0:
256,192,247397,1,8,0:0:0:0:
256,192,247680,1,8,0:0:0:0:
256,192,247963,1,0,0:0:0:0:
256,192,248246,1,0,0:0:0:0:
256,192,248387,1,8,0:0:0:0:
256,192,248812,1,8,0:0:0:0:
256,192,248953,1,8,0:0:0:0:
256,192,249095,1,0,0:0:0:0:
256,192,249378,1,8,0:0:0:0:
256,192,249661,1,0,0:0:0:0:
256,192,249944,1,0,0:0:0:0:
256,192,250086,1,8,0:0:0:0:
256,192,250369,1,8,0:0:0:0:
256,192,250510,1,0,0:0:0:0:
256,192,250793,1,8,0:0:0:0:
256,192,251076,1,8,0:0:0:0:
256,192,251218,1,8,0:0:0:0:
256,192,251359,1,0,0:0:0:0:
256,192,251642,1,0,0:0:0:0:
256,192,251784,1,0,0:0:0:0:
256,192,251925,1,8,0:0:0:0:
256,192,252208,1,8,0:0:0:0:
256,192,252491,1,0,0:0:0:0:
256,192,252774,1,8,0:0:0:0:
256,192,252916,1,0,0:0:0:0:
256,192,253340,1,0,0:0:0:0:
256,192,253482,1,8,0:0:0:0:
256,192,253623,1,0,0:0:0:0:
256,192,253906,1,8,0:0:0:0:
256,192,254189,1,0,0:0:0:0:
256,192,254472,1,0,0:0:0:0:
256,192,254614,1,8,0:0:0:0:
256,192,254897,1,8,0:0:0:0:
256,192,255038,1,0,0:0:0:0:
256,192,255180,1,0,0:0:0:0:
256,192,255321,1,8,0:0:0:0:
256,192,255604,1,8,0:0:0:0:
256,192,255746,1,8,0:0:0:0:
256,192,255887,1,0,0:0:0:0:
256,192,256170,1,0,0:0:0:0:
256,192,256312,1,0,0:0:0:0:
256,192,256453,1,8,0:0:0:0:
256,192,256736,1,8,0:0:0:0:
256,192,257019,1,0,0:0:0:0:
256,192,257303,1,0,0:0:0:0:
256,192,257444,1,8,0:0:0:0:
256,192,257869,1,8,0:0:0:0:
256,192,258010,1,8,0:0:0:0:
256,192,258152,1,0,0:0:0:0:
256,192,258435,1,8,0:0:0:0:
256,192,258718,1,0,0:0:0:0:
256,192,259001,1,0,0:0:0:0:
256,192,259142,1,8,0:0:0:0:
256,192,259425,1,8,0:0:0:0:
256,192,259567,1,0,0:0:0:0:
256,192,259850,1,8,0:0:0:0:
256,192,260133,1,8,0:0:0:0:
256,192,260274,1,8,0:0:0:0:
256,192,260416,1,0,0:0:0:0:
256,192,260699,1,0,0:0:0:0:
256,192,260840,1,0,0:0:0:0:
256,192,260982,1,8,0:0:0:0:
256,192,261265,1,8,0:0:0:0:
256,192,261548,1,0,0:0:0:0:
256,192,261831,1,8,0:0:0:0:
256,192,261972,1,0,0:0:0:0:
256,192,262397,1,0,0:0:0:0:
256,192,262538,1,8,0:0:0:0:
256,192,262680,1,0,0:0:0:0:
256,192,262963,1,8,0:0:0:0:
256,192,263246,1,0,0:0:0:0:
256,192,263529,1,0,0:0:0:0:
256,192,263670,1,8,0:0:0:0:
256,192,263953,1,8,0:0:0:0:
256,192,264095,1,0,0:0:0:0:
256,192,264236,1,0,0:0:0:0:
256,192,264378,1,8,0:0:0:0:
256,192,264661,1,8,0:0:0:0:
256,192,264944,1,4,0:0:0:0:
256,192,265227,1,0,0:0:0:0:
256,192,265369,1,0,0:0:0:0:
256,192,265510,1,8,0:0:0:0:
256,192,265793,1,8,0:0:0:0:
256,192,266076,1,0,0:0:0:0:
256,192,266218,1,8,0:0:0:0:
256,192,266501,1,8,0:0:0:0:
256,192,266642,1,0,0:0:0:0:
256,192,266925,1,8,0:0:0:0:
256,192,267208,1,0,0:0:0:0:
256,192,267491,1,0,0:0:0:0:
256,192,267633,1,0,0:0:0:0:
256,192,267774,1,8,0:0:0:0:
256,192,268057,1,8,0:0:0:0:
256,192,268199,1,0,0:0:0:0:
256,192,268340,1,0,0:0:0:0:
256,192,268482,1,8,0:0:0:0:
256,192,268765,1,0,0:0:0:0:
256,192,268906,1,8,0:0:0:0:
256,192,269189,1,8,0:0:0:0:
256,192,269472,1,4,0:0:0:0:
256,192,270038,1,8,0:0:0:0:
256,192,270321,1,8,0:0:0:0:
256,192,270463,1,0,0:0:0:0:
256,192,270604,1,0,0:0:0:0:
256,192,270746,1,8,0:0:0:0:
256,192,271029,1,8,0:0:0:0:
256,192,271170,1,0,0:0:0:0:
256,192,271453,1,8,0:0:0:0:
256,192,271736,1,0,0:0:0:0:
256,192,272019,1,8,0:0:0:0:
256,192,272161,1,8,0:0:0:0:
256,192,272303,1,0,0:0:0:0:
256,192,272586,1,8,0:0:0:0:
256,192,272727,1,0,0:0:0:0:
256,192,273010,1,8,0:0:0:0:
256,192,273152,1,8,0:0:0:0:
256,192,273293,1,0,0:0:0:0:
256,192,273435,1,8,0:0:0:0:
256,192,273718,1,8,0:0:0:0:
256,192,274001,1,4,0:0:0:0:
256,192,274284,1,0,0:0:0:0:
256,192,274425,1,0,0:0:0:0:
256,192,274567,1,8,0:0:0:0:
256,192,274850,1,8,0:0:0:0:
256,192,275133,1,0,0:0:0:0:
256,192,275274,1,8,0:0:0:0:
256,192,275557,1,8,0:0:0:0:
256,192,275699,1,0,0:0:0:0:
256,192,275982,1,8,0:0:0:0:
256,192,276123,1,8,0:0:0:0:
256,192,276265,1,0,0:0:0:0:
256,192,276548,1,8,0:0:0:0:
256,192,276831,1,0,0:0:0:0:
256,192,277114,1,8,0:0:0:0:
256,192,277255,1,0,0:0:0:0:
256,192,277397,1,0,0:0:0:0:
256,192,277538,1,8,0:0:0:0:
256,192,277821,1,0,0:0:0:0:
256,192,277963,1,8,0:0:0:0:
256,192,278246,1,8,0:0:0:0:
256,192,278529,1,4,0:0:0:0:
256,192,279095,1,8,0:0:0:0:
256,192,279378,1,8,0:0:0:0:
256,192,279519,1,0,0:0:0:0:
256,192,279803,1,0,0:0:0:0:
256,192,279944,1,8,0:0:0:0:
256,192,280227,1,8,0:0:0:0:
256,192,280510,1,0,0:0:0:0:
256,192,280652,1,0,0:0:0:0:
256,192,280793,1,8,0:0:0:0:
256,192,281076,1,8,0:0:0:0:
256,192,281218,1,0,0:0:0:0:
256,192,281359,1,8,0:0:0:0:
256,192,281642,1,8,0:0:0:0:
256,192,281784,1,8,0:0:0:0:
256,192,281925,1,0,0:0:0:0:
256,192,282067,1,8,0:0:0:0:
256,192,282208,1,0,0:0:0:0:
256,192,282350,1,0,0:0:0:0:
256,192,282491,1,8,0:0:0:0:
256,192,282633,1,0,0:0:0:0:
256,192,282774,1,8,0:0:0:0:
256,192,282916,1,8,0:0:0:0:
256,192,283057,1,0,0:0:0:0:
256,192,283340,1,0,0:0:0:0:
256,192,283623,1,8,0:0:0:0:
256,192,283906,1,0,0:0:0:0:
256,192,284189,1,8,0:0:0:0:
256,192,284331,1,0,0:0:0:0:
256,192,284755,1,0,0:0:0:0:
256,192,285038,1,8,0:0:0:0:
256,192,285321,1,0,0:0:0:0:
256,192,285604,1,0,0:0:0:0:
256,192,285887,1,8,0:0:0:0:
256,192,286170,1,0,0:0:0:0:
256,192,286311,1,8,0:0:0:0:
256,192,286595,1,8,0:0:0:0:
256,192,286736,1,0,0:0:0:0:
256,192,287019,1,0,0:0:0:0:
256,192,287303,1,8,0:0:0:0:
256,192,287585,1,4,0:0:0:0:
256,192,287868,1,0,0:0:0:0:
256,192,288151,1,8,0:0:0:0:
256,192,288434,1,0,0:0:0:0:
256,192,288717,1,8,0:0:0:0:
256,192,288859,1,0,0:0:0:0:
256,192,289284,1,0,0:0:0:0:
256,192,289566,1,8,0:0:0:0:
256,192,289849,1,0,0:0:0:0:
256,192,290132,1,0,0:0:0:0:
256,192,290415,1,8,0:0:0:0:
256,192,290698,1,8,0:0:0:0:
256,192,290840,1,0,0:0:0:0:
256,192,291123,1,0,0:0:0:0:
256,192,291265,1,8,0:0:0:0:
256,192,291406,1,8,0:0:0:0:
256,192,291548,1,0,0:0:0:0:
256,192,291689,1,0,0:0:0:0:
256,192,291831,1,8,0:0:0:0:
256,192,292113,1,4,0:0:0:0:
256,192,292396,1,0,0:0:0:0:
256,192,292538,1,8,0:0:0:0:
256,192,292679,1,8,0:0:0:0:
256,192,292963,1,0,0:0:0:0:
256,192,293245,1,8,0:0:0:0:
256,192,293387,1,0,0:0:0:0:
256,192,293812,1,0,0:0:0:0:
256,192,294094,1,8,0:0:0:0:
256,192,294377,1,0,0:0:0:0:
256,192,294660,1,0,0:0:0:0:
256,192,294802,1,8,0:0:0:0:
256,192,294943,1,8,0:0:0:0:
256,192,295226,1,0,0:0:0:0:
256,192,295368,1,8,0:0:0:0:
256,192,295652,1,8,0:0:0:0:
256,192,295793,1,0,0:0:0:0:
256,192,296076,1,0,0:0:0:0:
256,192,296358,1,8,0:0:0:0:
256,192,296641,1,4,0:0:0:0:
256,192,296924,1,0,0:0:0:0:
256,192,297066,1,8,0:0:0:0:
256,192,297207,1,8,0:0:0:0:
256,192,297490,1,0,0:0:0:0:
256,192,297773,1,8,0:0:0:0:
256,192,297916,1,0,0:0:0:0:
256,192,298340,1,0,0:0:0:0:
256,192,298623,1,8,0:0:0:0:
256,192,298906,1,0,0:0:0:0:
256,192,299189,1,8,0:0:0:0:
256,192,299331,1,0,0:0:0:0:
256,192,299472,1,8,0:0:0:0:
256,192,299755,1,8,0:0:0:0:
256,192,299896,1,0,0:0:0:0:
256,192,300038,1,0,0:0:0:0:
256,192,300180,1,8,0:0:0:0:
256,192,300321,1,8,0:0:0:0:
256,192,300604,1,12,0:0:0:0:
256,192,301170,1,4,0:0:0:0:
256,192,301453,1,0,0:0:0:0:
256,192,301595,1,0,0:0:0:0:
256,192,301736,1,8,0:0:0:0:
256,192,302019,1,0,0:0:0:0:
256,192,302302,1,8,0:0:0:0:
256,192,302444,1,0,0:0:0:0:
256,192,302869,1,0,0:0:0:0:
256,192,303151,1,8,0:0:0:0:
256,192,303434,1,0,0:0:0:0:
256,192,303717,1,0,0:0:0:0:
256,192,304000,1,8,0:0:0:0:
256,192,304283,1,0,0:0:0:0:
256,192,304424,1,8,0:0:0:0:
256,192,304708,1,8,0:0:0:0:
256,192,304850,1,0,0:0:0:0:
256,192,305133,1,0,0:0:0:0:
256,192,305416,1,8,0:0:0:0:
256,192,305698,1,4,0:0:0:0:
256,192,305981,1,0,0:0:0:0:
256,192,306123,1,0,0:0:0:0:
256,192,306264,1,8,0:0:0:0:
256,192,306547,1,0,0:0:0:0:
256,192,306830,1,8,0:0:0:0:
256,192,306972,1,0,0:0:0:0:
256,192,307255,1,0,0:0:0:0:
256,192,307397,1,8,0:0:0:0:
256,192,307679,1,0,0:0:0:0:
256,192,307962,1,8,0:0:0:0:
256,192,308246,1,8,0:0:0:0:
256,192,308528,1,0,0:0:0:0:
256,192,308811,1,8,0:0:0:0:
256,192,308953,1,0,0:0:0:0:
256,192,309236,1,0,0:0:0:0:
256,192,309378,1,0,0:0:0:0:
256,192,309519,1,0,0:0:0:0:
256,192,309661,1,8,0:0:0:0:
256,192,309803,1,0,0:0:0:0:
256,192,309944,1,8,0:0:0:0:
256,192,310086,1,8,0:0:0:0:
256,192,310227,1,0,0:0:0:0:
256,192,310509,1,0,0:0:0:0:
256,192,310651,1,8,0:0:0:0:
256,192,310792,1,8,0:0:0:0:
256,192,311075,1,0,0:0:0:0:
256,192,311358,1,8,0:0:0:0:
256,192,311501,1,0,0:0:0:0:
256,192,311925,1,0,0:0:0:0:
256,192,312207,1,8,0:0:0:0:
256,192,312490,1,0,0:0:0:0:
256,192,312773,1,0,0:0:0:0:
256,192,312915,1,8,0:0:0:0:
256,192,313056,1,8,0:0:0:0:
256,192,313339,1,0,0:0:0:0:
256,192,313481,1,8,0:0:0:0:
256,192,313765,1,8,0:0:0:0:
256,192,313906,1,0,0:0:0:0:
256,192,314048,1,0,0:0:0:0:
256,192,314189,1,8,0:0:0:0:
256,192,314471,1,8,0:0:0:0:
256,192,314754,1,4,0:0:0:0:
256,192,315037,1,0,0:0:0:0:
256,192,315179,1,8,0:0:0:0:
256,192,315320,1,8,0:0:0:0:
256,192,315603,1,0,0:0:0:0:
256,192,315886,1,8,0:0:0:0:
256,192,316029,1,0,0:0:0:0:
256,192,316312,1,0,0:0:0:0:
256,192,316453,1,8,0:0:0:0:
256,192,316736,1,0,0:0:0:0:
256,192,317019,1,8,0:0:0:0:
256,192,317161,1,8,0:0:0:0:
256,192,317302,1,0,0:0:0:0:
256,192,317443,1,0,0:0:0:0:
256,192,317585,1,8,0:0:0:0:
256,192,317868,1,8,0:0:0:0:
256,192,318009,1,0,0:0:0:0:
256,192,318152,1,0,0:0:0:0:
256,192,318293,1,8,0:0:0:0:
256,192,318435,1,8,0:0:0:0:
256,192,318576,1,0,0:0:0:0:
256,192,318718,1,8,0:0:0:0:
256,192,319284,1,4,0:0:0:0:
