osu file format v14

[General]
AudioFilename: audio.mp3
AudioLeadIn: 0
PreviewTime: 95943
Countdown: 0
SampleSet: Soft
StackLeniency: 0.7
Mode: 2
LetterboxInBreaks: 0
WidescreenStoryboard: 0

[Editor]
DistanceSpacing: 1.1
BeatDivisor: 4
GridSize: 4
TimelineZoom: 1

[Metadata]
Title:snow blind -after-
TitleUnicode:snow blind -after-
Artist:fripSide
ArtistUnicode:fripSide
Creator:alienflybot
Version:permafrost
Source:
Tags:nao sat サト 八木沼悟志 Satoshi Yaginuma 岡本拓三 Takumi Okamoto split tears snowblind side AFB
BeatmapID:1927148
BeatmapSetID:922835

[Difficulty]
HPDrainRate:6
CircleSize:5
OverallDifficulty:8
ApproachRate:8
SliderMultiplier:2.34
SliderTickRate:2

[Events]
//Background and Video events
0,0,"snow_RicoDZ.jpg",0,0
//Break Periods
2,227535,234359
//Storyboard Layer 0 (Background)
//Storyboard Layer 1 (Fail)
//Storyboard Layer 2 (Pass)
//Storyboard Layer 3 (Foreground)
//Storyboard Sound Samples

[TimingPoints]
920,566.037735849057,4,2,2,60,1,0
4316,-100,4,2,1,40,0,0
5448,-100,4,2,2,60,0,0
8844,-100,4,2,1,40,0,0
9976,-100,4,2,2,60,0,0
13372,-100,4,2,1,40,0,0
14221,-100,4,2,2,60,0,0
18467,-100,4,2,8,80,0,0
19033,-100,4,2,1,60,0,0
32618,-100,4,2,1,30,0,0
32759,-100,4,2,1,34,0,0
32901,-100,4,2,1,37,0,0
33042,-100,4,2,1,39,0,0
33184,-100,4,2,1,40,0,0
33325,-100,4,2,1,44,0,0
33467,-100,4,2,1,47,0,0
33608,-100,4,2,1,49,0,0
33750,-100,4,2,1,50,0,0
33891,-100,4,2,1,54,0,0
34033,-100,4,2,1,57,0,0
34174,-100,4,2,1,59,0,0
34316,-100,4,2,1,60,0,0
34457,-100,4,2,1,64,0,0
34599,-100,4,2,1,67,0,0
34740,-100,4,2,1,69,0,0
34882,-100,4,2,1,70,0,0
37287,-100,4,2,1,40,0,0
39127,-100,4,2,2,60,0,0
39410,-100,4,2,5,60,0,0
93750,-100,4,2,5,60,0,0
94316,-100,4,2,5,40,0,0
94457,-100,4,2,5,60,0,0
94882,-100,4,2,5,40,0,0
95023,-100,4,2,5,60,0,0
95165,-100,4,2,5,40,0,0
95306,-100,4,2,5,60,0,0
95589,-100,4,2,5,61,0,0
95731,-100,4,2,5,64,0,0
95872,-100,4,2,5,70,0,0
96014,-100,4,2,1,80,0,1
110731,-100,4,2,1,30,0,1
110872,-100,4,2,1,34,0,1
111014,-100,4,2,1,37,0,1
111155,-100,4,2,1,39,0,1
111297,-100,4,2,1,40,0,1
111438,-100,4,2,1,44,0,1
111580,-100,4,2,1,47,0,1
111721,-100,4,2,1,49,0,1
111863,-100,4,2,1,50,0,1
112004,-100,4,2,1,54,0,1
112146,-100,4,2,1,57,0,1
112287,-100,4,2,1,59,0,1
112429,-100,4,2,1,60,0,1
112995,-100,4,2,1,40,0,1
113136,-100,4,2,1,60,0,1
113561,-100,4,2,1,70,0,0
113986,-100,4,2,1,60,0,0
114127,-100,4,2,1,60,0,1
114269,-100,4,2,1,60,0,0
127712,-100,4,2,1,30,0,0
127853,-100,4,2,1,34,0,0
127995,-100,4,2,1,37,0,0
128136,-100,4,2,1,39,0,0
128278,-100,4,2,1,40,0,0
128420,-100,4,2,1,44,0,0
128561,-100,4,2,1,47,0,0
128703,-100,4,2,1,49,0,0
128844,-100,4,2,1,50,0,0
128986,-100,4,2,1,54,0,0
129127,-100,4,2,1,57,0,0
129269,-100,4,2,1,59,0,0
129410,-100,4,2,1,60,0,0
129552,-100,4,2,1,64,0,0
129693,-100,4,2,1,67,0,0
129835,-100,4,2,1,69,0,0
129976,-100,4,2,1,70,0,0
132382,-100,4,2,1,40,0,0
134221,-100,4,2,2,60,0,0
134504,-100,4,2,5,60,0,0
171297,-100,4,2,5,40,0,0
171438,-100,4,2,5,60,0,0
172995,-100,4,2,1,80,0,1
205825,-100,4,2,1,30,0,1
205967,-100,4,2,1,34,0,1
206108,-100,4,2,1,37,0,1
206250,-100,4,2,1,39,0,1
206391,-100,4,2,1,40,0,1
206533,-100,4,2,1,44,0,1
206674,-100,4,2,1,47,0,1
206816,-100,4,2,1,49,0,1
206957,-100,4,2,1,50,0,1
207099,-100,4,2,1,54,0,1
207240,-100,4,2,1,57,0,1
207382,-100,4,2,1,59,0,1
207523,-100,4,2,1,60,0,1
208089,-100,4,2,1,40,0,1
208231,-100,4,2,1,60,0,1
208655,-100,4,2,1,70,0,1
209033,-100,4,2,1,60,0,1
209221,-100,4,2,1,60,0,0
213467,-100,4,2,5,60,0,0
213608,-100,4,2,1,60,0,0
213750,-100,4,2,5,60,0,0
213891,-100,4,2,1,60,0,0
222523,-100,4,2,5,60,0,0
222665,-100,4,2,1,60,0,0
222806,-100,4,2,5,60,0,0
222948,-100,4,2,1,60,0,0
225636,-100,4,2,1,40,0,0
225778,-100,4,2,1,48,0,0
225920,-100,4,2,1,54,0,0
226061,-100,4,2,1,58,0,0
226203,-100,4,2,1,60,0,0
226769,-100,4,2,1,50,0,0
226910,-100,4,2,1,58,0,0
227052,-100,4,2,1,64,0,0
227193,-100,4,2,1,68,0,0
227335,-100,4,2,1,70,0,0
235259,-100,4,2,1,40,0,0
236391,-100,4,2,2,60,0,0
238089,-100,4,2,5,60,0,0
238372,-100,4,2,2,60,0,0
240920,-100,4,2,1,30,0,0
241061,-100,4,2,1,34,0,0
241203,-100,4,2,1,37,0,0
241344,-100,4,2,1,39,0,0
241486,-100,4,2,2,60,0,0
241627,-100,4,2,1,44,0,0
241769,-100,4,2,1,47,0,0
241910,-100,4,2,1,49,0,0
242052,-100,4,2,1,50,0,0
242193,-100,4,2,1,54,0,0
242335,-100,4,2,1,57,0,0
242476,-100,4,2,1,59,0,0
242618,-100,4,2,1,60,0,0
242759,-100,4,2,1,64,0,0
242901,-100,4,2,2,60,0,0
243042,-100,4,2,1,69,0,0
243184,-100,4,2,1,70,0,0
244882,-100,4,2,8,80,0,0
245448,-100,4,2,1,80,0,1
261297,-100,4,2,1,40,0,1
261438,-100,4,2,1,60,0,1
261863,-100,4,2,1,40,0,1
262004,-100,4,2,1,60,0,1
262429,-100,4,2,1,40,0,1
262570,-100,4,2,1,60,0,1
262712,-100,4,2,1,40,0,1
262995,-100,4,2,1,60,0,0
263561,-100,4,2,1,80,0,1
265259,-100,4,2,5,80,0,1
265542,-100,4,2,1,80,0,1
274316,-100,4,2,5,80,0,1
274599,-100,4,2,1,80,0,1
279976,-100,4,2,1,60,0,1
280401,-100,4,2,1,80,0,1
280542,-100,4,2,1,60,0,1
280684,-100,4,2,1,80,0,1
280967,-100,4,2,1,60,0,1
281108,-100,4,2,1,80,0,0
281674,-100,4,2,1,80,0,1
281816,-100,4,2,1,40,0,0
285920,-100,4,2,1,60,0,0
286203,-100,4,2,1,60,0,1
286344,-100,4,2,1,60,0,0
298655,-100,4,2,5,40,0,0
298797,-100,4,2,1,60,0,0
299221,-100,4,2,8,60,0,0
299787,-100,4,2,1,60,0,1
299929,-100,4,2,1,60,0,0
307853,-100,4,2,1,60,0,0
307995,-100,4,2,1,40,0,0
308278,-100,4,2,1,60,0,0
308420,-100,4,2,1,40,0,0
308561,-100,4,2,1,60,0,0
316769,-100,4,2,1,40,0,0
316910,-100,4,2,1,60,0,0
317052,-100,4,2,1,40,0,0
317335,-100,4,2,8,60,0,0
317476,-100,4,2,1,40,0,0
317618,-100,4,2,1,60,0,0
317759,-100,4,2,1,40,0,0
317901,-100,4,2,1,60,0,1
318042,-100,4,2,1,60,0,0
322429,-100,4,2,1,40,0,1
322570,-100,4,2,1,40,0,0
324693,-100,4,2,1,20,0,0
325825,-100,4,2,1,10,0,0
326957,-100,4,2,1,5,0,1
327099,-100,4,2,1,5,0,0

[Colours]
Combo1 : 118,134,241
Combo2 : 30,161,214
Combo3 : 70,74,236
Combo4 : 154,218,240

[HitObjects]
136,320,920,5,2,0:0:0:0:
52,284,1203,1,2,0:0:0:0:
16,196,1486,1,2,0:0:0:0:
52,108,1769,1,2,0:0:0:0:
136,72,2052,1,2,0:0:0:0:
376,72,2901,1,2,0:0:0:0:
256,44,3184,6,0,P|236:98|231:157,1,117,2|2,0:0|0:0,0:0:0:0:
352,184,3750,2,0,P|371:238|376:297,1,117,2|2,0:0|0:0,0:0:0:0:
316,312,4174,1,2,0:0:0:0:
256,328,4316,1,2,0:1:0:0:
376,320,5448,5,2,0:0:0:0:
460,284,5731,1,2,0:0:0:0:
496,196,6014,1,2,0:0:0:0:
460,108,6297,1,2,0:0:0:0:
376,72,6580,1,2,0:0:0:0:
136,72,7429,1,2,0:0:0:0:
256,44,7712,6,0,P|276:98|281:157,1,117,2|2,0:0|0:0,0:0:0:0:
160,184,8278,1,2,0:0:0:0:
40,212,8561,1,2,0:0:0:0:
28,272,8703,1,2,0:0:0:0:
88,284,8844,1,2,0:1:0:0:
296,360,9976,6,0,L|300:244,1,117,2|2,0:0|0:0,0:0:0:0:
240,232,10401,1,0,0:0:0:0:
96,220,10542,2,0,L|92:104,1,117,10|2,0:0|0:0,0:0:0:0:
212,76,11108,2,0,L|328:72,2,117,2|0|0,0:0|0:0|0:0,0:0:0:0:
272,64,11816,1,0,0:0:0:0:
416,52,11957,1,10,0:0:0:0:
296,360,12240,6,0,L|292:244,1,117,2|2,0:0|0:0,0:0:0:0:
352,232,12665,1,0,0:0:0:0:
496,220,12806,1,10,0:0:0:0:
376,192,13089,1,2,0:0:0:0:
316,180,13231,1,2,0:0:0:0:
376,192,13372,1,2,0:1:0:0:
16,104,14221,1,8,0:0:0:0:
136,76,14504,6,0,L|252:80,1,117,2|2,0:0|0:0,0:0:0:0:
192,92,14929,1,0,0:0:0:0:
336,104,15070,2,0,L|340:220,1,117,10|2,0:0|0:0,0:0:0:0:
220,248,15636,2,0,L|104:252,2,117,2|0|0,0:0|0:0|0:0,0:0:0:0:
160,260,16344,1,0,0:0:0:0:
16,272,16486,1,10,0:0:0:0:
136,356,16769,6,0,L|140:240,1,117,2|2,0:0|0:0,0:0:0:0:
80,228,17193,1,0,0:0:0:0:
224,212,17335,1,10,0:0:0:0:
104,184,17618,1,2,0:0:0:0:
248,172,17759,2,0,P|325:102|249:31,1,234,2|0,0:0|0:0,0:0:0:0:
24,4,18467,1,4,0:0:0:0:
328,4,19033,6,0,L|444:8,2,117,4|0|8,0:0|0:0|0:0,0:0:0:0:
208,32,19882,1,2,0:0:0:0:
188,92,20023,1,10,0:0:0:0:
208,152,20165,1,2,0:0:0:0:
352,180,20306,2,0,L|356:296,1,117,8|0,0:0|0:0,0:0:0:0:
296,324,20731,1,10,0:0:0:0:
416,352,21014,1,0,0:0:0:0:
176,352,21297,6,0,L|60:348,1,117,2|0,0:0|0:0,0:0:0:0:
120,336,21721,1,2,0:0:0:0:
264,324,21863,1,8,0:0:0:0:
144,296,22146,1,2,0:0:0:0:
124,236,22288,1,8,0:0:0:0:
144,176,22429,1,2,0:0:0:0:
288,164,22570,2,0,L|404:160,1,117,8|0,0:0|0:0,0:0:0:0:
344,148,22995,2,0,L|228:144,1,117,10|2,0:0|0:0,0:0:0:0:
468,144,23561,6,0,L|472:28,1,117,2|0,0:0|0:0,0:0:0:0:
412,16,23986,1,0,0:0:0:0:
268,28,24127,1,10,0:0:0:0:
388,56,24410,1,0,0:0:0:0:
408,116,24552,1,8,0:0:0:0:
388,176,24693,1,2,0:0:0:0:
243,204,24835,2,0,P|227:259|243:315,1,117,8|0,0:0|0:0,0:0:0:0:
304,328,25259,1,10,0:0:0:0:
424,328,25542,1,0,0:0:0:0:
184,340,25825,6,0,L|180:224,1,117,2|0,0:0|0:0,0:0:0:0:
240,212,26250,1,0,0:0:0:0:
384,200,26391,1,8,0:0:0:0:
264,172,26674,1,2,0:0:0:0:
204,160,26816,1,8,0:0:0:0:
264,172,26957,1,2,0:0:0:0:
408,160,27099,2,0,L|412:44,1,117,2|0,0:0|0:0,0:0:0:0:
268,32,27523,1,8,0:0:0:0:
484,32,27806,1,8,0:0:0:0:
424,20,27948,1,8,0:0:0:0:
212,88,28089,6,0,L|208:204,1,117,4|0,0:0|0:0,0:0:0:0:
268,216,28514,1,0,0:0:0:0:
412,228,28655,1,8,0:0:0:0:
292,256,28938,1,2,0:0:0:0:
272,316,29080,1,10,0:0:0:0:
332,328,29221,1,2,0:0:0:0:
477,340,29363,2,0,P|493:285|477:229,1,117,8|0,0:0|0:0,0:0:0:0:
416,200,29787,2,0,L|300:196,1,117,10|0,0:0|0:0,0:0:0:0:
60,224,30353,6,0,L|56:108,1,117,2|0,0:0|0:0,0:0:0:0:
116,96,30778,1,2,0:0:0:0:
260,84,30920,1,8,0:0:0:0:
140,56,31203,1,2,0:0:0:0:
80,44,31344,1,8,0:0:0:0:
140,56,31486,1,2,0:0:0:0:
284,48,31627,2,0,L|288:164,1,117,8|2,0:0|0:0,0:0:0:0:
220,176,32052,2,0,L|216:292,1,117,8|2,0:0|0:0,0:0:0:0:
460,320,32618,5,10,0:0:0:0:
488,260,32759,1,8,0:0:0:0:
460,200,32901,1,8,0:0:0:0:
400,180,33042,1,8,0:0:0:0:
256,208,33184,1,10,0:0:0:0:
228,148,33325,1,8,0:0:0:0:
256,88,33467,1,8,0:0:0:0:
316,68,33608,1,8,0:0:0:0:
460,96,33750,5,10,0:0:0:0:
400,68,33891,1,8,0:0:0:0:
460,96,34033,1,8,0:0:0:0:
400,68,34174,1,8,0:0:0:0:
256,88,34316,1,10,0:0:0:0:
196,60,34457,1,8,0:0:0:0:
256,88,34599,1,8,0:0:0:0:
316,60,34740,1,8,0:0:0:0:
108,40,34882,5,10,0:0:0:0:
228,68,35165,1,8,0:0:0:0:
288,80,35306,1,8,0:0:0:0:
124,156,35589,1,8,0:0:0:0:
64,168,35731,1,8,0:0:0:0:
124,156,35872,1,8,0:0:0:0:
256,208,36155,5,8,0:0:0:0:
284,268,36297,1,8,0:0:0:0:
256,328,36439,1,8,0:0:0:0:
196,348,36580,1,8,0:0:0:0:
436,320,36863,1,10,0:0:0:0:
496,308,37004,1,8,0:0:0:0:
256,296,37146,5,2,0:0:0:0:
256,192,37287,12,8,39127,0:0:0:0:
244,344,39410,6,0,P|224:290|219:231,1,117,8|0,0:0|0:0,0:0:0:0:
280,220,39835,2,0,L|456:212,1,175.5
336,184,40542,2,0,L|220:176,1,117
460,148,41108,2,0,L|464:32,1,117,10|0,0:1|0:0,0:0:0:0:
344,60,41674,6,0,L|228:64,1,117
164,75,42099,2,0,P|121:148|164:220,1,175.5
284,248,42806,2,0,L|288:132,1,117
48,104,43372,2,0,L|44:220,1,117,2|8,0:0|0:1,0:0:0:0:
284,248,43938,6,0,L|400:252,1,117,8|0,0:0|0:0,0:0:0:0:
460,264,44363,2,0,L|284:272,1,175.5
164,300,45070,1,0,0:0:0:0:
284,328,45353,1,0,0:0:0:0:
44,356,45636,2,0,L|40:240,1,117,10|0,0:1|0:0,0:0:0:0:
160,212,46203,6,0,L|336:204,2,175.5
40,184,47335,1,0,0:0:0:0:
160,156,47618,1,0,0:0:0:0:
280,128,47901,1,2,0:0:0:0:
40,100,48184,1,8,0:0:0:0:
280,156,48467,6,0,L|284:40,1,117,8|0,0:0|0:0,0:0:0:0:
224,28,48891,2,0,P|181:101|224:173,1,175.5
344,200,49599,2,0,L|460:204,1,117
224,232,50165,2,0,L|108:236,1,117,10|0,0:1|0:0,0:0:0:0:
224,324,50731,6,0,P|244:270|249:211,1,117
188,200,51156,2,0,L|12:192,1,175.5
132,164,51863,1,0,0:0:0:0:
12,136,52146,1,0,0:0:0:0:
252,164,52429,2,0,L|256:48,1,117,2|8,0:0|0:1,0:0:0:0:
16,19,52995,6,0,P|21:105|88:157,1,175.5,8|0,0:0|0:0,0:0:0:0:
268,184,53844,1,0,0:0:0:0:
148,216,54127,2,0,L|144:332,1,117
384,304,54693,2,0,L|268:308,1,117,10|0,0:1|0:0,0:0:0:0:
388,336,55259,6,0,L|392:220,1,117
332,208,55684,2,0,L|328:92,1,117
388,80,56108,1,0,0:0:0:0:
268,52,56391,2,0,L|152:48,1,117
392,20,56957,1,2,0:0:0:0:
152,20,57240,1,8,0:1:0:0:
488,20,57523,6,0,P|483:78|462:132,1,117,4|0,0:0|0:0,0:0:0:0:
400,144,57948,2,0,L|224:152,1,175.5,0|8,0:0|0:0,0:0:0:0:
368,164,58514,1,8,0:0:0:0:
428,176,58655,1,0,0:0:0:0:
368,164,58797,1,0,0:0:0:0:
104,192,59221,2,0,L|100:308,1,117,10|0,0:1|0:0,0:0:0:0:
220,336,59787,6,0,L|336:332,1,117,8|0,0:0|0:0,0:0:0:0:
396,320,60212,2,0,L|220:312,1,175.5,0|8,0:0|0:0,0:0:0:0:
76,300,60778,1,8,0:0:0:0:
72,240,60920,1,0,0:0:0:0:
68,180,61061,1,0,0:0:0:0:
332,152,61486,1,2,0:0:0:0:
212,124,61769,1,8,0:1:0:0:
332,96,62052,6,0,L|448:92,1,117,8|0,0:0|0:0,0:0:0:0:
388,80,62476,2,0,L|212:72,1,175.5,0|8,0:0|0:0,0:0:0:0:
356,60,63042,1,8,0:0:0:0:
416,48,63184,2,0,L|420:164,1,117
184,192,63750,2,0,L|180:308,1,117,10|0,0:1|0:0,0:0:0:0:
420,336,64316,6,0,L|244:328,2,175.5,8|0|8,0:0|0:0|0:0,0:0:0:0:
276,348,65306,1,8,0:0:0:0:
216,360,65448,2,0,L|212:244,1,117
452,216,66014,1,2,0:0:0:0:
212,188,66297,1,8,0:1:0:0:
332,160,66580,6,0,L|328:44,1,117,8|0,0:0|0:0,0:0:0:0:
268,32,67004,2,0,P|225:105|268:177,1,175.5,0|8,0:0|0:0,0:0:0:0:
412,188,67570,1,8,0:0:0:0:
416,248,67712,1,0,0:0:0:0:
420,308,67853,1,0,0:0:0:0:
156,336,68278,2,0,L|40:332,1,117,10|0,0:1|0:0,0:0:0:0:
160,300,68844,6,0,P|155:242|134:188,1,117,8|0,0:0|0:0,0:0:0:0:
72,176,69268,2,0,L|248:168,1,175.5,0|8,0:0|0:0,0:0:0:0:
100,156,69835,1,8,0:0:0:0:
40,144,69976,2,0,L|36:28,1,117
276,56,70542,2,0,L|160:52,1,117,2|8,0:0|0:1,0:0:0:0:
280,24,71108,6,0,L|456:32,2,175.5,8|0|8,0:0|0:0|0:0,0:0:0:0:
424,36,72099,1,8,0:0:0:0:
484,48,72240,2,0,L|488:164,1,117
248,192,72806,2,0,L|364:196,1,117,10|0,0:1|0:0,0:0:0:0:
244,224,73372,6,0,L|240:340,1,117,8|0,0:0|0:0,0:0:0:0:
300,352,73797,2,0,P|343:279|300:207,1,175.5,0|8,0:0|0:0,0:0:0:0:
156,196,74363,1,8,0:0:0:0:
96,184,74504,2,0,L|212:180,1,117
332,152,75070,1,2,0:0:0:0:
92,124,75353,1,8,0:1:0:0:
428,96,75636,5,12,0:0:0:0:
308,124,75920,1,0,0:0:0:0:
292,184,76061,1,0,0:0:0:0:
308,244,76203,1,8,0:0:0:0:
428,272,76486,1,0,0:0:0:0:
368,284,76627,1,0,0:0:0:0:
224,296,76769,2,0,L|108:292,1,117,8|0,0:0|0:0,0:0:0:0:
344,200,77335,2,0,L|460:196,1,117,10|0,0:0|0:0,0:0:0:0:
228,120,77901,6,0,L|224:4,1,117,8|0,0:0|0:0,0:0:0:0:
344,32,78467,1,8,0:0:0:0:
464,60,78750,1,0,0:0:0:0:
320,72,78891,1,8,0:0:0:0:
260,84,79033,2,0,L|256:200,1,117
496,228,79599,2,0,L|380:232,1,117,10|0,0:0|0:0,0:0:0:0:
140,260,80165,5,8,0:0:0:0:
260,232,80448,1,0,0:0:0:0:
276,172,80589,1,0,0:0:0:0:
260,112,80731,1,8,0:0:0:0:
140,84,81014,1,0,0:0:0:0:
80,72,81155,1,0,0:0:0:0:
224,60,81297,2,0,L|340:56,1,117,8|0,0:0|0:0,0:0:0:0:
104,32,81863,2,0,L|100:148,1,117,10|0,0:0|0:0,0:0:0:0:
336,176,82429,6,0,L|452:172,2,117,8|0|8,0:0|0:0|0:0,0:0:0:0:
216,204,83278,1,0,0:0:0:0:
360,216,83420,1,8,0:0:0:0:
420,228,83561,2,0,L|424:344,1,117
184,372,84127,1,10,0:0:0:0:
304,344,84410,1,0,0:0:0:0:
364,332,84552,1,0,0:0:0:0:
160,320,84693,6,0,L|44:316,1,117,12|0,0:0|0:0,0:0:0:0:
104,304,85118,1,0,0:0:0:0:
164,288,85259,1,8,0:0:0:0:
328,304,85542,1,0,0:0:0:0:
388,292,85684,1,0,0:0:0:0:
240,232,85825,2,0,L|236:116,1,117,8|0,0:0|0:0,0:0:0:0:
472,144,86391,2,0,L|476:28,1,117,10|0,0:0|0:0,0:0:0:0:
240,56,86957,6,0,L|124:52,1,117,8|0,0:0|0:0,0:0:0:0:
184,64,87382,1,0,0:0:0:0:
188,124,87523,1,8,0:0:0:0:
24,136,87806,1,0,0:0:0:0:
84,124,87948,1,8,0:0:0:0:
24,136,88089,1,0,0:0:0:0:
168,148,88231,2,0,L|284:152,1,117,8|0,0:0|0:0,0:0:0:0:
224,184,88655,2,0,L|108:188,1,117,10|0,0:0|0:0,0:0:0:0:
472,208,89221,6,0,P|438:315|332:356,1,234,12|8,0:0|0:0,0:0:0:0:
212,328,90070,1,0,0:0:0:0:
360,316,90212,1,8,0:0:0:0:
300,304,90353,2,0,P|223:234|299:163,1,234,0|10,0:0|0:0,0:0:0:0:
420,136,91203,1,0,0:0:0:0:
72,164,91486,6,0,P|106:57|212:16,1,234,12|0,0:0|0:0,0:0:0:0:
332,44,92335,1,0,0:0:0:0:
392,56,92476,1,8,0:0:0:0:
332,44,92618,1,0,0:0:0:0:
188,56,92759,1,8,0:0:0:0:
368,68,93184,2,0,L|372:184,1,117,10|8,0:0|0:0,0:0:0:0:
312,196,93608,1,8,0:0:0:0:
52,208,93750,5,12,0:0:0:0:
24,268,93891,1,8,0:0:0:0:
52,328,94033,1,8,0:0:0:0:
112,348,94174,1,8,0:0:0:0:
256,320,94316,1,0,0:0:0:0:
112,348,94457,1,8,0:0:0:0:
52,336,94599,1,8,0:0:0:0:
112,348,94740,1,8,0:0:0:0:
256,320,94882,5,0,0:0:0:0:
400,348,95023,1,8,0:0:0:0:
460,336,95165,1,0,0:0:0:0:
400,348,95306,1,8,0:0:0:0:
256,320,95448,1,8,0:0:0:0:
244,264,95589,1,8,0:0:0:0:
388,236,95731,1,8,0:0:0:0:
400,180,95872,1,8,0:0:0:0:
168,264,96014,6,0,L|52:260,1,117,4|0,0:0|0:0,0:0:0:0:
172,232,96580,2,0,L|288:228,1,117,8|0,0:0|0:0,0:0:0:0:
144,216,97004,1,8,0:0:0:0:
104,164,97146,1,0,0:0:0:0:
120,100,97287,1,8,0:0:0:0:
180,72,97429,1,0,0:0:0:0:
420,72,97712,2,0,L|416:188,1,117,8|0,0:0|0:0,0:0:0:0:
348,200,98136,1,0,0:0:0:0:
492,212,98278,6,0,L|496:328,1,117,2|0,0:1|0:0,0:0:0:0:
376,356,98844,2,0,L|492:352,1,117,8|0,0:0|0:0,0:0:0:0:
348,340,99269,1,8,0:0:0:0:
340,280,99410,1,0,0:0:0:0:
408,268,99552,1,8,0:0:0:0:
416,208,99693,1,0,0:0:0:0:
176,176,99976,2,0,L|60:172,1,117,8|8,0:0|0:0,0:0:0:0:
392,144,100542,6,0,L|396:28,1,117,4|0,0:0|0:0,0:0:0:0:
276,0,101108,2,0,L|272:116,1,117,8|0,0:0|0:0,0:0:0:0:
416,108,101533,1,8,0:0:0:0:
456,160,101675,1,0,0:0:0:0:
440,224,101817,1,8,0:0:0:0:
380,252,101958,1,0,0:0:0:0:
140,280,102240,1,8,0:0:0:0:
260,308,102523,1,0,0:0:0:0:
272,368,102665,1,0,0:0:0:0:
128,380,102806,6,0,L|12:376,2,117,2|0|8,0:1|0:0|0:0,0:0:0:0:
248,352,103655,1,0,0:0:0:0:
392,340,103797,1,8,0:0:0:0:
420,280,103938,1,0,0:0:0:0:
392,220,104080,1,8,0:0:0:0:
332,200,104221,1,0,0:0:0:0:
92,172,104504,1,8,0:0:0:0:
332,200,104787,1,8,0:0:0:0:
400,188,104929,1,8,0:0:0:0:
196,176,105070,6,0,L|192:60,1,117,4|0,0:0|0:0,0:0:0:0:
312,32,105636,2,0,L|316:148,1,117,8|0,0:0|0:0,0:0:0:0:
172,160,106061,1,8,0:0:0:0:
132,212,106203,1,0,0:0:0:0:
148,276,106345,1,8,0:0:0:0:
208,304,106486,1,0,0:0:0:0:
448,332,106769,1,8,0:0:0:0:
328,360,107052,1,0,0:0:0:0:
340,300,107193,1,0,0:0:0:0:
484,288,107335,6,0,L|488:172,1,117,2|0,0:1|0:0,0:0:0:0:
368,144,107901,2,0,L|484:140,1,117,8|0,0:0|0:0,0:0:0:0:
340,128,108325,1,8,0:0:0:0:
272,116,108467,1,0,0:0:0:0:
340,128,108608,1,8,0:0:0:0:
272,116,108750,1,0,0:0:0:0:
152,88,109033,1,8,0:0:0:0:
392,60,109316,1,8,0:0:0:0:
56,60,109599,6,0,L|52:176,1,117,4|0,0:0|0:0,0:0:0:0:
120,188,110023,1,0,0:0:0:0:
264,200,110165,2,0,L|268:316,1,117,8|0,0:0|0:0,0:0:0:0:
200,328,110589,1,0,0:0:0:0:
56,340,110731,5,8,0:0:0:0:
28,280,110872,1,8,0:0:0:0:
56,220,111014,1,8,0:0:0:0:
116,200,111155,1,8,0:0:0:0:
260,188,111297,1,8,0:0:0:0:
268,128,111438,1,8,0:0:0:0:
200,116,111580,1,8,0:0:0:0:
192,56,111721,1,8,0:0:0:0:
336,44,111863,5,8,0:0:0:0:
396,64,112004,1,8,0:0:0:0:
424,124,112146,1,8,0:0:0:0:
396,184,112287,1,8,0:0:0:0:
336,204,112429,1,8,0:0:0:0:
216,232,112712,1,8,0:0:0:0:
360,244,112853,1,8,0:0:0:0:
292,256,112995,5,0,0:0:0:0:
288,316,113136,1,8,0:0:0:0:
408,344,113420,1,8,0:0:0:0:
264,372,113561,2,0,L|148:368,1,117,8|8,0:0|0:0,0:0:0:0:
216,356,113986,1,8,0:0:0:0:
420,344,114127,6,0,L|424:228,1,117,4|0,0:0|0:0,0:0:0:0:
304,200,114693,1,8,0:0:0:0:
424,172,114976,1,2,0:0:0:0:
444,112,115117,1,10,0:0:0:0:
424,52,115259,1,2,0:0:0:0:
280,24,115401,2,0,L|164:20,1,117,8|0,0:0|0:0,0:0:0:0:
224,8,115825,1,10,0:0:0:0:
104,36,116108,1,0,0:0:0:0:
344,64,116391,6,0,L|348:180,1,117,2|0,0:0|0:0,0:0:0:0:
288,192,116816,1,2,0:0:0:0:
144,204,116957,1,8,0:0:0:0:
264,216,117240,1,2,0:0:0:0:
284,276,117382,1,8,0:0:0:0:
264,336,117523,1,2,0:0:0:0:
120,348,117665,2,0,P|104:293|120:237,1,117,8|0,0:0|0:0,0:0:0:0:
181,208,118089,2,0,L|65:204,1,117,10|2,0:0|0:0,0:0:0:0:
304,176,118655,6,0,L|420:172,1,117,2|0,0:0|0:0,0:0:0:0:
360,160,119080,1,0,0:0:0:0:
216,148,119221,1,10,0:0:0:0:
336,136,119504,1,0,0:0:0:0:
356,76,119646,1,8,0:0:0:0:
336,16,119787,1,2,0:0:0:0:
192,4,119929,2,0,L|308:0,1,117,8|0,0:0|0:0,0:0:0:0:
368,16,120353,2,0,L|484:12,1,117,10|0,0:0|0:0,0:0:0:0:
244,40,120920,6,0,L|240:156,1,117,2|0,0:0|0:0,0:0:0:0:
300,168,121344,1,0,0:0:0:0:
444,180,121486,1,8,0:0:0:0:
324,208,121769,1,2,0:0:0:0:
384,220,121910,1,8,0:0:0:0:
444,232,122052,1,2,0:0:0:0:
300,244,122193,1,8,0:0:0:0:
240,256,122335,1,0,0:0:0:0:
480,284,122618,1,8,0:0:0:0:
240,312,122901,1,8,0:0:0:0:
228,256,123042,1,8,0:0:0:0:
452,244,123184,6,0,L|456:128,1,117,4|0,0:0|0:0,0:0:0:0:
336,156,123750,2,0,L|332:40,1,117,8|2,0:0|0:0,0:0:0:0:
392,28,124174,1,10,0:0:0:0:
452,16,124316,1,2,0:0:0:0:
308,4,124457,2,0,L|192:8,1,117,8|0,0:0|0:0,0:0:0:0:
252,20,124882,2,0,L|256:136,1,117,10|0,0:0|0:0,0:0:0:0:
16,160,125448,6,0,L|12:276,1,117,2|0,0:0|0:0,0:0:0:0:
72,288,125872,1,2,0:0:0:0:
216,300,126014,1,8,0:0:0:0:
96,328,126297,1,2,0:0:0:0:
76,268,126438,1,8,0:0:0:0:
96,208,126580,1,2,0:0:0:0:
240,196,126721,2,0,L|356:192,1,117,8|2,0:0|0:0,0:0:0:0:
416,180,127146,2,0,L|300:176,1,117,8|2,0:0|0:0,0:0:0:0:
60,356,127712,5,10,0:0:0:0:
8,296,127853,1,8,0:0:0:0:
60,356,127995,1,8,0:0:0:0:
8,296,128136,1,8,0:0:0:0:
152,268,128278,1,8,0:0:0:0:
140,208,128420,1,8,0:0:0:0:
152,268,128562,1,8,0:0:0:0:
140,208,128703,1,8,0:0:0:0:
284,180,128844,5,8,0:0:0:0:
296,120,128986,1,8,0:0:0:0:
284,180,129128,1,8,0:0:0:0:
296,120,129269,1,8,0:0:0:0:
440,92,129410,1,8,0:0:0:0:
492,32,129552,1,8,0:0:0:0:
440,92,129694,1,8,0:0:0:0:
492,32,129835,1,8,0:0:0:0:
288,4,129976,5,8,0:0:0:0:
168,32,130259,1,8,0:0:0:0:
156,92,130401,1,8,0:0:0:0:
276,120,130684,1,8,0:0:0:0:
288,180,130825,1,8,0:0:0:0:
228,192,130967,1,8,0:0:0:0:
108,220,131250,5,8,0:0:0:0:
88,268,131344,1,8,0:0:0:0:
108,316,131438,1,8,0:0:0:0:
152,344,131533,1,8,0:0:0:0:
212,316,131674,1,8,0:0:0:0:
272,288,131816,1,8,0:0:0:0:
212,316,131957,1,10,0:0:0:0:
272,288,132099,1,8,0:0:0:0:
492,316,132240,5,2,0:0:0:0:
256,192,132382,12,8,134221,0:0:0:0:
264,344,134504,6,0,L|148:340,1,117,8|0,0:0|0:0,0:0:0:0:
88,352,134929,2,0,L|80:176,1,175.5
200,148,135636,1,0,0:0:0:0:
260,136,135778,1,0,0:0:0:0:
200,148,135920,1,0,0:0:0:0:
436,176,136203,2,0,L|440:60,1,117,10|0,0:1|0:0,0:0:0:0:
320,32,136769,6,0,L|204:36,1,117,8|0,0:0|0:0,0:0:0:0:
264,48,137193,2,0,P|307:121|264:193,1,175.5
144,220,137901,1,0,0:0:0:0:
84,232,138042,1,0,0:0:0:0:
24,244,138184,1,0,0:0:0:0:
264,272,138467,1,2,0:0:0:0:
324,284,138608,1,0,0:0:0:0:
384,296,138750,1,8,0:1:0:0:
264,328,139033,6,0,P|244:274|239:215,1,117,8|0,0:0|0:0,0:0:0:0:
300,204,139458,2,0,L|476:196,1,175.5
356,168,140165,1,0,0:0:0:0:
296,156,140306,1,0,0:0:0:0:
356,168,140448,1,0,0:0:0:0:
120,196,140731,2,0,L|4:192,1,117,10|0,0:1|0:0,0:0:0:0:
124,164,141297,6,0,L|128:48,1,117,8|0,0:0|0:0,0:0:0:0:
68,36,141721,2,0,L|64:152,1,117
124,164,142146,1,0,0:0:0:0:
244,192,142429,1,0,0:0:0:0:
256,252,142570,1,0,0:0:0:0:
196,264,142712,1,0,0:0:0:0:
76,292,142995,1,2,0:0:0:0:
64,352,143136,1,0,0:0:0:0:
208,364,143278,1,8,0:1:0:0:
444,364,143561,6,0,L|448:248,1,117,8|0,0:0|0:0,0:0:0:0:
388,236,143986,2,0,P|345:163|388:91,1,175.5
508,64,144693,1,0,0:0:0:0:
448,52,144835,1,0,0:0:0:0:
388,40,144976,1,0,0:0:0:0:
152,68,145259,1,10,0:1:0:0:
272,96,145542,1,0,0:0:0:0:
152,124,145825,6,0,L|36:128,1,117,8|0,0:0|0:0,0:0:0:0:
96,140,146250,2,0,L|272:148,1,175.5
152,180,146957,1,0,0:0:0:0:
148,240,147099,1,0,0:0:0:0:
144,300,147240,1,0,0:0:0:0:
380,328,147523,1,2,0:0:0:0:
384,268,147665,1,0,0:0:0:0:
388,208,147806,1,8,0:1:0:0:
268,180,148089,6,0,L|92:172,2,175.5,8|0|0,0:0|0:0|0:0,0:0:0:0:
388,152,149221,1,0,0:0:0:0:
448,140,149363,1,0,0:0:0:0:
508,128,149504,1,0,0:0:0:0:
272,156,149787,2,0,L|268:39,1,117,10|0,0:1|0:0,0:0:0:0:
388,12,150353,6,0,P|408:66|413:125,1,117,8|0,0:0|0:0,0:0:0:0:
352,140,150778,2,0,P|332:194|327:253,1,117
388,264,151203,1,0,0:0:0:0:
268,292,151486,1,0,0:0:0:0:
208,304,151627,1,0,0:0:0:0:
148,316,151769,1,0,0:0:0:0:
384,344,152052,1,2,0:0:0:0:
444,332,152193,1,0,0:0:0:0:
504,320,152335,1,8,0:1:0:0:
128,320,152618,5,12,0:0:0:0:
248,292,152901,1,0,0:0:0:0:
252,232,153042,1,0,0:0:0:0:
256,172,153184,1,8,0:0:0:0:
136,144,153467,1,0,0:0:0:0:
124,84,153608,1,0,0:0:0:0:
268,72,153750,1,8,0:0:0:0:
328,60,153891,1,0,0:0:0:0:
268,72,154033,1,0,0:0:0:0:
32,44,154316,2,0,L|28:160,1,117,10|0,0:0|0:0,0:0:0:0:
264,188,154882,6,0,L|380:192,2,117,8|0|8,0:0|0:0|0:0,0:0:0:0:
144,216,155731,1,0,0:0:0:0:
128,276,155872,1,8,0:0:0:0:
144,336,156014,1,0,0:0:0:0:
288,348,156155,2,0,P|304:293|288:237,1,117,8|0,0:0|0:0,0:0:0:0:
144,216,156580,2,0,L|260:212,1,117,10|0,0:0|0:0,0:0:0:0:
496,240,157146,5,8,0:0:0:0:
376,212,157429,1,0,0:0:0:0:
372,152,157570,1,0,0:0:0:0:
368,92,157712,1,8,0:0:0:0:
248,64,157995,1,0,0:0:0:0:
392,76,158137,1,8,0:0:0:0:
452,96,158278,1,0,0:0:0:0:
480,156,158420,1,0,0:0:0:0:
452,216,158561,1,0,0:0:0:0:
216,244,158844,1,10,0:0:0:0:
336,272,159127,1,0,0:0:0:0:
276,284,159269,1,0,0:0:0:0:
132,296,159410,6,0,L|16:292,1,117,8|0,0:0|0:0,0:0:0:0:
136,264,159976,2,0,L|252:260,1,117,8|0,0:0|0:0,0:0:0:0:
108,248,160401,1,8,0:0:0:0:
100,188,160542,1,0,0:0:0:0:
160,176,160684,1,8,0:0:0:0:
100,188,160825,1,0,0:0:0:0:
336,216,161108,2,0,L|340:100,1,117,10|0,0:0|0:0,0:0:0:0:
280,88,161533,1,0,0:0:0:0:
76,76,161674,6,0,L|192:72,1,117,12|0,0:0|0:0,0:0:0:0:
312,44,162240,2,0,L|428:40,1,117,8|0,0:0|0:0,0:0:0:0:
284,28,162665,1,8,0:0:0:0:
256,88,162806,1,0,0:0:0:0:
284,148,162948,1,0,0:0:0:0:
344,168,163089,1,0,0:0:0:0:
108,196,163372,2,0,L|104:312,1,117,10|0,0:0|0:0,0:0:0:0:
164,324,163797,1,0,0:0:0:0:
308,336,163938,6,0,L|424:332,2,117,8|0|8,0:0|0:0|0:0,0:0:0:0:
188,308,164787,1,0,0:0:0:0:
176,248,164929,1,8,0:0:0:0:
236,236,165070,1,0,0:0:0:0:
92,224,165212,2,0,P|76:169|92:113,1,117,8|0,0:0|0:0,0:0:0:0:
236,100,165636,2,0,L|352:96,1,117,10|0,0:0|0:0,0:0:0:0:
16,16,166203,6,0,P|50:123|156:164,1,234,12|8,0:0|0:0,0:0:0:0:
276,188,167052,1,0,0:0:0:0:
132,200,167193,1,8,0:0:0:0:
120,260,167335,1,0,0:0:0:0:
180,272,167476,1,8,0:0:0:0:
444,200,167901,2,0,L|448:316,1,117,10|0,0:0|0:0,0:0:0:0:
388,328,168325,1,0,0:0:0:0:
184,336,168467,6,0,P|107:266|183:195,1,234,4|8,0:0|0:0,0:0:0:0:
304,168,169316,1,0,0:0:0:0:
448,156,169457,1,8,0:0:0:0:
388,144,169599,2,0,L|384:28,1,117,8|0,0:0|0:0,0:0:0:0:
504,4,170165,2,0,L|388:0,1,117,10|0,0:0|0:0,0:0:0:0:
52,152,170731,5,12,0:0:0:0:
24,212,170872,1,8,0:0:0:0:
52,272,171014,1,8,0:0:0:0:
112,292,171155,1,8,0:0:0:0:
172,272,171297,1,0,0:0:0:0:
232,292,171438,1,8,0:0:0:0:
172,272,171580,1,8,0:0:0:0:
232,292,171721,1,8,0:0:0:0:
436,320,171863,5,12,0:0:0:0:
448,260,172004,1,8,0:0:0:0:
380,248,172146,1,8,0:0:0:0:
384,188,172287,1,8,0:0:0:0:
180,176,172429,1,12,0:0:0:0:
176,116,172570,1,8,0:0:0:0:
108,104,172712,1,8,0:0:0:0:
96,44,172853,1,8,0:0:0:0:
300,16,172995,6,0,L|416:20,1,117,4|0,0:0|0:0,0:0:0:0:
296,32,173561,2,0,L|292:148,1,117,8|0,0:0|0:0,0:0:0:0:
436,160,173986,1,8,0:0:0:0:
476,212,174128,1,0,0:0:0:0:
460,276,174270,1,8,0:0:0:0:
400,304,174411,1,0,0:0:0:0:
164,332,174693,2,0,L|280:336,1,117,8|0,0:0|0:0,0:0:0:0:
348,348,175118,1,0,0:0:0:0:
204,364,175259,6,0,L|200:248,1,117,2|0,0:1|0:0,0:0:0:0:
320,220,175825,2,0,L|324:104,1,117,8|0,0:0|0:0,0:0:0:0:
180,92,176250,1,8,0:0:0:0:
112,80,176391,1,0,0:0:0:0:
180,92,176533,1,8,0:0:0:0:
248,80,176674,1,0,0:0:0:0:
12,148,176957,2,0,L|8:32,1,117,8|8,0:0|0:0,0:0:0:0:
344,4,177523,6,0,L|460:8,1,117,4|0,0:0|0:0,0:0:0:0:
340,36,178089,2,0,L|224:40,1,117,8|0,0:0|0:0,0:0:0:0:
80,52,178514,1,8,0:0:0:0:
76,112,178655,1,0,0:0:0:0:
72,172,178797,1,8,0:0:0:0:
68,232,178938,1,0,0:0:0:0:
188,204,179221,2,0,L|192:320,1,117,8|0,0:0|0:0,0:0:0:0:
124,332,179646,1,0,0:0:0:0:
268,344,179787,6,0,L|384:340,1,117,2|0,0:1|0:0,0:0:0:0:
264,328,180353,2,0,L|260:212,1,117,8|0,0:0|0:0,0:0:0:0:
404,200,180778,1,8,0:0:0:0:
444,148,180920,1,0,0:0:0:0:
428,84,181062,1,8,0:0:0:0:
368,56,181203,1,0,0:0:0:0:
132,28,181486,1,8,0:0:0:0:
368,56,181769,1,8,0:0:0:0:
300,44,181910,1,0,0:0:0:0:
96,32,182052,6,0,L|92:148,1,117,4|0,0:0|0:0,0:0:0:0:
212,176,182618,2,0,P|228:231|212:287,1,117,8|0,0:0|0:0,0:0:0:0:
68,300,183042,1,8,0:0:0:0:
28,248,183184,1,0,0:0:0:0:
44,184,183326,1,8,0:0:0:0:
104,156,183467,1,0,0:0:0:0:
340,144,183750,2,0,L|224:140,1,117,8|0,0:0|0:0,0:0:0:0:
156,128,184174,1,0,0:0:0:0:
300,116,184316,6,0,L|304:0,1,117,2|0,0:1|0:0,0:0:0:0:
184,28,184882,2,0,L|180:144,1,117,8|0,0:0|0:0,0:0:0:0:
324,156,185306,1,8,0:0:0:0:
392,168,185448,1,0,0:0:0:0:
324,156,185589,1,8,0:0:0:0:
256,168,185731,1,0,0:0:0:0:
492,196,186014,2,0,L|496:312,1,117,8|8,0:0|0:0,0:0:0:0:
160,340,186580,6,0,L|44:336,1,117,4|0,0:0|0:0,0:0:0:0:
164,308,187146,2,0,L|280:304,1,117,8|0,0:0|0:0,0:0:0:0:
424,292,187570,1,8,0:0:0:0:
432,232,187712,1,0,0:0:0:0:
364,220,187853,1,8,0:0:0:0:
356,160,187995,1,0,0:0:0:0:
476,132,188278,1,8,0:0:0:0:
356,104,188561,1,0,0:0:0:0:
288,92,188703,1,0,0:0:0:0:
144,80,188844,6,0,L|140:196,1,117,2|0,0:1|0:0,0:0:0:0:
260,224,189410,2,0,L|264:340,1,117,8|0,0:0|0:0,0:0:0:0:
120,356,189835,1,8,0:0:0:0:
52,344,189976,1,0,0:0:0:0:
120,356,190118,2,0,L|236:352,1,117,8|0,0:0|0:0,0:0:0:0:
380,340,190542,1,8,0:0:0:0:
144,312,190825,1,8,0:0:0:0:
84,300,190967,1,0,0:0:0:0:
288,288,191108,6,0,L|292:172,1,117,4|0,0:0|0:0,0:0:0:0:
172,144,191674,2,0,L|288:140,1,117,8|0,0:0|0:0,0:0:0:0:
432,152,192099,1,8,0:0:0:0:
472,100,192241,1,0,0:0:0:0:
456,36,192383,1,8,0:0:0:0:
396,8,192524,1,0,0:0:0:0:
160,36,192806,2,0,L|44:32,1,117,8|0,0:0|0:0,0:0:0:0:
104,20,193231,1,0,0:0:0:0:
248,8,193372,6,0,L|252:124,1,117,2|0,0:1|0:0,0:0:0:0:
132,152,193938,2,0,L|128:268,1,117,8|0,0:0|0:0,0:0:0:0:
272,280,194363,1,8,0:0:0:0:
340,268,194504,1,0,0:0:0:0:
272,280,194646,1,8,0:0:0:0:
204,292,194787,1,0,0:0:0:0:
440,304,195070,2,0,L|444:188,1,117,8|8,0:0|0:0,0:0:0:0:
376,176,195495,1,0,0:0:0:0:
160,140,195636,6,0,L|44:136,1,117,4|0,0:0|0:0,0:0:0:0:
164,108,196203,2,0,L|280:104,1,117,8|0,0:0|0:0,0:0:0:0:
140,92,196627,1,8,0:0:0:0:
100,144,196769,1,0,0:0:0:0:
116,208,196911,1,8,0:0:0:0:
176,236,197052,1,0,0:0:0:0:
296,264,197335,1,8,0:0:0:0:
416,292,197618,1,0,0:0:0:0:
476,280,197759,1,0,0:0:0:0:
332,268,197901,6,0,L|328:152,1,117,2|0,0:1|0:0,0:0:0:0:
448,124,198467,2,0,L|452:8,1,117,8|0,0:0|0:0,0:0:0:0:
308,36,198891,1,8,0:0:0:0:
240,24,199033,1,0,0:0:0:0:
308,36,199174,1,8,0:0:0:0:
240,24,199316,1,0,0:0:0:0:
476,52,199599,2,0,L|480:168,1,117,8|8,0:0|0:0,0:0:0:0:
412,180,200023,1,0,0:0:0:0:
208,192,200165,6,0,L|92:196,1,117,4|0,0:0|0:0,0:0:0:0:
212,228,200731,2,0,L|328:232,1,117,8|0,0:0|0:0,0:0:0:0:
472,220,201155,1,8,0:0:0:0:
476,160,201296,1,0,0:0:0:0:
480,100,201438,1,8,0:0:0:0:
484,40,201579,1,0,0:0:0:0:
248,12,201863,1,8,0:0:0:0:
368,40,202146,1,0,0:0:0:0:
428,52,202287,1,0,0:0:0:0:
284,112,202429,6,0,L|168:116,1,117,2|0,0:1|0:0,0:0:0:0:
288,256,202995,2,0,L|172:260,1,117,8|0,0:0|0:0,0:0:0:0:
28,272,203420,1,8,0:0:0:0:
20,212,203561,1,0,0:0:0:0:
88,200,203703,1,8,0:0:0:0:
20,212,203844,1,0,0:0:0:0:
256,184,204127,1,8,0:0:0:0:
136,156,204410,1,8,0:0:0:0:
476,184,204693,6,0,L|480:68,1,117,4|0,0:0|0:0,0:0:0:0:
412,56,205118,1,0,0:0:0:0:
268,44,205259,2,0,L|264:160,1,117,8|0,0:0|0:0,0:0:0:0:
332,172,205684,1,0,0:0:0:0:
476,184,205825,5,8,0:0:0:0:
504,244,205966,1,8,0:0:0:0:
476,304,206108,1,8,0:0:0:0:
416,324,206249,1,8,0:0:0:0:
272,336,206391,1,8,0:0:0:0:
204,324,206533,1,8,0:0:0:0:
272,336,206674,1,8,0:0:0:0:
340,324,206816,1,8,0:0:0:0:
196,352,206957,5,8,0:0:0:0:
136,332,207098,1,8,0:0:0:0:
108,272,207240,1,8,0:0:0:0:
136,212,207381,1,8,0:0:0:0:
196,192,207523,1,8,0:0:0:0:
316,164,207806,1,0,0:0:0:0:
172,152,207947,1,8,0:0:0:0:
240,140,208089,5,0,0:0:0:0:
172,152,208231,1,8,0:0:0:0:
52,124,208514,1,0,0:0:0:0:
196,96,208655,2,0,L|312:92,1,117,8|8,0:0|0:0,0:0:0:0:
268,80,209033,1,8,0:0:0:0:
312,68,209127,1,8,0:0:0:0:
456,56,209221,5,4,0:0:0:0:
484,116,209363,1,0,0:0:0:0:
456,176,209505,1,0,0:0:0:0:
396,196,209646,1,0,0:0:0:0:
252,208,209787,1,2,0:1:0:0:
224,268,209929,1,0,0:0:0:0:
252,328,210071,1,0,0:0:0:0:
312,348,210212,1,0,0:0:0:0:
456,356,210353,5,2,0:1:0:0:
468,296,210495,1,0,0:0:0:0:
456,356,210636,1,0,0:0:0:0:
468,296,210778,1,0,0:0:0:0:
324,284,210920,1,2,0:1:0:0:
264,268,211061,1,0,0:0:0:0:
324,284,211203,1,0,0:0:0:0:
468,296,211344,1,0,0:0:0:0:
324,284,211486,5,2,0:1:0:0:
296,224,211627,1,0,0:0:0:0:
324,164,211769,1,0,0:0:0:0:
384,144,211910,1,0,0:0:0:0:
240,156,212052,1,2,0:1:0:0:
212,96,212193,1,0,0:0:0:0:
240,36,212335,1,0,0:0:0:0:
300,16,212476,1,0,0:0:0:0:
156,4,212618,5,2,0:1:0:0:
144,64,212760,1,0,0:0:0:0:
156,4,212901,1,0,0:0:0:0:
144,64,213043,1,0,0:0:0:0:
288,76,213185,1,2,0:1:0:0:
348,88,213325,1,0,0:0:0:0:
144,100,213467,1,2,0:0:0:0:
84,112,213608,1,0,0:0:0:0:
288,100,213750,5,2,0:0:0:0:
316,160,213891,1,0,0:0:0:0:
288,220,214033,1,0,0:0:0:0:
228,240,214174,1,0,0:0:0:0:
84,228,214316,1,2,0:1:0:0:
56,288,214457,1,0,0:0:0:0:
84,348,214599,1,0,0:0:0:0:
144,368,214740,1,0,0:0:0:0:
288,356,214882,5,2,0:1:0:0:
296,296,215023,1,0,0:0:0:0:
228,284,215165,1,0,0:0:0:0:
220,224,215306,1,0,0:0:0:0:
364,212,215448,1,2,0:1:0:0:
424,200,215589,1,0,0:0:0:0:
364,212,215731,1,0,0:0:0:0:
220,224,215872,1,0,0:0:0:0:
364,212,216014,5,2,0:1:0:0:
392,152,216155,1,0,0:0:0:0:
364,92,216297,1,0,0:0:0:0:
304,72,216438,1,0,0:0:0:0:
448,60,216580,1,2,0:1:0:0:
476,120,216721,1,0,0:0:0:0:
448,180,216863,1,0,0:0:0:0:
388,200,217004,1,0,0:0:0:0:
244,212,217146,5,2,0:1:0:0:
236,272,217287,1,0,0:0:0:0:
304,284,217429,1,0,0:0:0:0:
312,344,217570,1,0,0:0:0:0:
168,356,217712,1,2,0:1:0:0:
108,344,217853,1,0,0:0:0:0:
168,356,217995,1,0,0:0:0:0:
312,344,218136,1,0,0:0:0:0:
108,356,218278,5,4,0:0:0:0:
48,344,218420,1,0,0:0:0:0:
44,284,218561,1,0,0:0:0:0:
40,224,218703,1,0,0:0:0:0:
184,212,218844,1,2,0:1:0:0:
124,200,218986,1,0,0:0:0:0:
120,140,219127,1,0,0:0:0:0:
116,80,219269,1,0,0:0:0:0:
260,68,219410,5,2,0:1:0:0:
320,56,219552,1,0,0:0:0:0:
260,68,219693,1,0,0:0:0:0:
320,56,219835,1,0,0:0:0:0:
464,68,219976,1,2,0:1:0:0:
484,128,220118,1,0,0:0:0:0:
464,188,220259,1,0,0:0:0:0:
320,200,220401,1,0,0:0:0:0:
176,212,220542,5,2,0:1:0:0:
148,272,220684,1,0,0:0:0:0:
176,332,220826,1,0,0:0:0:0:
236,352,220967,1,0,0:0:0:0:
380,340,221108,1,2,0:1:0:0:
440,328,221250,1,0,0:0:0:0:
380,340,221391,1,0,0:0:0:0:
320,328,221533,1,0,0:0:0:0:
464,316,221674,5,2,0:1:0:0:
492,256,221816,1,0,0:0:0:0:
464,196,221958,1,0,0:0:0:0:
404,176,222099,1,0,0:0:0:0:
260,188,222240,1,2,0:1:0:0:
248,128,222382,1,0,0:0:0:0:
452,116,222523,1,2,0:0:0:0:
464,56,222665,1,0,0:0:0:0:
260,44,222806,5,2,0:0:0:0:
320,56,222948,1,0,0:0:0:0:
324,116,223089,1,0,0:0:0:0:
328,176,223231,1,0,0:0:0:0:
184,188,223372,1,2,0:1:0:0:
244,200,223514,1,0,0:0:0:0:
248,260,223655,1,0,0:0:0:0:
252,320,223797,1,0,0:0:0:0:
108,332,223938,5,2,0:1:0:0:
48,320,224080,1,0,0:0:0:0:
108,332,224221,1,0,0:0:0:0:
168,320,224363,1,0,0:0:0:0:
24,332,224504,1,2,0:1:0:0:
32,272,224646,1,0,0:0:0:0:
176,260,224787,1,0,0:0:0:0:
184,200,224929,1,0,0:0:0:0:
388,188,225070,6,0,L|504:184,1,117,2|0,0:1|0:0,0:0:0:0:
384,172,225636,1,8,0:0:0:0:
324,160,225778,1,8,0:0:0:0:
384,172,225920,1,8,0:0:0:0:
324,160,226061,1,8,0:0:0:0:
180,148,226203,6,0,L|64:144,1,117,2|0,0:1|0:0,0:0:0:0:
124,132,226627,1,0,0:0:0:0:
268,144,226769,1,8,0:0:0:0:
280,84,226910,1,8,0:0:0:0:
136,72,227052,1,8,0:0:0:0:
124,12,227193,1,8,0:0:0:0:
388,0,227335,1,4,0:0:0:0:
256,376,235259,5,2,0:1:0:0:
436,348,235825,1,2,0:1:0:0:
76,348,236391,6,0,L|72:232,1,117,6|2,0:0|0:0,0:0:0:0:
132,220,236816,1,0,0:0:0:0:
276,208,236957,1,10,0:0:0:0:
156,180,237240,1,2,0:0:0:0:
276,208,237523,1,2,0:0:0:0:
336,196,237665,2,0,L|452:192,1,117,0|2,0:0|0:0,0:0:0:0:
392,180,238089,1,2,0:0:0:0:
156,152,238372,1,8,0:0:0:0:
96,140,238514,1,0,0:0:0:0:
240,128,238655,6,0,L|244:12,1,117,2|2,0:0|0:0,0:0:0:0:
184,0,239080,1,0,0:0:0:0:
328,12,239221,2,0,L|444:16,1,117,10|2,0:0|0:0,0:0:0:0:
504,28,239646,1,2,0:0:0:0:
444,16,239787,1,0,0:0:0:0:
300,28,239929,2,0,P|280:82|275:141,1,117
336,156,240353,1,0,0:0:0:0:
100,184,240636,1,8,0:0:0:0:
436,216,240920,5,8,0:0:0:0:
464,276,241061,1,8,0:0:0:0:
436,336,241203,1,8,0:0:0:0:
376,356,241344,1,8,0:0:0:0:
232,336,241486,1,8,0:0:0:0:
224,276,241627,1,8,0:0:0:0:
292,264,241769,1,8,0:0:0:0:
300,204,241910,1,8,0:0:0:0:
156,176,242052,5,8,0:0:0:0:
96,156,242193,1,8,0:0:0:0:
68,96,242335,1,8,0:0:0:0:
96,36,242476,1,8,0:0:0:0:
156,16,242618,1,8,0:0:0:0:
216,36,242759,1,8,0:0:0:0:
72,64,242901,1,8,0:0:0:0:
12,84,243042,1,8,0:0:0:0:
156,112,243184,5,8,0:0:0:0:
276,140,243467,1,8,0:0:0:0:
288,200,243608,1,8,0:0:0:0:
168,228,243891,1,8,0:0:0:0:
108,240,244033,1,8,0:0:0:0:
168,228,244174,1,8,0:0:0:0:
312,240,244316,1,8,0:0:0:0:
372,252,244457,1,8,0:0:0:0:
312,240,244599,1,8,0:0:0:0:
252,252,244740,1,8,0:0:0:0:
492,264,244882,1,4,0:0:0:0:
188,292,245448,6,0,L|72:296,1,117,4|0,0:0|0:0,0:0:0:0:
192,324,246014,2,0,L|308:328,1,117,8|0,0:0|0:0,0:0:0:0:
164,340,246438,1,8,0:0:0:0:
124,288,246580,1,0,0:0:0:0:
140,224,246722,1,8,0:0:0:0:
200,196,246863,1,0,0:0:0:0:
436,168,247146,2,0,L|440:52,1,117,8|0,0:0|0:0,0:0:0:0:
372,40,247570,1,0,0:0:0:0:
228,28,247712,6,0,L|112:32,1,117,2|0,0:1|0:0,0:0:0:0:
232,60,248278,2,0,L|236:176,1,117,8|0,0:0|0:0,0:0:0:0:
92,188,248703,1,8,0:0:0:0:
24,200,248844,1,0,0:0:0:0:
92,188,248986,1,8,0:0:0:0:
160,200,249127,1,0,0:0:0:0:
396,228,249410,2,0,L|512:232,1,117,8|8,0:0|0:0,0:0:0:0:
444,244,249835,1,0,0:0:0:0:
240,260,249976,6,0,L|236:376,1,117,4|0,0:0|0:0,0:0:0:0:
356,352,250542,2,0,L|240:348,1,117,8|0,0:0|0:0,0:0:0:0:
96,336,250967,1,8,0:0:0:0:
92,276,251108,1,0,0:0:0:0:
88,216,251250,1,8,0:0:0:0:
84,156,251391,1,0,0:0:0:0:
204,184,251674,2,0,L|320:180,1,117,8|0,0:0|0:0,0:0:0:0:
252,168,252099,1,0,0:0:0:0:
396,180,252240,6,0,L|400:64,1,117,2|0,0:1|0:0,0:0:0:0:
280,36,252806,2,0,L|276:152,1,117,8|0,0:0|0:0,0:0:0:0:
344,164,253231,1,0,0:0:0:0:
488,176,253372,1,8,0:0:0:0:
420,188,253514,1,8,0:0:0:0:
488,176,253655,1,8,0:0:0:0:
420,188,253797,1,8,0:0:0:0:
488,176,253938,1,8,0:0:0:0:
252,204,254221,1,8,0:0:0:0:
240,264,254363,1,0,0:0:0:0:
480,252,254504,6,0,L|484:368,1,117,4|0,0:0|0:0,0:0:0:0:
364,340,255070,2,0,L|480:336,1,117,8|0,0:0|0:0,0:0:0:0:
336,324,255495,1,8,0:0:0:0:
296,272,255637,1,0,0:0:0:0:
312,208,255779,1,8,0:0:0:0:
372,180,255920,1,0,0:0:0:0:
136,208,256203,2,0,L|20:204,1,117,8|0,0:0|0:0,0:0:0:0:
88,192,256627,1,0,0:0:0:0:
232,180,256769,6,0,L|236:64,1,117,2|0,0:1|0:0,0:0:0:0:
116,32,257335,2,0,L|112:148,1,117,8|0,0:0|0:0,0:0:0:0:
256,160,257759,1,8,0:0:0:0:
296,212,257901,1,0,0:0:0:0:
280,276,258043,1,8,0:0:0:0:
220,304,258184,1,0,0:0:0:0:
100,332,258467,1,8,0:0:0:0:
336,360,258750,1,8,0:0:0:0:
268,372,258891,1,0,0:0:0:0:
64,360,259033,6,0,L|60:244,1,117,4|0,0:0|0:0,0:0:0:0:
272,220,259599,2,0,L|156:216,1,117,8|0,0:0|0:0,0:0:0:0:
300,204,260023,1,8,0:0:0:0:
240,192,260165,1,0,0:0:0:0:
300,172,260306,1,8,0:0:0:0:
328,112,260448,1,0,0:0:0:0:
300,52,260589,1,0,0:0:0:0:
240,32,260731,1,8,0:0:0:0:
4,4,261014,1,0,0:0:0:0:
72,16,261155,1,0,0:0:0:0:
216,28,261297,5,0,0:0:0:0:
72,16,261438,1,8,0:0:0:0:
20,76,261580,1,8,0:0:0:0:
72,136,261721,1,8,0:0:0:0:
216,124,261863,1,0,0:0:0:0:
360,112,262004,1,8,0:0:0:0:
412,172,262146,1,8,0:0:0:0:
360,232,262287,1,8,0:0:0:0:
216,220,262429,5,0,0:0:0:0:
148,232,262570,1,8,0:0:0:0:
292,244,262712,1,0,0:0:0:0:
360,232,262853,1,0,0:0:0:0:
216,220,262995,1,8,0:0:0:0:
188,280,263136,1,8,0:0:0:0:
216,340,263278,1,8,0:0:0:0:
276,360,263420,1,8,0:0:0:0:
476,372,263561,6,0,P|442:265|336:224,1,234,4|8,0:0|0:0,0:0:0:0:
216,196,264410,1,0,0:0:0:0:
360,184,264552,1,8,0:0:0:0:
292,172,264693,1,0,0:0:0:0:
224,160,264835,1,8,0:0:0:0:
488,132,265259,2,0,L|492:16,1,117,10|0,0:0|0:0,0:0:0:0:
424,4,265684,1,0,0:0:0:0:
280,16,265825,6,0,L|164:20,1,117,2|0,0:1|0:0,0:0:0:0:
284,48,266391,2,0,L|288:164,1,117,8|0,0:0|0:0,0:0:0:0:
144,176,266816,1,8,0:0:0:0:
104,228,266958,1,0,0:0:0:0:
120,292,267100,1,8,0:0:0:0:
180,320,267241,1,0,0:0:0:0:
416,348,267523,1,8,0:0:0:0:
180,320,267806,1,8,0:0:0:0:
168,380,267948,1,0,0:0:0:0:
372,368,268089,6,0,P|449:298|373:227,1,234,4|8,0:0|0:0,0:0:0:0:
252,200,268938,1,0,0:0:0:0:
108,188,269080,1,8,0:0:0:0:
176,176,269221,1,0,0:0:0:0:
108,188,269363,1,8,0:0:0:0:
372,160,269787,2,0,L|488:156,1,117,8|0,0:0|0:0,0:0:0:0:
420,144,270212,1,0,0:0:0:0:
276,132,270353,6,0,L|272:16,1,117,2|0,0:1|0:0,0:0:0:0:
392,44,270920,2,0,L|396:160,1,117,8|0,0:0|0:0,0:0:0:0:
252,176,271344,1,8,0:0:0:0:
184,188,271486,1,0,0:0:0:0:
252,176,271627,1,8,0:0:0:0:
320,188,271769,1,0,0:0:0:0:
84,188,272052,1,8,0:0:0:0:
72,248,272193,1,8,0:0:0:0:
216,260,272335,1,8,0:0:0:0:
228,320,272476,1,8,0:0:0:0:
16,332,272618,6,0,P|50:225|156:184,1,234,4|8,0:0|0:0,0:0:0:0:
276,156,273467,1,0,0:0:0:0:
132,144,273608,1,8,0:0:0:0:
64,132,273750,1,0,0:0:0:0:
132,144,273891,1,8,0:0:0:0:
396,112,274316,2,0,L|280:108,1,117,10|0,0:0|0:0,0:0:0:0:
212,96,274740,1,0,0:0:0:0:
356,84,274882,6,0,P|351:142|330:196,1,117,2|0,0:1|0:0,0:0:0:0:
212,228,275448,2,0,L|328:232,1,117,8|0,0:0|0:0,0:0:0:0:
472,244,275872,1,8,0:0:0:0:
468,304,276014,1,0,0:0:0:0:
400,316,276155,1,8,0:0:0:0:
468,304,276297,1,0,0:0:0:0:
232,332,276580,1,8,0:0:0:0:
468,304,276863,1,8,0:0:0:0:
456,244,277004,1,0,0:0:0:0:
244,232,277146,6,0,P|167:162|243:91,1,234,4|8,0:0|0:0,0:0:0:0:
364,64,277995,1,0,0:0:0:0:
220,52,278136,1,8,0:0:0:0:
152,40,278278,1,0,0:0:0:0:
220,52,278420,1,0,0:0:0:0:
288,40,278561,1,8,0:0:0:0:
52,80,278844,1,8,0:0:0:0:
172,108,279127,1,0,0:0:0:0:
232,120,279269,1,0,0:0:0:0:
28,132,279411,5,8,0:0:0:0:
0,192,279552,1,8,0:0:0:0:
28,252,279694,1,8,0:0:0:0:
96,264,279835,1,8,0:0:0:0:
28,252,279976,1,8,0:0:0:0:
264,280,280259,1,0,0:0:0:0:
196,292,280401,1,8,0:0:0:0:
264,280,280542,1,0,0:0:0:0:
292,220,280684,5,8,0:0:0:0:
264,160,280825,1,8,0:0:0:0:
196,148,280967,1,0,0:0:0:0:
340,160,281108,1,8,0:0:0:0:
360,100,281250,1,8,0:0:0:0:
152,88,281391,1,8,0:0:0:0:
132,28,281533,1,8,0:0:0:0:
448,16,281674,5,4,0:0:0:0:
256,192,281816,12,8,285920,0:0:0:0:
80,352,286203,6,0,L|196:348,1,117,6|2,0:0|0:0,0:0:0:0:
316,320,286769,2,0,L|200:316,1,117,2|2,0:0|0:0,0:0:0:0:
56,304,287193,1,8,0:0:0:0:
52,244,287335,1,2,0:0:0:0:
48,184,287476,1,8,0:0:0:0:
44,124,287618,1,0,0:0:0:0:
164,152,287901,2,0,L|168:36,1,117,8|2,0:0|0:0,0:0:0:0:
100,24,288325,1,0,0:0:0:0:
244,12,288467,6,0,L|360:8,2,117,2|2|10,0:1|0:0|0:0,0:0:0:0:
364,40,289316,1,2,0:0:0:0:
432,52,289457,1,10,0:0:0:0:
288,64,289599,1,0,0:0:0:0:
260,124,289740,1,8,0:0:0:0:
288,184,289882,1,0,0:0:0:0:
356,196,290023,1,0,0:0:0:0:
500,208,290165,2,0,L|504:324,1,117,8|8,0:0|0:0,0:0:0:0:
436,336,290589,1,0,0:0:0:0:
232,348,290731,5,6,0:0:0:0:
172,328,290872,1,0,0:0:0:0:
144,268,291014,1,2,0:0:0:0:
172,208,291155,1,0,0:0:0:0:
316,196,291297,1,10,0:0:0:0:
384,184,291438,1,0,0:0:0:0:
316,196,291580,1,2,0:0:0:0:
248,184,291721,1,8,0:0:0:0:
400,196,291863,5,2,0:0:0:0:
460,176,292004,1,8,0:0:0:0:
488,116,292146,1,0,0:0:0:0:
460,56,292287,1,0,0:0:0:0:
316,44,292429,1,8,0:0:0:0:
248,32,292570,1,0,0:0:0:0:
316,44,292712,1,2,0:0:0:0:
248,32,292853,1,8,0:0:0:0:
104,48,292995,5,2,0:0:0:0:
76,108,293137,1,0,0:0:0:0:
104,168,293279,1,2,0:0:0:0:
164,188,293420,1,0,0:0:0:0:
308,200,293561,1,10,0:0:0:0:
368,220,293702,1,0,0:0:0:0:
396,280,293844,1,2,0:0:0:0:
368,340,293986,1,10,0:0:0:0:
308,360,294127,1,0,0:0:0:0:
452,372,294269,6,0,L|456:256,1,117,8|0,0:0|0:0,0:0:0:0:
320,244,294693,1,8,0:0:0:0:
252,232,294835,1,0,0:0:0:0:
396,220,294976,1,8,0:0:0:0:
464,208,295118,1,0,0:0:0:0:
252,232,295259,6,0,L|248:116,1,117,6|2,0:0|0:0,0:0:0:0:
368,88,295825,2,0,L|252:84,1,117
108,72,296250,1,8,0:0:0:0:
68,124,296392,1,2,0:0:0:0:
84,188,296534,1,8,0:0:0:0:
144,216,296675,1,0,0:0:0:0:
264,244,296957,2,0,L|268:360,1,117,8|2,0:0|0:0,0:0:0:0:
200,372,297382,1,0,0:0:0:0:
56,360,297523,6,0,L|172:356,2,117,2|2|10,0:1|0:0|0:0,0:0:0:0:
176,332,298372,1,2,0:0:0:0:
184,272,298514,1,10,0:0:0:0:
40,260,298655,1,8,0:0:0:0:
108,248,298797,1,8,0:0:0:0:
40,260,298938,1,8,0:0:0:0:
108,248,299080,1,8,0:0:0:0:
404,260,299221,1,4,0:0:0:0:
116,288,299787,6,0,L|112:172,1,117,6|2,0:0|0:0,0:0:0:0:
232,200,300353,2,0,L|236:84,1,117,10|2,0:0|0:0,0:0:0:0:
92,72,300778,1,8,0:0:0:0:
24,60,300920,1,2,0:0:0:0:
92,72,301061,1,8,0:0:0:0:
160,60,301203,1,0,0:0:0:0:
396,32,301486,2,0,L|280:28,1,117,8|2,0:0|0:0,0:0:0:0:
268,88,301910,1,0,0:0:0:0:
412,100,302052,6,0,L|416:216,1,117,2|2,0:1|0:0,0:0:0:0:
296,244,302618,2,0,L|292:360,1,117,10|2,0:0|0:0,0:0:0:0:
436,376,303042,1,8,0:0:0:0:
504,364,303184,1,2,0:0:0:0:
436,376,303325,1,8,0:0:0:0:
504,364,303467,1,0,0:0:0:0:
268,336,303750,2,0,L|152:332,1,117,8|8,0:0|0:0,0:0:0:0:
220,320,304174,1,0,0:0:0:0:
424,308,304316,6,0,L|428:192,1,117,6|2,0:0|0:0,0:0:0:0:
308,164,304882,2,0,L|192:160,1,117,10|2,0:0|0:0,0:0:0:0:
336,148,305306,1,8,0:0:0:0:
376,96,305448,1,2,0:0:0:0:
360,32,305590,1,8,0:0:0:0:
300,4,305731,1,0,0:0:0:0:
64,32,306014,2,0,L|60:148,1,117,8|2,0:0|0:0,0:0:0:0:
128,160,306438,1,0,0:0:0:0:
272,172,306580,6,0,L|276:288,1,117,2|2,0:1|0:0,0:0:0:0:
156,320,307146,1,10,0:0:0:0:
276,348,307429,1,2,0:0:0:0:
344,336,307570,1,10,0:0:0:0:
488,324,307712,1,0,0:0:0:0:
420,312,307853,1,8,0:0:0:0:
488,324,307995,1,0,0:0:0:0:
492,264,308136,1,0,0:0:0:0:
348,252,308278,1,8,0:0:0:0:
336,192,308420,1,0,0:0:0:0:
404,180,308561,1,8,0:0:0:0:
472,168,308703,1,8,0:0:0:0:
268,156,308844,6,0,L|152:152,1,117,6|2,0:0|0:0,0:0:0:0:
32,124,309410,2,0,L|148:120,1,117,10|2,0:0|0:0,0:0:0:0:
292,108,309835,1,8,0:0:0:0:
296,168,309977,1,2,0:0:0:0:
300,228,310118,1,8,0:0:0:0:
304,288,310260,1,0,0:0:0:0:
184,316,310542,2,0,L|180:200,1,117,8|2,0:0|0:0,0:0:0:0:
248,188,310967,1,0,0:0:0:0:
392,176,311108,6,0,L|508:172,2,117,2|2|10,0:1|0:0|0:0,0:0:0:0:
272,148,311957,1,2,0:0:0:0:
204,136,312099,1,2,0:0:0:0:
272,148,312240,1,0,0:0:0:0:
416,136,312382,2,0,L|420:20,1,117,8|0,0:0|0:0,0:0:0:0:
304,48,312806,1,8,0:0:0:0:
292,108,312948,1,0,0:0:0:0:
436,120,313089,1,8,0:0:0:0:
448,180,313231,1,0,0:0:0:0:
244,192,313372,6,0,L|128:196,1,117,6|2,0:0|0:0,0:0:0:0:
248,224,313938,2,0,L|364:228,1,117,10|2,0:0|0:0,0:0:0:0:
220,240,314363,1,8,0:0:0:0:
180,292,314505,1,2,0:0:0:0:
196,356,314647,1,8,0:0:0:0:
256,384,314788,1,0,0:0:0:0:
492,356,315071,2,0,L|496:240,1,117,8|2,0:0|0:0,0:0:0:0:
428,228,315495,1,0,0:0:0:0:
284,216,315637,5,8,0:0:0:0:
216,204,315778,1,8,0:0:0:0:
188,144,315920,1,8,0:0:0:0:
216,84,316061,1,8,0:0:0:0:
284,72,316203,1,8,0:0:0:0:
48,44,316486,1,8,0:0:0:0:
36,104,316627,1,0,0:0:0:0:
104,116,316769,1,0,0:0:0:0:
248,128,316910,5,8,0:0:0:0:
316,140,317052,1,0,0:0:0:0:
248,128,317193,1,0,0:0:0:0:
44,200,317335,1,4,0:0:0:0:
112,212,317476,1,0,0:0:0:0:
332,284,317618,1,8,0:0:0:0:
264,296,317759,1,0,0:0:0:0:
32,368,317901,5,4,0:0:0:0:
256,192,318042,12,4,326957,0:0:0:0:
