osu file format v14

[General]
AudioFilename: audio.mp3
AudioLeadIn: 0
PreviewTime: 13304
Countdown: 0
SampleSet: Normal
StackLeniency: 0.7
Mode: 1
LetterboxInBreaks: 0
WidescreenStoryboard: 1

[Editor]
Bookmarks: 6741,20075,26741,30075,38408,43408,53408,71741
DistanceSpacing: 1.2
BeatDivisor: 4
GridSize: 32
TimelineZoom: 1.1

[Metadata]
Title:sister's noise (TV Size)
TitleUnicode:sister's noise (TV Size)
Artist:fripSide
ArtistUnicode:fripSide
Creator:BlackBN
Version:Oni
Source:とある科学の超電磁砲S
Tags:BlackBq anime japanese j-pop jpop pop opening op a certain scientific railgun s season 2 two s2 toaru kagaku no rērugan rerugan reerugan 御坂美琴 佐藤利奈 misaka mikoto satō sato satou rina 白井黒子 shirai kuroko 新井里美 arai satomi 初春飾利 uiharu kazari 豊崎愛生 toyosaki aki 佐天涙子 saten ruiko 伊藤かな恵 itō ito itou kanae
BeatmapID:3325142
BeatmapSetID:1588927

[Difficulty]
HPDrainRate:5.5
CircleSize:2
OverallDifficulty:5
ApproachRate:10
SliderMultiplier:1.4
SliderTickRate:1

[Events]
//Background and Video events
0,0,"92ce8b26.jpg",0,50
Video,-150,"railgunS op.mp4"
//Break Periods
//Storyboard Layer 0 (Background)
//Storyboard Layer 1 (Fail)
//Storyboard Layer 2 (Pass)
//Storyboard Layer 3 (Foreground)
//Storyboard Layer 4 (Overlay)
//Storyboard Sound Samples

[TimingPoints]
75,416.666666666667,4,1,0,75,1,0
75,-100,4,1,0,75,0,0
10075,-100,4,1,0,85,0,0
13356,-100,4,1,0,90,0,0
13408,-100,4,1,0,90,0,1
26741,-100,4,1,0,90,0,0
30022,-100,4,1,0,85,0,0
58356,-100,4,1,0,90,0,0
58408,-100,4,1,0,90,0,1
85075,-100,4,1,0,90,0,0
86741,-100,4,1,0,90,0,1
88408,-100,4,1,0,90,0,0

[HitObjects]
256,192,75,5,8,0:0:0:0:
256,192,700,1,8,0:0:0:0:
256,192,1012,1,8,0:0:0:0:
256,192,1325,1,8,0:0:0:0:
256,192,1533,1,0,0:0:0:0:
256,192,1741,1,8,0:0:0:0:
256,192,2366,1,8,0:0:0:0:
256,192,2679,1,8,0:0:0:0:
256,192,2991,1,0,0:0:0:0:
256,192,3200,1,8,0:0:0:0:
256,192,3408,1,0,0:0:0:0:
256,192,4033,1,0,0:0:0:0:
256,192,4345,1,0,0:0:0:0:
256,192,4658,1,8,0:0:0:0:
256,192,4866,1,0,0:0:0:0:
256,192,5075,1,0,0:0:0:0:
256,192,5700,1,0,0:0:0:0:
256,192,6012,1,8,0:0:0:0:
256,192,6325,1,0,0:0:0:0:
256,192,6533,1,0,0:0:0:0:
256,192,6741,1,8,0:0:0:0:
256,192,7158,1,0,0:0:0:0:
256,192,7575,1,8,0:0:0:0:
256,192,7783,1,0,0:0:0:0:
256,192,7991,1,8,0:0:0:0:
256,192,8408,1,0,0:0:0:0:
256,192,8825,1,8,0:0:0:0:
256,192,9033,1,0,0:0:0:0:
256,192,9241,1,8,0:0:0:0:
256,192,9345,1,8,0:0:0:0:
256,192,9450,1,0,0:0:0:0:
256,192,9658,1,8,0:0:0:0:
256,192,9866,1,0,0:0:0:0:
256,192,10075,1,8,0:0:0:0:
256,192,10179,1,0,0:0:0:0:
256,192,10283,1,8,0:0:0:0:
256,192,10387,1,8,0:0:0:0:
256,192,10491,1,0,0:0:0:0:
256,192,10700,1,8,0:0:0:0:
256,192,10908,1,0,0:0:0:0:
256,192,11012,1,0,0:0:0:0:
256,192,11116,1,8,0:0:0:0:
256,192,11220,1,8,0:0:0:0:
256,192,11325,1,0,0:0:0:0:
256,192,11533,1,0,0:0:0:0:
384,96,11741,1,12,0:0:0:0:
384,96,12054,1,12,0:0:0:0:
384,96,12366,1,4,0:0:0:0:
256,192,12575,1,0,0:0:0:0:
256,192,12783,1,8,0:0:0:0:
256,192,12887,1,8,0:0:0:0:
256,192,12991,1,0,0:0:0:0:
256,192,13095,1,0,0:0:0:0:
256,192,13200,1,8,0:0:0:0:
384,96,13408,1,4,0:0:0:0:
256,192,13720,1,0,0:0:0:0:
256,192,13825,1,8,0:0:0:0:
256,192,14033,1,8,0:0:0:0:
256,192,14137,1,0,0:0:0:0:
256,192,14450,1,0,0:0:0:0:
256,192,14658,1,8,0:0:0:0:
256,192,14866,1,8,0:0:0:0:
256,192,15075,1,8,0:0:0:0:
256,192,15179,1,0,0:0:0:0:
256,192,15387,1,0,0:0:0:0:
256,192,15491,1,8,0:0:0:0:
256,192,15700,1,8,0:0:0:0:
256,192,15908,1,0,0:0:0:0:
256,192,16012,1,0,0:0:0:0:
256,192,16116,1,8,0:0:0:0:
256,192,16220,1,8,0:0:0:0:
256,192,16325,1,0,0:0:0:0:
256,192,16533,1,0,0:0:0:0:
416,96,16741,1,4,0:0:0:0:
256,192,17054,1,0,0:0:0:0:
256,192,17158,1,8,0:0:0:0:
256,192,17366,1,8,0:0:0:0:
256,192,17470,1,0,0:0:0:0:
256,192,17783,1,8,0:0:0:0:
256,192,17991,1,8,0:0:0:0:
256,192,18200,1,0,0:0:0:0:
256,192,18408,1,8,0:0:0:0:
256,192,18512,1,0,0:0:0:0:
256,192,18720,1,0,0:0:0:0:
256,192,18825,1,8,0:0:0:0:
256,192,19033,1,0,0:0:0:0:
256,192,19241,1,8,0:0:0:0:
256,192,19345,1,0,0:0:0:0:
256,192,19450,1,0,0:0:0:0:
256,192,19554,1,0,0:0:0:0:
256,192,19658,1,8,0:0:0:0:
256,192,19866,1,8,0:0:0:0:
352,96,20075,1,4,0:0:0:0:
256,192,20491,1,0,0:0:0:0:
256,192,20700,1,8,0:0:0:0:
256,192,20908,1,8,0:0:0:0:
256,192,21012,1,0,0:0:0:0:
256,192,21116,1,0,0:0:0:0:
256,192,21325,1,8,0:0:0:0:
256,192,21533,1,8,0:0:0:0:
256,192,21741,1,0,0:0:0:0:
256,192,22158,1,8,0:0:0:0:
256,192,22366,1,0,0:0:0:0:
256,192,22470,1,0,0:0:0:0:
256,192,22575,1,8,0:0:0:0:
256,192,22783,1,0,0:0:0:0:
256,192,22991,1,8,0:0:0:0:
384,64,23408,1,12,0:0:0:0:
256,192,23616,1,0,0:0:0:0:
256,192,23720,1,0,0:0:0:0:
256,192,23825,1,8,0:0:0:0:
256,192,24033,1,0,0:0:0:0:
384,96,24241,1,12,0:0:0:0:
256,192,24450,1,0,0:0:0:0:
256,192,24554,1,0,0:0:0:0:
256,192,24658,1,8,0:0:0:0:
256,192,24762,1,8,0:0:0:0:
256,192,24866,1,0,0:0:0:0:
384,96,25075,1,12,0:0:0:0:
256,192,25283,1,0,0:0:0:0:
256,192,25491,1,8,0:0:0:0:
256,192,25595,1,8,0:0:0:0:
256,192,25700,1,0,0:0:0:0:
256,192,25804,1,0,0:0:0:0:
256,192,25908,1,8,0:0:0:0:
256,192,26116,1,8,0:0:0:0:
256,192,26325,1,0,0:0:0:0:
256,192,26429,1,0,0:0:0:0:
256,192,26533,1,8,0:0:0:0:
384,96,26741,1,4,0:0:0:0:
256,192,26950,1,8,0:0:0:0:
256,192,27158,1,0,0:0:0:0:
256,192,27262,1,8,0:0:0:0:
256,192,27470,1,0,0:0:0:0:
256,192,27679,1,8,0:0:0:0:
256,192,27887,1,8,0:0:0:0:
256,192,27991,1,0,0:0:0:0:
256,192,28408,1,8,0:0:0:0:
256,192,28616,1,0,0:0:0:0:
256,192,28825,1,8,0:0:0:0:
256,192,28929,1,8,0:0:0:0:
256,192,29137,1,0,0:0:0:0:
256,192,29345,1,8,0:0:0:0:
256,192,29554,1,8,0:0:0:0:
256,192,29658,1,0,0:0:0:0:
416,96,30075,1,4,0:0:0:0:
256,192,30387,1,0,0:0:0:0:
256,192,30491,1,8,0:0:0:0:
256,192,30700,1,0,0:0:0:0:
256,192,30908,1,0,0:0:0:0:
256,192,31012,1,0,0:0:0:0:
256,192,31116,1,8,0:0:0:0:
256,192,31325,1,8,0:0:0:0:
256,192,31533,1,0,0:0:0:0:
256,192,31741,1,8,0:0:0:0:
256,192,31845,1,0,0:0:0:0:
256,192,32054,1,0,0:0:0:0:
256,192,32158,1,8,0:0:0:0:
256,192,32366,1,8,0:0:0:0:
256,192,32575,1,0,0:0:0:0:
256,192,32991,1,8,0:0:0:0:
256,192,33200,1,0,0:0:0:0:
384,96,33408,1,4,0:0:0:0:
256,192,33720,1,0,0:0:0:0:
256,192,33825,1,8,0:0:0:0:
256,192,34033,1,0,0:0:0:0:
256,192,34241,1,0,0:0:0:0:
256,192,34345,1,8,0:0:0:0:
256,192,34450,1,8,0:0:0:0:
256,192,34658,1,8,0:0:0:0:
256,192,34866,1,0,0:0:0:0:
256,192,35075,1,8,0:0:0:0:
256,192,35179,1,0,0:0:0:0:
256,192,35387,1,8,0:0:0:0:
256,192,35491,1,8,0:0:0:0:
256,192,35700,1,8,0:0:0:0:
256,192,35908,1,0,0:0:0:0:
256,192,36220,1,0,0:0:0:0:
256,192,36325,1,8,0:0:0:0:
256,192,36533,1,0,0:0:0:0:
384,96,36741,1,12,0:0:0:0:
256,192,37054,1,8,0:0:0:0:
256,192,37158,1,8,0:0:0:0:
256,192,37366,1,0,0:0:0:0:
256,192,37575,1,8,0:0:0:0:
256,192,37679,1,8,0:0:0:0:
256,192,37783,1,0,0:0:0:0:
256,192,37991,1,8,0:0:0:0:
256,192,38200,1,8,0:0:0:0:
352,96,38408,1,4,0:0:0:0:
256,192,38825,1,8,0:0:0:0:
256,192,39033,1,0,0:0:0:0:
256,192,39137,1,8,0:0:0:0:
256,192,39241,1,8,0:0:0:0:
256,192,39450,1,0,0:0:0:0:
256,192,39658,1,8,0:0:0:0:
256,192,39762,1,0,0:0:0:0:
256,192,39866,1,8,0:0:0:0:
352,96,40075,1,4,0:0:0:0:
256,192,40283,1,8,0:0:0:0:
256,192,40491,1,0,0:0:0:0:
256,192,40595,1,8,0:0:0:0:
256,192,40804,1,0,0:0:0:0:
256,192,41012,1,8,0:0:0:0:
256,192,41220,1,8,0:0:0:0:
256,192,41325,1,0,0:0:0:0:
256,192,41741,1,0,0:0:0:0:
256,192,41950,1,8,0:0:0:0:
256,192,42158,1,8,0:0:0:0:
256,192,42262,1,8,0:0:0:0:
256,192,42470,1,0,0:0:0:0:
256,192,42679,1,8,0:0:0:0:
256,192,42887,1,0,0:0:0:0:
256,192,42991,1,8,0:0:0:0:
384,96,43408,1,4,0:0:0:0:
256,192,43720,1,0,0:0:0:0:
256,192,43825,1,8,0:0:0:0:
256,192,44033,1,0,0:0:0:0:
256,192,44241,1,8,0:0:0:0:
256,192,44345,1,0,0:0:0:0:
256,192,44554,1,0,0:0:0:0:
256,192,44658,1,8,0:0:0:0:
256,192,44866,1,8,0:0:0:0:
256,192,45075,1,0,0:0:0:0:
256,192,45179,1,0,0:0:0:0:
256,192,45387,1,8,0:0:0:0:
256,192,45491,1,0,0:0:0:0:
256,192,45700,1,8,0:0:0:0:
256,192,45908,1,0,0:0:0:0:
256,192,46325,1,8,0:0:0:0:
256,192,46533,1,0,0:0:0:0:
352,96,46741,1,4,0:0:0:0:
256,192,47054,1,0,0:0:0:0:
256,192,47158,1,8,0:0:0:0:
256,192,47366,1,0,0:0:0:0:
256,192,47575,1,8,0:0:0:0:
256,192,47679,1,0,0:0:0:0:
256,192,47887,1,0,0:0:0:0:
256,192,47991,1,8,0:0:0:0:
256,192,48200,1,0,0:0:0:0:
256,192,48408,1,8,0:0:0:0:
256,192,48512,1,0,0:0:0:0:
256,192,48720,1,8,0:0:0:0:
256,192,48825,1,8,0:0:0:0:
256,192,49033,1,8,0:0:0:0:
256,192,49241,1,0,0:0:0:0:
256,192,49658,1,8,0:0:0:0:
256,192,49866,1,0,0:0:0:0:
384,64,50075,1,4,0:0:0:0:
256,192,50387,1,0,0:0:0:0:
256,192,50491,1,8,0:0:0:0:
256,192,50700,1,0,0:0:0:0:
256,192,50908,1,8,0:0:0:0:
256,192,51012,1,8,0:0:0:0:
256,192,51220,1,8,0:0:0:0:
256,192,51325,1,0,0:0:0:0:
256,192,51533,1,8,0:0:0:0:
256,192,51741,1,0,0:0:0:0:
256,192,51845,1,8,0:0:0:0:
256,192,52054,1,8,0:0:0:0:
256,192,52158,1,0,0:0:0:0:
256,192,52366,1,8,0:0:0:0:
256,192,52575,1,0,0:0:0:0:
256,192,52991,1,8,0:0:0:0:
256,192,53200,1,0,0:0:0:0:
352,96,53408,1,12,0:0:0:0:
256,192,53616,1,0,0:0:0:0:
256,192,53825,1,8,0:0:0:0:
256,192,54033,1,0,0:0:0:0:
256,192,54137,1,8,0:0:0:0:
256,192,54345,1,8,0:0:0:0:
256,192,54450,1,0,0:0:0:0:
256,192,54658,1,8,0:0:0:0:
256,192,54762,1,0,0:0:0:0:
256,192,54866,1,8,0:0:0:0:
256,192,55075,1,0,0:0:0:0:
256,192,55283,1,0,0:0:0:0:
256,192,55491,1,8,0:0:0:0:
256,192,55700,1,8,0:0:0:0:
256,192,55908,1,0,0:0:0:0:
256,192,56012,1,8,0:0:0:0:
256,192,56116,1,0,0:0:0:0:
256,192,56220,1,0,0:0:0:0:
256,192,56325,1,8,0:0:0:0:
256,192,56533,1,0,0:0:0:0:
352,96,56741,1,12,0:0:0:0:
352,96,57054,1,4,0:0:0:0:
352,96,57366,1,4,0:0:0:0:
256,192,57575,1,0,0:0:0:0:
256,192,57783,1,8,0:0:0:0:
256,192,57887,1,8,0:0:0:0:
256,192,57991,1,0,0:0:0:0:
256,192,58095,1,0,0:0:0:0:
256,192,58200,1,8,0:0:0:0:
384,96,58408,1,4,0:0:0:0:
256,192,58720,1,0,0:0:0:0:
256,192,58825,1,8,0:0:0:0:
256,192,59033,1,8,0:0:0:0:
256,192,59137,1,8,0:0:0:0:
256,192,59450,1,0,0:0:0:0:
256,192,59658,1,8,0:0:0:0:
256,192,59866,1,8,0:0:0:0:
256,192,60075,1,8,0:0:0:0:
256,192,60179,1,0,0:0:0:0:
256,192,60387,1,0,0:0:0:0:
256,192,60491,1,8,0:0:0:0:
256,192,60700,1,8,0:0:0:0:
256,192,60908,1,0,0:0:0:0:
256,192,61012,1,0,0:0:0:0:
256,192,61116,1,8,0:0:0:0:
256,192,61220,1,0,0:0:0:0:
256,192,61325,1,8,0:0:0:0:
256,192,61533,1,0,0:0:0:0:
416,96,61741,1,4,0:0:0:0:
256,192,62054,1,0,0:0:0:0:
256,192,62158,1,8,0:0:0:0:
256,192,62366,1,8,0:0:0:0:
256,192,62470,1,0,0:0:0:0:
256,192,62783,1,8,0:0:0:0:
256,192,62991,1,8,0:0:0:0:
256,192,63200,1,0,0:0:0:0:
256,192,63408,1,8,0:0:0:0:
256,192,63512,1,8,0:0:0:0:
256,192,63720,1,0,0:0:0:0:
256,192,63825,1,8,0:0:0:0:
256,192,64033,1,0,0:0:0:0:
256,192,64241,1,8,0:0:0:0:
256,192,64345,1,0,0:0:0:0:
256,192,64450,1,0,0:0:0:0:
256,192,64554,1,0,0:0:0:0:
256,192,64658,1,8,0:0:0:0:
256,192,64866,1,8,0:0:0:0:
352,96,65075,1,4,0:0:0:0:
256,192,65491,1,0,0:0:0:0:
256,192,65700,1,8,0:0:0:0:
256,192,65804,1,0,0:0:0:0:
256,192,66012,1,0,0:0:0:0:
256,192,66116,1,8,0:0:0:0:
256,192,66325,1,8,0:0:0:0:
256,192,66533,1,8,0:0:0:0:
384,96,66741,1,4,0:0:0:0:
256,192,67158,1,8,0:0:0:0:
256,192,67366,1,0,0:0:0:0:
256,192,67470,1,8,0:0:0:0:
256,192,67679,1,8,0:0:0:0:
256,192,67783,1,0,0:0:0:0:
256,192,67991,1,8,0:0:0:0:
256,192,68200,1,8,0:0:0:0:
384,64,68408,1,4,0:0:0:0:
256,192,68825,1,8,0:0:0:0:
256,192,69033,1,0,0:0:0:0:
256,192,69241,1,8,0:0:0:0:
256,192,69450,1,0,0:0:0:0:
256,192,69554,1,0,0:0:0:0:
256,192,69658,1,8,0:0:0:0:
256,192,69762,1,8,0:0:0:0:
256,192,69866,1,0,0:0:0:0:
384,96,70075,1,12,0:0:0:0:
256,192,70283,1,0,0:0:0:0:
256,192,70491,1,8,0:0:0:0:
256,192,70595,1,8,0:0:0:0:
256,192,70700,1,0,0:0:0:0:
256,192,70804,1,0,0:0:0:0:
256,192,70908,1,8,0:0:0:0:
256,192,71116,1,8,0:0:0:0:
256,192,71325,1,0,0:0:0:0:
256,192,71429,1,8,0:0:0:0:
256,192,71533,1,8,0:0:0:0:
384,96,71741,1,4,0:0:0:0:
256,192,72054,1,0,0:0:0:0:
256,192,72158,1,8,0:0:0:0:
256,192,72366,1,8,0:0:0:0:
256,192,72470,1,0,0:0:0:0:
256,192,72783,1,0,0:0:0:0:
256,192,72991,1,8,0:0:0:0:
256,192,73200,1,8,0:0:0:0:
256,192,73408,1,8,0:0:0:0:
256,192,73512,1,0,0:0:0:0:
256,192,73720,1,0,0:0:0:0:
256,192,73825,1,8,0:0:0:0:
256,192,74033,1,8,0:0:0:0:
256,192,74241,1,0,0:0:0:0:
256,192,74345,1,0,0:0:0:0:
256,192,74450,1,8,0:0:0:0:
256,192,74554,1,8,0:0:0:0:
256,192,74658,1,0,0:0:0:0:
256,192,74866,1,0,0:0:0:0:
416,96,75075,1,4,0:0:0:0:
256,192,75387,1,0,0:0:0:0:
256,192,75491,1,8,0:0:0:0:
256,192,75700,1,8,0:0:0:0:
256,192,75804,1,0,0:0:0:0:
256,192,76116,1,8,0:0:0:0:
256,192,76325,1,8,0:0:0:0:
256,192,76533,1,0,0:0:0:0:
256,192,76741,1,8,0:0:0:0:
256,192,76845,1,0,0:0:0:0:
256,192,77054,1,0,0:0:0:0:
256,192,77158,1,8,0:0:0:0:
256,192,77366,1,0,0:0:0:0:
256,192,77575,1,8,0:0:0:0:
256,192,77679,1,8,0:0:0:0:
256,192,77783,1,0,0:0:0:0:
256,192,77887,1,0,0:0:0:0:
256,192,77991,1,8,0:0:0:0:
256,192,78200,1,8,0:0:0:0:
352,96,78408,1,4,0:0:0:0:
256,192,78825,1,0,0:0:0:0:
256,192,79033,1,8,0:0:0:0:
256,192,79241,1,8,0:0:0:0:
256,192,79345,1,0,0:0:0:0:
256,192,79450,1,0,0:0:0:0:
256,192,79658,1,8,0:0:0:0:
256,192,79866,1,8,0:0:0:0:
256,192,80075,1,0,0:0:0:0:
256,192,80491,1,8,0:0:0:0:
256,192,80700,1,0,0:0:0:0:
256,192,80804,1,0,0:0:0:0:
256,192,80908,1,8,0:0:0:0:
256,192,81116,1,0,0:0:0:0:
256,192,81325,1,8,0:0:0:0:
384,64,81741,1,12,0:0:0:0:
256,192,81950,1,0,0:0:0:0:
256,192,82054,1,0,0:0:0:0:
256,192,82158,1,8,0:0:0:0:
256,192,82366,1,0,0:0:0:0:
384,96,82575,1,12,0:0:0:0:
256,192,82783,1,0,0:0:0:0:
256,192,82887,1,0,0:0:0:0:
256,192,82991,1,8,0:0:0:0:
256,192,83095,1,8,0:0:0:0:
256,192,83200,1,0,0:0:0:0:
384,96,83408,1,12,0:0:0:0:
256,192,83616,1,0,0:0:0:0:
256,192,83825,1,0,0:0:0:0:
256,192,83929,1,0,0:0:0:0:
256,192,84033,1,8,0:0:0:0:
256,192,84137,1,8,0:0:0:0:
256,192,84241,1,0,0:0:0:0:
256,192,84450,1,8,0:0:0:0:
256,192,84658,1,0,0:0:0:0:
256,192,84762,1,0,0:0:0:0:
256,192,84866,1,8,0:0:0:0:
384,96,85075,1,4,0:0:0:0:
256,192,85700,1,0,0:0:0:0:
256,192,85908,1,8,0:0:0:0:
256,192,86220,1,8,0:0:0:0:
256,192,86325,1,0,0:0:0:0:
256,192,86533,1,0,0:0:0:0:
384,96,86741,1,12,0:0:0:0:
256,192,86950,1,0,0:0:0:0:
256,192,87158,1,8,0:0:0:0:
256,192,87262,1,8,0:0:0:0:
256,192,87366,1,0,0:0:0:0:
256,192,87470,1,0,0:0:0:0:
256,192,87575,1,8,0:0:0:0:
256,192,87783,1,8,0:0:0:0:
256,192,87991,1,0,0:0:0:0:
256,192,88095,1,0,0:0:0:0:
256,192,88200,1,8,0:0:0:0:
384,96,88408,1,4,0:0:0:0:
