osu file format v14

[General]
AudioFilename: audio.mp3
AudioLeadIn: 0
PreviewTime: 74048
Countdown: 0
SampleSet: Soft
StackLeniency: 0.4
Mode: 0
LetterboxInBreaks: 0
WidescreenStoryboard: 1

[Editor]
Bookmarks: 560,8060,15560,17286,24192,27645,31098,34552,44911,56998,58724,62178,69084,70811,72537,74264,88077,93580,103616,105343,115703,117429,119156
DistanceSpacing: 0.3
BeatDivisor: 4
GridSize: 32
TimelineZoom: 1.1

[Metadata]
Title:precious time (Short Ver.)
TitleUnicode:precious time (Short Ver.)
Artist:fripSide
ArtistUnicode:fripSide
Creator:tomatas95
Version:Syph's Another
Source:花咲ワークスプリング!
Tags:Hanasaki Work Spring! saga planets eroge ending ed galgame video game syph shirahane suou aeril -atri- kurantemelodii krt firis mistlud saturnalize 南條愛乃 nanjou yoshino m@o 八木沼悟志 Satoshi Yaginuma Kai Kawasaki japanese jpop j-pop pop
BeatmapID:3589636
BeatmapSetID:1723218

[Difficulty]
HPDrainRate:5.6
CircleSize:4
OverallDifficulty:8
ApproachRate:9
SliderMultiplier:2.05
SliderTickRate:1

[Events]
//Background and Video events
Video,-540,"ErogeDaisukiDesu.mp4"
0,0,"InoriDePantsued.jpg",0,0
//Break Periods
//Storyboard Layer 0 (Background)
//Storyboard Layer 1 (Fail)
//Storyboard Layer 2 (Pass)
//Storyboard Layer 3 (Foreground)
//Storyboard Layer 4 (Overlay)
//Storyboard Sound Samples

[TimingPoints]
560,468.750000000001,4,2,54,50,1,0
560,-125,4,2,54,50,0,0
677,-125,4,2,53,50,0,0
1263,-125,4,2,53,45,0,0
2435,-125,4,2,53,50,0,0
3606,-125,4,2,53,45,0,0
4310,-125,4,2,53,50,0,0
4778,-125,4,2,53,45,0,0
6185,-125,4,2,53,50,0,0
7356,-125,4,2,53,45,0,0
8060,-125,4,2,54,50,0,0
8177,-125,4,2,53,50,0,0
8763,-125,4,2,53,45,0,0
9935,-125,4,2,53,50,0,0
11106,-125,4,2,53,45,0,0
11810,-125,4,2,53,50,0,0
12278,-125,4,2,53,45,0,0
13685,-125,4,2,53,50,0,0
14153,-125,4,2,53,45,0,0
15560,431.654676258993,4,2,53,70,1,0
15560,-111.111111111111,4,2,53,70,0,0
15775,-111.111111111111,4,2,53,45,0,0
15991,-100,4,2,53,50,0,0
16207,-100,4,2,53,55,0,0
16423,-100,4,2,53,60,0,0
16639,-100,4,2,53,65,0,0
16854,-100,4,2,53,70,0,0
17070,-100,4,2,53,75,0,0
17286,431.654676258993,4,2,54,80,1,0
17286,-83.3333333333333,4,2,54,80,0,0
17393,-83.3333333333333,4,2,53,80,0,0
18257,-83.3333333333333,4,2,1,80,0,0
18365,-83.3333333333333,4,2,53,80,0,0
18580,-71.4285714285714,4,2,53,80,0,0
18688,-71.4285714285714,4,2,1,80,0,0
18796,-62.5,4,2,53,80,0,0
18904,-62.5,4,2,1,80,0,0
19012,-83.3333333333333,4,2,53,80,0,0
19983,-83.3333333333333,4,2,1,80,0,0
20307,-83.3333333333333,4,2,53,80,0,0
20631,-83.3333333333333,4,2,1,80,0,0
20739,-71.4285714285714,4,2,53,80,0,0
20847,-71.4285714285714,4,2,1,80,0,0
21062,-71.4285714285714,4,2,53,80,0,0
21602,-62.5,4,2,53,80,0,0
21710,-62.5,4,2,1,80,0,0
21926,-62.5,4,2,53,80,0,0
22465,-55.5555555555556,4,2,53,80,0,0
22573,-55.5555555555556,4,2,1,80,0,0
22789,-55.5555555555556,4,2,53,80,0,0
23329,-62.5,4,2,53,80,0,0
23437,-62.5,4,2,1,80,0,0
23760,-62.5,4,2,53,80,0,0
24192,-83.3333333333333,4,2,54,80,0,0
24300,-83.3333333333333,4,2,53,80,0,0
25163,-83.3333333333333,4,2,1,80,0,0
25271,-83.3333333333333,4,2,53,80,0,0
25487,-71.4285714285714,4,2,53,80,0,0
25595,-71.4285714285714,4,2,1,80,0,0
25703,-62.5,4,2,53,80,0,0
25811,-62.5,4,2,1,80,0,0
25919,-62.5,4,2,53,80,0,0
26027,-83.3333333333333,4,2,53,80,0,0
26890,-83.3333333333333,4,2,1,80,0,0
27214,-83.3333333333333,4,2,53,60,0,0
27861,-83.3333333333333,4,2,53,65,0,0
28077,-83.3333333333333,4,2,53,70,0,0
28293,-83.3333333333333,4,2,53,75,0,0
28509,-83.3333333333333,4,2,53,60,0,0
28724,-83.3333333333333,4,2,53,65,0,0
28940,-83.3333333333333,4,2,53,70,0,0
29156,-83.3333333333333,4,2,53,75,0,0
29372,-83.3333333333333,4,2,53,60,0,0
29588,-83.3333333333333,4,2,53,65,0,0
29803,-83.3333333333333,4,2,53,70,0,0
30019,-83.3333333333333,4,2,53,75,0,0
30235,-83.3333333333333,4,2,53,60,0,0
30451,-83.3333333333333,4,2,53,70,0,0
30667,-83.3333333333333,4,2,53,75,0,0
30883,-83.3333333333333,4,2,53,80,0,0
31206,-83.3333333333333,4,2,53,60,0,0
31530,-119.047619047619,4,2,53,60,0,0
32178,-119.047619047619,4,2,53,50,0,0
32393,-119.047619047619,4,2,53,55,0,0
32609,-119.047619047619,4,2,53,60,0,0
32825,-119.047619047619,4,2,53,65,0,0
33041,-119.047619047619,4,2,53,60,0,0
33904,-119.047619047619,4,2,53,50,0,0
34120,-119.047619047619,4,2,53,55,0,0
34336,-119.047619047619,4,2,53,60,0,0
34552,-119.047619047619,4,2,53,65,0,0
34983,-119.047619047619,4,2,53,60,0,0
35415,-119.047619047619,4,2,53,50,0,0
35630,-119.047619047619,4,2,53,55,0,0
35846,-119.047619047619,4,2,53,60,0,0
36062,-119.047619047619,4,2,53,65,0,0
36278,-119.047619047619,4,2,53,70,0,0
36710,-119.047619047619,4,2,53,60,0,0
37141,-119.047619047619,4,2,53,50,0,0
37357,-119.047619047619,4,2,53,55,0,0
37573,-119.047619047619,4,2,53,60,0,0
37789,-119.047619047619,4,2,53,65,0,0
38005,-119.047619047619,4,2,53,70,0,0
38437,-119.047619047619,4,2,53,60,0,0
39084,-119.047619047619,4,2,53,50,0,0
39299,-119.047619047619,4,2,53,55,0,0
39515,-119.047619047619,4,2,53,60,0,0
39731,-119.047619047619,4,2,53,65,0,0
39947,-119.047619047619,4,2,53,60,0,0
40810,-119.047619047619,4,2,53,50,0,0
41026,-119.047619047619,4,2,53,55,0,0
41242,-119.047619047619,4,2,53,60,0,0
41458,-119.047619047619,4,2,53,65,0,0
41890,-119.047619047619,4,2,53,60,0,0
42321,-119.047619047619,4,2,53,50,0,0
42536,-119.047619047619,4,2,53,55,0,0
42752,-119.047619047619,4,2,53,60,0,0
42968,-119.047619047619,4,2,53,65,0,0
43184,-119.047619047619,4,2,53,70,0,0
43401,-119.047619047619,4,2,53,60,0,0
44047,-119.047619047619,4,2,53,50,0,0
44263,-119.047619047619,4,2,53,55,0,0
44479,-119.047619047619,4,2,53,60,0,0
44695,-119.047619047619,4,2,53,65,0,0
44911,-96.1538461538461,4,2,53,70,0,0
45667,-96.1538461538461,4,2,1,70,0,0
45775,-96.1538461538461,4,2,53,70,0,0
46098,-96.1538461538461,4,2,1,70,0,0
46206,-96.1538461538461,4,2,53,70,0,0
46530,-96.1538461538461,4,2,1,70,0,0
46638,-96.1538461538461,4,2,53,70,0,0
47393,-96.1538461538461,4,2,1,70,0,0
47501,-96.1538461538461,4,2,53,70,0,0
47825,-96.1538461538461,4,2,1,70,0,0
47933,-96.1538461538461,4,2,53,70,0,0
48257,-96.1538461538461,4,2,1,70,0,0
48365,-96.1538461538461,4,2,53,70,0,0
49120,-96.1538461538461,4,2,1,70,0,0
49228,-96.1538461538461,4,2,53,70,0,0
49444,-96.1538461538461,4,2,53,60,0,0
49552,-96.1538461538461,4,2,1,70,0,0
49660,-96.1538461538461,4,2,53,65,0,0
49768,-96.1538461538461,4,2,1,70,0,0
49875,-96.1538461538461,4,2,53,70,0,0
49983,-96.1538461538461,4,2,1,70,0,0
50091,-96.1538461538461,4,2,53,75,0,0
50307,-96.1538461538461,4,2,53,70,0,0
50847,-96.1538461538461,4,2,1,70,0,0
50954,-96.1538461538461,4,2,53,70,0,0
51170,-96.1538461538461,4,2,1,70,0,0
51277,-96.1538461538461,4,2,53,70,0,0
52573,-96.1538461538461,4,2,1,70,0,0
52680,-96.1538461538461,4,2,53,70,0,0
53005,-96.1538461538461,4,2,1,70,0,0
53112,-96.1538461538461,4,2,53,70,0,0
53437,-96.1538461538461,4,2,1,70,0,0
53544,-96.1538461538461,4,2,53,70,0,0
54300,-96.1538461538461,4,2,1,70,0,0
54407,-96.1538461538461,4,2,53,70,0,0
54732,-96.1538461538461,4,2,1,70,0,0
54839,-96.1538461538461,4,2,53,70,0,0
55163,-96.1538461538461,4,2,1,70,0,0
55270,-96.1538461538461,4,2,53,70,0,0
56027,-96.1538461538461,4,2,1,70,0,0
56134,-96.1538461538461,4,2,53,50,0,0
56998,-111.111111111111,4,2,53,50,0,0
57214,-111.111111111111,4,2,53,55,0,0
57429,-100,4,2,53,60,0,0
57645,-100,4,2,53,65,0,0
57861,-100,4,2,53,70,0,0
58077,-100,4,2,53,75,0,0
58509,-100,4,2,53,80,0,0
58724,-156.25,4,2,53,80,0,0
59156,-156.25,4,2,53,60,0,0
59264,-156.25,4,2,1,60,0,0
59372,-156.25,4,2,1,65,0,0
59588,-156.25,4,2,53,70,0,0
59803,-156.25,4,2,53,60,0,0
59911,-156.25,4,2,1,60,0,0
60019,-156.25,4,2,53,65,0,0
60127,-156.25,4,2,1,60,0,0
60235,-156.25,4,2,53,70,0,0
60451,-156.25,4,2,53,75,0,0
60667,-156.25,4,2,53,60,0,0
60775,-156.25,4,2,1,60,0,0
60883,-156.25,4,2,53,60,0,0
61098,-156.25,4,2,1,60,0,0
61314,-156.25,4,2,53,60,0,0
61638,-156.25,4,2,1,60,0,0
61746,-156.25,4,2,53,60,0,0
62717,-156.25,4,2,1,60,0,0
62825,-156.25,4,2,1,65,0,0
63041,-156.25,4,2,53,70,0,0
63149,-156.25,4,2,1,60,0,0
63257,-156.25,4,2,53,75,0,0
63473,-156.25,4,2,53,60,0,0
63580,-156.25,4,2,1,60,0,0
63688,-156.25,4,2,53,65,0,0
63796,-156.25,4,2,1,60,0,0
63904,-156.25,4,2,53,70,0,0
64120,-156.25,4,2,53,60,0,0
64875,-156.25,4,2,1,60,0,0
64983,-156.25,4,2,53,60,0,0
66170,-156.25,4,2,1,60,0,0
66278,-156.25,4,2,1,65,0,0
66494,-156.25,4,2,53,70,0,0
66710,-156.25,4,2,53,60,0,0
66818,-156.25,4,2,1,60,0,0
66926,-156.25,4,2,53,65,0,0
67034,-156.25,4,2,1,60,0,0
67142,-156.25,4,2,53,75,0,0
67250,-156.25,4,2,1,60,0,0
67358,-156.25,4,2,53,75,0,0
67573,-156.25,4,2,53,60,0,0
68544,-156.25,4,2,1,60,0,0
68652,-156.25,4,2,53,60,0,0
69084,-156.25,4,2,53,75,0,0
69192,-156.25,4,2,53,55,0,0
69516,-156.25,4,2,53,60,0,0
69732,-156.25,4,2,53,65,0,0
69947,-96.1538461538461,4,2,53,75,0,0
70163,-96.1538461538461,4,2,53,55,0,0
70379,-96.1538461538461,4,2,53,60,0,0
70595,-96.1538461538461,4,2,53,65,0,0
70811,-96.1538461538461,4,2,53,75,0,0
71027,-96.1538461538461,4,2,53,55,0,0
71242,-96.1538461538461,4,2,53,60,0,0
71458,-96.1538461538461,4,2,53,65,0,0
71674,-96.1538461538461,4,2,53,70,0,0
71890,-96.1538461538461,4,2,53,75,0,0
72106,-96.1538461538461,4,2,53,80,0,0
72537,-96.1538461538461,4,2,53,55,0,0
72969,-96.1538461538461,4,2,53,60,0,0
73616,-96.1538461538461,4,2,53,65,0,0
73832,-96.1538461538461,4,2,53,70,0,0
74048,-96.1538461538461,4,2,53,75,0,0
74264,431.654676258993,4,2,54,80,1,0
74264,-74.6268656716418,4,2,54,90,0,0
74372,-74.6268656716418,4,2,53,90,0,0
74588,-74.6268656716418,4,2,1,75,0,0
74696,-74.6268656716418,4,2,53,90,0,0
75019,-74.6268656716418,4,2,1,75,0,0
75127,-74.6268656716418,4,2,53,90,0,0
75451,-74.6268656716418,4,2,1,75,0,0
75559,-74.6268656716418,4,2,53,90,0,0
75883,-74.6268656716418,4,2,1,75,0,0
75991,-74.6268656716418,4,2,53,90,0,0
76422,-54.3478260869565,4,2,53,90,0,0
76962,-57.4712643678161,4,2,53,90,0,0
77286,-64.9350649350649,4,2,53,90,0,0
77717,-74.6268656716418,4,2,53,90,0,0
78041,-74.6268656716418,4,2,1,75,0,0
78149,-74.6268656716418,4,2,53,90,0,0
78473,-74.6268656716418,4,2,1,75,0,0
78581,-74.6268656716418,4,2,53,90,0,0
79336,-74.6268656716418,4,2,1,75,0,0
79444,-74.6268656716418,4,2,53,90,0,0
80307,-57.4712643678161,4,2,53,90,0,0
80739,-64.9350649350649,4,2,53,90,0,0
80847,-64.9350649350649,4,2,1,75,0,0
80955,-64.9350649350649,4,2,53,90,0,0
81062,-64.9350649350649,4,2,1,75,0,0
81170,-74.6268656716418,4,2,54,90,0,0
81278,-74.6268656716418,4,2,53,90,0,0
81494,-74.6268656716418,4,2,1,75,0,0
81602,-74.6268656716418,4,2,53,90,0,0
81926,-74.6268656716418,4,2,1,75,0,0
82034,-74.6268656716418,4,2,53,90,0,0
82357,-74.6268656716418,4,2,1,75,0,0
82465,-74.6268656716418,4,2,53,90,0,0
82789,-74.6268656716418,4,2,1,75,0,0
82897,-74.6268656716418,4,2,53,90,0,0
83113,-57.4712643678161,4,2,53,90,0,0
84192,-74.6268656716418,4,2,53,90,0,0
84947,-74.6268656716418,4,2,1,75,0,0
85055,-74.6268656716418,4,2,53,90,0,0
85811,-74.6268656716418,4,2,1,75,0,0
85919,-74.6268656716418,4,2,53,90,0,0
86674,-74.6268656716418,4,2,1,75,0,0
86782,-74.6268656716418,4,2,53,90,0,0
86890,-74.6268656716418,4,2,1,75,0,0
86998,-74.6268656716418,4,2,53,90,0,0
88077,-74.6268656716418,4,2,54,90,0,0
88185,-74.6268656716418,4,2,53,90,0,0
88401,-74.6268656716418,4,2,1,75,0,0
88509,-74.6268656716418,4,2,53,90,0,0
88832,-74.6268656716418,4,2,1,75,0,0
88940,-74.6268656716418,4,2,53,90,0,0
89264,-74.6268656716418,4,2,1,75,0,0
89372,-74.6268656716418,4,2,53,90,0,0
89696,-74.6268656716418,4,2,1,75,0,0
89804,-74.6268656716418,4,2,53,90,0,0
90235,-54.3478260869565,4,2,53,90,0,0
90667,-57.4712643678161,4,2,53,90,0,0
91098,-69.4444444444444,4,2,53,90,0,0
91854,-69.4444444444444,4,2,1,75,0,0
91962,-69.4444444444444,4,2,53,90,0,0
92286,-69.4444444444444,4,2,1,75,0,0
92393,-60.9756097560976,4,2,53,90,0,0
93149,-60.9756097560976,4,2,1,75,0,0
93257,-60.9756097560976,4,2,53,90,0,0
94660,-60.9756097560976,4,2,1,75,0,0
94768,-60.9756097560976,4,2,53,90,0,0
94875,-60.9756097560976,4,2,1,75,0,0
94983,-60.9756097560976,4,2,54,90,0,0
95091,-60.9756097560976,4,2,53,90,0,0
95307,-60.9756097560976,4,2,1,75,0,0
95415,-69.4444444444444,4,2,53,90,0,0
96170,-69.4444444444444,4,2,1,75,0,0
96278,-69.4444444444444,4,2,53,90,0,0
96602,-69.4444444444444,4,2,1,75,0,0
96710,-69.4444444444444,4,2,53,90,0,0
96926,-57.4712643678161,4,2,53,90,0,0
97573,-64.9350649350649,4,2,53,90,0,0
98005,-69.4444444444444,4,2,53,90,0,0
98760,-69.4444444444444,4,2,1,75,0,0
98868,-69.4444444444444,4,2,53,90,0,0
99624,-69.4444444444444,4,2,1,75,0,0
99732,-69.4444444444444,4,2,53,90,0,0
100055,-69.4444444444444,4,2,1,75,0,0
100163,-69.4444444444444,4,2,53,90,0,0
103832,-69.4444444444444,4,2,53,45,0,0
104048,-69.4444444444444,4,2,53,50,0,0
104264,-69.4444444444444,4,2,53,55,0,0
104480,-69.4444444444444,4,2,53,60,0,0
104696,-69.4444444444444,4,2,53,65,0,0
104911,-69.4444444444444,4,2,53,70,0,0
105127,-69.4444444444444,4,2,53,75,0,0
105343,-83.3333333333333,4,2,54,90,0,0
105451,-83.3333333333333,4,2,53,80,0,0
106314,-83.3333333333333,4,2,1,80,0,0
106422,-83.3333333333333,4,2,53,80,0,0
106637,-71.4285714285714,4,2,53,80,0,0
106745,-71.4285714285714,4,2,1,80,0,0
106853,-62.5,4,2,53,80,0,0
106961,-62.5,4,2,1,80,0,0
107069,-83.3333333333333,4,2,53,80,0,0
108040,-83.3333333333333,4,2,1,80,0,0
108364,-83.3333333333333,4,2,53,80,0,0
108688,-83.3333333333333,4,2,1,80,0,0
108796,-71.4285714285714,4,2,53,80,0,0
108904,-71.4285714285714,4,2,1,80,0,0
109119,-71.4285714285714,4,2,53,80,0,0
109659,-62.5,4,2,53,80,0,0
109767,-62.5,4,2,1,80,0,0
109983,-62.5,4,2,53,80,0,0
110522,-55.5555555555556,4,2,53,80,0,0
110630,-55.5555555555556,4,2,1,80,0,0
110846,-55.5555555555556,4,2,53,80,0,0
111386,-62.5,4,2,53,80,0,0
111494,-62.5,4,2,1,80,0,0
111817,-62.5,4,2,53,80,0,0
112249,-83.3333333333333,4,2,54,80,0,0
112357,-83.3333333333333,4,2,53,80,0,0
112573,-83.3333333333333,4,2,53,80,0,0
113221,-83.3333333333333,4,2,1,80,0,0
113329,-83.3333333333333,4,2,53,80,0,0
113544,-71.4285714285714,4,2,53,80,0,0
113652,-71.4285714285714,4,2,1,80,0,0
113760,-62.5,4,2,53,80,0,0
113868,-62.5,4,2,1,80,0,0
113976,-83.3333333333333,4,2,53,80,0,0
114947,-83.3333333333333,4,2,1,80,0,0
115271,-83.3333333333333,4,2,53,80,0,0
115811,-83.3333333333333,4,2,53,65,0,0
116134,-83.3333333333333,4,2,53,70,0,0
116350,-83.3333333333333,4,2,53,75,0,0
116566,-83.3333333333333,4,2,53,80,0,0
116674,-83.3333333333333,4,2,53,65,0,0
116998,-83.3333333333333,4,2,53,70,0,0
117214,-83.3333333333333,4,2,53,75,0,0
117429,-83.3333333333333,4,2,53,80,0,0
117537,-83.3333333333333,4,2,53,45,0,0
119156,-83.3333333333333,4,2,53,5,0,0

[Colours]
Combo1 : 252,152,250
Combo2 : 241,232,107
Combo3 : 111,188,251
Combo4 : 237,107,84

[HitObjects]
94,300,560,5,6,1:2:0:0:
94,300,677,1,2,0:0:0:0:
94,300,1263,1,2,0:2:0:0:
164,337,1497,1,2,0:2:0:0:
301,302,1731,1,2,0:2:0:0:
225,279,1965,1,2,0:2:0:0:
243,356,2200,1,2,0:2:0:0:
351,240,2435,5,2,0:2:0:0:
301,302,2669,1,2,0:2:0:0:
225,279,2903,1,2,0:2:0:0:
209,265,3138,2,0,L|235:92,1,164,2|2,0:2|0:2,0:0:0:0:
293,51,3841,2,0,P|341:50|381:84,1,82,2|2,0:2|0:2,0:0:0:0:
331,213,4310,5,2,0:2:0:0:
304,176,4544,1,2,0:0:0:0:
306,145,4778,1,2,0:2:0:0:
316,128,5013,1,2,0:2:0:0:
329,119,5247,2,0,P|377:118|417:152,1,82,2|2,0:2|0:2,0:0:0:0:
434,209,5716,2,0,L|496:221,2,41,2|2|2,0:2|0:0|0:2,0:0:0:0:
213,224,6185,5,2,0:2:0:0:
263,162,6419,1,2,0:2:0:0:
339,185,6653,1,2,0:2:0:0:
355,199,6888,2,0,L|329:372,1,164,2|2,0:2|0:2,0:0:0:0:
254,377,7591,1,2,0:2:0:0:
243,375,7708,1,2,0:0:0:0:
234,373,7825,1,2,0:2:0:0:
201,212,8060,6,0,P|120:217|64:274,1,164,6|0,1:2|0:0,0:0:0:0:
101,344,8763,1,2,0:2:0:0:
64,274,8997,1,2,0:2:0:0:
99,137,9231,1,2,0:2:0:0:
122,213,9465,1,2,0:2:0:0:
45,195,9700,1,2,0:2:0:0:
161,87,9935,5,2,0:2:0:0:
99,137,10169,1,2,0:2:0:0:
122,213,10403,1,2,0:2:0:0:
136,229,10638,2,0,L|309:203,1,164,2|2,0:2|0:2,0:0:0:0:
359,256,11341,2,0,L|352:296,2,41,2|2|2,0:2|0:0|0:2,0:0:0:0:
454,52,11810,6,0,L|429:214,1,164,2|2,0:2|0:2,0:0:0:0:
428,221,12395,1,2,0:0:0:0:
427,228,12513,1,2,0:2:0:0:
356,261,12747,2,0,L|275:247,1,82,2|2,0:2|0:2,0:0:0:0:
207,287,13216,2,0,L|198:327,2,41,2|2|2,0:2|0:0|0:2,0:0:0:0:
142,150,13685,5,2,0:2:0:0:
139,177,13919,1,2,0:0:0:0:
142,201,14153,1,2,0:2:0:0:
150,219,14388,1,2,0:2:0:0:
354,69,14856,1,2,0:2:0:0:
284,108,15091,1,2,0:2:0:0:
289,115,15208,1,2,0:0:0:0:
294,122,15325,1,2,0:2:0:0:
214,31,15560,6,0,L|133:49,3,46.1249985923767,0|0|0|0,1:0|3:0|3:0|3:0,0:0:0:0:
112,108,15991,6,0,L|193:126,3,51.25,0|0|0|0,1:0|3:0|3:0|3:0,0:0:0:0:
103,191,16423,5,0,1:0:0:0:
107,203,16531,1,0,3:0:0:0:
113,214,16639,1,0,3:0:0:0:
120,221,16747,1,0,3:0:0:0:
86,296,16854,5,0,1:0:0:0:
118,304,16962,1,0,3:0:0:0:
153,298,17070,1,0,1:0:0:0:
188,274,17178,1,0,3:0:0:0:
200,196,17286,6,0,L|346:206,1,122.999996246338,6|0,1:2|0:0,0:0:0:0:
386,164,17609,1,2,0:2:0:0:
397,155,17717,2,0,L|458:158,1,61.499998123169,8|0,1:2|0:0,0:0:0:0:
326,5,17933,2,0,L|317:127,1,122.999996246338,2|0,0:2|1:2,0:0:0:0:
190,101,18257,1,0,3:0:0:0:
177,95,18365,6,0,P|206:80|238:84,1,61.499998123169,2|0,0:2|0:0,0:0:0:0:
129,226,18580,2,0,P|141:192|170:174,1,71.7499978103638,10|0,1:2|3:0,0:0:0:0:
184,360,18796,2,0,P|171:321|183:283,1,82,2|0,0:2|3:0,0:0:0:0:
374,314,19012,6,0,L|251:323,1,122.999996246338,2|0,1:2|0:0,0:0:0:0:
182,283,19336,1,2,0:2:0:0:
171,274,19444,2,0,L|73:280,1,61.499998123169,8|0,1:2|0:0,0:0:0:0:
29,99,19660,2,0,L|38:222,1,122.999996246338,2|0,0:2|1:2,0:0:0:0:
39,231,19983,1,0,3:0:0:0:
40,239,20091,1,0,3:0:0:0:
304,46,20307,1,8,1:2:0:0:
304,46,20523,2,0,L|402:40,1,61.499998123169,2|0,0:1|3:0,0:0:0:0:
502,255,20739,6,0,L|359:233,1,143.499995620728,2|0,1:1|3:0,0:0:0:0:
354,220,21062,2,0,L|496:240,1,143.499995620728,2|0,0:1|0:0,0:0:0:0:
254,288,21386,1,2,0:1:0:0:
254,288,21602,6,0,L|281:115,1,164,2|0,1:1|3:0,0:0:0:0:
269,109,21926,2,0,L|241:282,1,164,2|0,0:1|0:0,0:0:0:0:
186,13,22250,1,2,0:1:0:0:
186,13,22465,6,0,L|368:42,1,184.499994369507,2|0,1:1|3:0,0:0:0:0:
384,30,22789,2,0,L|201:0,1,184.499994369507,2|0,0:1|0:0,0:0:0:0:
433,103,23113,1,2,0:1:0:0:
433,103,23329,6,0,L|440:198,3,82,2|0|0|0,1:1|3:0|3:0|3:0,0:0:0:0:
380,237,23760,1,8,1:2:0:0:
380,237,23868,1,0,0:0:0:0:
380,237,23976,2,0,L|387:319,1,82,0|0,1:0|0:0,0:0:0:0:
131,373,24192,6,0,P|174:331|233:340,1,122.999996246338,6|0,1:2|0:0,0:0:0:0:
295,380,24516,1,2,0:2:0:0:
308,384,24624,1,8,1:2:0:0:
297,261,24839,2,0,L|311:435,1,122.999996246338,2|0,0:2|1:2,0:0:0:0:
379,351,25163,1,0,3:0:0:0:
386,343,25271,6,0,P|405:312|392:274,1,61.499998123169,2|0,0:2|0:0,0:0:0:0:
465,247,25487,2,0,P|433:215|384:220,1,71.7499978103638,10|0,1:2|3:0,0:0:0:0:
383,138,25703,2,0,P|341:167|337:223,1,82,2|0,0:2|3:0,0:0:0:0:
214,345,25919,5,2,1:2:0:0:
229,355,26027,2,0,L|213:248,1,61.499998123169
178,229,26242,1,2,0:2:0:0:
163,239,26350,2,0,L|178:132,1,61.499998123169,8|0,1:2|0:0,0:0:0:0:
86,14,26566,2,0,L|109:174,1,122.999996246338,2|0,0:2|1:2,0:0:0:0:
102,146,26890,1,0,3:0:0:0:
101,155,26998,1,0,3:0:0:0:
441,38,27214,2,0,P|382:29|334:85,1,122.999996246338,8|0,1:2|1:0,0:0:0:0:
339,80,27537,1,2,0:0:0:0:
342,91,27645,6,0,P|376:104|418:95,2,61.499998123169,2|0|0,1:1|3:0|3:0,0:0:0:0:
391,177,27969,1,2,3:1:0:0:
404,180,28077,2,0,P|438:174|471:146,1,61.499998123169,8|0,1:2|3:0,0:0:0:0:
315,165,28293,2,0,P|281:171|248:199,1,61.499998123169,2|0,3:1|3:0,0:0:0:0:
151,253,28509,6,0,P|140:286|149:328,2,61.499998123169,2|0|0,1:1|3:0|3:0,0:0:0:0:
66,304,28833,1,2,3:1:0:0:
63,317,28941,2,0,P|69:351|97:384,1,61.499998123169,8|0,1:2|3:0,0:0:0:0:
77,226,29157,2,0,P|71:192|43:159,1,61.499998123169,2|0,3:1|3:0,0:0:0:0:
1,47,29372,5,2,1:1:0:0:
7,52,29480,1,0,3:0:0:0:
14,54,29588,1,0,3:0:0:0:
21,53,29696,1,0,3:0:0:0:
86,12,29803,5,8,1:2:0:0:
96,3,29911,1,0,3:0:0:0:
108,0,30019,1,0,3:0:0:0:
120,1,30127,1,0,3:0:0:0:
190,53,30235,5,0,1:2:0:0:
211,72,30343,1,0,3:0:0:0:
238,79,30451,1,0,3:0:0:0:
264,77,30559,1,0,3:0:0:0:
331,21,30667,6,0,P|368:11|427:33,1,61.499998123169,8|0,1:2|1:0,0:0:0:0:
512,73,30883,2,0,P|475:83|416:61,1,61.499998123169,0|0,1:0|1:0,0:0:0:0:
256,0,31098,5,4,1:1:0:0:
256,0,31530,2,0,L|229:204,1,172.199994744873,2|2,1:2|1:2,0:0:0:0:
175,225,32178,2,0,P|151:189|164:127,1,86.0999973724366,2|0,0:2|1:0,0:0:0:0:
156,139,32501,1,0,3:0:0:0:
160,133,32609,1,2,0:2:0:0:
89,275,32825,6,0,P|140:243|276:271,2,172.199994744873,0|2|0,1:0|1:2|1:0,0:0:0:0:
34,333,33904,1,2,0:2:0:0:
5,260,34120,1,2,1:2:0:0:
57,194,34336,1,2,0:2:0:0:
248,251,34552,6,0,P|164:236|89:275,2,172.199994744873,2|0|0,1:2|1:0|1:0,0:0:0:0:
299,312,35631,1,2,0:2:0:0:
328,239,35847,1,2,1:2:0:0:
276,173,36063,1,2,0:2:0:0:
300,332,36278,6,0,P|375:370|459:355,2,172.199994744873,2|0|0,1:2|1:0|1:0,0:0:0:0:
258,263,37357,1,2,0:0:0:0:
250,232,37573,1,0,1:0:0:0:
272,190,37789,1,2,0:2:0:0:
484,273,38005,5,2,1:2:0:0:
484,273,38437,2,0,L|506:93,1,172.199994744873,2|2,1:2|1:2,0:0:0:0:
500,26,39084,1,2,0:2:0:0:
500,26,39300,2,0,P|455:38|435:87,1,86.0999973724366,0|2,1:0|0:2,0:0:0:0:
512,179,39732,6,0,L|389:193,1,86.0999973724366,0|2,1:0|0:2,0:0:0:0:
380,126,40163,2,0,P|304:147|270:230,1,172.199994744873,2|0,1:2|1:0,0:0:0:0:
324,302,40811,1,2,0:2:0:0:
354,279,41027,1,2,1:2:0:0:
367,222,41242,1,2,0:2:0:0:
319,324,41458,6,0,L|513:308,1,172.199994744873,2|0,1:2|1:0,0:0:0:0:
512,235,42106,1,2,0:2:0:0:
434,365,42321,1,2,1:2:0:0:
381,311,42537,1,2,0:2:0:0:
310,359,42753,1,0,1:0:0:0:
247,314,42969,1,2,0:2:0:0:
162,370,43185,6,0,P|83:371|26:302,1,172.199994744873,0|2,1:0|1:2,0:0:0:0:
31,230,43832,1,2,0:2:0:0:
31,230,44048,2,0,P|75:242|95:291,1,86.0999973724366,0|2,1:0|0:0,0:0:0:0:
158,358,44480,2,0,L|175:304,1,43.0499986862183,0|0,1:0|0:0,0:0:0:0:
166,241,44696,2,0,L|153:199,1,43.0499986862183,0|0,1:0|0:0,0:0:0:0:
44,57,44911,6,0,L|225:108,1,159.899999024048,4|0,1:2|0:0,0:0:0:0:
209,96,45343,2,0,P|240:43|200:-7,1,106.599999349365,10|0,1:2|0:0,0:0:0:0:
277,167,45775,1,2,1:2:0:0:
277,167,45991,2,0,L|341:155,1,53.2999996746826,2|0,0:2|3:0,0:0:0:0:
428,104,46206,2,0,L|364:92,1,53.2999996746826,8|0,1:2|0:0,0:0:0:0:
484,165,46422,1,2,0:2:0:0:
490,172,46530,1,0,3:0:0:0:
497,179,46638,6,0,L|474:297,1,106.599999349365,0|2,1:0|0:2,0:0:0:0:
395,344,47070,2,0,P|334:289|203:282,1,213.19999869873,10|0,1:2|1:0,0:0:0:0:
47,362,47717,1,2,0:2:0:0:
38,272,47933,1,10,1:2:0:0:
119,205,48149,1,2,0:2:0:0:
131,339,48365,6,0,L|91:101,1,213.19999869873,2|8,1:2|1:2,0:0:0:0:
167,32,49012,2,0,L|207:270,1,213.19999869873,2|2,0:2|0:2,0:0:0:0:
264,293,49552,1,0,3:0:0:0:
267,286,49660,2,0,L|323:276,1,53.2999996746826,10|0,1:2|3:0,0:0:0:0:
380,225,49875,2,0,L|436:235,1,53.2999996746826,2|0,0:2|3:0,0:0:0:0:
463,309,50091,6,0,L|514:128,1,159.899999024048,2|0,1:2|0:0,0:0:0:0:
502,144,50523,2,0,P|449:113|399:153,1,106.599999349365,8|2,1:2|0:2,0:0:0:0:
346,174,50955,2,0,P|284:173|262:113,1,106.599999349365,2|0,1:1|3:0,0:0:0:0:
260,132,51278,1,2,0:1:0:0:
261,125,51386,1,8,1:2:0:0:
166,187,51602,1,2,0:1:0:0:
8,28,51818,6,0,P|89:40|113:119,1,159.899999024048,0|0,1:2|0:0,0:0:0:0:
110,117,52250,2,0,L|223:100,1,106.599999349365,10|0,1:2|0:0,0:0:0:0:
231,25,52681,2,0,L|171:34,1,53.2999996746826,2|0,1:2|0:0,0:0:0:0:
293,82,52897,1,2,0:2:0:0:
300,89,53005,1,0,3:0:0:0:
307,94,53113,2,0,L|367:85,1,53.2999996746826,8|0,1:2|0:0,0:0:0:0:
447,1,53329,2,0,L|387:10,1,53.2999996746826,2|0,0:2|3:0,0:0:0:0:
438,235,53544,6,0,P|460:189|511:177,1,106.599999349365,0|2,1:0|0:2,0:0:0:0:
385,302,53976,2,0,L|238:280,1,106.599999349365,10|0,1:2|0:0,0:0:0:0:
273,279,54300,1,0,3:0:0:0:
267,271,54408,2,0,L|244:377,2,106.599999349365,0|2|10,1:0|0:2|1:2,0:0:0:0:
208,206,55055,1,2,0:2:0:0:
29,256,55271,6,0,L|210:307,1,159.899999024048,2|0,1:2|0:0,0:0:0:0:
194,295,55703,2,0,P|225:242|185:192,1,106.599999349365,8|2,1:2|0:2,0:0:0:0:
74,121,56134,1,2,1:2:0:0:
74,121,56350,2,0,P|87:180|150:190,1,106.599999349365,2|8,0:2|1:2,0:0:0:0:
174,134,56782,1,2,0:2:0:0:
210,12,56998,6,0,L|129:30,3,46.1249985923767,0|0|2|0,1:0|3:0|3:2|3:0,0:0:0:0:
108,89,57429,6,0,L|189:107,3,51.25,10|0|2|0,1:2|3:0|3:2|3:0,0:0:0:0:
99,172,57861,5,0,1:0:0:0:
103,184,57969,1,0,3:0:0:0:
109,195,58077,1,2,3:2:0:0:
116,202,58185,1,0,3:0:0:0:
82,277,58293,5,10,1:2:0:0:
114,285,58401,1,0,3:0:0:0:
149,279,58509,1,2,1:2:0:0:
184,255,58616,1,0,3:0:0:0:
192,244,58724,6,0,L|241:231,3,32.8,6|0|0|0,1:2|0:0|0:0|0:0,0:0:0:0:
271,297,59156,2,0,L|320:284,3,32.8,2|0|0|0,1:2|3:0|3:0|3:0,0:0:0:0:
362,339,59588,1,2,1:2:0:0:
376,260,59803,1,2,0:2:0:0:
385,257,59911,1,0,3:0:0:0:
395,260,60019,1,0,1:2:0:0:
456,311,60235,2,0,L|505:298,1,32.8,2|0,0:2|3:0,0:0:0:0:
368,146,60451,6,0,L|381:195,3,32.8,0|0|2|0,1:0|0:0|0:2|3:0,0:0:0:0:
299,103,60883,2,0,L|291:72,3,32.8,2|0|0|0,1:2|0:0|3:0|3:0,0:0:0:0:
262,172,61314,1,0,1:0:0:0:
199,126,61530,2,0,L|190:94,1,32.8,2|0,0:2|3:0,0:0:0:0:
156,189,61746,2,0,L|124:197,1,32.8,0|0,1:0|0:0,0:0:0:0:
34,158,61962,2,0,L|65:149,1,32.8,2|0,0:2|0:0,0:0:0:0:
137,354,62178,5,2,1:2:0:0:
150,359,62286,1,0,3:0:0:0:
164,357,62393,1,0,3:0:0:0:
174,351,62501,1,0,3:0:0:0:
181,343,62609,2,0,L|212:334,3,32.8,2|0|0|0,1:2|3:0|3:0|3:0,0:0:0:0:
249,267,63041,2,0,L|240:236,1,32.8,2|0,1:2|3:0,0:0:0:0:
275,165,63257,2,0,L|266:134,1,32.8,2|0,0:2|0:0,0:0:0:0:
350,206,63473,1,0,1:0:0:0:
370,200,63580,1,0,3:0:0:0:
390,194,63688,1,2,0:2:0:0:
410,188,63796,1,0,3:0:0:0:
430,182,63904,6,0,L|461:173,1,32.8,0|0,1:2|0:0,0:0:0:0:
488,89,64120,2,0,L|457:98,1,32.8,2|0,3:2|0:0,0:0:0:0:
340,129,64336,2,0,L|371:120,1,32.8,2|0,1:2|0:0,0:0:0:0:
398,36,64552,2,0,L|367:45,1,32.8,2|0,0:2|0:0,0:0:0:0:
181,11,64768,1,0,1:2:0:0:
181,11,64983,2,0,L|190:42,1,32.8,2|0,0:2|0:0,0:0:0:0:
144,106,65199,2,0,L|153:137,1,32.8,2|0,1:2|0:0,0:0:0:0:
107,201,65415,2,0,L|116:232,1,32.8,2|0,0:2|0:0,0:0:0:0:
174,283,65631,6,0,P|134:259|62:291,2,131.2,6|2|2,1:2|1:2|1:2,0:0:0:0:
242,322,66710,1,2,0:2:0:0:
297,207,66926,1,0,1:2:0:0:
311,232,67034,1,0,3:0:0:0:
325,257,67142,1,2,0:2:0:0:
339,282,67250,1,0,3:0:0:0:
353,307,67357,6,0,L|441:297,1,65.6,0|2,1:2|0:2,0:0:0:0:
477,253,67681,1,0,0:0:0:0:
483,247,67789,2,0,P|492:208|469:178,1,65.6,2|2,1:2|0:2,0:0:0:0:
396,155,68221,2,0,L|406:243,1,65.6,0|2,1:2|0:2,0:0:0:0:
425,364,68652,2,0,L|415:276,1,65.6,2|2,1:2|0:2,0:0:0:0:
490,84,69084,5,6,1:2:0:0:
480,93,69192,1,0,3:0:0:0:
470,102,69300,1,2,3:2:0:0:
460,111,69408,1,0,3:0:0:0:
450,120,69516,2,0,L|435:85,3,32.8,10|0|2|0,3:2|3:0|3:2|3:0,0:0:0:0:
277,143,69947,5,6,1:2:0:0:
292,156,70055,1,0,3:0:0:0:
308,171,70163,1,2,3:2:0:0:
325,186,70271,1,0,3:0:0:0:
341,201,70379,2,0,L|365:143,3,53.2999996746826,10|0|2|0,0:2|3:0|3:2|3:0,0:0:0:0:
461,274,70811,5,4,1:2:0:0:
446,287,70919,1,0,3:0:0:0:
430,302,71027,1,0,3:0:0:0:
413,317,71135,1,0,3:0:0:0:
341,359,71242,5,8,1:2:0:0:
317,346,71350,1,0,3:0:0:0:
293,334,71458,1,0,3:0:0:0:
267,320,71566,1,0,3:0:0:0:
216,248,71674,6,0,P|224:223|257:203,1,53.2999996746826,0|8,1:2|3:2,0:0:0:0:
262,107,71890,2,0,P|288:109|315:136,1,53.2999996746826,0|0,1:0|3:0,0:0:0:0:
131,295,72106,5,8,1:2:0:0:
113,251,72214,1,0,3:0:0:0:
118,203,72321,1,0,1:0:0:0:
149,169,72429,1,2,3:2:0:0:
170,166,72537,5,0,3:2:0:0:
171,166,74264,6,0,B|286:125|241:278|385:216,1,206.024990254555,6|0,1:2|3:0,0:0:0:0:
359,213,74696,2,0,P|317:220|297:317,1,137.349993503037,10|0,1:2|0:0,0:0:0:0:
360,349,75019,1,0,3:0:0:0:
366,334,75127,2,0,P|408:323|444:351,1,68.6749967515184,2|0,1:2|0:0,0:0:0:0:
441,254,75343,2,0,P|482:267|497:310,1,68.6749967515184,2|0,0:2|3:0,0:0:0:0:
276,374,75559,2,0,P|234:360|219:317,1,68.6749967515184,10|0,1:2|0:0,0:0:0:0:
126,157,75775,1,2,0:2:0:0:
156,162,75883,1,0,3:0:0:0:
177,182,75991,6,0,P|158:221|113:230,1,68.6749967515184,0|0,1:0|0:0,0:0:0:0:
63,209,76206,2,0,P|82:170|127:161,1,68.6749967515184,2|0,0:1|0:0,0:0:0:0:
334,50,76422,2,0,L|306:195,1,94.2999968344117,10|0,1:1|0:0,0:0:0:0:
221,340,76638,2,0,L|249:195,1,94.2999968344117,2|0,0:2|0:0,0:0:0:0:
440,169,76854,1,2,1:1:0:0:
452,186,76962,2,0,P|391:211|315:122,1,178.350001496773,2|2,0:1|0:1,0:0:0:0:
298,64,77286,2,0,P|355:71|374:93,1,78.9249984344101,8|0,1:2|0:0,0:0:0:0:
461,201,77501,2,0,P|404:194|385:172,1,78.9249984344101,2|0,0:1|0:0,0:0:0:0:
157,17,77717,5,2,1:2:0:0:
173,5,77825,2,0,L|145:161,1,137.349993503037,0|0,0:0|3:0,0:0:0:0:
42,209,78149,2,0,P|93:149|179:149,1,137.349993503037,10|2,1:2|0:2,0:0:0:0:
202,208,78473,1,0,3:0:0:0:
193,221,78580,2,0,P|163:236|129:230,1,68.6749967515184,2|0,1:2|0:0,0:0:0:0:
255,91,78796,1,2,0:2:0:0:
267,84,78904,1,0,3:0:0:0:
279,76,79012,2,0,L|263:160,1,68.6749967515184,10|0,1:2|0:0,0:0:0:0:
314,298,79228,1,2,0:2:0:0:
302,305,79336,1,0,3:0:0:0:
290,313,79444,6,0,L|306:229,1,68.6749967515184,0|0,1:0|0:0,0:0:0:0:
414,111,79660,1,2,0:1:0:0:
457,115,79768,1,0,3:0:0:0:
490,137,79875,1,10,1:1:0:0:
506,167,79983,1,0,3:0:0:0:
510,203,80091,2,0,P|479:228|439:213,1,68.6749967515184,2|0,0:1|0:0,0:0:0:0:
198,63,80307,5,2,1:1:0:0:
217,56,80415,2,0,P|221:121|113:166,1,178.350001496773,2|2,0:1|0:1,0:0:0:0:
54,165,80739,2,0,P|78:112|105:101,1,78.9249984344101,8|0,1:2|3:0,0:0:0:0:
234,52,80954,2,0,P|209:104|182:115,1,78.9249984344101,2|0,0:1|3:0,0:0:0:0:
2,280,81170,6,0,L|202:260,1,137.349993503037,6|0,1:2|0:0,0:0:0:0:
194,213,81494,1,0,3:0:0:0:
203,221,81602,2,0,L|276:213,1,68.6749967515184,10|0,1:2|0:0,0:0:0:0:
373,294,81818,2,0,L|300:286,1,68.6749967515184,2|0,0:2|3:0,0:0:0:0:
345,129,82034,2,0,L|353:202,1,68.6749967515184,2|0,1:2|0:0,0:0:0:0:
226,384,82250,1,2,0:2:0:0:
220,371,82357,1,0,3:0:0:0:
219,359,82465,2,0,L|227:286,1,68.6749967515184,8|0,1:2|0:0,0:0:0:0:
352,56,82681,6,0,L|370:224,1,137.349993503037,2|0,0:2|1:0,0:0:0:0:
512,118,83005,1,0,0:0:0:0:
508,99,83113,6,0,P|467:73|416:89,1,89.1750007483864,2|0,0:1|0:0,0:0:0:0:
208,132,83329,2,0,P|249:158|300:142,1,89.1750007483864,10|0,1:1|0:0,0:0:0:0:
103,9,83544,2,0,B|96:49|96:49|91:55|91:55|81:112,1,89.1750007483864,2|0,0:1|0:0,0:0:0:0:
171,305,83760,2,0,B|183:235|183:235|192:221|192:221|209:126,1,178.350001496773,2|0,1:1|0:0,0:0:0:0:
263,78,84084,1,2,0:1:0:0:
270,85,84192,2,0,P|290:132|267:174,1,68.6749967515184,8|0,1:2|0:0,0:0:0:0:
231,203,84408,2,0,P|179:203|150:165,1,68.6749967515184,2|0,0:1|0:0,0:0:0:0:
355,45,84624,5,2,1:2:0:0:
371,38,84732,1,0,3:0:0:0:
386,30,84839,1,0,3:0:0:0:
447,263,85055,2,0,L|457:195,1,68.6749967515184,8|0,1:2|0:0,0:0:0:0:
371,121,85271,2,0,L|381:188,1,68.6749967515184,2|0,0:2|0:0,0:0:0:0:
219,340,85487,2,0,L|208:272,1,68.6749967515184,2|0,1:2|0:0,0:0:0:0:
295,198,85703,2,0,L|284:265,1,68.6749967515184,2|0,0:2|3:0,0:0:0:0:
211,190,85919,2,0,L|200:122,1,68.6749967515184,8|0,1:2|0:0,0:0:0:0:
287,48,86135,2,0,L|276:115,1,68.6749967515184,2|0,0:2|0:0,0:0:0:0:
34,302,86350,5,0,1:0:0:0:
40,297,86458,1,0,3:0:0:0:
47,295,86566,1,2,3:1:0:0:
54,296,86674,1,0,3:0:0:0:
106,358,86781,5,8,1:2:0:0:
116,367,86889,1,0,3:0:0:0:
128,370,86997,1,2,0:1:0:0:
140,369,87105,1,0,0:0:0:0:
210,317,87213,5,2,1:1:0:0:
231,298,87321,1,2,3:1:0:0:
258,291,87429,1,0,1:0:0:0:
284,293,87537,1,2,3:1:0:0:
340,357,87645,5,8,1:2:0:0:
374,359,87753,1,0,3:0:0:0:
410,350,87861,1,2,1:1:0:0:
438,324,87969,1,0,3:0:0:0:
451,279,88077,6,0,P|431:216|352:204,1,137.349993503037,6|0,1:2|0:0,0:0:0:0:
307,244,88401,1,0,3:0:0:0:
321,260,88509,2,0,L|364:88,1,137.349993503037,10|0,1:2|0:0,0:0:0:0:
406,67,88832,1,0,3:0:0:0:
407,48,88940,2,0,P|440:55|462:81,1,68.6749967515184,2|0,1:2|0:0,0:0:0:0:
293,77,89156,2,0,P|262:88|230:79,1,68.6749967515184,2|0,0:2|3:0,0:0:0:0:
15,36,89372,2,0,P|82:17|152:35,1,137.349993503037,8|2,1:2|0:2,0:0:0:0:
149,190,89696,1,0,3:0:0:0:
134,192,89803,6,0,P|100:193|72:175,1,68.6749967515184,0|0,1:0|0:0,0:0:0:0:
66,100,90019,2,0,P|99:98|127:116,1,68.6749967515184,2|0,0:1|0:0,0:0:0:0:
325,276,90235,2,0,B|330:321|330:321|294:378,1,94.2999968344117,10|0,1:1|0:0,0:0:0:0:
212,139,90451,2,0,B|226:95|226:95|284:60,1,94.2999968344117,2|0,0:2|0:0,0:0:0:0:
444,243,90667,2,0,L|145:280,1,267.525002245159,2|2,1:1|0:1,0:0:0:0:
112,236,91098,2,0,P|111:200|152:157,1,73.8000018017578,8|0,1:2|0:0,0:0:0:0:
78,110,91314,2,0,P|106:89|165:97,1,73.8000018017578,2|0,0:1|0:0,0:0:0:0:
23,363,91530,5,2,1:2:0:0:
17,348,91638,1,0,3:0:0:0:
11,331,91746,2,0,L|30:185,1,147.600003603516,0|10,0:0|1:2,0:0:0:0:
72,119,92070,1,0,3:0:0:0:
78,110,92178,2,0,P|106:89|165:97,1,73.8000018017578,2|0,0:2|3:0,0:0:0:0:
371,199,92393,2,0,L|291:174,1,84.0500012825012,2|0,1:2|0:0,0:0:0:0:
240,24,92609,1,2,0:2:0:0:
252,19,92717,1,0,3:0:0:0:
264,14,92825,2,0,L|239:94,1,84.0500012825012,10|0,1:2|0:0,0:0:0:0:
152,256,93041,2,0,L|177:176,1,84.0500012825012,2|0,0:2|3:0,0:0:0:0:
257,364,93257,6,0,L|425:311,1,168.100002565002,0|2,1:0|0:1,0:0:0:0:
464,248,93580,1,0,0:0:0:0:
474,230,93688,2,0,P|481:199|461:150,1,84.0500012825012,10|0,1:1|0:0,0:0:0:0:
384,123,93904,2,0,P|377:154|397:203,1,84.0500012825012,2|0,0:1|0:0,0:0:0:0:
483,371,94120,6,0,L|314:318,1,168.100002565002,2|0,1:1|0:0,0:0:0:0:
245,222,94444,1,2,0:1:0:0:
226,206,94552,2,0,L|238:296,1,84.0500012825012,8|0,1:2|3:0,0:0:0:0:
141,379,94768,2,0,L|152:295,1,84.0500012825012,2|0,0:1|3:0,0:0:0:0:
72,53,94983,5,6,1:2:0:0:
58,71,95091,1,0,3:0:0:0:
60,90,95199,1,0,3:0:0:0:
174,0,95415,2,0,L|135:144,1,147.600003603516,10|2,1:2|0:2,0:0:0:0:
233,76,95739,1,0,3:0:0:0:
248,72,95847,2,0,P|284:82|303:134,1,73.8000018017578,2|0,1:2|0:0,0:0:0:0:
283,190,96062,2,0,P|247:180|228:128,1,73.8000018017578,2|0,0:2|3:0,0:0:0:0:
391,59,96278,2,0,L|376:147,1,73.8000018017578,8|0,1:2|0:0,0:0:0:0:
452,315,96494,1,2,0:2:0:0:
450,300,96602,1,0,3:0:0:0:
441,286,96710,6,0,P|420:263|357:269,1,73.8000018017578,0|0,1:0|0:0,0:0:0:0:
179,380,96926,2,0,L|194:287,1,89.1750007483864,2|0,0:1|0:0,0:0:0:0:
102,89,97142,2,0,L|116:176,1,89.1750007483864,10|0,1:1|0:0,0:0:0:0:
280,318,97357,2,0,L|295:225,1,89.1750007483864,2|0,0:1|0:0,0:0:0:0:
193,29,97573,2,0,L|222:221,1,157.84999686882,2|0,1:1|0:0,0:0:0:0:
362,185,97897,1,2,0:1:0:0:
357,170,98005,2,0,P|332:148|290:145,1,73.8000018017578,8|0,1:2|0:0,0:0:0:0:
216,185,98221,2,0,P|183:190|145:171,1,73.8000018017578,2|0,0:1|0:0,0:0:0:0:
15,33,98437,5,6,1:2:0:0:
25,22,98544,1,0,3:0:0:0:
39,16,98652,1,0,3:0:0:0:
149,93,98868,2,0,L|60:83,1,73.8000018017578,8|0,1:2|0:0,0:0:0:0:
208,27,99084,2,0,L|297:37,1,73.8000018017578,2|0,0:2|0:0,0:0:0:0:
344,259,99300,2,0,L|360:112,1,147.600003603516,6|2,1:2|0:2,0:0:0:0:
429,65,99624,1,0,3:0:0:0:
443,64,99732,2,0,P|487:79|506:127,1,73.8000018017578,8|0,1:2|0:0,0:0:0:0:
491,179,99947,2,0,P|447:164|428:116,1,73.8000018017578,2|0,0:2|3:0,0:0:0:0:
213,349,100163,6,0,L|360:366,1,147.600003603516,4|2,1:2|0:1,0:0:0:0:
162,192,100487,1,0,3:0:0:0:
154,208,100595,2,0,L|160:299,1,73.8000018017578,10|0,1:1|0:0,0:0:0:0:
221,128,100811,2,0,L|215:37,1,73.8000018017578,2|0,0:1|0:0,0:0:0:0:
7,224,101027,2,0,L|153:207,1,147.600003603516,6|2,1:1|0:2,0:0:0:0:
240,247,101350,1,2,0:1:0:0:
252,262,101458,2,0,L|246:353,1,73.8000018017578,8|0,1:2|0:0,0:0:0:0:
385,187,101674,2,0,L|294:181,1,73.8000018017578,2|0,1:1|0:0,0:0:0:0:
24,34,101890,6,0,P|119:61|130:126,1,147.600003603516,4|2,1:2|0:2,0:0:0:0:
91,166,102214,1,0,3:0:0:0:
82,177,102321,1,8,1:2:0:0:
71,189,102429,2,0,L|94:343,1,147.600003603516,2|0,0:2|0:0,0:0:0:0:
132,98,102753,1,2,1:2:0:0:
146,106,102861,2,0,L|169:260,1,147.600003603516,2|2,0:2|0:2,0:0:0:0:
276,187,103185,2,0,P|181:214|170:279,1,147.600003603516,10|0,1:2|0:0,0:0:0:0:
209,333,103509,1,0,3:0:0:0:
222,327,103616,6,0,P|247:300|251:264,1,73.8000018017578,6|0,1:2|3:0,0:0:0:0:
322,45,103832,2,0,P|296:71|292:107,1,73.8000018017578,0|0,3:0|3:0,0:0:0:0:
403,257,104048,2,0,P|376:232|340:228,1,73.8000018017578,8|0,1:2|3:0,0:0:0:0:
121,157,104264,2,0,P|147:183|183:187,1,73.8000018017578,0|0,3:0|3:0,0:0:0:0:
408,141,104480,5,0,1:0:0:0:
398,129,104588,1,0,3:0:0:0:
387,119,104696,1,0,3:0:0:0:
372,111,104803,1,0,3:0:0:0:
327,39,104911,5,8,1:2:0:0:
304,53,105019,1,0,3:0:0:0:
288,82,105127,1,0,1:0:0:0:
292,107,105235,1,0,3:0:0:0:
316,197,105343,6,0,L|183:173,1,122.999996246338,6|0,1:2|0:0,0:0:0:0:
57,81,105667,2,0,L|190:105,1,122.999996246338,2|0,0:2|0:0,0:0:0:0:
320,210,105991,2,0,L|187:186,1,122.999996246338,2|0,0:2|1:2,0:0:0:0:
368,285,106314,1,0,3:0:0:0:
372,271,106422,6,0,P|392:296|394:328,1,61.499998123169,2|0,0:2|0:0,0:0:0:0:
402,192,106637,2,0,P|437:197|460:222,1,71.7499978103638,10|0,1:2|3:0,0:0:0:0:
373,111,106853,2,0,P|408:90|448:95,1,82,2|0,0:2|3:0,0:0:0:0:
294,0,107069,6,0,L|285:123,1,122.999996246338,2|0,1:2|0:0,0:0:0:0:
212,302,107393,2,0,L|221:179,1,122.999996246338,2|0,0:2|0:0,0:0:0:0:
305,3,107717,2,0,L|296:126,1,122.999996246338,2|0,0:2|1:2,0:0:0:0:
297,134,108040,1,0,3:0:0:0:
296,142,108148,1,0,3:0:0:0:
162,19,108364,1,8,1:2:0:0:
162,19,108580,2,0,P|125:15|90:61,1,61.499998123169,2|0,0:1|3:0,0:0:0:0:
9,255,108796,6,0,L|152:233,1,143.499995620728,2|0,1:1|0:0,0:0:0:0:
157,220,109119,2,0,L|15:240,1,143.499995620728,2|0,0:1|0:0,0:0:0:0:
257,288,109443,1,2,0:1:0:0:
257,288,109659,6,0,L|230:115,1,164,2|0,1:1|0:0,0:0:0:0:
242,109,109983,2,0,L|270:282,1,164,2|0,0:1|0:0,0:0:0:0:
325,13,110307,1,2,0:1:0:0:
325,13,110522,6,0,L|143:42,1,184.499994369507,2|0,1:1|3:0,0:0:0:0:
127,30,110846,2,0,L|310:0,1,184.499994369507,2|0,0:1|0:0,0:0:0:0:
83,97,111170,1,2,0:1:0:0:
83,97,111386,5,2,1:1:0:0:
83,109,111494,1,0,3:0:0:0:
83,121,111602,1,0,3:0:0:0:
83,133,111710,1,0,3:0:0:0:
83,144,111818,2,0,L|76:226,1,82,8|0,1:2|0:0,0:0:0:0:
136,346,112034,2,0,L|143:264,1,82
392,360,112249,6,0,P|349:318|290:327,1,122.999996246338,6|0,1:2|0:0,0:0:0:0:
228,367,112573,1,2,0:2:0:0:
215,371,112681,1,8,1:2:0:0:
226,248,112896,2,0,L|212:422,1,122.999996246338,2|0,0:2|1:2,0:0:0:0:
288,188,113220,1,0,3:0:0:0:
296,181,113328,6,0,P|327:162|365:175,1,61.499998123169,2|0,0:2|0:0,0:0:0:0:
213,50,113544,2,0,P|245:82|240:131,1,71.7499978103638,10|0,1:2|3:0,0:0:0:0:
105,180,113760,2,0,P|134:138|190:134,1,82,2|0,0:2|3:0,0:0:0:0:
341,308,113976,6,0,L|218:299,1,122.999996246338,2|0,1:2|0:0,0:0:0:0:
39,226,114300,2,0,L|162:235,1,122.999996246338,2|0,0:2|0:0,0:0:0:0:
338,319,114624,2,0,L|215:310,1,122.999996246338,2|0,0:2|1:2,0:0:0:0:
206,311,114947,1,0,3:0:0:0:
197,312,115055,1,0,3:0:0:0:
71,38,115271,2,0,P|130:29|178:85,1,122.999996246338,8|0,1:2|0:0,0:0:0:0:
173,80,115594,1,0,3:0:0:0:
170,91,115702,6,0,P|138:104|93:96,2,61.499998123169,6|0|0,1:1|3:0|3:0,0:0:0:0:
122,178,116026,1,2,3:1:0:0:
109,181,116134,2,0,P|75:175|42:147,1,61.499998123169,8|0,1:2|3:0,0:0:0:0:
197,165,116350,2,0,P|231:171|264:199,1,61.499998123169,2|0,3:1|3:0,0:0:0:0:
361,253,116566,6,0,P|372:286|363:328,2,61.499998123169,6|0|0,1:1|3:0|3:0,0:0:0:0:
446,304,116890,1,2,3:1:0:0:
449,317,116998,2,0,P|443:351|415:384,1,61.499998123169,8|0,1:2|3:0,0:0:0:0:
435,226,117214,2,0,P|441:192|469:159,1,61.499998123169,2|0,3:1|3:0,0:0:0:0:
511,47,117429,5,6,1:2:0:0:
256,192,117537,12,0,119156,0:0:0:0:
