osu file format v14

[General]
AudioFilename: audio.mp3
AudioLeadIn: 0
PreviewTime: 74048
Countdown: 0
SampleSet: Soft
StackLeniency: 0.7
Mode: 0
LetterboxInBreaks: 0
WidescreenStoryboard: 1

[Editor]
Bookmarks: 560,8060,15560,17286,24192,27645,31098,34552,44911,56998,58724,62178,69084,70811,72537,74264,88077,93580,103616,105343,115703,117429,119156
DistanceSpacing: 0.2
BeatDivisor: 4
GridSize: 32
TimelineZoom: 1

[Metadata]
Title:precious time (Short Ver.)
TitleUnicode:precious time (Short Ver.)
Artist:fripSide
ArtistUnicode:fripSide
Creator:tomatas95
Version:Memories of you will eternally be embedded in my Heart~
Source:花咲ワークスプリング!
Tags:Hanasaki Work Spring! saga planets eroge ending ed galgame video game syph shirahane suou aeril -atri- kurantemelodii krt firis mistlud saturnalize 南條愛乃 nanjou yoshino m@o 八木沼悟志 Satoshi Yaginuma Kai Kawasaki japanese jpop j-pop pop
BeatmapID:3521808
BeatmapSetID:1723218

[Difficulty]
HPDrainRate:6
CircleSize:4
OverallDifficulty:8.8
ApproachRate:9.5
SliderMultiplier:2.05
SliderTickRate:1

[Events]
//Background and Video events
0,0,"InoriMizugi.jpg",0,0
Video,-540,"ErogeDaisukiDesu.mp4"
//Break Periods
//Storyboard Layer 0 (Background)
//Storyboard Layer 1 (Fail)
//Storyboard Layer 2 (Pass)
//Storyboard Layer 3 (Foreground)
//Storyboard Layer 4 (Overlay)
//Storyboard Sound Samples

[TimingPoints]
560,468.750000000001,4,2,54,50,1,0
560,-111.111111111111,4,2,54,50,0,0
677,-111.111111111111,4,2,53,50,0,0
1263,-125,4,2,53,45,0,0
2435,-125,4,2,53,50,0,0
3606,-125,4,2,53,45,0,0
4310,-125,4,2,53,50,0,0
4778,-125,4,2,53,45,0,0
6185,-125,4,2,53,50,0,0
7356,-125,4,2,53,45,0,0
8060,-111.111111111111,4,2,54,50,0,0
8177,-111.111111111111,4,2,53,50,0,0
8763,-125,4,2,53,45,0,0
9935,-125,4,2,53,50,0,0
11106,-125,4,2,53,45,0,0
11810,-125,4,2,53,50,0,0
12278,-125,4,2,53,45,0,0
13685,-125,4,2,53,50,0,0
14153,-125,4,2,53,45,0,0
15560,431.654676258993,4,2,53,70,1,0
15775,-100,4,2,53,45,0,0
15991,-100,4,2,53,50,0,0
16207,-100,4,2,53,55,0,0
16423,-100,4,2,53,60,0,0
16639,-100,4,2,53,65,0,0
16854,-100,4,2,53,70,0,0
17070,-100,4,2,53,75,0,0
17286,431.654676258993,4,2,54,80,1,0
17286,-45.4545454545455,4,2,54,80,0,0
17393,-45.4545454545455,4,2,53,80,0,0
17501,-55.5555555555556,4,2,53,80,0,0
18257,-55.5555555555556,4,2,1,80,0,0
18365,-55.5555555555556,4,2,53,80,0,0
18688,-55.5555555555556,4,2,1,80,0,0
18796,-55.5555555555556,4,2,53,80,0,0
18904,-55.5555555555556,4,2,1,80,0,0
19012,-55.5555555555556,4,2,53,80,0,0
19983,-55.5555555555556,4,2,1,80,0,0
20307,-55.5555555555556,4,2,53,80,0,0
20631,-55.5555555555556,4,2,1,80,0,0
20739,-55.5555555555556,4,2,53,80,0,0
20847,-55.5555555555556,4,2,1,80,0,0
21062,-55.5555555555556,4,2,53,80,0,0
21710,-55.5555555555556,4,2,1,80,0,0
21926,-55.5555555555556,4,2,53,80,0,0
22573,-55.5555555555556,4,2,1,80,0,0
22789,-55.5555555555556,4,2,53,80,0,0
23437,-55.5555555555556,4,2,1,80,0,0
23760,-55.5555555555556,4,2,53,80,0,0
24192,-45.4545454545455,4,2,54,80,0,0
24300,-45.4545454545455,4,2,53,80,0,0
24407,-55.5555555555556,4,2,53,80,0,0
25163,-55.5555555555556,4,2,1,80,0,0
25271,-55.5555555555556,4,2,53,80,0,0
25595,-55.5555555555556,4,2,1,80,0,0
25703,-55.5555555555556,4,2,53,80,0,0
25811,-55.5555555555556,4,2,1,80,0,0
25919,-55.5555555555556,4,2,53,80,0,0
26890,-55.5555555555556,4,2,1,80,0,0
27214,-55.5555555555556,4,2,53,60,0,0
27645,-76.9230769230769,4,2,53,60,0,0
27861,-76.9230769230769,4,2,53,65,0,0
28077,-76.9230769230769,4,2,53,70,0,0
28293,-76.9230769230769,4,2,53,75,0,0
28509,-76.9230769230769,4,2,53,60,0,0
28724,-76.9230769230769,4,2,53,65,0,0
28940,-76.9230769230769,4,2,53,70,0,0
29156,-76.9230769230769,4,2,53,75,0,0
29372,-76.9230769230769,4,2,53,60,0,0
29588,-76.9230769230769,4,2,53,65,0,0
29803,-76.9230769230769,4,2,53,70,0,0
30019,-76.9230769230769,4,2,53,75,0,0
30235,-76.9230769230769,4,2,53,60,0,0
30451,-76.9230769230769,4,2,53,70,0,0
30667,-76.9230769230769,4,2,53,75,0,0
30883,-76.9230769230769,4,2,53,80,0,0
31098,-125,4,2,53,80,0,0
31206,-125,4,2,53,60,0,0
32178,-111.111111111111,4,2,53,50,0,0
32286,-111.111111111111,4,2,53,5,0,0
32393,-90.9090909090909,4,2,53,55,0,0
32501,-111.111111111111,4,2,53,5,0,0
32609,-76.9230769230769,4,2,53,60,0,0
32717,-111.111111111111,4,2,53,5,0,0
32825,-90.9090909090909,4,2,53,65,0,0
33041,-90.9090909090909,4,2,53,60,0,0
33257,-125,4,2,53,60,0,0
33904,-111.111111111111,4,2,53,50,0,0
34012,-111.111111111111,4,2,53,5,0,0
34119,-90.9090909090909,4,2,53,55,0,0
34228,-111.111111111111,4,2,53,5,0,0
34335,-76.9230769230769,4,2,53,60,0,0
34444,-111.111111111111,4,2,53,5,0,0
34552,-90.9090909090909,4,2,53,65,0,0
34983,-90.9090909090909,4,2,53,60,0,0
35415,-125,4,2,53,50,0,0
35523,-111.111111111111,4,2,53,5,0,0
35631,-111.111111111111,4,2,53,55,0,0
35739,-111.111111111111,4,2,53,5,0,0
35846,-90.9090909090909,4,2,53,60,0,0
35955,-111.111111111111,4,2,53,5,0,0
36062,-76.9230769230769,4,2,53,65,0,0
36170,-111.111111111111,4,2,53,5,0,0
36278,-90.9090909090909,4,2,53,70,0,0
36710,-90.9090909090909,4,2,53,60,0,0
37142,-125,4,2,53,50,0,0
37250,-111.111111111111,4,2,53,5,0,0
37357,-111.111111111111,4,2,53,55,0,0
37465,-111.111111111111,4,2,53,5,0,0
37573,-90.9090909090909,4,2,53,60,0,0
37681,-111.111111111111,4,2,53,5,0,0
37789,-76.9230769230769,4,2,53,65,0,0
37897,-111.111111111111,4,2,53,5,0,0
38005,-90.9090909090909,4,2,53,70,0,0
38437,-125,4,2,53,60,0,0
39084,-111.111111111111,4,2,53,50,0,0
39192,-111.111111111111,4,2,53,5,0,0
39299,-90.9090909090909,4,2,53,55,0,0
39408,-111.111111111111,4,2,53,5,0,0
39515,-76.9230769230769,4,2,53,60,0,0
39624,-111.111111111111,4,2,53,5,0,0
39731,-90.9090909090909,4,2,53,65,0,0
39947,-90.9090909090909,4,2,53,60,0,0
40163,-125,4,2,53,60,0,0
40811,-111.111111111111,4,2,53,50,0,0
40919,-111.111111111111,4,2,53,5,0,0
41026,-90.9090909090909,4,2,53,55,0,0
41134,-111.111111111111,4,2,53,5,0,0
41242,-76.9230769230769,4,2,53,60,0,0
41350,-111.111111111111,4,2,53,5,0,0
41458,-90.9090909090909,4,2,53,65,0,0
41890,-90.9090909090909,4,2,53,60,0,0
42321,-125,4,2,53,50,0,0
42429,-111.111111111111,4,2,53,5,0,0
42537,-111.111111111111,4,2,53,55,0,0
42645,-111.111111111111,4,2,53,5,0,0
42752,-90.9090909090909,4,2,53,60,0,0
42861,-111.111111111111,4,2,53,5,0,0
42968,-76.9230769230769,4,2,53,65,0,0
43077,-111.111111111111,4,2,53,5,0,0
43184,-90.9090909090909,4,2,53,70,0,0
43401,-90.9090909090909,4,2,53,60,0,0
44048,-125,4,2,53,50,0,0
44156,-111.111111111111,4,2,53,5,0,0
44264,-111.111111111111,4,2,53,55,0,0
44372,-111.111111111111,4,2,53,5,0,0
44479,-90.9090909090909,4,2,53,60,0,0
44588,-111.111111111111,4,2,53,5,0,0
44695,-76.9230769230769,4,2,53,65,0,0
44803,-111.111111111111,4,2,53,5,0,0
44911,-55.5555555555556,4,2,53,70,0,0
45343,-76.9230769230769,4,2,53,70,0,0
45667,-76.9230769230769,4,2,1,70,0,0
45775,-76.9230769230769,4,2,53,70,0,0
46098,-76.9230769230769,4,2,1,70,0,0
46206,-76.9230769230769,4,2,53,70,0,0
46530,-76.9230769230769,4,2,1,70,0,0
46638,-76.9230769230769,4,2,53,70,0,0
47393,-76.9230769230769,4,2,1,70,0,0
47501,-76.9230769230769,4,2,53,70,0,0
47825,-76.9230769230769,4,2,1,70,0,0
47933,-76.9230769230769,4,2,53,70,0,0
48257,-76.9230769230769,4,2,1,70,0,0
48365,-76.9230769230769,4,2,53,70,0,0
49120,-76.9230769230769,4,2,1,70,0,0
49228,-76.9230769230769,4,2,53,70,0,0
49444,-76.9230769230769,4,2,53,60,0,0
49552,-76.9230769230769,4,2,1,70,0,0
49660,-76.9230769230769,4,2,53,65,0,0
49768,-76.9230769230769,4,2,1,70,0,0
49875,-76.9230769230769,4,2,53,70,0,0
49983,-76.9230769230769,4,2,1,70,0,0
50091,-66.6666666666667,4,2,53,75,0,0
50307,-66.6666666666667,4,2,53,70,0,0
50523,-76.9230769230769,4,2,53,70,0,0
50847,-76.9230769230769,4,2,1,70,0,0
50954,-76.9230769230769,4,2,53,70,0,0
51170,-76.9230769230769,4,2,1,70,0,0
51277,-76.9230769230769,4,2,53,70,0,0
51818,-66.6666666666667,4,2,53,70,0,0
52250,-76.9230769230769,4,2,53,70,0,0
52573,-76.9230769230769,4,2,1,70,0,0
52680,-76.9230769230769,4,2,53,70,0,0
53005,-76.9230769230769,4,2,1,70,0,0
53112,-76.9230769230769,4,2,53,70,0,0
53437,-76.9230769230769,4,2,1,70,0,0
53544,-76.9230769230769,4,2,53,70,0,0
54300,-76.9230769230769,4,2,1,70,0,0
54407,-76.9230769230769,4,2,53,70,0,0
54732,-76.9230769230769,4,2,1,70,0,0
54839,-76.9230769230769,4,2,53,70,0,0
55163,-76.9230769230769,4,2,1,70,0,0
55270,-76.9230769230769,4,2,53,70,0,0
56027,-76.9230769230769,4,2,1,70,0,0
56134,-76.9230769230769,4,2,53,50,0,0
56998,-100,4,2,53,50,0,0
57214,-100,4,2,53,55,0,0
57429,-83.3333333333333,4,2,53,60,0,0
57645,-83.3333333333333,4,2,53,65,0,0
57861,-71.4285714285714,4,2,53,70,0,0
58077,-71.4285714285714,4,2,53,75,0,0
58293,-66.6666666666667,4,2,53,75,0,0
58509,-66.6666666666667,4,2,53,80,0,0
58724,-80,4,2,53,80,0,0
59156,-100,4,2,53,60,0,0
59264,-100,4,2,1,60,0,0
59372,-100,4,2,1,65,0,0
59588,-100,4,2,53,70,0,0
59803,-100,4,2,53,60,0,0
59911,-100,4,2,1,60,0,0
60019,-100,4,2,53,65,0,0
60127,-100,4,2,1,60,0,0
60235,-100,4,2,53,70,0,0
60451,-80,4,2,53,75,0,0
60667,-80,4,2,53,60,0,0
60775,-80,4,2,1,60,0,0
60883,-100,4,2,53,60,0,0
61098,-100,4,2,1,60,0,0
61314,-100,4,2,53,60,0,0
61638,-100,4,2,1,60,0,0
61746,-100,4,2,53,60,0,0
62178,-80,4,2,53,60,0,0
62610,-100,4,2,53,60,0,0
62717,-100,4,2,1,60,0,0
62825,-100,4,2,1,65,0,0
63041,-100,4,2,53,70,0,0
63149,-100,4,2,1,60,0,0
63257,-100,4,2,53,75,0,0
63473,-100,4,2,53,60,0,0
63580,-100,4,2,1,60,0,0
63688,-100,4,2,53,65,0,0
63796,-100,4,2,1,60,0,0
63904,-100,4,2,53,70,0,0
64120,-100,4,2,53,60,0,0
64875,-100,4,2,1,60,0,0
64983,-100,4,2,53,60,0,0
65631,-80,4,2,53,60,0,0
66063,-100,4,2,53,60,0,0
66170,-100,4,2,1,60,0,0
66278,-100,4,2,1,65,0,0
66494,-100,4,2,53,70,0,0
66710,-100,4,2,53,60,0,0
66818,-100,4,2,1,60,0,0
66926,-100,4,2,53,65,0,0
67034,-100,4,2,1,60,0,0
67142,-100,4,2,53,75,0,0
67250,-100,4,2,1,60,0,0
67358,-100,4,2,53,75,0,0
67573,-100,4,2,53,60,0,0
68544,-100,4,2,1,60,0,0
68652,-100,4,2,53,60,0,0
69084,-100,4,2,53,75,0,0
69192,-100,4,2,53,55,0,0
69516,-66.6666666666667,4,2,53,60,0,0
69732,-66.6666666666667,4,2,53,65,0,0
69947,-100,4,2,53,75,0,0
70163,-100,4,2,53,55,0,0
70379,-66.6666666666667,4,2,53,60,0,0
70595,-66.6666666666667,4,2,53,65,0,0
70811,-83.3333333333333,4,2,53,75,0,0
71027,-76.9230769230769,4,2,53,55,0,0
71242,-71.4285714285714,4,2,53,60,0,0
71458,-66.6666666666667,4,2,53,65,0,0
71674,-66.6666666666667,4,2,53,70,0,0
71890,-66.6666666666667,4,2,53,75,0,0
72106,-66.6666666666667,4,2,53,80,0,0
72537,-125,4,2,53,55,0,0
72969,-125,4,2,53,60,0,0
73616,-125,4,2,53,65,0,0
73832,-125,4,2,53,70,0,0
74048,-125,4,2,53,75,0,0
74264,431.654676258993,4,2,54,80,1,0
74264,-45.4545454545455,4,2,54,90,0,1
74372,-45.4545454545455,4,2,53,90,0,1
74588,-45.4545454545455,4,2,1,75,0,1
74696,-55.5555555555556,4,2,53,90,0,1
75019,-55.5555555555556,4,2,1,75,0,1
75127,-55.5555555555556,4,2,53,90,0,1
75451,-55.5555555555556,4,2,1,75,0,1
75559,-55.5555555555556,4,2,53,90,0,1
75883,-55.5555555555556,4,2,1,75,0,1
75991,-55.5555555555556,4,2,53,90,0,1
76206,-55.5555555555556,4,2,53,90,0,1
76422,-45.4545454545455,4,2,53,90,0,1
76638,-55.5555555555556,4,2,53,90,0,1
76854,-45.4545454545455,4,2,53,90,0,1
77286,-55.5555555555556,4,2,53,90,0,1
78041,-55.5555555555556,4,2,1,75,0,1
78149,-55.5555555555556,4,2,53,90,0,1
78473,-55.5555555555556,4,2,1,75,0,1
78581,-55.5555555555556,4,2,53,90,0,1
79336,-55.5555555555556,4,2,1,75,0,1
79444,-55.5555555555556,4,2,53,90,0,1
79660,-55.5555555555556,4,2,53,90,0,1
79875,-45.4545454545455,4,2,53,90,0,1
80091,-55.5555555555556,4,2,53,90,0,1
80307,-45.4545454545455,4,2,53,90,0,1
80739,-66.6666666666667,4,2,53,90,0,1
80847,-66.6666666666667,4,2,1,75,0,1
80955,-66.6666666666667,4,2,53,90,0,1
81062,-66.6666666666667,4,2,1,75,0,1
81170,-55.5555555555556,4,2,54,90,0,1
81278,-55.5555555555556,4,2,53,90,0,1
81494,-55.5555555555556,4,2,1,75,0,1
81602,-55.5555555555556,4,2,53,90,0,1
81926,-55.5555555555556,4,2,1,75,0,1
82034,-55.5555555555556,4,2,53,90,0,1
82357,-55.5555555555556,4,2,1,75,0,1
82465,-55.5555555555556,4,2,53,90,0,1
82789,-55.5555555555556,4,2,1,75,0,1
82897,-55.5555555555556,4,2,53,90,0,1
83113,-55.5555555555556,4,2,53,90,0,1
83328,-45.4545454545455,4,2,53,90,0,1
83544,-55.5555555555556,4,2,53,90,0,1
83760,-45.4545454545455,4,2,53,90,0,1
84192,-66.6666666666667,4,2,53,90,0,1
84624,-55.5555555555556,4,2,53,90,0,1
84947,-55.5555555555556,4,2,1,75,0,1
85055,-55.5555555555556,4,2,53,90,0,1
85811,-55.5555555555556,4,2,1,75,0,1
85919,-55.5555555555556,4,2,53,90,0,1
86566,-55.5555555555556,4,2,53,90,0,1
86674,-55.5555555555556,4,2,1,75,0,1
86781,-45.4545454545455,4,2,53,90,0,1
86890,-45.4545454545455,4,2,1,75,0,1
86997,-55.5555555555556,4,2,53,90,0,1
87213,-45.4545454545455,4,2,53,90,0,1
87645,-55.5555555555556,4,2,53,90,0,0
88076,-45.4545454545455,4,2,54,90,0,1
88185,-45.4545454545455,4,2,53,90,0,1
88401,-45.4545454545455,4,2,1,75,0,1
88509,-55.5555555555556,4,2,53,90,0,1
88832,-55.5555555555556,4,2,1,75,0,1
88940,-55.5555555555556,4,2,53,90,0,1
89264,-55.5555555555556,4,2,1,75,0,1
89372,-55.5555555555556,4,2,53,90,0,1
89696,-55.5555555555556,4,2,1,75,0,1
89804,-55.5555555555556,4,2,53,90,0,1
90019,-55.5555555555556,4,2,53,90,0,1
90234,-45.4545454545455,4,2,53,90,0,1
90450,-55.5555555555556,4,2,53,90,0,1
90666,-45.4545454545455,4,2,53,90,0,1
91098,-55.5555555555556,4,2,53,90,0,1
91854,-55.5555555555556,4,2,1,75,0,1
91962,-55.5555555555556,4,2,53,90,0,1
92286,-55.5555555555556,4,2,1,75,0,1
92394,-55.5555555555556,4,2,53,90,0,1
93149,-55.5555555555556,4,2,1,75,0,1
93257,-55.5555555555556,4,2,53,90,0,1
93473,-55.5555555555556,4,2,53,90,0,1
93688,-45.4545454545455,4,2,53,90,0,1
93904,-55.5555555555556,4,2,53,90,0,1
94120,-45.4545454545455,4,2,53,90,0,1
94660,-45.4545454545455,4,2,1,75,0,1
94768,-45.4545454545455,4,2,53,90,0,1
94875,-45.4545454545455,4,2,1,75,0,1
94983,-55.5555555555556,4,2,54,90,0,1
95091,-55.5555555555556,4,2,53,90,0,1
95307,-55.5555555555556,4,2,1,75,0,1
95415,-55.5555555555556,4,2,53,90,0,1
96170,-55.5555555555556,4,2,1,75,0,1
96278,-55.5555555555556,4,2,53,90,0,1
96602,-55.5555555555556,4,2,1,75,0,1
96710,-55.5555555555556,4,2,53,90,0,1
96926,-55.5555555555556,4,2,53,90,0,1
97141,-45.4545454545455,4,2,53,90,0,1
97357,-55.5555555555556,4,2,53,90,0,1
97573,-45.4545454545455,4,2,53,90,0,1
98005,-55.5555555555556,4,2,53,90,0,1
98436,-55.5555555555556,4,2,53,90,0,1
98760,-55.5555555555556,4,2,1,75,0,1
98868,-55.5555555555556,4,2,53,90,0,1
99624,-55.5555555555556,4,2,1,75,0,1
99732,-55.5555555555556,4,2,53,90,0,1
100055,-55.5555555555556,4,2,1,75,0,1
100163,-55.5555555555556,4,2,53,90,0,1
100379,-55.5555555555556,4,2,53,90,0,1
100594,-45.4545454545455,4,2,53,90,0,1
100810,-55.5555555555556,4,2,53,90,0,1
101026,-45.4545454545455,4,2,53,90,0,1
101458,-55.5555555555556,4,2,53,90,0,1
101890,-45.4545454545455,4,2,53,90,0,1
102321,-66.6666666666667,4,2,53,90,0,1
102753,-76.9230769230769,4,2,53,90,0,1
103185,-55.5555555555556,4,2,53,90,0,1
103832,-55.5555555555556,4,2,53,45,0,1
104048,-55.5555555555556,4,2,53,50,0,1
104264,-55.5555555555556,4,2,53,55,0,1
104480,-55.5555555555556,4,2,53,60,0,1
104696,-55.5555555555556,4,2,53,65,0,1
104911,-55.5555555555556,4,2,53,70,0,1
105127,-55.5555555555556,4,2,53,75,0,1
105343,-45.4545454545455,4,2,54,90,0,0
105451,-45.4545454545455,4,2,53,80,0,0
105775,-55.5555555555556,4,2,53,80,0,0
106314,-55.5555555555556,4,2,1,80,0,0
106422,-55.5555555555556,4,2,53,80,0,0
106745,-55.5555555555556,4,2,1,80,0,0
106853,-55.5555555555556,4,2,53,80,0,0
106961,-55.5555555555556,4,2,1,80,0,0
107069,-55.5555555555556,4,2,53,80,0,0
108040,-55.5555555555556,4,2,1,80,0,0
108364,-55.5555555555556,4,2,53,80,0,0
108688,-55.5555555555556,4,2,1,80,0,0
108796,-55.5555555555556,4,2,53,80,0,0
108904,-55.5555555555556,4,2,1,80,0,0
109119,-55.5555555555556,4,2,53,80,0,0
109767,-55.5555555555556,4,2,1,80,0,0
109983,-55.5555555555556,4,2,53,80,0,0
110630,-55.5555555555556,4,2,1,80,0,0
110846,-55.5555555555556,4,2,53,80,0,0
111494,-55.5555555555556,4,2,1,80,0,0
111817,-55.5555555555556,4,2,53,80,0,0
112250,-45.4545454545455,4,2,54,80,0,0
112357,-45.4545454545455,4,2,53,80,0,0
112573,-45.4545454545455,4,2,53,80,0,0
112681,-55.5555555555556,4,2,53,80,0,0
113221,-55.5555555555556,4,2,1,80,0,0
113329,-55.5555555555556,4,2,53,80,0,0
113652,-55.5555555555556,4,2,1,80,0,0
113760,-55.5555555555556,4,2,53,80,0,0
113868,-55.5555555555556,4,2,1,80,0,0
113976,-55.5555555555556,4,2,53,80,0,0
114947,-55.5555555555556,4,2,1,80,0,0
115271,-55.5555555555556,4,2,53,80,0,0
115703,-100,4,2,53,80,0,0
115811,-100,4,2,53,65,0,0
116134,-100,4,2,53,70,0,0
116350,-100,4,2,53,75,0,0
116566,-100,4,2,53,80,0,0
116674,-100,4,2,53,65,0,0
116998,-100,4,2,53,70,0,0
117214,-100,4,2,53,75,0,0
117429,-125,4,2,53,80,0,0
117537,-125,4,2,53,45,0,0
119156,-125,4,2,53,5,0,0

[Colours]
Combo1 : 252,152,250
Combo2 : 241,232,107
Combo3 : 111,188,251
Combo4 : 237,107,84

[HitObjects]
9,344,560,6,0,B|113:365|79:283|184:305,1,184.499994369507,6|0,1:2|0:0,0:0:0:0:
72,201,1263,1,2,0:2:0:0:
40,274,1497,1,2,0:2:0:0:
148,377,1731,1,2,0:2:0:0:
180,304,1966,1,2,0:2:0:0:
178,291,2083,1,2,0:0:0:0:
175,278,2200,2,0,L|164:227,1,41,2|0,0:2|0:0,0:0:0:0:
150,137,2435,5,2,0:2:0:0:
245,174,2669,1,2,0:2:0:0:
166,237,2903,1,2,0:2:0:0:
72,201,3138,1,2,0:2:0:0:
72,201,3606,5,2,0:2:0:0:
152,139,3841,1,2,0:2:0:0:
150,127,3958,1,2,0:0:0:0:
146,116,4075,2,0,L|137:42,1,41,2|0,0:2|0:0,0:0:0:0:
19,15,4310,6,0,B|52:42|80:35|80:35|116:-13|179:11,1,164,2|2,0:2|0:2,0:0:0:0:
213,64,5013,1,2,0:2:0:0:
167,7,5247,1,2,0:2:0:0:
338,8,5481,1,2,0:2:0:0:
292,65,5716,1,2,0:2:0:0:
292,77,5833,1,2,0:0:0:0:
295,88,5950,2,0,L|306:161,1,41,2|0,0:2|0:0,0:0:0:0:
314,221,6185,5,2,0:2:0:0:
388,163,6419,1,2,0:2:0:0:
480,177,6653,1,2,0:2:0:0:
512,264,6888,1,2,0:2:0:0:
512,264,7356,5,2,0:2:0:0:
405,313,7591,1,2,0:2:0:0:
405,301,7708,1,2,0:0:0:0:
407,289,7825,2,0,L|412:230,1,41,2|0,0:2|0:0,0:0:0:0:
492,365,8060,6,0,P|414:352|288:362,1,184.499994369507,6|0,1:2|0:0,0:0:0:0:
185,272,8763,1,2,0:2:0:0:
152,357,8997,1,2,0:2:0:0:
276,272,9231,1,2,0:2:0:0:
232,381,9466,2,0,P|231:357|236:332,2,41,2|2|2,0:2|0:0|0:2,0:0:0:0:
71,372,9935,5,2,0:2:0:0:
152,357,10169,1,2,0:2:0:0:
17,310,10403,1,2,0:2:0:0:
98,294,10638,1,2,0:2:0:0:
98,294,11106,5,2,0:2:0:0:
43,231,11341,2,0,L|35:191,2,41,2|2|2,0:2|0:0|0:2,0:0:0:0:
102,146,11810,6,0,B|136:172|182:170|182:170|200:129|241:113,1,164,2|2,0:2|0:2,0:0:0:0:
151,87,12513,1,2,0:2:0:0:
255,200,12747,5,2,0:2:0:0:
235,115,12981,1,2,0:2:0:0:
365,118,13216,1,2,0:2:0:0:
345,203,13450,1,2,0:2:0:0:
303,62,13685,6,0,B|344:79|364:117|364:117|412:135|465:86,1,164,2|2,0:2|0:2,0:0:0:0:
474,25,14388,2,0,P|527:83|508:159,1,164,2|2,0:2|0:2,0:0:0:0:
420,256,15091,1,2,0:2:0:0:
421,243,15208,1,2,0:0:0:0:
421,230,15325,2,0,L|429:173,1,41,2|0,0:2|0:0,0:0:0:0:
247,145,15560,5,0,1:0:0:0:
222,168,15667,1,0,3:0:0:0:
247,194,15775,1,0,3:0:0:0:
270,168,15883,1,0,3:0:0:0:
245,124,15991,5,0,1:0:0:0:
200,166,16099,1,0,3:0:0:0:
247,215,16207,1,0,3:0:0:0:
290,166,16315,1,0,3:0:0:0:
243,106,16423,5,0,1:0:0:0:
182,166,16531,1,0,3:0:0:0:
247,234,16639,1,0,3:0:0:0:
310,164,16747,1,0,3:0:0:0:
241,86,16854,5,0,1:0:0:0:
162,166,16962,1,0,3:0:0:0:
247,254,17070,1,0,1:0:0:0:
330,163,17178,1,0,3:0:0:0:
241,75,17286,6,0,B|205:57|163:74|189:86|135:101|100:79|100:79|114:49|170:61,1,225.500006881714,6|0,1:2|0:0,0:0:0:0:
248,166,17609,1,2,0:2:0:0:
170,61,17717,2,0,B|129:45|129:45|60:68,1,92.2499971847535,8|0,1:2|0:0,0:0:0:0:
162,166,17933,2,0,B|203:182|203:182|272:159,1,92.2499971847535,2|0,0:2|0:0,0:0:0:0:
35,130,18149,5,0,1:2:0:0:
31,148,18257,1,0,3:0:0:0:
15,257,18365,2,0,L|29:166,1,92.2499971847535,2|0,0:2|0:0,0:0:0:0:
84,355,18580,5,10,1:2:0:0:
98,272,18688,1,2,3:2:0:0:
6,341,18796,1,0,3:2:0:0:
15,257,18904,1,2,3:2:0:0:
86,373,19012,6,0,B|191:394|155:309|266:331,1,184.499994369507,2|0,1:2|0:0,0:0:0:0:
421,328,19336,1,2,0:2:0:0:
346,287,19444,2,0,P|335:330|352:383,1,92.2499971847535,8|0,1:2|0:0,0:0:0:0:
497,373,19660,2,0,P|507:329|491:277,1,92.2499971847535,2|0,0:2|0:0,0:0:0:0:
455,32,19875,5,0,1:2:0:0:
438,39,19983,1,0,3:0:0:0:
406,113,20091,1,0,3:0:0:0:
423,119,20198,1,0,3:0:0:0:
512,98,20307,6,0,B|432:80|432:80|429:66|429:66|317:39,1,184.499994369507,8|2,1:2|0:1,0:0:0:0:
167,71,20631,1,0,3:0:0:0:
248,1,20739,5,2,1:1:0:0:
251,12,20847,1,0,3:0:0:0:
173,93,20955,1,0,3:0:0:0:
170,82,21062,1,2,0:1:0:0:
265,114,21170,6,0,P|261:68|251:12,1,92.2499971847535,8|0,1:2|0:0,0:0:0:0:
175,103,21386,2,0,P|182:148|186:194,1,92.2499971847535,2|0,0:1|0:0,0:0:0:0:
4,27,21602,5,2,1:1:0:0:
30,17,21710,1,0,3:0:0:0:
58,121,21818,1,0,3:0:0:0:
32,111,21926,1,2,0:1:0:0:
149,5,22034,6,0,L|57:18,1,92.2499971847535,8|0,1:2|0:0,0:0:0:0:
82,127,22250,2,0,L|174:114,1,92.2499971847535,2|0,0:1|0:0,0:0:0:0:
48,364,22465,5,2,1:1:0:0:
14,289,22573,1,0,3:0:0:0:
163,294,22681,1,0,3:0:0:0:
129,368,22789,1,2,0:1:0:0:
80,208,22897,6,0,P|86:244|88:301,1,92.2499971847535,8|0,1:2|0:0,0:0:0:0:
242,301,23113,2,0,P|243:254|250:209,1,92.2499971847535,2|0,0:1|0:0,0:0:0:0:
493,36,23329,5,2,1:1:0:0:
359,72,23437,1,0,3:0:0:0:
436,92,23544,1,0,3:0:0:0:
415,15,23652,1,0,3:0:0:0:
512,122,23760,6,0,L|492:230,1,92.2499971847535,8|0,1:2|0:0,0:0:0:0:
375,162,23976,2,0,L|358:71,1,92.2499971847535,0|0,1:0|0:0,0:0:0:0:
448,358,24192,6,0,B|483:352|504:319|504:319|484:283|439:266|398:274|365:302,1,225.500006881714,6|0,1:2|0:0,0:0:0:0:
183,384,24516,1,2,0:2:0:0:
262,295,24624,2,0,P|279:334|292:388,1,92.2499971847535,8|0,1:2|0:0,0:0:0:0:
80,375,24839,2,0,P|90:330|109:288,1,92.2499971847535,2|0,0:2|0:0,0:0:0:0:
185,365,25055,5,0,1:2:0:0:
187,346,25163,1,0,3:0:0:0:
180,234,25271,2,0,L|188:360,1,92.2499971847535,2|0,0:2|0:0,0:0:0:0:
26,168,25487,5,10,1:2:0:0:
99,189,25595,1,0,3:0:0:0:
163,148,25703,1,2,0:2:0:0:
168,69,25811,1,0,3:0:0:0:
72,86,25919,6,0,P|134:153|179:233,1,184.499994369507,2|0,1:2|0:0,0:0:0:0:
362,44,26242,1,2,0:2:0:0:
312,135,26350,2,0,P|289:94|258:61,1,92.2499971847535,8|0,1:2|0:0,0:0:0:0:
466,65,26566,2,0,P|434:98|412:138,1,92.2499971847535,2|0,0:2|0:0,0:0:0:0:
328,311,26782,5,0,1:2:0:0:
345,315,26890,1,0,3:0:0:0:
425,268,26998,1,0,3:0:0:0:
408,264,27106,1,0,3:0:0:0:
401,377,27214,2,0,L|356:157,1,184.499994369507,8|0,1:2|1:0,0:0:0:0:
22,27,27645,5,2,1:1:0:0:
25,43,27752,1,0,3:0:0:0:
27,59,27861,1,0,3:0:0:0:
30,76,27969,1,2,3:1:0:0:
3,202,28077,5,8,1:2:0:0:
26,164,28184,1,0,3:0:0:0:
67,150,28292,1,2,3:1:0:0:
108,167,28401,1,0,3:0:0:0:
216,319,28509,5,2,1:1:0:0:
146,340,28616,1,0,3:0:0:0:
80,307,28724,1,0,3:0:0:0:
72,233,28832,1,2,3:1:0:0:
195,101,28940,5,8,1:2:0:0:
195,242,29048,1,0,3:0:0:0:
278,128,29156,1,2,3:1:0:0:
145,172,29264,1,0,3:0:0:0:
278,215,29373,5,2,1:1:0:0:
294,218,29480,1,0,3:0:0:0:
310,220,29588,1,0,3:0:0:0:
327,223,29695,1,0,3:0:0:0:
511,169,29803,5,8,1:2:0:0:
478,192,29910,1,0,3:0:0:0:
438,196,30018,1,0,3:0:0:0:
404,173,30127,1,0,3:0:0:0:
317,39,30235,5,0,1:2:0:0:
385,0,30342,1,0,3:0:0:0:
457,33,30450,1,0,3:0:0:0:
474,110,30559,1,0,3:0:0:0:
325,238,30668,5,8,1:2:0:0:
396,84,30776,1,0,1:0:0:0:
438,196,30883,1,0,1:0:0:0:
284,125,30992,1,0,1:0:0:0:
361,160,31098,1,4,1:1:0:0:
1,44,31530,6,0,L|104:29,1,82,2|0,1:2|0:0,0:0:0:0:
230,19,31962,1,2,1:2:0:0:
163,89,32178,6,0,L|153:21,1,46.1249985923767,2|0,0:2|0:0,0:0:0:0:
99,187,32393,2,0,L|87:113,1,56.3750017204285,0|0,1:0|0:0,0:0:0:0:
250,193,32609,2,0,L|238:114,1,66.6249969501497,2|0,0:2|0:0,0:0:0:0:
193,347,32825,6,0,L|173:237,1,112.750003440857,0|2,1:0|0:2,0:0:0:0:
23,232,33257,2,0,P|33:276|39:331,1,82,2|0,1:2|0:0,0:0:0:0:
106,370,33688,1,0,1:0:0:0:
172,236,33904,6,0,L|241:225,1,46.1249985923767,2|0,0:2|0:0,0:0:0:0:
295,216,34120,2,0,L|368:204,1,56.3750017204285,2|0,1:2|0:0,0:0:0:0:
430,195,34336,2,0,L|515:183,1,66.6249969501497,2|0,0:2|0:0,0:0:0:0:
427,379,34552,6,0,P|418:323|403:268,1,112.750003440857,2|0,1:2|0:0,0:0:0:0:
493,312,34983,1,0,1:0:0:0:
342,340,35199,1,2,0:2:0:0:
403,268,35415,6,0,P|411:300|423:341,1,41,0|0,1:0|0:0,0:0:0:0:
267,354,35631,2,0,P|261:334|255:310,1,46.1249985923767,2|0,0:2|0:0,0:0:0:0:
410,263,35847,2,0,P|416:285|425:330,1,56.3750017204285,2|0,1:2|0:0,0:0:0:0:
260,359,36062,2,0,P|253:336|243:275,1,66.6249969501497,2|0,0:2|0:0,0:0:0:0:
298,158,36278,6,0,L|331:295,1,112.750003440857,2|0,1:2|0:0,0:0:0:0:
381,139,36710,1,0,1:0:0:0:
219,163,36926,1,2,0:2:0:0:
266,0,37142,6,0,L|274:44,1,41,0|0,1:0|0:0,0:0:0:0:
298,158,37357,2,0,L|286:105,1,46.1249985923767,2|0,0:0|0:0,0:0:0:0:
358,9,37573,6,0,L|367:65,1,56.3750017204285,0|0,1:0|0:0,0:0:0:0:
392,204,37789,2,0,L|379:132,1,66.6249969501497,2|0,0:2|0:0,0:0:0:0:
449,0,38005,6,0,L|470:110,1,112.750003440857,2|0,1:2|0:0,0:0:0:0:
506,268,38437,2,0,P|476:259|406:286,1,82,2|0,1:2|0:0,0:0:0:0:
512,183,38868,1,2,1:2:0:0:
475,379,39084,6,0,P|473:356|469:334,1,46.1249985923767,2|0,0:2|0:0,0:0:0:0:
427,269,39300,2,0,P|401:258|374:256,1,56.3750017204285,0|0,1:0|0:0,0:0:0:0:
299,276,39516,2,0,P|277:301|265:331,1,66.6249969501497,2|0,0:2|0:0,0:0:0:0:
371,368,39732,6,0,L|374:210,1,112.750003440857,0|2,1:0|0:2,0:0:0:0:
313,120,40163,2,0,L|314:210,1,82,2|0,1:2|0:0,0:0:0:0:
371,67,40595,1,0,1:0:0:0:
299,277,40811,6,0,P|274:269|244:273,1,46.1249985923767,2|0,0:2|0:0,0:0:0:0:
183,384,41027,2,0,P|202:366|218:334,1,56.3750017204285,2|0,1:2|0:0,0:0:0:0:
147,211,41242,2,0,P|153:239|173:269,1,66.6249969501497,2|0,0:2|0:0,0:0:0:0:
46,384,41458,6,0,P|48:327|36:247,1,112.750003440857,2|0,1:2|0:0,0:0:0:0:
10,107,41890,1,0,1:0:0:0:
41,271,42106,1,2,0:2:0:0:
0,195,42321,6,0,P|25:194|58:184,1,41,2|0,1:2|0:0,0:0:0:0:
122,137,42537,2,0,L|116:70,1,46.1249985923767,2|0,0:2|0:0,0:0:0:0:
261,196,42753,2,0,P|230:198|197:188,1,56.3750017204285,0|0,1:0|0:0,0:0:0:0:
117,91,42969,2,0,L|111:18,1,66.6249969501497,2|0,0:2|0:0,0:0:0:0:
127,203,43185,6,0,L|117:82,1,112.750003440857,0|2,1:0|0:2,0:0:0:0:
188,12,43616,1,2,1:2:0:0:
36,15,43832,1,2,0:2:0:0:
189,25,44048,6,0,L|194:88,1,41,0|0,1:0|0:0,0:0:0:0:
333,187,44264,2,0,L|284:160,1,46.1249985923767,2|0,0:0|0:0,0:0:0:0:
309,62,44480,2,0,L|260:97,1,56.3750017204285,0|0,1:0|0:0,0:0:0:0:
239,287,44696,2,0,L|240:202,1,66.6249969501497,0|0,1:0|0:0,0:0:0:0:
380,22,44911,6,0,B|443:-16|508:40|508:40|461:110|517:202,1,276.74999155426,4|0,1:2|0:0,0:0:0:0:
506,184,45343,2,0,B|447:151|447:151|361:188,1,133.249993900299,10|0,1:2|0:0,0:0:0:0:
451,380,45667,1,0,3:0:0:0:
453,366,45775,6,0,P|452:296|444:231,1,133.249993900299,2|2,1:2|0:2,0:0:0:0:
301,203,46098,1,0,3:0:0:0:
364,259,46206,2,0,P|364:292|361:325,1,66.6249969501497,8|0,1:2|0:0,0:0:0:0:
192,352,46422,1,2,0:2:0:0:
269,377,46530,1,0,3:0:0:0:
195,343,46638,6,0,P|195:307|208:264,1,66.6249969501497,0|0,1:0|0:0,0:0:0:0:
27,277,46854,2,0,P|34:309|34:342,1,66.6249969501497,2|0,0:2|0:0,0:0:0:0:
112,384,47070,2,0,L|121:224,1,133.249993900299,10|0,1:2|0:0,0:0:0:0:
149,93,47393,1,0,3:0:0:0:
195,166,47501,6,0,P|132:178|79:141,1,133.249993900299,0|2,1:0|0:2,0:0:0:0:
20,0,47825,1,0,3:0:0:0:
23,12,47933,2,0,P|29:52|29:111,1,66.6249969501497,10|0,1:2|0:0,0:0:0:0:
180,3,48149,1,2,0:2:0:0:
182,16,48257,1,0,3:0:0:0:
231,87,48365,6,0,B|347:110|307:18|428:41,1,199.874990850449,2|0,1:2|0:0,0:0:0:0:
422,27,48796,2,0,P|416:61|414:99,1,66.6249969501497,8|0,1:2|0:0,0:0:0:0:
497,130,49012,1,2,0:2:0:0:
499,116,49119,1,0,3:0:0:0:
501,102,49228,2,0,P|504:67|504:28,1,66.6249969501497,0|0,1:0|0:0,0:0:0:0:
417,204,49444,5,2,0:2:0:0:
407,191,49552,1,0,3:0:0:0:
380,170,49660,1,10,1:2:0:0:
341,158,49768,1,0,3:0:0:0:
295,167,49875,1,2,0:2:0:0:
262,213,49983,1,0,3:0:0:0:
265,292,50091,6,0,P|351:296|495:314,1,230.625008797646,2|0,1:2|0:0,0:0:0:0:
507,315,50523,2,0,L|497:380,1,66.6249969501497,8|0,1:2|0:0,0:0:0:0:
428,262,50739,1,2,0:2:0:0:
428,275,50847,1,0,3:0:0:0:
344,380,50955,2,0,L|354:315,1,66.6249969501497,2|0,1:1|0:0,0:0:0:0:
284,69,51170,5,0,3:0:0:0:
283,51,51278,1,2,0:1:0:0:
213,94,51386,2,0,P|218:127|221:180,1,66.6249969501497,8|0,1:2|0:0,0:0:0:0:
351,161,51602,2,0,P|353:127|358:94,1,66.6249969501497,2|0,0:1|0:0,0:0:0:0:
186,4,51818,6,0,B|46:9|46:9|-4:37|14:102,1,230.625008797646,0|0,1:2|0:0,0:0:0:0:
6,98,52250,2,0,P|71:76|136:124,1,133.249993900299,10|0,1:2|0:0,0:0:0:0:
145,188,52573,1,0,3:0:0:0:
81,291,52681,6,0,L|61:159,1,133.249993900299,2|0,1:2|0:0,0:0:0:0:
221,154,53005,1,0,3:0:0:0:
233,231,53113,2,0,L|223:165,1,66.6249969501497,8|0,1:2|0:0,0:0:0:0:
147,201,53329,1,2,0:2:0:0:
149,214,53437,1,0,3:0:0:0:
207,302,53544,6,0,B|243:311|243:311|284:292,1,66.6249969501497,0|0,1:0|0:0,0:0:0:0:
286,169,53760,2,0,B|249:177|249:177|208:158,1,66.6249969501497,0|0,3:0|0:0,0:0:0:0:
178,50,53976,2,0,L|351:35,1,133.249993900299,10|0,1:2|0:0,0:0:0:0:
486,31,54300,1,0,3:0:0:0:
413,137,54408,6,0,P|407:70|394:5,1,133.249993900299,0|2,1:0|0:2,0:0:0:0:
497,127,54732,1,0,3:0:0:0:
498,140,54839,2,0,P|492:172|490:206,1,66.6249969501497,10|0,1:2|0:0,0:0:0:0:
329,163,55055,1,2,0:2:0:0:
330,149,55163,1,0,3:0:0:0:
413,137,55271,6,0,B|405:212|405:212|411:235|411:235|402:353,1,199.874990850449,2|0,1:2|0:0,0:0:0:0:
401,348,55703,2,0,B|436:338|436:338|472:358,1,66.6249969501497,8|0,1:2|0:0,0:0:0:0:
288,230,55919,1,2,0:2:0:0:
286,247,56027,1,0,3:0:0:0:
277,330,56134,6,0,L|284:258,1,66.6249969501497,2|0,1:2|0:0,0:0:0:0:
340,375,56350,2,0,L|405:345,1,66.6249969501497,2|0,0:2|0:0,0:0:0:0:
223,384,56566,2,0,L|79:318,1,133.249993900299,8|2,1:2|0:2,0:0:0:0:
38,37,56998,5,0,1:0:0:0:
64,27,57105,1,0,3:0:0:0:
91,26,57213,1,2,3:2:0:0:
118,34,57321,1,0,3:0:0:0:
148,133,57429,5,10,1:2:0:0:
103,110,57536,1,0,3:0:0:0:
54,119,57644,1,2,3:2:0:0:
20,157,57752,1,0,3:0:0:0:
28,330,57861,5,2,1:2:0:0:
158,251,57969,1,0,3:0:0:0:
8,235,58077,1,0,3:0:0:0:
118,334,58185,1,0,3:0:0:0:
81,266,58293,2,0,L|93:191,1,76.8750029325486,10|0,1:2|3:0,0:0:0:0:
229,286,58509,2,0,L|217:361,1,76.8750029325486,2|0,1:2|3:0,0:0:0:0:
233,100,58724,6,0,B|204:100|189:74|189:74|206:45|243:50|243:50|284:73|331:56,1,192.1875,6|0,1:2|0:0,0:0:0:0:
329,59,59156,1,2,1:2:0:0:
339,57,59264,1,0,3:0:0:0:
349,55,59372,2,0,P|351:23|336:-16,1,51.25,0|0,3:0|3:0,0:0:0:0:
509,62,59588,2,0,P|507:37|512:11,1,51.25,2|0,1:2|0:0,0:0:0:0:
428,9,59803,5,2,0:2:0:0:
428,34,59910,1,0,3:0:0:0:
429,60,60018,1,0,1:2:0:0:
430,85,60126,1,0,3:0:0:0:
430,110,60235,2,0,L|436:177,1,51.25,2|0,0:2|3:0,0:0:0:0:
512,259,60451,6,0,B|456:231|456:231|390:252,1,128.125,0|2,1:0|0:2,0:0:0:0:
389,260,60775,1,0,3:0:0:0:
386,269,60883,2,0,P|359:273|316:262,1,51.25,2|0,1:2|0:0,0:0:0:0:
210,361,61098,1,0,3:0:0:0:
214,352,61206,1,0,3:0:0:0:
219,344,61314,6,0,P|260:333|322:361,1,102.5,0|2,1:0|0:2,0:0:0:0:
324,355,61638,1,0,3:0:0:0:
333,359,61746,2,0,L|418:343,1,51.25,0|0,1:0|0:0,0:0:0:0:
509,331,61962,2,0,L|424:315,1,51.25,2|0,0:2|0:0,0:0:0:0:
267,211,62178,6,0,B|256:164|256:164|263:115|263:115|235:16,1,192.1875,2|0,1:2|0:0,0:0:0:0:
226,17,62609,1,2,1:2:0:0:
215,16,62717,1,0,3:0:0:0:
204,17,62825,2,0,L|132:11,1,51.25,0|0,3:0|3:0,0:0:0:0:
0,18,63041,1,2,1:2:0:0:
11,17,63149,1,0,3:0:0:0:
22,18,63257,2,0,L|94:12,1,51.25,2|0,0:2|0:0,0:0:0:0:
181,115,63473,5,0,1:0:0:0:
139,86,63580,1,0,3:0:0:0:
88,84,63688,1,2,0:2:0:0:
45,110,63796,1,0,3:0:0:0:
22,155,63904,6,0,P|27:190|28:226,1,51.25,0|0,1:2|0:0,0:0:0:0:
126,297,64120,2,0,P|149:308|173:318,1,51.25,2|0,3:2|0:0,0:0:0:0:
144,193,64336,2,0,P|125:209|103:223,1,51.25,2|0,1:2|0:0,0:0:0:0:
40,378,64552,2,0,P|45:318|42:255,1,102.5,2|0,0:2|1:2,0:0:0:0:
41,265,64875,1,0,3:0:0:0:
35,256,64983,6,0,L|26:194,1,51.25,2|0,0:2|0:0,0:0:0:0:
144,193,65199,2,0,L|193:154,1,51.25,2|0,1:2|0:0,0:0:0:0:
172,317,65415,2,0,L|230:340,1,51.25,2|0,0:2|0:0,0:0:0:0:
391,341,65631,6,0,B|353:381|353:381|320:321|346:242,1,192.1875,6|0,1:2|0:0,0:0:0:0:
356,244,66062,1,2,1:2:0:0:
381,263,66169,1,0,3:0:0:0:
413,270,66277,1,0,3:0:0:0:
444,262,66385,1,0,3:0:0:0:
469,243,66494,2,0,P|468:211|472:181,1,51.25,2|0,1:2|0:0,0:0:0:0:
493,58,66710,5,2,0:2:0:0:
485,46,66818,1,0,3:0:0:0:
469,32,66926,1,0,1:2:0:0:
441,20,67034,1,0,3:0:0:0:
400,14,67142,1,2,0:2:0:0:
353,35,67250,1,0,3:0:0:0:
324,83,67357,6,0,L|316:138,1,51.25,0|0,1:2|0:0,0:0:0:0:
388,223,67573,2,0,L|381:274,1,51.25,2|0,0:2|0:0,0:0:0:0:
297,260,67789,2,0,L|305:210,1,51.25,2|0,1:2|0:0,0:0:0:0:
400,147,68005,2,0,L|407:96,1,51.25,2|0,0:2|0:0,0:0:0:0:
258,25,68221,6,0,L|127:15,1,102.5,0|2,1:2|0:2,0:0:0:0:
145,16,68544,1,0,3:0:0:0:
135,20,68652,2,0,P|135:57|125:93,1,51.25,2|0,1:2|0:0,0:0:0:0:
38,70,68868,2,0,P|38:33|48:-3,1,51.25,2|0,0:2|0:0,0:0:0:0:
17,194,69084,5,6,1:2:0:0:
155,189,69192,1,0,3:0:0:0:
88,231,69300,1,2,3:2:0:0:
85,152,69408,1,0,3:0:0:0:
20,273,69516,6,0,L|9:354,1,76.8750029325486,10|0,3:2|3:0,0:0:0:0:
147,345,69732,2,0,L|158:264,1,76.8750029325486,2|0,3:2|3:0,0:0:0:0:
210,57,69947,5,6,1:2:0:0:
260,177,70055,1,0,3:0:0:0:
340,82,70163,1,2,3:2:0:0:
270,105,70271,1,0,3:0:0:0:
411,111,70379,6,0,P|418:77|390:22,1,76.8750029325486,10|0,0:2|3:0,0:0:0:0:
141,27,70595,2,0,P|134:61|162:116,1,76.8750029325486,2|0,3:2|3:0,0:0:0:0:
241,304,70811,5,4,1:2:0:0:
239,273,70919,1,0,3:0:0:0:
271,318,71027,5,0,3:0:0:0:
265,253,71135,1,0,3:0:0:0:
301,332,71242,5,8,1:2:0:0:
292,234,71350,1,0,3:0:0:0:
332,347,71458,5,0,3:0:0:0:
318,214,71566,1,0,3:0:0:0:
362,361,71674,6,0,L|457:340,1,76.8750029325486,0|8,1:2|3:2,0:0:0:0:
386,104,71890,5,0,1:0:0:0:
448,170,71998,1,0,3:0:0:0:
257,99,72106,5,8,1:2:0:0:
282,16,72214,1,0,3:0:0:0:
318,214,72321,5,0,1:0:0:0:
233,233,72429,1,2,3:2:0:0:
320,141,72537,5,0,3:2:0:0:
195,32,72753,5,0,3:2:0:0:
186,33,72861,1,0,3:2:0:0:
178,35,72969,2,0,L|120:36,1,41,2|0,3:2|3:2,0:0:0:0:
33,20,73185,5,0,3:2:0:0:
52,34,73293,1,2,3:2:0:0:
87,6,73400,5,0,3:2:0:0:
90,29,73509,1,0,3:2:0:0:
137,35,73615,5,0,3:2:0:0:
120,50,73724,1,0,3:2:0:0:
157,82,73832,5,2,3:2:0:0:
130,155,73940,1,0,3:2:0:0:
53,151,74048,5,0,3:2:0:0:
26,78,74156,1,0,3:2:0:0:
7,247,74264,6,0,B|57:231|90:262|90:262|117:343|209:316,1,225.500006881714,6|0,1:2|0:0,0:0:0:0:
29,327,74588,1,0,3:0:0:0:
168,246,74696,2,0,P|260:236|396:244,1,184.499994369507,10|0,1:2|0:0,0:0:0:0:
485,286,75019,1,0,3:0:0:0:
444,380,75127,6,0,P|421:348|395:298,1,92.2499971847535,2|0,1:2|0:0,0:0:0:0:
365,114,75343,1,2,0:2:0:0:
440,76,75451,1,0,3:0:0:0:
473,151,75559,2,0,P|457:186|426:233,1,92.2499971847535,10|0,1:2|0:0,0:0:0:0:
370,4,75775,1,2,0:2:0:0:
373,20,75883,1,0,3:0:0:0:
374,38,75991,2,0,L|268:23,1,92.2499971847535,0|0,1:0|0:0,0:0:0:0:
0,32,76206,6,0,B|43:16|43:16|109:40,1,92.2499971847535,2|0,0:1|0:0,0:0:0:0:
59,211,76422,2,0,L|43:66,1,112.750003440857,10|0,1:1|0:0,0:0:0:0:
282,25,76638,2,0,B|239:9|239:9|173:33,1,92.2499971847535,2|0,0:2|0:0,0:0:0:0:
217,317,76854,6,0,L|239:63,1,225.500006881714,2|0,1:1|0:0,0:0:0:0:
317,210,77178,1,2,0:1:0:0:
152,372,77286,2,0,P|109:354|64:343,1,92.2499971847535,8|0,1:2|0:0,0:0:0:0:
290,363,77501,2,0,P|333:345|378:334,1,92.2499971847535,2|0,0:1|0:0,0:0:0:0:
504,62,77717,6,0,B|384:70|384:70|425:75|448:118,1,184.499994369507,2|0,1:2|0:0,0:0:0:0:
369,145,78041,1,0,3:0:0:0:
435,278,78149,2,0,P|434:237|440:172,1,92.2499971847535,10|0,1:2|0:0,0:0:0:0:
308,2,78365,1,2,0:2:0:0:
305,20,78473,1,0,3:0:0:0:
289,129,78580,6,0,L|303:37,1,92.2499971847535,2|0,1:2|0:0,0:0:0:0:
45,35,78796,1,2,0:2:0:0:
120,1,78904,1,0,3:0:0:0:
197,129,79012,2,0,P|200:81|193:24,1,92.2499971847535,10|0,1:2|0:0,0:0:0:0:
35,117,79228,1,2,0:2:0:0:
36,135,79336,1,0,3:0:0:0:
38,153,79444,2,0,L|47:254,1,92.2499971847535,0|0,1:0|0:0,0:0:0:0:
165,384,79659,6,0,P|152:337|118:304,1,92.2499971847535,2|0,0:1|0:0,0:0:0:0:
256,192,79875,2,0,L|256:320,1,112.750003440857,8|0,1:1|0:0,0:0:0:0:
347,384,80091,2,0,P|358:339|389:307,1,92.2499971847535,2|0,0:1|0:0,0:0:0:0:
512,74,80307,6,0,B|472:55|460:13|460:13|422:92|490:97|449:181|449:181|436:132|392:112,1,338.250010322571,2|2,1:1|0:1,0:0:0:0:
234,63,80739,1,8,1:2:0:0:
353,57,80847,1,0,3:0:0:0:
296,119,80955,1,0,3:0:0:0:
290,0,81062,1,2,0:1:0:0:
161,13,81170,6,0,P|138:111|122:224,1,184.499994369507,6|0,1:2|0:0,0:0:0:0:
62,39,81494,1,0,3:0:0:0:
17,208,81602,2,0,P|9:162|-1:117,1,92.2499971847535,10|0,1:2|0:0,0:0:0:0:
5,332,81818,1,2,0:2:0:0:
76,284,81926,1,0,3:0:0:0:
118,358,82034,2,0,L|222:344,1,92.2499971847535,2|0,1:2|0:0,0:0:0:0:
359,314,82250,1,2,0:2:0:0:
209,345,82357,1,0,3:0:0:0:
286,384,82465,6,0,P|284:337|277:292,1,92.2499971847535,8|0,1:2|0:0,0:0:0:0:
443,257,82681,1,2,0:2:0:0:
441,275,82789,1,0,3:0:0:0:
440,292,82897,2,0,P|433:337|430:383,1,92.2499971847535,0|0,1:0|0:0,0:0:0:0:
433,114,83113,6,0,B|390:95|390:95|332:113,1,92.2499971847535,2|0,0:1|0:0,0:0:0:0:
128,192,83328,2,0,L|240:192,1,112.750003440857,8|0,1:0|0:0,0:0:0:0:
443,257,83544,2,0,B|398:271|398:271|342:248,1,92.2499971847535,2|0,0:1|0:0,0:0:0:0:
273,74,83760,6,0,B|296:32|345:33|345:33|216:9|256:130|116:87,1,338.250010322571,2|2,1:1|0:1,0:0:0:0:
15,2,84192,2,0,L|4:105,1,76.8750029325486,8|0,1:2|0:0,0:0:0:0:
116,87,84408,2,0,L|127:-16,1,76.8750029325486,2|0,0:1|0:0,0:0:0:0:
47,181,84624,6,0,B|37:239|37:239|46:277|46:277|25:380,1,184.499994369507,2|0,1:2|0:0,0:0:0:0:
115,233,84947,1,0,3:0:0:0:
131,240,85055,2,0,P|175:225|242:252,1,92.2499971847535,8|0,1:2|0:0,0:0:0:0:
230,378,85271,2,0,P|195:347|184:275,1,92.2499971847535,2|0,0:2|0:0,0:0:0:0:
301,224,85487,2,0,P|291:269|235:314,1,92.2499971847535,2|0,1:2|0:0,0:0:0:0:
240,61,85703,5,2,0:2:0:0:
311,12,85811,1,0,3:0:0:0:
360,83,85919,2,0,L|451:71,1,92.2499971847535,8|0,1:2|0:0,0:0:0:0:
301,224,86134,2,0,L|289:131,1,92.2499971847535,2|0,0:2|0:0,0:0:0:0:
451,71,86350,2,0,L|463:164,1,92.2499971847535,0|0,1:0|0:0,0:0:0:0:
449,369,86566,5,2,0:1:0:0:
512,306,86674,1,0,3:0:0:0:
376,319,86782,5,8,1:2:0:0:
383,231,86890,1,0,3:0:0:0:
296,352,86998,5,2,0:1:0:0:
244,283,87106,1,0,0:0:0:0:
62,384,87214,6,0,P|65:332|49:243,1,112.750003440857,2|2,1:1|3:1,0:0:0:0:
160,267,87429,2,0,P|158:323|165:379,1,112.750003440857,0|2,1:0|3:1,0:0:0:0:
83,39,87645,5,8,1:2:0:0:
25,187,87753,1,0,3:0:0:0:
160,96,87861,1,2,1:1:0:0:
0,91,87969,1,0,3:0:0:0:
124,189,88076,6,0,B|187:200|234:156|234:156|238:129|238:129|286:87|356:104,1,225.500006881714,6|0,1:2|0:0,0:0:0:0:
405,198,88401,1,0,3:0:0:0:
343,294,88509,2,0,B|298:245|327:188|327:188|322:228|355:264,1,184.499994369507,10|0,1:2|0:0,0:0:0:0:
512,349,88832,1,0,3:0:0:0:
424,366,88940,6,0,L|435:248,1,92.2499971847535,2|0,1:2|0:0,0:0:0:0:
409,160,89156,1,2,0:2:0:0:
407,179,89264,1,0,3:0:0:0:
481,84,89372,2,0,L|363:73,1,92.2499971847535,8|0,1:2|0:0,0:0:0:0:
199,30,89588,1,2,0:2:0:0:
281,7,89696,1,0,3:0:0:0:
307,88,89803,2,0,P|297:137|288:209,1,92.2499971847535,0|0,1:0|0:0,0:0:0:0:
61,378,90019,6,0,B|68:333|68:333|41:259,1,92.2499971847535,2|0,0:1|0:0,0:0:0:0:
124,81,90235,2,0,P|127:137|127:193,1,112.750003440857,10|0,1:1|0:0,0:0:0:0:
196,379,90451,2,0,B|189:334|189:334|205:290,1,92.2499971847535,2|0,0:2|0:0,0:0:0:0:
454,267,90667,6,0,B|390:234|349:283|349:283|327:360|241:335,1,225.500006881714,2|0,1:1|0:0,0:0:0:0:
274,263,90991,1,2,0:1:0:0:
413,344,91098,2,0,L|542:354,1,92.2499971847535,8|0,1:2|0:0,0:0:0:0:
494,185,91314,2,0,L|365:175,1,92.2499971847535,2|0,0:1|0:0,0:0:0:0:
285,81,91530,6,0,B|326:56|331:2|331:2|352:43|410:58,1,184.499994369507,2|0,1:2|0:0,0:0:0:0:
358,118,91854,1,0,3:0:0:0:
252,12,91962,2,0,P|205:3|143:27,1,92.2499971847535,10|0,1:2|0:0,0:0:0:0:
48,152,92178,5,2,0:2:0:0:
46,133,92286,1,0,3:0:0:0:
41,115,92393,2,0,P|31:74|38:19,1,92.2499971847535,2|0,1:2|0:0,0:0:0:0:
162,14,92609,2,0,P|172:55|165:110,1,92.2499971847535,2|0,0:2|0:0,0:0:0:0:
145,265,92825,6,0,L|112:115,1,92.2499971847535,10|0,1:2|0:0,0:0:0:0:
0,348,93041,1,2,0:2:0:0:
53,279,93149,1,0,3:0:0:0:
113,340,93257,2,0,P|159:347|210:319,1,92.2499971847535,0|0,1:0|0:0,0:0:0:0:
271,84,93473,6,0,P|278:129|279:175,1,92.2499971847535,2|0,0:1|0:0,0:0:0:0:
374,303,93688,2,0,P|372:249|369:190,1,112.750003440857,10|0,1:1|0:0,0:0:0:0:
461,84,93904,2,0,P|452:137|454:198,1,92.2499971847535,2|0,0:1|0:0,0:0:0:0:
427,376,94120,6,0,B|484:376|512:332|495:288|464:268|402:243|336:284|391:376|241:359,1,338.250010322571,2|2,1:1|0:1,0:0:0:0:
186,242,94552,1,8,1:2:0:0:
280,360,94660,1,0,3:0:0:0:
267,272,94768,1,2,0:1:0:0:
199,329,94875,1,0,3:0:0:0:
253,187,94983,6,0,B|256:62|256:62|267:90|302:112,1,184.499994369507,6|0,1:2|0:0,0:0:0:0:
337,30,95307,1,0,3:0:0:0:
378,198,95415,2,0,P|376:148|383:96,1,92.2499971847535,10|0,1:2|0:0,0:0:0:0:
301,265,95631,2,0,P|278:221|245:179,1,92.2499971847535,2|0,0:2|0:0,0:0:0:0:
460,262,95847,2,0,P|482:218|515:176,1,92.2499971847535,2|0,1:2|0:0,0:0:0:0:
510,2,96062,5,2,0:2:0:0:
510,20,96170,1,0,3:0:0:0:
512,38,96278,2,0,P|468:50|418:40,1,92.2499971847535,8|0,1:2|0:0,0:0:0:0:
249,14,96494,1,2,0:2:0:0:
293,106,96602,1,0,3:0:0:0:
231,18,96710,2,0,L|110:27,1,92.2499971847535,0|0,1:0|0:0,0:0:0:0:
0,128,96926,6,0,B|20:115|23:88|23:88|33:108|62:116,1,92.2499971847535,2|0,0:1|0:0,0:0:0:0:
87,292,97142,2,0,L|100:140,1,112.750003440857,10|0,1:1|0:0,0:0:0:0:
205,133,97357,2,0,B|184:120|181:93|181:93|171:113|142:121,1,92.2499971847535,2|0,0:1|0:0,0:0:0:0:
15,354,97573,6,0,B|102:398|159:331|159:331|189:223|309:258,1,338.250010322571,2|2,1:1|0:1,0:0:0:0:
485,374,98005,2,0,P|483:326|493:270,1,92.2499971847535,8|0,1:2|0:0,0:0:0:0:
386,288,98221,2,0,P|392:333|390:379,1,92.2499971847535,2|0,0:1|0:0,0:0:0:0:
481,150,98437,6,0,B|440:175|435:229|435:229|414:188|356:173,1,184.499994369507,6|0,1:2|0:0,0:0:0:0:
398,6,98760,1,0,3:0:0:0:
397,24,98868,2,0,L|410:127,1,92.2499971847535,8|0,1:2|0:0,0:0:0:0:
298,135,99084,2,0,L|285:32,1,92.2499971847535,2|0,0:2|0:0,0:0:0:0:
227,251,99300,6,0,B|181:237|181:237|130:257,1,92.2499971847535,6|0,1:2|0:0,0:0:0:0:
80,305,99516,1,2,0:2:0:0:
80,323,99624,1,0,3:0:0:0:
232,369,99732,6,0,B|186:382|186:382|135:363,1,92.2499971847535,8|0,1:2|0:0,0:0:0:0:
64,228,99947,1,2,0:2:0:0:
6,280,100055,1,0,3:0:0:0:
139,253,100163,2,0,L|125:146,1,92.2499971847535,4|0,1:2|0:0,0:0:0:0:
11,24,100379,6,0,P|59:12|123:36,1,92.2499971847535,2|0,0:1|0:0,0:0:0:0:
227,251,100595,2,0,L|206:97,1,112.750003440857,10|0,1:1|0:0,0:0:0:0:
1,123,100811,2,0,P|44:99|112:105,1,92.2499971847535,2|0,0:1|0:0,0:0:0:0:
397,66,101027,6,0,B|334:34|294:81|294:81|272:158|188:133,1,225.500006881714,6|2,1:1|0:2,0:0:0:0:
165,76,101350,1,2,0:1:0:0:
357,137,101458,2,0,P|351:177|346:265,1,92.2499971847535,8|0,1:2|0:0,0:0:0:0:
477,112,101674,2,0,P|480:66|487:20,1,92.2499971847535,2|0,1:1|0:0,0:0:0:0:
462,358,101890,6,0,B|516:358|543:317|527:275|497:255|438:232|376:270|428:358|285:342,1,338.250010322571,4|0,1:2|0:0,0:0:0:0:
289,350,102321,1,8,1:2:0:0:
274,346,102429,2,0,B|217:341|217:341|178:362|178:362|105:335,1,153.750005865097,2|0,0:2|0:0,0:0:0:0:
0,227,102753,5,2,1:2:0:0:
45,200,102860,1,2,0:2:0:0:
96,206,102968,1,2,0:0:0:0:
134,243,103076,1,2,0:2:0:0:
139,295,103185,2,0,B|98:320|93:374|93:374|72:333|14:318,1,184.499994369507,10|0,1:2|0:0,0:0:0:0:
300,150,103616,5,6,1:2:0:0:
281,165,103724,1,0,3:0:0:0:
300,182,103832,1,0,3:0:0:0:
315,165,103940,1,0,3:0:0:0:
300,126,104048,5,8,1:2:0:0:
260,160,104156,1,0,3:0:0:0:
297,203,104264,1,0,3:0:0:0:
337,167,104372,1,0,3:0:0:0:
303,102,104480,5,0,1:0:0:0:
238,158,104588,1,0,3:0:0:0:
294,222,104696,1,0,3:0:0:0:
360,168,104803,1,0,3:0:0:0:
306,79,104911,5,8,1:2:0:0:
217,155,105019,1,0,3:0:0:0:
291,244,105127,1,0,1:0:0:0:
381,169,105235,1,0,3:0:0:0:
307,54,105343,6,0,B|251:8|203:49|203:49|169:119|80:87,1,225.500006881714,6|0,1:2|0:0,0:0:0:0:
10,7,105667,1,2,0:2:0:0:
13,25,105775,2,0,L|25:136,1,92.2499971847535,8|0,1:2|0:0,0:0:0:0:
113,96,105991,2,0,L|101:-15,1,92.2499971847535,2|0,0:2|0:0,0:0:0:0:
14,225,106206,5,0,1:2:0:0:
83,174,106314,1,0,3:0:0:0:
26,300,106422,2,0,P|22:262|11:210,1,92.2499971847535,2|0,0:2|0:0,0:0:0:0:
110,355,106638,5,10,1:2:0:0:
163,291,106746,1,0,3:2:0:0:
245,305,106853,1,2,3:2:0:0:
274,384,106961,1,0,3:0:0:0:
191,369,107069,6,0,P|186:288|167:167,1,184.499994369507,2|0,1:2|0:0,0:0:0:0:
301,93,107393,1,2,0:2:0:0:
251,167,107501,2,0,L|357:174,1,92.2499971847535,8|0,1:2|0:0,0:0:0:0:
349,19,107717,2,0,L|243:12,1,92.2499971847535,2|0,0:2|0:0,0:0:0:0:
410,101,107933,5,0,1:2:0:0:
421,81,108041,1,0,3:0:0:0:
501,81,108149,1,0,3:0:0:0:
512,101,108257,1,0,3:0:0:0:
458,19,108365,6,0,L|472:258,1,184.499994369507,8|2,1:2|0:1,0:0:0:0:
475,384,108688,1,0,3:0:0:0:
420,294,108796,5,2,1:1:0:0:
438,290,108904,1,0,3:0:0:0:
457,380,109012,1,0,3:0:0:0:
439,376,109120,1,2,0:1:0:0:
457,294,109228,6,0,L|470:187,1,92.2499971847535,8|0,1:2|0:0,0:0:0:0:
330,211,109444,2,0,L|341:302,1,92.2499971847535,2|0,0:1|0:0,0:0:0:0:
185,372,109660,5,2,1:1:0:0:
210,367,109768,1,0,3:0:0:0:
228,287,109876,1,0,3:0:0:0:
201,281,109984,1,2,0:1:0:0:
160,377,110091,6,0,L|47:359,1,92.2499971847535,8|0,1:2|0:0,0:0:0:0:
82,260,110307,2,0,L|195:277,1,92.2499971847535,2|0,0:1|0:0,0:0:0:0:
2,254,110523,5,2,1:1:0:0:
88,180,110631,1,0,3:0:0:0:
82,260,110739,1,0,3:0:0:0:
8,174,110847,1,2,0:1:0:0:
67,18,110955,6,0,L|51:131,1,92.2499971847535,8|0,1:2|0:0,0:0:0:0:
173,273,111170,2,0,L|189:160,1,92.2499971847535,2|0,0:1|0:0,0:0:0:0:
145,53,111386,5,2,1:1:0:0:
272,87,111494,1,0,3:0:0:0:
218,33,111602,1,0,3:0:0:0:
198,106,111710,1,0,3:0:0:0:
291,13,111818,6,0,B|335:1|335:1|386:22,1,92.2499971847535,8|0,1:2|0:0,0:0:0:0:
512,75,112034,2,0,B|468:63|468:63|417:84,1,92.2499971847535
255,347,112250,6,0,B|302:317|308:254|308:254|333:302|400:320,1,225.500006881714,6|0,1:2|0:0,0:0:0:0:
339,381,112573,1,2,0:2:0:0:
392,231,112681,2,0,L|374:127,1,92.2499971847535,8|0,1:2|0:0,0:0:0:0:
476,141,112897,2,0,L|491:231,1,92.2499971847535,2|0,0:2|0:0,0:0:0:0:
470,364,113113,5,0,1:2:0:0:
397,319,113221,1,0,3:0:0:0:
339,381,113329,2,0,P|298:357|243:345,1,92.2499971847535,2|0,0:2|0:0,0:0:0:0:
57,383,113544,5,10,1:2:0:0:
116,329,113652,1,0,3:0:0:0:
96,255,113760,1,2,0:2:0:0:
23,237,113868,1,0,3:0:0:0:
44,310,113976,2,0,P|42:207|64:114,1,184.499994369507,2|0,1:2|0:0,0:0:0:0:
18,22,114300,1,2,0:2:0:0:
126,11,114408,2,0,L|35:26,1,92.2499971847535,8|0,1:2|0:0,0:0:0:0:
60,128,114624,2,0,L|151:113,1,92.2499971847535,2|0,0:2|0:0,0:0:0:0:
318,50,114839,5,0,1:2:0:0:
301,58,114947,1,0,3:0:0:0:
226,70,115055,1,0,3:0:0:0:
209,62,115163,1,0,3:0:0:0:
264,183,115271,2,0,P|265:122|247:-10,1,184.499994369507,8|0,1:2|0:0,0:0:0:0:
500,367,115703,5,6,1:1:0:0:
474,364,115810,1,0,3:0:0:0:
448,362,115918,1,0,3:0:0:0:
422,361,116026,1,2,3:1:0:0:
245,347,116134,5,8,1:2:0:0:
296,366,116241,1,0,3:0:0:0:
345,341,116349,1,2,3:1:0:0:
361,289,116457,1,0,3:0:0:0:
501,217,116566,5,6,1:1:0:0:
430,243,116673,1,0,3:0:0:0:
363,208,116781,1,0,3:0:0:0:
341,136,116889,1,2,3:1:0:0:
451,68,116998,5,8,1:2:0:0:
341,136,117106,1,0,3:0:0:0:
362,47,117214,1,2,3:1:0:0:
429,156,117321,1,0,3:0:0:0:
275,74,117429,6,2,B|219:106|242:168|242:168|272:241|224:279|224:279|243:251|253:215|253:167|201:84|83:60|-8:199|36:300|168:303|153:225,1,656,6|0,1:2|0:0,0:1:0:0:
