osu file format v14

[General]
AudioFilename: audio.mp3
AudioLeadIn: 0
PreviewTime: 74048
Countdown: 0
SampleSet: Soft
StackLeniency: 0.7
Mode: 0
LetterboxInBreaks: 0
WidescreenStoryboard: 1

[Editor]
Bookmarks: 560,8060,15560,17286,24192,27645,31098,34552,44911,56998,58724,62178,69084,70811,72537,74264,88077,103616,105343,115703,117429,119156
DistanceSpacing: 0.3
BeatDivisor: 4
GridSize: 32
TimelineZoom: 1

[Metadata]
Title:precious time (Short Ver.)
TitleUnicode:precious time (Short Ver.)
Artist:fripSide
ArtistUnicode:fripSide
Creator:tomatas95
Version:Hard
Source:花咲ワークスプリング!
Tags:Hanasaki Work Spring! saga planets eroge ending ed galgame video game syph shirahane suou aeril -atri- kurantemelodii krt firis mistlud saturnalize 南條愛乃 nanjou yoshino m@o 八木沼悟志 Satoshi Yaginuma Kai Kawasaki japanese jpop j-pop pop
BeatmapID:3589633
BeatmapSetID:1723218

[Difficulty]
HPDrainRate:4
CircleSize:3.5
OverallDifficulty:6
ApproachRate:7.5
SliderMultiplier:1.7
SliderTickRate:1

[Events]
//Background and Video events
Video,-540,"ErogeDaisukiDesu.mp4"
0,0,"WakabaDaisuki.jpg",0,0
//Break Periods
//Storyboard Layer 0 (Background)
//Storyboard Layer 1 (Fail)
//Storyboard Layer 2 (Pass)
//Storyboard Layer 3 (Foreground)
//Storyboard Layer 4 (Overlay)
//Storyboard Sound Samples

[TimingPoints]
560,468.750000000001,4,2,54,50,1,0
560,-142.857142857143,4,2,54,50,0,0
677,-142.857142857143,4,2,53,50,0,0
1263,-142.857142857143,4,2,53,45,0,0
2435,-142.857142857143,4,2,53,50,0,0
3606,-142.857142857143,4,2,53,45,0,0
4310,-142.857142857143,4,2,53,50,0,0
4778,-142.857142857143,4,2,53,45,0,0
6185,-142.857142857143,4,2,53,50,0,0
7356,-142.857142857143,4,2,53,45,0,0
8060,-142.857142857143,4,2,54,50,0,0
8177,-142.857142857143,4,2,53,50,0,0
8763,-142.857142857143,4,2,53,45,0,0
9935,-142.857142857143,4,2,53,50,0,0
11106,-142.857142857143,4,2,53,45,0,0
11810,-142.857142857143,4,2,53,50,0,0
12278,-142.857142857143,4,2,53,45,0,0
13685,-142.857142857143,4,2,53,50,0,0
14153,-142.857142857143,4,2,53,45,0,0
15442,-142.857142857143,4,2,53,55,0,0
15560,431.654676258993,4,2,53,70,1,0
15560,-100,4,2,53,70,0,0
15775,-100,4,2,53,45,0,0
15991,-100,4,2,53,50,0,0
16207,-100,4,2,53,55,0,0
16423,-100,4,2,53,60,0,0
16639,-100,4,2,53,65,0,0
16854,-100,4,2,53,70,0,0
17070,-100,4,2,53,75,0,0
17286,431.654676258993,4,2,54,80,1,0
17286,-100,4,2,54,80,0,0
17393,-100,4,2,53,80,0,0
18257,-100,4,2,1,80,0,0
18365,-100,4,2,53,80,0,0
18688,-100,4,2,1,80,0,0
18796,-100,4,2,53,80,0,0
18904,-100,4,2,1,80,0,0
19012,-100,4,2,53,80,0,0
19983,-100,4,2,1,80,0,0
20307,-100,4,2,53,80,0,0
20631,-100,4,2,1,80,0,0
20739,-100,4,2,53,80,0,0
20847,-100,4,2,1,80,0,0
21062,-100,4,2,53,80,0,0
21710,-100,4,2,1,80,0,0
21926,-100,4,2,53,80,0,0
22573,-100,4,2,1,80,0,0
22789,-100,4,2,53,80,0,0
23437,-100,4,2,1,80,0,0
23760,-100,4,2,53,80,0,0
24192,-100,4,2,54,80,0,0
24300,-100,4,2,53,80,0,0
25163,-100,4,2,1,80,0,0
25271,-100,4,2,53,80,0,0
25595,-100,4,2,1,80,0,0
25703,-100,4,2,53,80,0,0
25811,-100,4,2,1,80,0,0
25919,-100,4,2,53,80,0,0
26890,-100,4,2,1,80,0,0
27214,-100,4,2,53,60,0,0
27861,-100,4,2,53,65,0,0
28077,-100,4,2,53,70,0,0
28293,-100,4,2,53,75,0,0
28509,-100,4,2,53,60,0,0
28724,-100,4,2,53,65,0,0
28940,-100,4,2,53,70,0,0
29156,-100,4,2,53,75,0,0
29372,-100,4,2,53,60,0,0
29588,-100,4,2,53,65,0,0
29803,-100,4,2,53,70,0,0
30019,-100,4,2,53,75,0,0
30235,-100,4,2,53,60,0,0
30451,-100,4,2,53,70,0,0
30667,-100,4,2,53,75,0,0
30883,-100,4,2,53,80,0,0
31098,-125,4,2,53,80,0,0
31206,-125,4,2,53,60,0,0
32178,-125,4,2,53,50,0,0
32393,-125,4,2,53,55,0,0
32609,-125,4,2,53,60,0,0
32825,-125,4,2,53,65,0,0
33041,-125,4,2,53,60,0,0
33904,-125,4,2,53,50,0,0
34120,-125,4,2,53,55,0,0
34336,-125,4,2,53,60,0,0
34552,-125,4,2,53,65,0,0
34983,-125,4,2,53,60,0,0
35415,-125,4,2,53,50,0,0
35630,-125,4,2,53,55,0,0
35846,-125,4,2,53,60,0,0
36062,-125,4,2,53,65,0,0
36278,-125,4,2,53,70,0,0
36710,-125,4,2,53,60,0,0
37141,-125,4,2,53,50,0,0
37357,-125,4,2,53,55,0,0
37573,-125,4,2,53,60,0,0
37789,-125,4,2,53,65,0,0
38005,-125,4,2,53,70,0,0
38437,-125,4,2,53,60,0,0
39084,-125,4,2,53,50,0,0
39299,-125,4,2,53,55,0,0
39515,-125,4,2,53,60,0,0
39731,-125,4,2,53,65,0,0
39947,-125,4,2,53,60,0,0
40810,-125,4,2,53,50,0,0
41026,-125,4,2,53,55,0,0
41242,-125,4,2,53,60,0,0
41458,-125,4,2,53,65,0,0
41890,-125,4,2,53,60,0,0
42321,-125,4,2,53,50,0,0
42536,-125,4,2,53,55,0,0
42752,-125,4,2,53,60,0,0
42968,-125,4,2,53,65,0,0
43184,-125,4,2,53,70,0,0
43401,-125,4,2,53,60,0,0
44047,-125,4,2,53,50,0,0
44263,-125,4,2,53,55,0,0
44479,-125,4,2,53,60,0,0
44695,-125,4,2,53,65,0,0
44911,-111.111111111111,4,2,53,70,0,0
45667,-111.111111111111,4,2,1,70,0,0
45775,-111.111111111111,4,2,53,70,0,0
46098,-111.111111111111,4,2,1,70,0,0
46206,-111.111111111111,4,2,53,70,0,0
46530,-111.111111111111,4,2,1,70,0,0
46638,-111.111111111111,4,2,53,70,0,0
47393,-111.111111111111,4,2,1,70,0,0
47501,-111.111111111111,4,2,53,70,0,0
47825,-111.111111111111,4,2,1,70,0,0
47933,-111.111111111111,4,2,53,70,0,0
48257,-111.111111111111,4,2,1,70,0,0
48365,-111.111111111111,4,2,53,70,0,0
49120,-111.111111111111,4,2,1,70,0,0
49228,-111.111111111111,4,2,53,70,0,0
49444,-111.111111111111,4,2,53,60,0,0
49552,-111.111111111111,4,2,1,70,0,0
49660,-111.111111111111,4,2,53,65,0,0
49768,-111.111111111111,4,2,1,70,0,0
49875,-111.111111111111,4,2,53,70,0,0
49983,-111.111111111111,4,2,1,70,0,0
50091,-111.111111111111,4,2,53,75,0,0
50307,-111.111111111111,4,2,53,70,0,0
50847,-111.111111111111,4,2,1,70,0,0
50954,-111.111111111111,4,2,53,70,0,0
51170,-111.111111111111,4,2,1,70,0,0
51277,-111.111111111111,4,2,53,70,0,0
52573,-111.111111111111,4,2,1,70,0,0
52680,-111.111111111111,4,2,53,70,0,0
53005,-111.111111111111,4,2,1,70,0,0
53112,-111.111111111111,4,2,53,70,0,0
53437,-111.111111111111,4,2,1,70,0,0
53544,-111.111111111111,4,2,53,70,0,0
54300,-111.111111111111,4,2,1,70,0,0
54407,-111.111111111111,4,2,53,70,0,0
54732,-111.111111111111,4,2,1,70,0,0
54839,-111.111111111111,4,2,53,70,0,0
55163,-111.111111111111,4,2,1,70,0,0
55270,-111.111111111111,4,2,53,70,0,0
56027,-111.111111111111,4,2,1,70,0,0
56134,-111.111111111111,4,2,53,50,0,0
56998,-100,4,2,53,50,0,0
57214,-100,4,2,53,55,0,0
57429,-100,4,2,53,60,0,0
57645,-100,4,2,53,65,0,0
57861,-100,4,2,53,70,0,0
58077,-100,4,2,53,75,0,0
58509,-100,4,2,53,80,0,0
58724,-111.111111111111,4,2,53,80,0,0
59156,-111.111111111111,4,2,53,60,0,0
59264,-111.111111111111,4,2,1,60,0,0
59372,-111.111111111111,4,2,1,65,0,0
59588,-111.111111111111,4,2,53,70,0,0
59803,-111.111111111111,4,2,53,60,0,0
59911,-111.111111111111,4,2,1,60,0,0
60019,-111.111111111111,4,2,53,65,0,0
60127,-111.111111111111,4,2,1,60,0,0
60235,-111.111111111111,4,2,53,70,0,0
60451,-111.111111111111,4,2,53,75,0,0
60667,-111.111111111111,4,2,53,60,0,0
60775,-111.111111111111,4,2,1,60,0,0
60883,-111.111111111111,4,2,53,60,0,0
61098,-111.111111111111,4,2,1,60,0,0
61314,-111.111111111111,4,2,53,60,0,0
61638,-111.111111111111,4,2,1,60,0,0
61746,-111.111111111111,4,2,53,60,0,0
62717,-111.111111111111,4,2,1,60,0,0
62825,-111.111111111111,4,2,1,65,0,0
63041,-111.111111111111,4,2,53,70,0,0
63149,-111.111111111111,4,2,1,60,0,0
63257,-111.111111111111,4,2,53,75,0,0
63473,-111.111111111111,4,2,53,60,0,0
63580,-111.111111111111,4,2,1,60,0,0
63688,-111.111111111111,4,2,53,65,0,0
63796,-111.111111111111,4,2,1,60,0,0
63904,-111.111111111111,4,2,53,70,0,0
64120,-111.111111111111,4,2,53,60,0,0
64875,-111.111111111111,4,2,1,60,0,0
64983,-111.111111111111,4,2,53,60,0,0
66170,-111.111111111111,4,2,1,60,0,0
66278,-111.111111111111,4,2,1,65,0,0
66494,-111.111111111111,4,2,53,70,0,0
66710,-111.111111111111,4,2,53,60,0,0
66818,-111.111111111111,4,2,1,60,0,0
66926,-111.111111111111,4,2,53,65,0,0
67034,-111.111111111111,4,2,1,60,0,0
67142,-111.111111111111,4,2,53,75,0,0
67250,-111.111111111111,4,2,1,60,0,0
67358,-111.111111111111,4,2,53,75,0,0
67573,-111.111111111111,4,2,53,60,0,0
68544,-111.111111111111,4,2,1,60,0,0
68652,-111.111111111111,4,2,53,60,0,0
69084,-100,4,2,53,75,0,0
69192,-100,4,2,53,55,0,0
69516,-100,4,2,53,60,0,0
69732,-100,4,2,53,65,0,0
69947,-100,4,2,53,75,0,0
70163,-100,4,2,53,55,0,0
70379,-100,4,2,53,60,0,0
70595,-100,4,2,53,65,0,0
70811,-100,4,2,53,75,0,0
71027,-100,4,2,53,55,0,0
71242,-100,4,2,53,60,0,0
71458,-100,4,2,53,65,0,0
71674,-100,4,2,53,70,0,0
71890,-100,4,2,53,75,0,0
72106,-100,4,2,53,80,0,0
72537,-100,4,2,53,55,0,0
72969,-100,4,2,53,60,0,0
73616,-100,4,2,53,65,0,0
73832,-100,4,2,53,70,0,0
74048,-100,4,2,53,75,0,0
74264,431.654676258993,4,2,54,80,1,0
74264,-90.9090909090909,4,2,54,90,0,1
74372,-90.9090909090909,4,2,53,90,0,1
74588,-90.9090909090909,4,2,1,75,0,1
74696,-90.9090909090909,4,2,53,90,0,1
75019,-90.9090909090909,4,2,1,75,0,1
75127,-90.9090909090909,4,2,53,90,0,1
75451,-90.9090909090909,4,2,1,75,0,1
75559,-90.9090909090909,4,2,53,90,0,1
75883,-90.9090909090909,4,2,1,75,0,1
75991,-90.9090909090909,4,2,53,90,0,1
78041,-90.9090909090909,4,2,1,75,0,1
78149,-90.9090909090909,4,2,53,90,0,1
78473,-90.9090909090909,4,2,1,75,0,1
78581,-90.9090909090909,4,2,53,90,0,1
79336,-90.9090909090909,4,2,1,75,0,1
79444,-90.9090909090909,4,2,53,90,0,1
80847,-90.9090909090909,4,2,1,75,0,1
80955,-90.9090909090909,4,2,53,90,0,1
81062,-90.9090909090909,4,2,1,75,0,1
81170,-90.9090909090909,4,2,54,90,0,1
81278,-90.9090909090909,4,2,53,90,0,1
81494,-90.9090909090909,4,2,1,75,0,1
81602,-90.9090909090909,4,2,53,90,0,1
81926,-90.9090909090909,4,2,1,75,0,1
82034,-90.9090909090909,4,2,53,90,0,1
82357,-90.9090909090909,4,2,1,75,0,1
82465,-90.9090909090909,4,2,53,90,0,1
82789,-90.9090909090909,4,2,1,75,0,1
82897,-90.9090909090909,4,2,53,90,0,1
84947,-90.9090909090909,4,2,1,75,0,1
85055,-90.9090909090909,4,2,53,90,0,1
85811,-90.9090909090909,4,2,1,75,0,1
85919,-90.9090909090909,4,2,53,90,0,1
86674,-90.9090909090909,4,2,1,75,0,1
86782,-90.9090909090909,4,2,53,90,0,1
86890,-90.9090909090909,4,2,1,75,0,1
86998,-90.9090909090909,4,2,53,90,0,1
87213,-100,4,2,53,90,0,0
88076,-90.9090909090909,4,2,54,90,0,1
88185,-90.9090909090909,4,2,53,90,0,1
88401,-90.9090909090909,4,2,1,75,0,1
88509,-90.9090909090909,4,2,53,90,0,1
88832,-90.9090909090909,4,2,1,75,0,1
88940,-90.9090909090909,4,2,53,90,0,1
89264,-90.9090909090909,4,2,1,75,0,1
89372,-90.9090909090909,4,2,53,90,0,1
89696,-90.9090909090909,4,2,1,75,0,1
89804,-90.9090909090909,4,2,53,90,0,1
91854,-90.9090909090909,4,2,1,75,0,1
91962,-90.9090909090909,4,2,53,90,0,1
92286,-90.9090909090909,4,2,1,75,0,1
92394,-90.9090909090909,4,2,53,90,0,1
93149,-90.9090909090909,4,2,1,75,0,1
93257,-90.9090909090909,4,2,53,90,0,1
94660,-90.9090909090909,4,2,1,75,0,1
94768,-90.9090909090909,4,2,53,90,0,1
94875,-90.9090909090909,4,2,1,75,0,1
94983,-90.9090909090909,4,2,54,90,0,1
95091,-90.9090909090909,4,2,53,90,0,1
95307,-90.9090909090909,4,2,1,75,0,1
95415,-90.9090909090909,4,2,53,90,0,1
96170,-90.9090909090909,4,2,1,75,0,1
96278,-90.9090909090909,4,2,53,90,0,1
96602,-90.9090909090909,4,2,1,75,0,1
96710,-90.9090909090909,4,2,53,90,0,1
98760,-90.9090909090909,4,2,1,75,0,1
98868,-90.9090909090909,4,2,53,90,0,1
99624,-90.9090909090909,4,2,1,75,0,1
99732,-90.9090909090909,4,2,53,90,0,1
100055,-90.9090909090909,4,2,1,75,0,1
100163,-90.9090909090909,4,2,53,90,0,1
103832,-90.9090909090909,4,2,53,45,0,1
104048,-90.9090909090909,4,2,53,50,0,1
104264,-90.9090909090909,4,2,53,55,0,1
104480,-90.9090909090909,4,2,53,60,0,1
104696,-90.9090909090909,4,2,53,65,0,1
104911,-90.9090909090909,4,2,53,70,0,1
105127,-90.9090909090909,4,2,53,75,0,1
105343,-100,4,2,54,90,0,0
105451,-100,4,2,53,80,0,0
106314,-100,4,2,1,80,0,0
106422,-100,4,2,53,80,0,0
106745,-100,4,2,1,80,0,0
106853,-100,4,2,53,80,0,0
106961,-100,4,2,1,80,0,0
107069,-100,4,2,53,80,0,0
108040,-100,4,2,1,80,0,0
108364,-100,4,2,53,80,0,0
108688,-100,4,2,1,80,0,0
108796,-100,4,2,53,80,0,0
108904,-100,4,2,1,80,0,0
109119,-100,4,2,53,80,0,0
109767,-100,4,2,1,80,0,0
109983,-100,4,2,53,80,0,0
110630,-100,4,2,1,80,0,0
110846,-100,4,2,53,80,0,0
111494,-100,4,2,1,80,0,0
111817,-100,4,2,53,80,0,0
112250,-100,4,2,54,80,0,0
112357,-100,4,2,53,80,0,0
112573,-100,4,2,53,80,0,0
113221,-100,4,2,1,80,0,0
113329,-100,4,2,53,80,0,0
113652,-100,4,2,1,80,0,0
113760,-100,4,2,53,80,0,0
113868,-100,4,2,1,80,0,0
113976,-100,4,2,53,80,0,0
114947,-100,4,2,1,80,0,0
115271,-100,4,2,53,80,0,0
115811,-100,4,2,53,65,0,0
116134,-100,4,2,53,70,0,0
116350,-100,4,2,53,75,0,0
116566,-100,4,2,53,80,0,0
116674,-100,4,2,53,65,0,0
116998,-100,4,2,53,70,0,0
117214,-100,4,2,53,75,0,0
117429,-142.857142857143,4,2,53,80,0,0
117537,-100,4,2,53,45,0,0
119156,-100,4,2,53,5,0,0

[Colours]
Combo1 : 252,152,250
Combo2 : 241,232,107
Combo3 : 111,188,251
Combo4 : 237,107,84

[HitObjects]
25,366,560,6,0,P|24:310|15:225,1,118.999996368408,6|0,1:2|0:0,0:0:0:0:
94,207,1263,1,2,0:2:0:0:
94,207,1497,2,0,P|119:221|161:239,1,59.4999981842042,2|2,0:2|0:2,0:0:0:0:
159,314,1966,2,0,P|133:328|97:355,1,59.4999981842042,2|2,0:2|0:2,0:0:0:0:
246,384,2435,6,0,L|256:311,2,59.4999981842042,2|2|2,0:2|0:2|0:2,0:0:0:0:
333,384,3138,2,0,L|352:241,1,118.999996368408,2|2,0:2|0:2,0:0:0:0:
364,181,3841,1,2,0:2:0:0:
364,181,4075,1,2,0:2:0:0:
436,121,4310,6,0,B|471:127|488:153|488:153|478:190|486:213,1,118.999996368408,2|2,0:2|0:2,0:0:0:0:
492,296,5013,1,2,0:2:0:0:
492,296,5247,2,0,L|421:284,1,59.4999981842042,2|2,0:2|0:2,0:0:0:0:
420,368,5716,2,0,L|491:380,1,59.4999981842042,2|2,0:2|0:2,0:0:0:0:
341,384,6185,6,0,P|340:345|357:315,2,59.4999981842042,2|2|2,0:2|0:2|0:2,0:0:0:0:
249,384,6888,2,0,P|256:322|212:265,1,118.999996368408,2|2,0:2|0:2,0:0:0:0:
181,343,7591,1,2,0:2:0:0:
181,343,7825,1,2,0:2:0:0:
154,241,8060,6,0,B|151:199|151:199|159:175|159:175|151:111,1,118.999996368408,6|0,1:2|0:0,0:0:0:0:
50,51,8763,1,2,0:2:0:0:
50,51,8997,2,0,P|82:42|116:56,1,59.4999981842042,2|2,0:2|0:2,0:0:0:0:
250,48,9466,2,0,P|218:39|184:53,1,59.4999981842042,2|2,0:2|0:2,0:0:0:0:
152,123,9935,6,0,P|153:151|152:195,2,59.4999981842042,2|2|2,0:2|0:2|0:2,0:0:0:0:
250,48,10638,2,0,P|246:107|248:166,1,118.999996368408,2|2,0:2|0:2,0:0:0:0:
251,253,11341,1,2,0:2:0:0:
334,282,11576,1,2,0:2:0:0:
393,214,11810,6,0,B|383:169|390:123|390:123|371:93,1,118.999996368408,2|2,0:2|0:2,0:0:0:0:
307,46,12513,1,2,0:2:0:0:
307,46,12747,2,0,P|278:53|237:40,2,59.4999981842042,2|2|2,0:2|0:2|0:2,0:0:0:0:
387,5,13450,1,2,0:2:0:0:
459,68,13685,6,0,B|481:105|455:153|455:153|450:201|485:250,1,178.499994552612,2|2,0:2|0:2,0:0:0:0:
476,237,14856,1,2,0:2:0:0:
497,335,15091,1,2,0:2:0:0:
414,365,15325,1,2,3:2:0:0:
402,361,15442,1,2,3:2:0:0:
383,362,15560,6,0,L|337:368,3,42.5,0|0|0|0,1:0|3:0|3:0|3:0,0:0:0:0:
293,302,15991,2,0,L|287:256,3,42.5,0|0|0|0,1:0|3:0|3:0|3:0,0:0:0:0:
353,212,16423,2,0,L|399:206,3,42.5,0|0|0|0,1:0|3:0|3:0|3:0,0:0:0:0:
443,272,16854,2,0,L|449:318,3,42.5,0|0|0|0,1:0|3:0|1:0|3:0,0:0:0:0:
500,213,17286,6,0,B|506:170|493:132|493:132|515:78,1,127.5,6|2,1:2|0:2,0:0:0:0:
506,73,17717,1,8,1:2:0:0:
424,45,17933,2,0,B|329:64|360:-12|261:6,1,170,2|2,0:2|0:2,0:0:0:0:
174,30,18580,1,10,1:2:0:0:
184,121,18796,1,2,0:2:0:0:
251,182,19012,6,0,P|260:235|256:332,1,127.5,2|2,1:2|0:2,0:0:0:0:
255,325,19444,1,8,1:2:0:0:
172,368,19660,2,0,B|122:381|86:349|86:349|45:343|5:376,1,170,2|0,0:2|0:0,0:0:0:0:
0,281,20307,1,8,1:2:0:0:
71,228,20523,1,2,0:1:0:0:
146,290,20739,6,0,P|151:237|165:141,1,127.5,2|2,1:1|0:1,0:0:0:0:
167,147,21170,1,8,1:2:0:0:
223,76,21386,1,2,0:1:0:0:
148,22,21602,2,0,P|98:-2|28:31,1,127.5,2|2,1:1|0:1,0:0:0:0:
20,33,22034,1,8,1:2:0:0:
0,119,22250,1,2,0:1:0:0:
91,76,22465,6,0,P|83:136|76:231,1,127.5,2|2,1:1|0:1,0:0:0:0:
78,219,22897,1,8,1:2:0:0:
4,279,23113,1,2,0:1:0:0:
53,357,23329,2,0,B|105:329|136:338|136:338|191:382|230:341,1,170,2|8,1:1|1:2,0:0:0:0:
194,268,23976,1,0,1:0:0:0:
293,373,24192,6,0,B|294:279|294:279|272:235,1,127.5,6|2,1:2|0:2,0:0:0:0:
270,233,24624,1,8,1:2:0:0:
215,162,24839,2,0,B|263:137|302:152|302:152|281:105|300:62,1,170,2|2,0:2|0:2,0:0:0:0:
209,78,25487,1,10,1:2:0:0:
252,3,25703,1,2,0:2:0:0:
339,7,25919,6,0,L|477:16,1,127.5,2|2,1:2|0:2,0:0:0:0:
483,16,26350,1,8,1:2:0:0:
500,106,26566,2,0,B|455:101|418:123|418:123|442:171|422:218,1,170,2|0,0:2|0:0,0:0:0:0:
469,284,27214,1,8,1:2:0:0:
357,257,27429,1,0,1:0:0:0:
389,373,27645,6,0,L|397:332,3,42.5,2|0|0|2,1:1|3:0|3:0|3:1,0:0:0:0:
357,257,28077,2,0,L|316:271,3,42.5,8|0|2|0,1:2|3:0|3:1|3:0,0:0:0:0:
272,343,28509,2,0,L|304:370,3,42.5,2|0|0|2,1:1|3:0|3:0|3:1,0:0:0:0:
183,356,28940,2,0,L|142:370,3,42.5,8|0|2|0,1:2|3:0|3:1|3:0,0:0:0:0:
216,272,29372,5,2,1:1:0:0:
218,250,29479,1,0,3:0:0:0:
221,229,29587,1,0,3:0:0:0:
224,208,29695,1,0,3:0:0:0:
230,186,29803,2,0,P|252:190|282:179,3,42.5,8|0|0|0,1:2|3:0|3:0|3:0,0:0:0:0:
317,116,30235,2,0,P|309:94|284:74,3,42.5,0|0|0|0,1:2|3:0|3:0|3:0,0:0:0:0:
212,75,30667,2,0,P|197:92|192:123,3,42.5,8|0|0|0,1:2|1:0|1:0|1:0,0:0:0:0:
147,26,31098,6,0,B|109:29|85:12|85:12|42:6|1:38,1,136,4|2,1:1|1:2,0:0:0:0:
70,95,31746,1,2,0:0:0:0:
70,95,31962,1,2,1:2:0:0:
8,154,32178,2,0,P|19:212|25:295,1,136,2|2,0:2|0:2,0:0:0:0:
112,371,32825,5,0,1:0:0:0:
112,371,33041,1,2,0:2:0:0:
116,288,33257,2,0,P|120:220|132:153,1,136,2|0,1:2|1:0,0:0:0:0:
166,78,33904,1,2,0:2:0:0:
166,78,34120,1,2,1:2:0:0:
251,85,34336,1,2,0:2:0:0:
280,169,34552,6,0,B|355:153|331:214|410:200,1,136,2|0,1:2|1:0,0:0:0:0:
451,128,35199,2,0,P|490:180|480:246,1,136,2|2,0:2|0:2,0:0:0:0:
425,314,35847,1,2,1:2:0:0:
483,377,36062,1,2,0:2:0:0:
363,376,36278,6,0,L|222:358,1,136,2|0,1:2|1:0,0:0:0:0:
120,374,36926,1,2,0:2:0:0:
120,374,37142,1,0,1:0:0:0:
171,302,37357,1,2,0:0:0:0:
120,230,37573,1,0,1:0:0:0:
35,258,37789,1,2,0:2:0:0:
35,346,38005,5,2,1:2:0:0:
228,358,38437,2,0,B|262:369|262:369|250:307|274:260,1,136,2|2,1:2|1:2,0:0:0:0:
221,202,39084,2,0,P|281:185|348:238,1,136,2|2,0:2|0:2,0:0:0:0:
361,329,39732,5,0,1:0:0:0:
434,383,39947,1,2,0:2:0:0:
500,323,40163,2,0,P|499:274|509:169,1,136,2|0,1:2|1:0,0:0:0:0:
419,188,40811,1,2,0:2:0:0:
418,101,41027,1,2,1:2:0:0:
505,100,41243,1,2,0:2:0:0:
464,26,41458,6,0,B|376:16|376:16|343:37|337:71,1,136,2|0,1:2|1:0,0:0:0:0:
418,101,42106,1,2,0:2:0:0:
337,140,42321,1,2,1:2:0:0:
263,89,42537,2,0,L|125:83,1,136,2|2,0:2|0:2,0:0:0:0:
18,26,43185,5,0,1:0:0:0:
101,0,43400,1,2,0:2:0:0:
127,83,43616,1,2,1:2:0:0:
44,109,43832,2,0,B|55:149|43:184|43:184|71:204|116:202,1,136,2|2,0:2|0:0,0:0:0:0:
185,159,44480,1,0,1:0:0:0:
262,224,44696,1,0,1:0:0:0:
174,295,44911,6,0,L|185:152,1,114.749996498108,4|0,1:2|0:0,0:0:0:0:
185,159,45343,1,10,1:2:0:0:
95,126,45559,1,2,0:0:0:0:
17,182,45775,1,2,1:2:0:0:
17,182,45991,2,0,P|22:245|19:343,1,152.999995330811,2|2,0:2|0:2,0:0:0:0:
97,379,46638,5,0,1:0:0:0:
97,379,46854,1,2,0:2:0:0:
105,287,47070,2,0,B|146:280|178:301|178:301|197:341|239:351,1,152.999995330811,10|0,1:2|1:0,0:0:0:0:
327,347,47717,2,0,L|321:393,2,38.2499988327027,2|0|10,0:2|3:0|1:2,0:0:0:0:
273,272,48149,1,2,0:2:0:0:
292,178,48365,6,0,B|377:195|349:126|439:142,1,152.999995330811,2|8,1:2|1:2,0:0:0:0:
482,69,49012,2,0,P|516:118|478:212,1,152.999995330811,2|2,0:2|0:2,0:0:0:0:
436,274,49660,1,10,1:2:0:0:
499,334,49875,1,2,0:2:0:0:
426,377,50091,6,0,B|379:381|346:368|346:368|359:329|347:284,1,152.999995330811,2|8,1:2|1:2,0:0:0:0:
277,226,50739,1,2,0:2:0:0:
194,271,50955,1,2,1:1:0:0:
259,336,51170,1,0,3:0:0:0:
263,321,51278,1,2,0:1:0:0:
267,306,51386,1,8,1:2:0:0:
277,226,51602,1,2,0:1:0:0:
349,297,51818,5,0,1:2:0:0:
242,153,52250,2,0,P|204:142|158:162,1,76.4999976654053,10|0,1:2|0:0,0:0:0:0:
101,205,52681,2,0,P|63:216|17:196,1,76.4999976654053,2|2,1:2|0:2,0:0:0:0:
19,198,53005,1,0,3:0:0:0:
11,189,53113,1,8,1:2:0:0:
21,94,53329,1,2,0:2:0:0:
21,94,53544,6,0,P|23:52|11:6,1,76.4999976654053,0|2,1:0|0:2,0:0:0:0:
117,4,53976,2,0,P|114:45|127:92,1,76.4999976654053,10|0,1:2|0:0,0:0:0:0:
130,92,54300,1,0,3:0:0:0:
136,105,54408,1,0,1:0:0:0:
218,62,54624,1,2,0:2:0:0:
289,116,54839,1,10,1:2:0:0:
272,210,55055,1,2,0:2:0:0:
186,236,55271,6,0,B|202:278|194:321|194:321|216:357|276:338,1,152.999995330811,2|8,1:2|1:2,0:0:0:0:
344,337,55919,1,2,0:2:0:0:
342,352,56027,1,0,3:0:0:0:
340,367,56134,1,2,1:2:0:0:
433,384,56350,2,0,L|446:219,1,152.999995330811,2|2,0:2|0:2,0:0:0:0:
451,149,56998,6,0,L|500:152,3,42.5,0|0|2|0,1:0|3:0|3:2|3:0,0:0:0:0:
504,66,57429,2,0,L|507:17,3,42.5,10|0|2|0,1:2|3:0|3:2|3:0,0:0:0:0:
421,13,57861,2,0,L|372:10,3,42.5,0|0|2|0,1:0|3:0|3:2|3:0,0:0:0:0:
368,96,58293,2,0,L|365:145,3,42.5,10|0|2|0,1:2|3:0|1:2|3:0,0:0:0:0:
297,41,58724,6,0,B|256:52|256:52|211:32,1,76.4999976654053,6|0,1:2|0:0,0:0:0:0:
211,152,59156,2,0,B|252:141|252:141|297:161,1,76.4999976654053,2|0,1:2|3:0,0:0:0:0:
135,221,59588,1,2,1:2:0:0:
135,221,59803,2,0,P|132:160|140:63,1,152.999995330811,2|2,0:2|0:2,0:0:0:0:
80,4,60451,1,0,1:0:0:0:
0,48,60667,1,2,0:2:0:0:
42,125,60883,6,0,L|30:284,1,152.999995330811,2|0,1:2|1:0,0:0:0:0:
32,361,61530,2,0,P|17:356|-4:359,2,38.2499988327027,2|0|0,0:2|3:0|1:0,0:0:0:0:
104,317,61962,1,2,0:2:0:0:
240,375,62178,6,0,B|199:384|199:384|161:368,1,76.4999976654053,2|0,1:2|0:0,0:0:0:0:
168,263,62609,2,0,B|209:254|209:254|247:270,1,76.4999976654053,2|0,1:2|3:0,0:0:0:0:
311,325,63041,1,2,1:2:0:0:
390,371,63257,2,0,B|440:376|468:364|468:364|461:321|473:282,1,152.999995330811,2|2,0:2|0:2,0:0:0:0:
478,277,63796,1,0,3:0:0:0:
481,262,63904,6,0,L|471:167,1,76.4999976654053,0|2,1:2|3:2,0:0:0:0:
504,101,64336,1,2,1:2:0:0:
444,34,64552,2,0,P|401:28|290:37,1,152.999995330811,2|2,0:2|0:2,0:0:0:0:
216,81,65199,1,2,1:2:0:0:
289,143,65415,1,2,0:2:0:0:
226,202,65631,6,0,P|234:233|242:288,1,76.4999976654053,6|0,1:2|0:0,0:0:0:0:
361,167,66062,2,0,P|328:158|277:137,1,76.4999976654053,2|0,1:2|3:0,0:0:0:0:
324,301,66494,1,2,1:2:0:0:
324,301,66710,2,0,P|347:276|390:243,1,76.4999976654053,2|0,0:2|1:2,0:0:0:0:
471,262,67142,1,2,0:2:0:0:
479,274,67250,1,0,3:0:0:0:
482,288,67357,6,0,L|489:381,1,76.4999976654053,0|2,1:2|0:2,0:0:0:0:
394,365,67789,1,2,1:2:0:0:
324,301,68005,2,0,P|258:294|161:301,1,152.999995330811,2|2,0:2|0:2,0:0:0:0:
91,355,68652,1,2,1:2:0:0:
11,312,68868,1,2,0:2:0:0:
85,231,69084,6,0,P|86:258|87:296,3,42.5,6|0|2|0,1:2|3:0|3:2|3:0,0:0:0:0:
121,153,69516,2,0,P|97:140|63:122,3,42.5,10|0|2|0,3:2|3:0|3:2|3:0,0:0:0:0:
172,222,69947,2,0,P|196:234|229:252,3,42.5,6|0|2|0,1:2|3:0|3:2|3:0,0:0:0:0:
207,143,70379,2,0,P|229:128|262:108,3,42.5,10|0|2|0,0:2|3:0|3:2|3:0,0:0:0:0:
121,153,70811,5,4,1:2:0:0:
119,131,70918,1,0,3:0:0:0:
117,110,71026,1,0,3:0:0:0:
115,89,71134,1,0,3:0:0:0:
111,65,71242,2,0,L|67:71,3,42.5,8|0|0|0,1:2|3:0|3:0|3:0,0:0:0:0:
191,53,71674,2,0,L|235:47,3,42.5,0|8|0|0,1:2|3:2|1:0|3:0,0:0:0:0:
304,0,72106,5,8,1:2:0:0:
312,19,72213,1,0,3:0:0:0:
315,40,72321,1,0,1:0:0:0:
314,61,72429,1,2,3:2:0:0:
308,81,72537,1,0,3:2:0:0:
503,32,74264,6,0,B|449:33|449:33|426:15|426:15|356:18,1,140.25000428009,6|0,1:2|3:0,0:0:0:0:
350,15,74696,2,0,P|340:63|359:118,1,93.5000028533936,10|0,1:2|0:0,0:0:0:0:
436,133,75127,1,2,1:2:0:0:
370,193,75343,2,0,L|377:245,2,46.7500014266968,2|0|10,0:2|3:0|1:2,0:0:0:0:
281,164,75775,2,0,L|183:160,1,93.5000028533936,2|0,0:2|1:0,0:0:0:0:
71,160,76206,5,2,0:1:0:0:
185,245,76422,1,10,1:1:0:0:
187,160,76638,1,2,0:2:0:0:
70,245,76854,2,0,L|59:341,1,93.5000028533936,2|0,1:1|0:0,0:0:0:0:
61,351,77178,1,2,0:1:0:0:
62,364,77286,1,8,1:2:0:0:
145,323,77501,1,2,0:1:0:0:
154,332,77609,1,0,0:0:0:0:
164,340,77717,6,0,B|268:319|234:402|342:382,1,187.000005706787,2|10,1:2|1:2,0:0:0:0:
388,307,78365,1,2,0:2:0:0:
454,372,78580,1,2,1:2:0:0:
511,310,78796,2,0,L|512:247,2,46.7500014266968,2|0|10,0:2|3:0|1:2,0:0:0:0:
388,307,79228,6,0,L|402:145,1,140.25000428009,2|0,0:2|0:0,0:0:0:0:
403,152,79660,1,2,0:1:0:0:
413,18,79875,1,10,1:1:0:0:
341,80,80091,1,2,0:1:0:0:
475,90,80307,2,0,P|489:137|498:202,1,93.5000028533936,2|0,1:1|0:0,0:0:0:0:
497,194,80631,1,2,0:1:0:0:
497,208,80739,1,8,1:2:0:0:
472,308,80955,1,2,0:1:0:0:
460,316,81062,1,0,3:0:0:0:
446,314,81170,6,0,B|396:303|358:320|358:320|329:371|267:349,1,187.000005706787,6|10,1:2|1:2,0:0:0:0:
189,253,81818,1,2,0:2:0:0:
113,335,82034,1,2,1:2:0:0:
197,383,82250,2,0,L|194:329,2,46.7500014266968,2|0|8,0:2|3:0|1:2,0:0:0:0:
33,384,82681,2,0,L|27:281,1,93.5000028533936,2|0,0:2|1:0,0:0:0:0:
0,195,83113,5,2,0:1:0:0:
106,253,83329,1,10,1:1:0:0:
27,290,83544,1,2,0:1:0:0:
79,158,83760,2,0,B|126:141|126:141|171:157,1,93.5000028533936,2|0,1:1|0:0,0:0:0:0:
178,163,84084,1,2,0:1:0:0:
186,173,84192,1,8,1:2:0:0:
256,236,84408,1,2,0:1:0:0:
270,236,84516,1,0,0:0:0:0:
284,236,84624,6,0,B|336:232|341:185|341:185|308:133|334:79,1,187.000005706787,2|8,1:2|1:2,0:0:0:0:
408,129,85271,1,2,0:2:0:0:
450,51,85487,1,2,1:2:0:0:
372,9,85703,1,2,0:2:0:0:
331,88,85919,2,0,P|286:99|220:73,1,93.5000028533936,8|2,1:2|0:2,0:0:0:0:
186,13,86350,5,0,1:0:0:0:
118,74,86566,1,2,0:1:0:0:
116,87,86674,1,0,3:0:0:0:
115,101,86782,2,0,P|111:135|109:163,2,46.7500014266968,8|0|2,1:2|3:0|0:1,0:0:0:0:
60,11,87214,1,2,1:1:0:0:
186,13,87429,1,0,1:0:0:0:
115,101,87645,1,8,1:2:0:0:
112,122,87752,1,0,3:0:0:0:
110,143,87860,1,2,1:1:0:0:
108,164,87968,1,0,3:0:0:0:
106,185,88077,6,0,B|51:173|3:201|3:201|11:232|6:258,1,140.25000428009,6|0,1:2|3:0,0:0:0:0:
9,248,88509,2,0,P|14:295|15:358,1,93.5000028533936,10|0,1:2|0:0,0:0:0:0:
92,270,88940,1,2,1:2:0:0:
170,351,89156,2,0,P|171:304|176:257,1,93.5000028533936,2|8,0:2|1:2,0:0:0:0:
346,239,89588,2,0,P|304:261|261:280,1,93.5000028533936,2|0,0:2|1:0,0:0:0:0:
141,175,90019,5,2,0:1:0:0:
239,194,90235,1,10,1:1:0:0:
175,257,90451,1,2,0:2:0:0:
205,113,90667,2,0,P|207:64|191:8,1,93.5000028533936,2|0,1:1|0:0,0:0:0:0:
185,12,90991,1,2,0:1:0:0:
171,10,91098,1,8,1:2:0:0:
289,26,91314,1,2,0:1:0:0:
301,20,91422,1,0,0:0:0:0:
314,22,91530,6,0,B|426:9|426:9|465:31|457:83,1,187.000005706787,2|10,1:2|1:2,0:0:0:0:
507,143,92178,1,2,0:2:0:0:
432,192,92393,1,2,1:2:0:0:
359,143,92609,2,0,P|356:123|361:84,2,46.7500014266968,2|0|10,0:2|0:0|1:2,0:0:0:0:
432,192,93041,6,0,L|451:363,1,140.25000428009,2|0,0:2|0:0,0:0:0:0:
448,345,93473,1,2,0:1:0:0:
359,381,93688,1,10,1:1:0:0:
266,344,93904,1,2,0:1:0:0:
344,262,94120,2,0,L|355:360,1,93.5000028533936,2|0,1:1|0:0,0:0:0:0:
356,368,94444,1,2,0:1:0:0:
359,381,94552,1,8,1:2:0:0:
266,344,94768,1,2,0:1:0:0:
263,330,94875,1,0,3:0:0:0:
262,315,94983,6,0,B|261:267|231:227|231:227|230:173|258:137,1,187.000005706787,6|10,1:2|1:2,0:0:0:0:
318,74,95631,1,2,0:2:0:0:
253,12,95847,1,2,1:2:0:0:
191,77,96062,2,0,P|165:83|130:71,2,46.7500014266968,2|0|8,0:2|3:0|1:2,0:0:0:0:
49,16,96494,6,0,P|57:62|57:109,1,93.5000028533936,2|0,0:2|1:0,0:0:0:0:
76,211,96926,1,2,0:1:0:0:
145,79,97142,1,10,1:1:0:0:
57,109,97357,1,2,0:1:0:0:
164,181,97573,2,0,L|155:274,1,93.5000028533936,2|0,1:1|0:0,0:0:0:0:
156,288,97897,1,2,0:1:0:0:
157,301,98005,1,8,1:2:0:0:
82,355,98221,1,2,0:1:0:0:
69,349,98329,1,0,0:0:0:0:
55,344,98437,6,0,B|13:369|13:369|-23:303|15:223,1,187.000005706787,6|8,1:2|1:2,0:0:0:0:
69,168,99084,1,2,0:2:0:0:
118,246,99300,2,0,B|168:261|168:261|216:235,1,93.5000028533936,6|2,1:2|0:2,0:0:0:0:
216,234,99624,1,0,3:0:0:0:
228,227,99731,2,0,P|237:183|218:117,1,93.5000028533936,10|2,1:2|0:0,0:0:0:0:
136,99,100163,5,6,1:2:0:0:
136,99,100379,1,2,0:1:0:0:
0,101,100594,1,10,1:1:0:0:
69,168,100809,1,2,0:1:0:0:
67,32,101026,2,0,P|112:18|172:15,1,93.5000028533936,6|2,1:2|0:0,0:0:0:0:
171,17,101350,1,2,0:0:0:0:
182,25,101458,1,10,1:2:0:0:
277,34,101674,1,2,1:1:0:0:
232,122,101890,6,0,B|250:173|239:223|239:223|272:253|327:235,1,187.000005706787,4|8,1:2|1:2,0:0:0:0:
387,175,102537,1,0,0:0:0:0:
468,221,102753,2,0,L|475:279,2,46.7500014266968,2|2|2,1:2|0:2|0:0,0:0:0:0:
476,209,103077,1,2,0:2:0:0:
484,198,103185,2,0,L|472:100,1,93.5000028533936,10|0,1:2|0:0,0:0:0:0:
424,27,103616,6,0,P|447:32|470:28,3,46.7500014266968,6|0|0|0,1:2|3:0|3:0|3:0,0:0:0:0:
394,130,104048,2,0,P|379:112|372:91,3,46.7500014266968,8|0|0|0,1:2|3:0|3:0|3:0,0:0:0:0:
290,75,104480,2,0,P|274:93|266:115,3,46.7500014266968,0|0|0|0,1:0|3:0|3:0|3:0,0:0:0:0:
211,1,104911,2,0,P|234:-2|257:2,3,46.7500014266968,8|0|0|0,1:2|3:0|1:0|3:0,0:0:0:0:
146,55,105343,6,0,B|109:59|109:59|70:35|70:35|13:38,1,127.5,6|2,1:2|0:2,0:0:0:0:
12,38,105775,1,8,1:2:0:0:
47,117,105991,2,0,P|35:193|26:296,1,170,2|2,0:2|0:2,0:0:0:0:
11,368,106638,1,10,1:2:0:0:
94,383,106854,1,2,0:2:0:0:
109,300,107070,6,0,P|116:215|130:136,1,127.5,2|2,1:2|0:2,0:0:0:0:
128,161,107501,1,8,1:2:0:0:
196,96,107717,2,0,B|241:99|264:52|264:52|306:32|359:40,1,170,2|0,0:2|3:0,0:0:0:0:
431,9,108365,1,8,1:2:0:0:
506,65,108580,1,2,0:1:0:0:
470,149,108796,6,0,L|327:139,1,127.5,2|2,1:1|0:1,0:0:0:0:
329,140,109228,1,8,1:2:0:0:
258,193,109444,1,2,0:1:0:0:
309,264,109660,2,0,L|452:254,1,127.5,2|2,1:1|0:1,0:0:0:0:
448,256,110091,1,8,1:2:0:0:
512,320,110307,1,2,0:1:0:0:
431,360,110523,6,0,B|381:361|381:361|360:373|360:373|287:365,1,127.5,2|2,1:1|0:1,0:0:0:0:
294,363,110955,1,8,1:2:0:0:
215,319,111170,1,2,0:1:0:0:
147,370,111386,2,0,P|129:323|205:236,1,170,2|8,1:1|1:2,0:0:0:0:
278,255,112034,1,0,0:0:0:0:
219,159,112250,6,0,B|204:115|215:57|215:57|177:29,1,127.5,6|2,1:2|0:2,0:0:0:0:
185,34,112681,1,8,1:2:0:0:
97,24,112897,2,0,B|57:37|17:21|17:21|-10:68|15:119,1,170,2|2,0:2|0:2,0:0:0:0:
86,156,113544,1,10,1:2:0:0:
23,221,113760,1,2,0:2:0:0:
73,296,113976,6,0,P|124:278|192:310,1,127.5,2|2,1:2|0:2,0:0:0:0:
195,316,114408,1,8,1:2:0:0:
263,368,114624,2,0,B|355:386|325:312|422:330,1,170,2|0,0:2|3:0,0:0:0:0:
500,367,115271,1,8,1:2:0:0:
500,367,115487,1,0,0:0:0:0:
481,272,115703,6,0,P|479:250|483:225,3,42.5,6|0|0|2,1:1|3:0|3:0|3:1,0:0:0:0:
424,165,116134,2,0,P|403:163|382:165,3,42.5,8|0|2|0,1:2|3:0|3:1|3:0,0:0:0:0:
319,222,116566,2,0,P|317:243|319:265,3,42.5,6|0|0|2,1:1|3:0|3:0|3:1,0:0:0:0:
376,328,116998,2,0,P|397:330|419:329,3,42.5,8|0|2|0,1:2|3:0|3:1|3:0,0:0:0:0:
400,246,117429,6,2,B|514:163|510:14|362:-109|243:41|326:114,1,475.999985473633,6|8,1:2|0:0,0:1:0:0:
