osu file format v14

[General]
AudioFilename: audio.mp3
AudioLeadIn: 0
PreviewTime: 74048
Countdown: 0
SampleSet: Soft
StackLeniency: 0.7
Mode: 0
LetterboxInBreaks: 0
WidescreenStoryboard: 0

[Editor]
Bookmarks: 560,8060,15560,17286,24192,27645,31098,34552,44911,56998,58724,62178,69084,70811,72537,74264,88077,103616,105343,115703,117429,119156
DistanceSpacing: 0.9
BeatDivisor: 4
GridSize: 32
TimelineZoom: 1

[Metadata]
Title:precious time (Short Ver.)
TitleUnicode:precious time (Short Ver.)
Artist:fripSide
ArtistUnicode:fripSide
Creator:tomatas95
Version:Easy
Source:花咲ワークスプリング!
Tags:Hanasaki Work Spring! saga planets eroge ending ed galgame video game syph shirahane suou aeril -atri- kurantemelodii krt firis mistlud saturnalize 南條愛乃 nanjou yoshino m@o 八木沼悟志 Satoshi Yaginuma Kai Kawasaki japanese jpop j-pop pop
BeatmapID:3589632
BeatmapSetID:1723218

[Difficulty]
HPDrainRate:2
CircleSize:2.5
OverallDifficulty:2
ApproachRate:3
SliderMultiplier:1
SliderTickRate:1

[Events]
//Background and Video events
Video,-540,"ErogeDaisukiDesu.mp4"
0,0,"AllGirlsAreWifes.jpg",0,0
//Break Periods
//Storyboard Layer 0 (Background)
//Storyboard Layer 1 (Fail)
//Storyboard Layer 2 (Pass)
//Storyboard Layer 3 (Foreground)
//Storyboard Layer 4 (Overlay)
//Storyboard Sound Samples

[TimingPoints]
560,468.750000000001,4,2,54,50,1,0
560,-100,4,2,54,50,0,0
677,-100,4,2,53,50,0,0
1263,-100,4,2,53,45,0,0
2435,-100,4,2,53,50,0,0
3606,-100,4,2,53,45,0,0
4310,-100,4,2,53,50,0,0
4778,-100,4,2,53,45,0,0
6185,-100,4,2,53,50,0,0
7356,-100,4,2,53,45,0,0
8060,-100,4,2,54,50,0,0
8177,-100,4,2,53,50,0,0
8763,-100,4,2,53,45,0,0
9935,-100,4,2,53,50,0,0
11106,-100,4,2,53,45,0,0
11810,-100,4,2,53,50,0,0
12278,-100,4,2,53,45,0,0
13685,-100,4,2,53,50,0,0
14153,-100,4,2,53,45,0,0
15560,431.654676258993,4,2,53,70,1,0
15560,-100,4,2,53,70,0,0
15775,-100,4,2,53,45,0,0
15991,-100,4,2,53,50,0,0
16207,-100,4,2,53,55,0,0
16423,-100,4,2,53,60,0,0
16639,-100,4,2,53,65,0,0
16854,-100,4,2,53,70,0,0
17070,-100,4,2,53,75,0,0
17286,431.654676258993,4,2,54,80,1,0
17286,-100,4,2,54,80,0,0
17393,-100,4,2,53,80,0,0
18257,-100,4,2,1,80,0,0
18365,-100,4,2,53,80,0,0
18688,-100,4,2,1,80,0,0
18796,-100,4,2,53,80,0,0
18904,-100,4,2,1,80,0,0
19012,-100,4,2,53,80,0,0
19983,-100,4,2,1,80,0,0
20307,-100,4,2,53,80,0,0
20631,-100,4,2,1,80,0,0
20739,-100,4,2,53,80,0,0
20847,-100,4,2,1,80,0,0
21062,-100,4,2,53,80,0,0
21710,-100,4,2,1,80,0,0
21926,-100,4,2,53,80,0,0
22573,-100,4,2,1,80,0,0
22789,-100,4,2,53,80,0,0
23437,-100,4,2,1,80,0,0
23760,-100,4,2,53,80,0,0
24192,-100,4,2,54,80,0,0
24300,-100,4,2,53,80,0,0
25163,-100,4,2,1,80,0,0
25271,-100,4,2,53,80,0,0
25595,-100,4,2,1,80,0,0
25703,-100,4,2,53,80,0,0
25811,-100,4,2,1,80,0,0
25919,-100,4,2,53,80,0,0
26890,-100,4,2,1,80,0,0
27214,-100,4,2,53,60,0,0
27861,-100,4,2,53,65,0,0
28077,-100,4,2,53,70,0,0
28293,-100,4,2,53,75,0,0
28509,-100,4,2,53,60,0,0
28724,-100,4,2,53,65,0,0
28940,-100,4,2,53,70,0,0
29156,-100,4,2,53,75,0,0
29372,-100,4,2,53,60,0,0
29588,-100,4,2,53,65,0,0
29803,-100,4,2,53,70,0,0
30019,-100,4,2,53,75,0,0
30235,-100,4,2,53,60,0,0
30451,-100,4,2,53,70,0,0
30667,-100,4,2,53,75,0,0
30883,-100,4,2,53,80,0,0
31098,-100,4,2,53,80,0,0
31206,-100,4,2,53,60,0,0
32178,-100,4,2,53,50,0,0
32393,-100,4,2,53,55,0,0
32609,-100,4,2,53,60,0,0
32825,-100,4,2,53,65,0,0
33041,-100,4,2,53,60,0,0
33904,-100,4,2,53,50,0,0
34120,-100,4,2,53,55,0,0
34336,-100,4,2,53,60,0,0
34552,-100,4,2,53,65,0,0
34983,-100,4,2,53,60,0,0
35415,-100,4,2,53,50,0,0
35630,-100,4,2,53,55,0,0
35846,-100,4,2,53,60,0,0
36062,-100,4,2,53,65,0,0
36278,-100,4,2,53,70,0,0
36710,-100,4,2,53,60,0,0
37141,-100,4,2,53,50,0,0
37357,-100,4,2,53,55,0,0
37573,-100,4,2,53,60,0,0
37789,-100,4,2,53,65,0,0
38005,-100,4,2,53,70,0,0
38437,-100,4,2,53,60,0,0
39084,-100,4,2,53,50,0,0
39299,-100,4,2,53,55,0,0
39515,-100,4,2,53,60,0,0
39731,-100,4,2,53,65,0,0
39947,-100,4,2,53,60,0,0
40810,-100,4,2,53,50,0,0
41026,-100,4,2,53,55,0,0
41242,-100,4,2,53,60,0,0
41458,-100,4,2,53,65,0,0
41890,-100,4,2,53,60,0,0
42321,-100,4,2,53,50,0,0
42536,-100,4,2,53,55,0,0
42752,-100,4,2,53,60,0,0
42968,-100,4,2,53,65,0,0
43184,-100,4,2,53,70,0,0
43401,-100,4,2,53,60,0,0
44047,-100,4,2,53,50,0,0
44263,-100,4,2,53,55,0,0
44479,-100,4,2,53,60,0,0
44695,-100,4,2,53,65,0,0
44911,-100,4,2,53,70,0,0
45667,-100,4,2,1,70,0,0
45775,-100,4,2,53,70,0,0
46098,-100,4,2,1,70,0,0
46206,-100,4,2,53,70,0,0
46530,-100,4,2,1,70,0,0
46638,-100,4,2,53,70,0,0
47393,-100,4,2,1,70,0,0
47501,-100,4,2,53,70,0,0
47825,-100,4,2,1,70,0,0
47933,-100,4,2,53,70,0,0
48257,-100,4,2,1,70,0,0
48365,-100,4,2,53,70,0,0
49120,-100,4,2,1,70,0,0
49228,-100,4,2,53,70,0,0
49444,-100,4,2,53,60,0,0
49552,-100,4,2,1,70,0,0
49660,-100,4,2,53,65,0,0
49768,-100,4,2,1,70,0,0
49875,-100,4,2,53,70,0,0
49983,-100,4,2,1,70,0,0
50091,-100,4,2,53,75,0,0
50307,-100,4,2,53,70,0,0
50847,-100,4,2,1,70,0,0
50954,-100,4,2,53,70,0,0
51170,-100,4,2,1,70,0,0
51277,-100,4,2,53,70,0,0
52573,-100,4,2,1,70,0,0
52680,-100,4,2,53,70,0,0
53005,-100,4,2,1,70,0,0
53112,-100,4,2,53,70,0,0
53437,-100,4,2,1,70,0,0
53544,-100,4,2,53,70,0,0
54300,-100,4,2,1,70,0,0
54407,-100,4,2,53,70,0,0
54732,-100,4,2,1,70,0,0
54839,-100,4,2,53,70,0,0
55163,-100,4,2,1,70,0,0
55270,-100,4,2,53,70,0,0
56027,-100,4,2,1,70,0,0
56134,-100,4,2,53,50,0,0
56998,-100,4,2,53,50,0,0
57214,-100,4,2,53,55,0,0
57429,-100,4,2,53,60,0,0
57645,-100,4,2,53,65,0,0
57861,-100,4,2,53,70,0,0
58077,-100,4,2,53,75,0,0
58509,-100,4,2,53,80,0,0
58724,-100,4,2,53,80,0,0
59156,-100,4,2,53,60,0,0
59264,-100,4,2,1,60,0,0
59372,-100,4,2,1,65,0,0
59588,-100,4,2,53,70,0,0
59803,-100,4,2,53,60,0,0
59911,-100,4,2,1,60,0,0
60019,-100,4,2,53,65,0,0
60127,-100,4,2,1,60,0,0
60235,-100,4,2,53,70,0,0
60451,-100,4,2,53,75,0,0
60667,-100,4,2,53,60,0,0
60775,-100,4,2,1,60,0,0
60883,-100,4,2,53,60,0,0
61098,-100,4,2,1,60,0,0
61314,-100,4,2,53,60,0,0
61638,-100,4,2,1,60,0,0
61746,-100,4,2,53,60,0,0
62717,-100,4,2,1,60,0,0
62825,-100,4,2,1,65,0,0
63041,-100,4,2,53,70,0,0
63149,-100,4,2,1,60,0,0
63257,-100,4,2,53,75,0,0
63473,-100,4,2,53,60,0,0
63580,-100,4,2,1,60,0,0
63688,-100,4,2,53,65,0,0
63796,-100,4,2,1,60,0,0
63904,-100,4,2,53,70,0,0
64120,-100,4,2,53,60,0,0
64875,-100,4,2,1,60,0,0
64983,-100,4,2,53,60,0,0
66170,-100,4,2,1,60,0,0
66278,-100,4,2,1,65,0,0
66494,-100,4,2,53,70,0,0
66710,-100,4,2,53,60,0,0
66818,-100,4,2,1,60,0,0
66926,-100,4,2,53,65,0,0
67034,-100,4,2,1,60,0,0
67142,-100,4,2,53,75,0,0
67250,-100,4,2,1,60,0,0
67358,-100,4,2,53,75,0,0
67573,-100,4,2,53,60,0,0
68544,-100,4,2,1,60,0,0
68652,-100,4,2,53,60,0,0
69084,-100,4,2,53,75,0,0
69192,-100,4,2,53,55,0,0
69516,-100,4,2,53,60,0,0
69732,-100,4,2,53,65,0,0
69947,-100,4,2,53,75,0,0
70163,-100,4,2,53,55,0,0
70379,-100,4,2,53,60,0,0
70595,-100,4,2,53,65,0,0
70811,-100,4,2,53,75,0,0
71027,-100,4,2,53,55,0,0
71242,-100,4,2,53,60,0,0
71458,-100,4,2,53,65,0,0
71674,-100,4,2,53,70,0,0
71890,-100,4,2,53,75,0,0
72106,-100,4,2,53,80,0,0
72537,-100,4,2,53,55,0,0
72969,-100,4,2,53,60,0,0
73616,-100,4,2,53,65,0,0
73832,-100,4,2,53,70,0,0
74048,-100,4,2,53,75,0,0
74264,431.654676258993,4,2,54,80,1,0
74264,-100,4,2,54,90,0,1
74372,-100,4,2,53,90,0,1
74588,-100,4,2,1,75,0,1
74696,-100,4,2,53,90,0,1
75019,-100,4,2,1,75,0,1
75127,-100,4,2,53,90,0,1
75451,-100,4,2,1,75,0,1
75559,-100,4,2,53,90,0,1
75883,-100,4,2,1,75,0,1
75991,-100,4,2,53,90,0,1
78041,-100,4,2,1,75,0,1
78149,-100,4,2,53,90,0,1
78473,-100,4,2,1,75,0,1
78581,-100,4,2,53,90,0,1
79336,-100,4,2,1,75,0,1
79444,-100,4,2,53,90,0,1
80847,-100,4,2,1,75,0,1
80955,-100,4,2,53,90,0,1
81062,-100,4,2,1,75,0,1
81170,-100,4,2,54,90,0,1
81278,-100,4,2,53,90,0,1
81494,-100,4,2,1,75,0,1
81602,-100,4,2,53,90,0,1
81926,-100,4,2,1,75,0,1
82034,-100,4,2,53,90,0,1
82357,-100,4,2,1,75,0,1
82465,-100,4,2,53,90,0,1
82789,-100,4,2,1,75,0,1
82897,-100,4,2,53,90,0,1
84947,-100,4,2,1,75,0,1
85055,-100,4,2,53,90,0,1
85811,-100,4,2,1,75,0,1
85919,-100,4,2,53,90,0,1
86674,-100,4,2,1,75,0,1
86782,-100,4,2,53,90,0,1
86890,-100,4,2,1,75,0,1
86998,-100,4,2,53,90,0,1
87213,-100,4,2,53,90,0,0
88076,-100,4,2,54,90,0,1
88185,-100,4,2,53,90,0,1
88401,-100,4,2,1,75,0,1
88509,-100,4,2,53,90,0,1
88832,-100,4,2,1,75,0,1
88940,-100,4,2,53,90,0,1
89264,-100,4,2,1,75,0,1
89372,-100,4,2,53,90,0,1
89696,-100,4,2,1,75,0,1
89804,-100,4,2,53,90,0,1
91854,-100,4,2,1,75,0,1
91962,-100,4,2,53,90,0,1
92286,-100,4,2,1,75,0,1
92394,-100,4,2,53,90,0,1
93149,-100,4,2,1,75,0,1
93257,-100,4,2,53,90,0,1
94660,-100,4,2,1,75,0,1
94768,-100,4,2,53,90,0,1
94875,-100,4,2,1,75,0,1
94983,-100,4,2,54,90,0,1
95091,-100,4,2,53,90,0,1
95307,-100,4,2,1,75,0,1
95415,-100,4,2,53,90,0,1
96170,-100,4,2,1,75,0,1
96278,-100,4,2,53,90,0,1
96602,-100,4,2,1,75,0,1
96710,-100,4,2,53,90,0,1
98760,-100,4,2,1,75,0,1
98868,-100,4,2,53,90,0,1
99624,-100,4,2,1,75,0,1
99732,-100,4,2,53,90,0,1
100055,-100,4,2,1,75,0,1
100163,-100,4,2,53,90,0,1
103832,-100,4,2,53,45,0,1
104048,-100,4,2,53,50,0,1
104264,-100,4,2,53,55,0,1
104480,-100,4,2,53,60,0,1
104696,-100,4,2,53,65,0,1
104911,-100,4,2,53,70,0,1
105127,-100,4,2,53,75,0,1
105343,-100,4,2,54,90,0,0
105451,-100,4,2,53,80,0,0
106314,-100,4,2,1,80,0,0
106422,-100,4,2,53,80,0,0
106745,-100,4,2,1,80,0,0
106853,-100,4,2,53,80,0,0
106961,-100,4,2,1,80,0,0
107069,-100,4,2,53,80,0,0
108040,-100,4,2,1,80,0,0
108364,-100,4,2,53,80,0,0
108688,-100,4,2,1,80,0,0
108796,-100,4,2,53,80,0,0
108904,-100,4,2,1,80,0,0
109119,-100,4,2,53,80,0,0
109767,-100,4,2,1,80,0,0
109983,-100,4,2,53,80,0,0
110630,-100,4,2,1,80,0,0
110846,-100,4,2,53,80,0,0
111494,-100,4,2,1,80,0,0
111817,-100,4,2,53,80,0,0
112250,-100,4,2,54,80,0,0
112357,-100,4,2,53,80,0,0
112573,-100,4,2,53,80,0,0
113221,-100,4,2,1,80,0,0
113329,-100,4,2,53,80,0,0
113652,-100,4,2,1,80,0,0
113760,-100,4,2,53,80,0,0
113868,-100,4,2,1,80,0,0
113976,-100,4,2,53,80,0,0
114947,-100,4,2,1,80,0,0
115271,-100,4,2,53,80,0,0
115811,-100,4,2,53,65,0,0
116134,-100,4,2,53,70,0,0
116350,-100,4,2,53,75,0,0
116566,-100,4,2,53,80,0,0
116674,-100,4,2,53,65,0,0
116998,-100,4,2,53,70,0,0
117214,-100,4,2,53,75,0,0
117429,-100,4,2,53,80,0,0
117537,-100,4,2,53,45,0,0
119156,-100,4,2,53,5,0,0

[Colours]
Combo1 : 252,152,250
Combo2 : 241,232,107
Combo3 : 111,188,251
Combo4 : 237,107,84

[HitObjects]
0,31,560,6,0,B|40:23|71:35|71:35|94:63|94:63|137:91|186:51,1,200,6|2,1:2|0:2,0:0:0:0:
259,14,1966,1,2,0:2:0:0:
322,76,2435,2,0,P|312:131|306:236,1,150,2|2,0:2|0:2,0:0:0:0:
491,351,4310,6,0,B|462:362|462:362|409:327|433:268|433:268|469:248|480:210,1,200,2|2,0:2|0:2,0:0:0:0:
511,143,5716,1,2,0:2:0:0:
505,54,6185,2,0,L|344:43,1,150,2|2,0:2|0:2,0:0:0:0:
131,17,8060,6,0,B|165:39|210:13|210:13|261:48|235:129,1,200,6|2,1:2|0:2,0:0:0:0:
306,176,9466,1,2,0:2:0:0:
275,260,9935,2,0,B|262:311|268:365|268:365|213:351,1,150,2|2,0:2|0:2,0:0:0:0:
114,277,11341,1,2,0:2:0:0:
57,346,11810,6,0,B|20:370|20:370|-30:305|17:201,1,200,2|2,0:2|0:2,0:0:0:0:
85,174,13216,1,2,0:2:0:0:
18,112,13685,2,0,B|25:70|9:36|9:36|33:5|89:10,1,150,2|2,0:2|0:2,0:0:0:0:
162,17,14856,1,2,0:2:0:0:
278,106,15560,6,0,B|324:167|324:231|250:282|250:282|199:242|216:201,1,300,0|0,1:0|1:0,0:0:0:0:
137,157,17286,6,0,B|127:112|127:112|140:73|140:73|128:4,2,150,6|2|10,1:2|0:2|1:2,0:0:0:0:
70,212,19012,2,0,B|80:257|80:257|67:296|67:296|79:365,2,150,2|2|8,1:2|0:2|1:2,0:0:0:0:
2,157,20739,5,2,1:1:0:0:
4,67,21170,1,8,1:2:0:0:
82,22,21602,2,0,L|184:11,1,100,2|8,1:1|1:2,0:0:0:0:
255,61,22465,2,0,L|357:50,1,100,2|8,1:1|1:2,0:0:0:0:
440,23,23329,1,2,1:1:0:0:
483,101,23760,1,8,1:2:0:0:
472,190,24192,6,0,P|483:262|488:345,2,150,6|2|10,1:2|0:2|1:2,0:0:0:0:
381,195,25919,2,0,P|369:267|365:350,2,150,2|2|8,1:2|0:2|1:2,0:0:0:0:
418,113,27645,5,2,1:1:0:0:
330,92,28077,1,8,1:2:0:0:
267,157,28509,2,0,P|273:206|274:273,1,100,2|8,1:1|1:2,0:0:0:0:
228,334,29372,2,0,B|197:307|197:307|156:310|110:344|110:344|63:348|11:324|11:324|21:287|70:273,1,300,2|8,1:1|1:2,0:0:0:0:
111,213,31098,5,4,1:1:0:0:
73,131,31530,2,0,B|38:121|9:135|9:135|-17:98|6:46,2,150,2|2|0,1:2|0:2|1:0,0:0:0:0:
140,70,33257,1,2,1:2:0:0:
209,235,34120,1,2,1:2:0:0:
227,323,34552,6,0,B|187:336|153:309|153:309|126:295|82:320,2,150,2|2|2,1:2|0:0|1:2,0:0:0:0:
280,250,36278,2,0,B|318:269|316:332|316:332|342:360|373:357|373:357|403:347|426:330,1,200,2|0,1:2|1:0,0:0:0:0:
496,317,37573,1,0,1:0:0:0:
441,244,38005,5,2,1:2:0:0:
493,170,38437,2,0,P|492:130|515:15,2,150,2|2|0,1:2|0:2|1:0,0:0:0:0:
441,244,40163,1,2,1:2:0:0:
384,72,41027,1,2,1:2:0:0:
295,84,41458,6,0,B|185:107|221:17|107:38,1,200,2|2,1:2|1:2,0:0:0:0:
20,42,42753,1,2,1:2:0:0:
17,132,43185,2,0,P|24:200|19:304,2,150,0|2|0,1:0|0:2|1:0,0:0:0:0:
20,42,44911,5,4,1:2:0:0:
107,49,45343,2,0,P|177:19|247:63,2,150,10|2|0,1:2|0:2|1:0,0:0:0:0:
173,109,47070,2,0,L|183:222,1,100,10|0,1:2|1:0,0:0:0:0:
213,293,47933,1,10,1:2:0:0:
151,358,48365,6,0,B|114:353|81:333|81:333|47:357|-5:361,2,150,2|2|10,1:2|0:2|1:2,0:0:0:0:
239,373,50091,2,0,L|448:354,1,200,2|2,1:2|1:1,0:0:0:0:
485,278,51386,1,8,1:2:0:0:
434,203,51818,1,0,1:2:0:0:
350,236,52250,6,0,B|314:251|273:237|273:237|278:190|257:155,2,150,10|2|0,1:2|0:2|1:0,0:0:0:0:
434,203,53976,1,10,1:2:0:0:
497,34,54839,1,10,1:2:0:0:
408,16,55271,6,0,B|308:10|308:10|243:31|253:94,1,200,2|2,1:2|1:2,0:0:0:0:
317,143,56566,1,8,1:2:0:0:
298,231,56998,2,0,P|291:278|291:342,1,100,0|10,1:0|1:2,0:0:0:0:
200,326,57861,2,0,P|199:276|192:226,1,100,0|10,1:0|1:2,0:0:0:0:
177,137,58724,5,6,1:2:0:0:
104,83,59156,2,0,B|68:68|29:90|29:90|0:60|13:22,2,150,2|0|2,1:2|0:0|1:2,0:0:0:0:
77,169,60883,2,0,P|91:248|104:371,1,200,2|2,1:2|1:2,0:0:0:0:
193,372,62178,5,2,1:2:0:0:
244,298,62609,2,0,B|285:319|318:300|318:300|335:266|316:209,1,150,2|2,1:2|0:2,0:0:0:0:
324,139,63688,2,0,L|430:130,1,100,2|2,0:2|3:2,0:0:0:0:
498,181,64552,2,0,P|490:231|481:348,1,150,2|2,0:2|1:2,0:0:0:0:
405,378,65631,5,6,1:2:0:0:
331,326,66062,2,0,P|325:251|314:177,1,150,2|2,1:2|0:2,0:0:0:0:
224,164,67142,2,0,P|238:264|246:365,1,200,2|2,0:0|0:2,0:0:0:0:
110,364,68652,1,2,1:2:0:0:
19,363,69084,6,0,B|-1:317|-1:317|25:254,1,100,6|10,1:2|3:2,0:0:0:0:
76,202,69947,2,0,B|96:156|96:156|62:95,1,100,6|10,1:2|0:2,0:0:0:0:
27,34,70811,2,0,B|133:-6|113:88|216:46,1,200,6|0,1:2|1:2,0:0:0:0:
296,4,72106,1,8,1:2:0:0:
331,86,72537,1,0,3:2:0:0:
456,372,74264,6,0,L|443:265,1,100,6|10,1:2|1:2,0:0:0:0:
454,183,75127,2,0,B|409:177|378:210|378:210|337:214|301:195,2,150,2|2|2,1:2|0:2|1:1,0:0:0:0:
510,112,76854,1,2,1:1:0:0:
469,31,77286,1,8,1:2:0:0:
385,62,77717,6,0,B|335:75|335:75|277:56,1,100,2|10,1:2|1:2,0:0:0:0:
200,36,78580,2,0,L|46:26,2,150,2|2|10,1:2|0:2|1:1,0:0:0:0:
288,58,80307,1,2,1:1:0:0:
309,145,80739,1,8,1:2:0:0:
245,211,81170,6,0,B|199:205|199:205|181:214|181:214|125:210,1,100,6|10,1:2|1:2,0:0:0:0:
60,189,82034,2,0,B|55:133|61:89|61:89|33:48,2,150,2|2|10,1:2|0:2|1:1,0:0:0:0:
14,266,83760,1,2,1:1:0:0:
48,348,84192,1,8,1:2:0:0:
132,316,84624,6,0,P|177:304|232:322,1,100,2|8,1:2|1:2,0:0:0:0:
313,342,85487,2,0,B|325:296|293:258|293:258|290:212|323:186,2,150,2|2|8,1:2|0:2|1:2,0:0:0:0:
396,375,87214,1,2,1:1:0:0:
482,349,87645,1,8,1:2:0:0:
448,265,88077,6,0,L|436:154,1,100,6|10,1:2|1:2,0:0:0:0:
385,92,88940,2,0,B|422:70|460:78|460:78|447:41|475:7,2,150,2|2|10,1:2|0:2|1:1,0:0:0:0:
324,25,90667,1,2,1:1:0:0:
235,40,91098,1,8,1:2:0:0:
256,127,91530,6,0,B|247:163|247:163|250:185|250:185|238:239,1,100,2|10,1:2|1:2,0:0:0:0:
269,310,92393,2,0,B|314:308|338:348|338:348|384:361|418:340,2,150,2|2|10,1:2|0:2|1:1,0:0:0:0:
194,360,94120,1,2,1:1:0:0:
112,322,94552,1,8,1:2:0:0:
29,358,94983,6,0,L|21:245,1,100,6|10,1:2|1:2,0:0:0:0:
20,167,95847,2,0,B|64:162|94:205|94:205|137:215|165:185,2,150,2|2|10,1:2|0:2|1:1,0:0:0:0:
1,78,97573,1,2,1:1:0:0:
58,9,98005,1,8,1:2:0:0:
126,67,98437,6,0,B|175:81|175:81|228:58,1,100,6|8,1:2|1:2,0:0:0:0:
309,50,99300,2,0,P|301:122|298:200,2,150,6|2|10,1:2|0:2|1:1,0:0:0:0:
384,0,101027,1,6,1:1:0:0:
470,22,101458,1,8,1:2:0:0:
502,106,101890,6,0,B|482:143|490:188|490:188|456:215|417:197|417:197|394:146,1,200,4|2,1:2|1:2,0:0:0:0:
350,92,103185,1,10,1:2:0:0:
265,122,103616,2,0,B|198:57|102:76|38:187|150:246|189:183,1,300,6|8,1:2|1:2,0:0:0:0:
246,255,105343,6,0,B|263:306|258:359|258:359|288:342|316:347,2,150,6|2|10,1:2|0:2|1:2,0:0:0:0:
324,210,107070,2,0,B|307:159|312:106|312:106|282:123|254:118,2,150,2|2|8,1:2|0:2|1:2,0:0:0:0:
338,298,108796,5,2,1:1:0:0:
418,338,109228,1,8,1:2:0:0:
487,281,109660,2,0,P|483:231|496:169,1,100,2|8,1:1|1:2,0:0:0:0:
421,126,110523,2,0,P|424:76|411:14,1,100,2|8,1:1|1:2,0:0:0:0:
327,10,111386,1,2,1:1:0:0:
241,37,111818,1,8,1:2:0:0:
256,125,112250,6,0,B|166:144|196:70|102:88,2,150,6|2|10,1:2|0:2|1:2,0:0:0:0:
346,128,113976,2,0,B|436:147|406:73|500:91,2,150,2|2|8,1:2|0:2|1:2,0:0:0:0:
303,207,115703,5,6,1:1:0:0:
353,281,116134,1,8,1:2:0:0:
292,347,116566,2,0,L|187:357,1,100,6|8,1:1|1:2,0:0:0:0:
102,366,117429,2,0,B|80:281|134:205|134:205|151:133|98:94|98:94|44:118|38:175,1,400,6|0,1:2|0:0,0:0:0:0:
