osu file format v14

[General]
AudioFilename: audio.mp3
AudioLeadIn: 0
PreviewTime: 74048
Countdown: 0
SampleSet: Soft
StackLeniency: 0.7
Mode: 0
LetterboxInBreaks: 0
WidescreenStoryboard: 1

[Editor]
Bookmarks: 560,8060,15560,17286,24192,27645,31098,34552,44911,56998,58724,62178,69084,70811,72537,74264,88077,93580,103616,105343,115703,117429,119156
DistanceSpacing: 0.2
BeatDivisor: 4
GridSize: 4
TimelineZoom: 1.2

[Metadata]
Title:precious time (Short Ver.)
TitleUnicode:precious time (Short Ver.)
Artist:fripSide
ArtistUnicode:fripSide
Creator:tomatas95
Version:Atri's Expert
Source:花咲ワークスプリング!
Tags:Hanasaki Work Spring! saga planets eroge ending ed galgame video game syph shirahane suou aeril -atri- kurantemelodii krt firis mistlud saturnalize 南條愛乃 nanjou yoshino m@o 八木沼悟志 Satoshi Yaginuma Kai Kawasaki japanese jpop j-pop pop
BeatmapID:3589631
BeatmapSetID:1723218

[Difficulty]
HPDrainRate:6
CircleSize:5.2
OverallDifficulty:8.4
ApproachRate:9.2
SliderMultiplier:2
SliderTickRate:1

[Events]
//Background and Video events
Video,-540,"ErogeDaisukiDesu.mp4"
0,0,"AyanoKawaii.jpg",0,0
//Break Periods
//Storyboard Layer 0 (Background)
//Storyboard Layer 1 (Fail)
//Storyboard Layer 2 (Pass)
//Storyboard Layer 3 (Foreground)
//Storyboard Layer 4 (Overlay)
//Storyboard Sound Samples

[TimingPoints]
560,468.750000000001,4,2,54,50,1,0
560,-133.333333333333,4,2,54,50,0,0
677,-133.333333333333,4,2,53,50,0,0
1263,-133.333333333333,4,2,53,45,0,0
2435,-133.333333333333,4,2,53,50,0,0
3606,-133.333333333333,4,2,53,45,0,0
4310,-133.333333333333,4,2,53,50,0,0
4778,-133.333333333333,4,2,53,45,0,0
6185,-133.333333333333,4,2,53,50,0,0
7356,-133.333333333333,4,2,53,45,0,0
8060,-133.333333333333,4,2,54,50,0,0
8177,-133.333333333333,4,2,53,50,0,0
8763,-133.333333333333,4,2,53,45,0,0
9935,-133.333333333333,4,2,53,50,0,0
11106,-133.333333333333,4,2,53,45,0,0
11810,-133.333333333333,4,2,53,50,0,0
12278,-133.333333333333,4,2,53,45,0,0
13685,-133.333333333333,4,2,53,50,0,0
14153,-133.333333333333,4,2,53,45,0,0
15560,431.654676258993,4,2,53,70,1,0
15775,-100,4,2,53,45,0,0
15991,-100,4,2,53,50,0,0
16207,-100,4,2,53,55,0,0
16423,-100,4,2,53,60,0,0
16639,-100,4,2,53,65,0,0
16854,-100,4,2,53,70,0,0
17070,-100,4,2,53,75,0,0
17286,431.654676258993,4,2,54,80,1,0
17286,-76.9230769230769,4,2,54,80,0,0
17393,-76.9230769230769,4,2,53,80,0,0
18257,-76.9230769230769,4,2,1,80,0,0
18365,-76.9230769230769,4,2,53,80,0,0
18688,-76.9230769230769,4,2,1,80,0,0
18796,-76.9230769230769,4,2,53,80,0,0
18904,-76.9230769230769,4,2,1,80,0,0
19012,-76.9230769230769,4,2,53,80,0,0
19983,-76.9230769230769,4,2,1,80,0,0
20307,-76.9230769230769,4,2,53,80,0,0
20523,-100,4,2,53,80,0,0
20631,-100,4,2,1,80,0,0
20739,-66.6666666666667,4,2,53,80,0,0
20847,-66.6666666666667,4,2,1,80,0,0
21062,-66.6666666666667,4,2,53,80,0,0
21386,-100,4,2,53,80,0,0
21602,-58.8235294117647,4,2,53,80,0,0
21710,-58.8235294117647,4,2,1,80,0,0
21926,-58.8235294117647,4,2,53,80,0,0
22250,-100,4,2,53,80,0,0
22465,-40,4,2,53,80,0,0
22573,-40,4,2,1,80,0,0
22789,-40,4,2,53,80,0,0
23329,-100,4,2,53,80,0,0
23437,-100,4,2,1,80,0,0
23760,-50,4,2,53,80,0,0
24192,-76.9230769230769,4,2,54,80,0,0
24300,-76.9230769230769,4,2,53,80,0,0
25163,-76.9230769230769,4,2,1,80,0,0
25271,-76.9230769230769,4,2,53,80,0,0
25595,-76.9230769230769,4,2,1,80,0,0
25703,-76.9230769230769,4,2,53,80,0,0
25811,-76.9230769230769,4,2,1,80,0,0
25919,-76.9230769230769,4,2,53,80,0,0
26890,-76.9230769230769,4,2,1,80,0,0
27214,-76.9230769230769,4,2,53,60,0,0
27861,-76.9230769230769,4,2,53,65,0,0
28077,-76.9230769230769,4,2,53,70,0,0
28293,-76.9230769230769,4,2,53,75,0,0
28509,-76.9230769230769,4,2,53,60,0,0
28724,-76.9230769230769,4,2,53,65,0,0
28940,-76.9230769230769,4,2,53,70,0,0
29156,-76.9230769230769,4,2,53,75,0,0
29372,-76.9230769230769,4,2,53,60,0,0
29588,-76.9230769230769,4,2,53,65,0,0
29803,-76.9230769230769,4,2,53,70,0,0
30019,-76.9230769230769,4,2,53,75,0,0
30235,-100,4,2,53,60,0,0
30451,-100,4,2,53,70,0,0
30667,-100,4,2,53,75,0,0
30883,-100,4,2,53,80,0,0
31098,-133.333333333333,4,2,53,80,0,0
31206,-133.333333333333,4,2,53,60,0,0
32178,-133.333333333333,4,2,53,50,0,0
32393,-133.333333333333,4,2,53,55,0,0
32609,-133.333333333333,4,2,53,60,0,0
32825,-133.333333333333,4,2,53,65,0,0
33041,-133.333333333333,4,2,53,60,0,0
33904,-133.333333333333,4,2,53,50,0,0
34120,-133.333333333333,4,2,53,55,0,0
34336,-133.333333333333,4,2,53,60,0,0
34552,-133.333333333333,4,2,53,65,0,0
34983,-133.333333333333,4,2,53,60,0,0
35415,-133.333333333333,4,2,53,50,0,0
35630,-133.333333333333,4,2,53,55,0,0
35846,-133.333333333333,4,2,53,60,0,0
36062,-133.333333333333,4,2,53,65,0,0
36278,-133.333333333333,4,2,53,70,0,0
36710,-133.333333333333,4,2,53,60,0,0
37141,-133.333333333333,4,2,53,50,0,0
37357,-133.333333333333,4,2,53,55,0,0
37573,-133.333333333333,4,2,53,60,0,0
37789,-133.333333333333,4,2,53,65,0,0
38005,-133.333333333333,4,2,53,70,0,0
38329,-133.333333333333,4,2,53,5,0,0
38437,-133.333333333333,4,2,53,60,0,0
39084,-133.333333333333,4,2,53,50,0,0
39299,-133.333333333333,4,2,53,55,0,0
39515,-133.333333333333,4,2,53,60,0,0
39731,-133.333333333333,4,2,53,65,0,0
39947,-133.333333333333,4,2,53,60,0,0
40810,-133.333333333333,4,2,53,50,0,0
41026,-133.333333333333,4,2,53,55,0,0
41242,-133.333333333333,4,2,53,60,0,0
41458,-133.333333333333,4,2,53,65,0,0
41890,-133.333333333333,4,2,53,60,0,0
42321,-133.333333333333,4,2,53,50,0,0
42536,-133.333333333333,4,2,53,55,0,0
42752,-133.333333333333,4,2,53,60,0,0
42968,-133.333333333333,4,2,53,65,0,0
43184,-133.333333333333,4,2,53,70,0,0
43401,-133.333333333333,4,2,53,60,0,0
44047,-133.333333333333,4,2,53,50,0,0
44263,-133.333333333333,4,2,53,55,0,0
44479,-133.333333333333,4,2,53,60,0,0
44695,-133.333333333333,4,2,53,65,0,0
44911,-90.9090909090909,4,2,53,70,0,0
45667,-90.9090909090909,4,2,1,70,0,0
45775,-90.9090909090909,4,2,53,70,0,0
46098,-90.9090909090909,4,2,1,70,0,0
46206,-90.9090909090909,4,2,53,70,0,0
46530,-90.9090909090909,4,2,1,70,0,0
46638,-90.9090909090909,4,2,53,70,0,0
47393,-90.9090909090909,4,2,1,70,0,0
47501,-90.9090909090909,4,2,53,70,0,0
47825,-90.9090909090909,4,2,1,70,0,0
47933,-90.9090909090909,4,2,53,70,0,0
48257,-90.9090909090909,4,2,1,70,0,0
48365,-90.9090909090909,4,2,53,70,0,0
49120,-90.9090909090909,4,2,1,70,0,0
49228,-90.9090909090909,4,2,53,70,0,0
49444,-90.9090909090909,4,2,53,60,0,0
49552,-90.9090909090909,4,2,1,70,0,0
49660,-90.9090909090909,4,2,53,65,0,0
49768,-90.9090909090909,4,2,1,70,0,0
49875,-90.9090909090909,4,2,53,70,0,0
49983,-90.9090909090909,4,2,1,70,0,0
50091,-90.9090909090909,4,2,53,75,0,0
50307,-90.9090909090909,4,2,53,70,0,0
50847,-90.9090909090909,4,2,1,70,0,0
50954,-90.9090909090909,4,2,53,70,0,0
51170,-90.9090909090909,4,2,1,70,0,0
51277,-90.9090909090909,4,2,53,70,0,0
52573,-90.9090909090909,4,2,1,70,0,0
52680,-90.9090909090909,4,2,53,70,0,0
53005,-90.9090909090909,4,2,1,70,0,0
53112,-90.9090909090909,4,2,53,70,0,0
53437,-90.9090909090909,4,2,1,70,0,0
53544,-90.9090909090909,4,2,53,70,0,0
54300,-90.9090909090909,4,2,1,70,0,0
54407,-90.9090909090909,4,2,53,70,0,0
54732,-90.9090909090909,4,2,1,70,0,0
54839,-90.9090909090909,4,2,53,70,0,0
55163,-90.9090909090909,4,2,1,70,0,0
55270,-90.9090909090909,4,2,53,70,0,0
56027,-90.9090909090909,4,2,1,70,0,0
56134,-90.9090909090909,4,2,53,50,0,0
57214,-90.9090909090909,4,2,53,55,0,0
57429,-90.9090909090909,4,2,53,60,0,0
57645,-90.9090909090909,4,2,53,65,0,0
57861,-90.9090909090909,4,2,53,70,0,0
58077,-90.9090909090909,4,2,53,75,0,0
58509,-90.9090909090909,4,2,53,80,0,0
58724,-133.333333333333,4,2,53,80,0,0
59156,-133.333333333333,4,2,53,60,0,0
59264,-133.333333333333,4,2,1,60,0,0
59372,-133.333333333333,4,2,1,65,0,0
59588,-133.333333333333,4,2,53,70,0,0
59803,-133.333333333333,4,2,53,60,0,0
59911,-133.333333333333,4,2,1,60,0,0
60019,-133.333333333333,4,2,53,65,0,0
60127,-133.333333333333,4,2,1,60,0,0
60235,-133.333333333333,4,2,53,70,0,0
60451,-133.333333333333,4,2,53,75,0,0
60667,-133.333333333333,4,2,53,60,0,0
60775,-133.333333333333,4,2,1,60,0,0
60883,-133.333333333333,4,2,53,60,0,0
61098,-133.333333333333,4,2,1,60,0,0
61314,-133.333333333333,4,2,53,60,0,0
61638,-133.333333333333,4,2,1,60,0,0
61746,-133.333333333333,4,2,53,60,0,0
62178,-100,4,2,53,60,0,0
62717,-100,4,2,1,60,0,0
62825,-100,4,2,1,65,0,0
63041,-100,4,2,53,70,0,0
63149,-100,4,2,1,60,0,0
63257,-100,4,2,53,75,0,0
63473,-100,4,2,53,60,0,0
63580,-100,4,2,1,60,0,0
63688,-100,4,2,53,65,0,0
63796,-100,4,2,1,60,0,0
63904,-100,4,2,53,70,0,0
64120,-100,4,2,53,60,0,0
64875,-100,4,2,1,60,0,0
64983,-100,4,2,53,60,0,0
66170,-100,4,2,1,60,0,0
66278,-100,4,2,1,65,0,0
66494,-100,4,2,53,70,0,0
66710,-100,4,2,53,60,0,0
66818,-100,4,2,1,60,0,0
66926,-100,4,2,53,65,0,0
67034,-100,4,2,1,60,0,0
67142,-100,4,2,53,75,0,0
67250,-100,4,2,1,60,0,0
67358,-100,4,2,53,75,0,0
67573,-100,4,2,53,60,0,0
68544,-100,4,2,1,60,0,0
68652,-100,4,2,53,60,0,0
69084,-100,4,2,53,75,0,0
69192,-100,4,2,53,55,0,0
69516,-100,4,2,53,60,0,0
69732,-100,4,2,53,65,0,0
69947,-100,4,2,53,75,0,0
70163,-100,4,2,53,55,0,0
70379,-100,4,2,53,60,0,0
70595,-100,4,2,53,65,0,0
70811,-100,4,2,53,75,0,0
71027,-100,4,2,53,55,0,0
71242,-100,4,2,53,60,0,0
71458,-100,4,2,53,65,0,0
71674,-66.6666666666667,4,2,53,70,0,0
71890,-66.6666666666667,4,2,53,75,0,0
72106,-66.6666666666667,4,2,53,80,0,0
72537,-66.6666666666667,4,2,53,55,0,0
72969,-66.6666666666667,4,2,53,60,0,0
73616,-66.6666666666667,4,2,53,65,0,0
73832,-66.6666666666667,4,2,53,70,0,0
74048,-66.6666666666667,4,2,53,75,0,0
74264,431.654676258993,4,2,54,80,1,0
74264,-66.6666666666667,4,2,54,90,0,1
74372,-66.6666666666667,4,2,53,90,0,1
74588,-66.6666666666667,4,2,1,75,0,1
74696,-83.3333333333333,4,2,53,90,0,1
75019,-83.3333333333333,4,2,1,75,0,1
75127,-71.4285714285714,4,2,53,90,0,1
75451,-71.4285714285714,4,2,1,75,0,1
75559,-71.4285714285714,4,2,53,90,0,1
75883,-71.4285714285714,4,2,1,75,0,1
75991,-71.4285714285714,4,2,53,90,0,1
76638,-250,4,2,53,90,0,1
76854,-71.4285714285714,4,2,53,90,0,1
78041,-71.4285714285714,4,2,1,75,0,1
78149,-71.4285714285714,4,2,53,90,0,1
78473,-71.4285714285714,4,2,1,75,0,1
78581,-71.4285714285714,4,2,53,90,0,1
79228,-111.111111111111,4,2,53,90,0,1
79336,-111.111111111111,4,2,1,75,0,1
79444,-111.111111111111,4,2,53,90,0,1
79660,-71.4285714285714,4,2,53,90,0,1
80847,-71.4285714285714,4,2,1,75,0,1
80955,-71.4285714285714,4,2,53,90,0,1
81062,-71.4285714285714,4,2,1,75,0,1
81170,-100,4,2,54,90,0,1
81278,-100,4,2,53,90,0,1
81494,-100,4,2,1,75,0,1
81602,-200,4,2,53,90,0,1
81818,-100,4,2,53,90,0,1
81926,-100,4,2,1,75,0,1
82034,-66.6666666666667,4,2,53,90,0,1
82250,-76.9230769230769,4,2,53,90,0,1
82357,-76.9230769230769,4,2,1,75,0,1
82465,-76.9230769230769,4,2,53,90,0,1
82789,-76.9230769230769,4,2,1,75,0,1
82897,-76.9230769230769,4,2,53,90,0,1
83113,-71.4285714285714,4,2,53,90,0,1
83544,-250,4,2,53,90,0,1
83760,-71.4285714285714,4,2,53,90,0,1
84947,-71.4285714285714,4,2,1,75,0,1
85055,-133.333333333333,4,2,53,90,0,1
85271,-66.6666666666667,4,2,53,90,0,1
85811,-66.6666666666667,4,2,1,90,0,1
85919,-66.6666666666667,4,2,53,75,0,1
86674,-66.6666666666667,4,2,1,75,0,1
86782,-66.6666666666667,4,2,53,90,0,1
86890,-66.6666666666667,4,2,1,75,0,1
86998,-66.6666666666667,4,2,53,90,0,1
87645,-66.6666666666667,4,2,53,90,0,0
88076,-66.6666666666667,4,2,54,90,0,1
88185,-66.6666666666667,4,2,53,90,0,1
88401,-66.6666666666667,4,2,1,75,0,1
88509,-83.3333333333333,4,2,53,90,0,1
88832,-83.3333333333333,4,2,1,75,0,1
88940,-71.4285714285714,4,2,53,90,0,1
89264,-71.4285714285714,4,2,1,75,0,1
89372,-71.4285714285714,4,2,53,90,0,1
89696,-71.4285714285714,4,2,1,75,0,1
89804,-71.4285714285714,4,2,53,90,0,1
90451,-250,4,2,53,90,0,1
90667,-71.4285714285714,4,2,53,90,0,1
91854,-71.4285714285714,4,2,1,75,0,1
91962,-71.4285714285714,4,2,53,90,0,1
92286,-71.4285714285714,4,2,1,75,0,1
92394,-71.4285714285714,4,2,53,90,0,1
93041,-111.111111111111,4,2,53,90,0,1
93149,-111.111111111111,4,2,1,75,0,1
93257,-111.111111111111,4,2,53,90,0,1
93473,-71.4285714285714,4,2,53,90,0,1
94660,-71.4285714285714,4,2,1,75,0,1
94768,-71.4285714285714,4,2,53,90,0,1
94875,-71.4285714285714,4,2,1,75,0,1
94983,-100,4,2,54,90,0,1
95091,-100,4,2,53,90,0,1
95307,-100,4,2,1,75,0,1
95415,-200,4,2,53,90,0,1
95631,-100,4,2,53,90,0,1
95847,-66.6666666666667,4,2,53,90,0,1
96170,-66.6666666666667,4,2,1,75,0,1
96278,-133.333333333333,4,2,53,90,0,1
96494,-111.111111111111,4,2,53,90,0,1
96602,-111.111111111111,4,2,1,75,0,1
96710,-111.111111111111,4,2,53,90,0,1
96926,-71.4285714285714,4,2,53,90,0,1
97357,-250,4,2,53,90,0,1
97573,-71.4285714285714,4,2,53,90,0,1
98760,-71.4285714285714,4,2,1,75,0,1
98868,-71.4285714285714,4,2,53,90,0,1
99624,-71.4285714285714,4,2,1,75,0,1
99732,-71.4285714285714,4,2,53,90,0,1
100055,-71.4285714285714,4,2,1,75,0,1
100163,-133.333333333333,4,2,53,90,0,1
100379,-66.6666666666667,4,2,53,90,0,1
101890,-100,4,2,53,90,0,1
103832,-100,4,2,53,45,0,1
104048,-100,4,2,53,50,0,1
104264,-100,4,2,53,55,0,1
104480,-66.6666666666667,4,2,53,60,0,1
104696,-66.6666666666667,4,2,53,65,0,1
104911,-66.6666666666667,4,2,53,70,0,1
105127,-66.6666666666667,4,2,53,75,0,1
105343,-76.9230769230769,4,2,54,90,0,0
105451,-76.9230769230769,4,2,53,80,0,0
106314,-76.9230769230769,4,2,1,80,0,0
106422,-76.9230769230769,4,2,53,80,0,0
106745,-76.9230769230769,4,2,1,80,0,0
106853,-76.9230769230769,4,2,53,80,0,0
106961,-76.9230769230769,4,2,1,80,0,0
107069,-76.9230769230769,4,2,53,80,0,0
108040,-76.9230769230769,4,2,1,80,0,0
108364,-76.9230769230769,4,2,53,80,0,0
108580,-133.333333333333,4,2,53,80,0,0
108688,-133.333333333333,4,2,1,80,0,0
108796,-66.6666666666667,4,2,53,80,0,0
108904,-66.6666666666667,4,2,1,80,0,0
109119,-66.6666666666667,4,2,53,80,0,0
109444,-100,4,2,53,80,0,0
109660,-58.8235294117647,4,2,53,80,0,0
109767,-58.8235294117647,4,2,1,80,0,0
109983,-58.8235294117647,4,2,53,80,0,0
110307,-100,4,2,53,80,0,0
110523,-35.7142857142857,4,2,53,80,0,0
110630,-35.7142857142857,4,2,1,80,0,0
110846,-35.7142857142857,4,2,53,80,0,0
111170,-133.333333333333,4,2,53,80,0,0
111386,-100,4,2,53,80,0,0
111494,-100,4,2,1,80,0,0
111818,-50,4,2,53,80,0,0
112250,-76.9230769230769,4,2,54,80,0,0
112357,-76.9230769230769,4,2,53,80,0,0
112573,-76.9230769230769,4,2,53,80,0,0
113221,-76.9230769230769,4,2,1,80,0,0
113329,-76.9230769230769,4,2,53,80,0,0
113652,-76.9230769230769,4,2,1,80,0,0
113760,-76.9230769230769,4,2,53,80,0,0
113868,-76.9230769230769,4,2,1,80,0,0
113976,-76.9230769230769,4,2,53,80,0,0
114947,-76.9230769230769,4,2,1,80,0,0
115271,-76.9230769230769,4,2,53,80,0,0
115811,-76.9230769230769,4,2,53,65,0,0
116134,-76.9230769230769,4,2,53,70,0,0
116350,-76.9230769230769,4,2,53,75,0,0
116566,-76.9230769230769,4,2,53,80,0,0
116674,-76.9230769230769,4,2,53,65,0,0
116998,-76.9230769230769,4,2,53,70,0,0
117214,-76.9230769230769,4,2,53,75,0,0
117429,-76.9230769230769,4,2,53,80,0,0
117537,-76.9230769230769,4,2,53,45,0,0
119156,-76.9230769230769,4,2,53,5,0,0

[Colours]
Combo1 : 252,152,250
Combo2 : 241,232,107
Combo3 : 111,188,251
Combo4 : 237,107,84

[HitObjects]
22,354,560,6,0,B|114:368|66:291|157:242|241:300,1,225.000008583069,6|2,1:2|0:2,0:0:0:0:
290,382,1497,2,0,L|296:308,2,75.0000028610231,2|2|2,0:2|0:2|0:2,0:0:0:0:
290,382,2200,1,2,0:2:0:0:
442,349,2435,5,2,0:2:0:0:
384,289,2669,1,2,0:2:0:0:
360,209,2903,1,2,0:2:0:0:
373,127,3138,1,2,0:2:0:0:
376,133,3606,1,2,0:2:0:0:
436,76,3841,2,0,P|443:34|425:0,1,75.0000028610231,2|2,0:2|0:2,0:0:0:0:
331,60,4310,6,0,B|352:36|352:36|285:60|251:128|277:194,1,225.000008583069,2|2,0:2|0:2,0:0:0:0:
352,188,5247,2,0,L|441:182,2,75.0000028610231,2|2|2,0:2|0:2|0:2,0:0:0:0:
352,188,5950,1,2,0:2:0:0:
197,108,6185,5,2,0:2:0:0:
121,140,6419,1,2,0:2:0:0:
42,115,6653,1,2,0:2:0:0:
19,35,6888,1,2,0:2:0:0:
29,35,7356,1,2,0:2:0:0:
53,113,7590,2,0,P|65:173|51:205,1,75.0000028610231,2|2,0:2|0:2,0:0:0:0:
16,372,8060,6,0,P|32:309|122:320,1,150.000005722046,6|0,1:2|0:0,0:0:0:0:
106,304,8763,1,2,0:2:0:0:
177,357,8997,2,0,B|191:345|191:345|184:266,1,75.0000028610231,2|2,0:2|0:2,0:0:0:0:
131,229,9466,2,0,B|117:217|117:217|124:138,1,75.0000028610231,2|2,0:2|0:2,0:0:0:0:
14,24,9935,5,2,0:2:0:0:
69,85,10169,1,2,0:2:0:0:
150,92,10403,1,2,0:2:0:0:
229,67,10638,1,2,0:2:0:0:
228,76,11106,1,2,0:2:0:0:
299,33,11341,1,2,0:2:0:0:
379,50,11575,1,2,0:2:0:0:
441,210,11810,6,0,B|360:210|403:150|281:156,1,150.000005722046,2|2,0:2|0:2,0:0:0:0:
256,224,12513,1,2,0:2:0:0:
256,224,12747,2,0,L|256:320,2,75.0000028610231,2|2|2,0:2|0:2|0:2,0:0:0:0:
206,155,13450,1,2,0:2:0:0:
256,32,13685,5,2,0:2:0:0:
256,192,13802,12,2,15325,0:2:0:0:
36,375,15560,5,0,1:0:0:0:
36,375,15667,1,0,3:0:0:0:
36,375,15775,2,0,P|2:339|0:309,1,50,0|0,3:0|3:0,0:0:0:0:
114,340,15991,5,0,1:0:0:0:
103,325,16099,1,0,3:0:0:0:
99,306,16207,2,0,P|92:249|98:227,1,50,0|0,3:0|3:0,0:0:0:0:
201,316,16423,5,0,1:0:0:0:
188,273,16531,1,0,3:0:0:0:
200,232,16639,2,0,P|228:202|266:184,1,50,0|0,3:0|3:0,0:0:0:0:
278,332,16854,5,0,1:0:0:0:
320,306,16961,1,0,3:0:0:0:
369,296,17069,1,0,1:0:0:0:
418,301,17177,1,0,3:0:0:0:
471,363,17286,6,0,P|466:285|499:212,1,129.999994049073,6|0,1:2|0:0,0:0:0:0:
414,202,17609,1,2,0:2:0:0:
414,202,17717,2,0,P|453:169|482:162,1,64.9999970245363,8|0,1:2|0:0,0:0:0:0:
496,53,17933,2,0,B|516:64|517:88|517:88|423:107|361:38,1,194.999991073609,2|0,0:2|0:0,0:0:0:0:
266,7,18365,2,0,P|281:26|296:69,1,64.9999970245363,2|0,0:2|0:0,0:0:0:0:
362,140,18580,2,0,B|288:115|312:165|207:126,1,129.999994049073,10|2,1:2|0:2,0:0:0:0:
28,40,19012,5,2,1:2:0:0:
28,40,19120,2,0,B|18:16|-1:15|-1:15|-1:38|21:49,1,64.9999970245363
157,67,19336,1,2,0:2:0:0:
157,67,19444,2,0,B|120:66|131:81|85:81,1,64.9999970245363,8|0,1:2|0:0,0:0:0:0:
46,169,19660,2,0,B|18:164|18:164|56:129|153:174,1,129.999994049073,2|0,0:2|1:2,0:0:0:0:
217,114,19983,2,0,B|226:187|175:169|194:246,1,129.999994049073,0|0,3:0|3:0,0:0:0:0:
199,252,20307,1,8,1:2:0:0:
277,213,20523,6,0,P|273:227|276:212,1,50,2|0,0:1|3:0,0:0:0:0:
43,368,20739,6,0,B|25:374|9:370|9:370|13:328|3:290|3:290|20:280|38:289,1,150.000005722046,2|0,1:1|3:0,0:0:0:0:
105,325,21062,2,0,B|193:318|142:372|244:364,1,150.000005722046,2|0,0:1|0:0,0:0:0:0:
282,305,21386,6,0,P|306:330|313:354,1,50,2|0,0:1|0:0,0:0:0:0:
448,345,21602,6,0,B|437:395|368:317|413:212,1,170.000003242493,2|0,1:1|3:0,0:0:0:0:
295,222,21926,2,0,B|364:216|321:193|373:118|473:155|476:215,1,170.000003242493,2|0,0:1|0:0,0:0:0:0:
494,282,22250,6,0,P|484:258|478:217,1,50,2|0,0:1|0:0,0:0:0:0:
368,0,22465,6,0,B|295:60|299:200|428:214|488:97|444:8,2,375,2|2|2,1:1|0:1|0:1,0:0:0:0:
505,217,23329,6,0,P|484:199|451:198,1,50,2|0,1:1|3:0,0:0:0:0:
320,171,23544,2,0,P|298:188|291:220,1,50,0|0,3:0|3:0,0:0:0:0:
400,368,23760,6,0,B|403:335|382:315|368:339|304:298|332:220|418:213|420:282,1,200,8|0,1:2|1:0,0:0:0:0:
418,267,24084,1,0,0:0:0:0:
400,368,24192,6,0,P|298:330|234:331,1,129.999994049073,6|0,1:2|0:0,0:0:0:0:
218,284,24516,2,0,P|208:341|224:368,1,64.9999970245363,2|8,0:2|1:2,0:0:0:0:
29,337,24732,1,0,3:0:0:0:
29,337,24839,2,0,B|88:421|174:342|137:280|75:303,1,194.999991073609,2|0,0:2|3:0,0:0:0:0:
19,198,25271,2,0,P|29:255|13:282,1,64.9999970245363,2|0,0:2|0:0,0:0:0:0:
159,216,25487,2,0,B|151:225|151:225|116:166|158:103,1,129.999994049073,10|2,1:2|0:2,0:0:0:0:
11,26,25919,5,2,1:2:0:0:
11,26,26027,2,0,P|21:70|53:82,1,64.9999970245363
184,51,26242,1,2,0:2:0:0:
184,51,26350,2,0,B|185:18|185:18|152:55,1,64.9999970245363,8|0,1:2|0:0,0:0:0:0:
24,181,26566,2,0,P|86:133|156:146,1,129.999994049073,2|0,0:2|1:2,0:0:0:0:
256,224,26890,2,0,B|281:146|225:184|256:64,1,129.999994049073,0|0,3:0|3:0,0:0:0:0:
255,79,27214,1,8,1:2:0:0:
256,0,27429,1,0,1:0:0:0:
408,121,27645,5,2,1:1:0:0:
439,101,27753,1,0,3:0:0:0:
448,63,27861,1,0,3:0:0:0:
428,31,27969,1,2,3:1:0:0:
391,23,28077,1,8,1:2:0:0:
360,42,28185,1,0,3:0:0:0:
350,79,28293,1,2,3:1:0:0:
370,111,28400,1,0,3:0:0:0:
409,132,28509,5,2,1:1:0:0:
448,108,28617,1,0,3:0:0:0:
460,61,28725,1,0,3:0:0:0:
435,20,28833,1,2,3:1:0:0:
389,10,28941,1,8,1:2:0:0:
349,34,29049,1,0,3:0:0:0:
338,80,29157,1,2,3:1:0:0:
362,121,29264,1,0,3:0:0:0:
409,132,29372,5,2,1:1:0:0:
447,157,29480,1,0,3:0:0:0:
459,203,29588,1,0,3:0:0:0:
434,244,29696,1,0,3:0:0:0:
388,255,29803,1,8,1:2:0:0:
341,265,29911,1,0,3:0:0:0:
317,306,30019,1,0,3:0:0:0:
328,353,30127,1,0,3:0:0:0:
394,363,30235,6,0,L|471:352,1,50,0|0,1:2|3:0,0:0:0:0:
416,210,30451,2,0,L|493:199,1,50,0|0,3:0|3:0,0:0:0:0:
256,384,30667,6,0,L|333:373,1,50,8|0,1:2|1:0,0:0:0:0:
288,224,30883,2,0,L|365:213,1,50,0|0,1:0|1:0,0:0:0:0:
170,314,31098,6,0,B|108:308|128:346|53:338,1,112.500004291535,4|0,1:1|0:0,0:0:0:0:
11,383,31530,2,0,B|-19:342|8:289|8:289|35:284,1,112.500004291535,2|0,1:2|0:0,0:0:0:0:
31,283,31962,1,2,1:2:0:0:
12,206,32178,2,0,L|18:131,1,75.0000028610231,2|0,0:2|1:0,0:0:0:0:
17,131,32609,1,2,0:2:0:0:
26,12,32825,6,0,P|44:70|136:73,1,150.000005722046,0|2,1:0|1:2,0:0:0:0:
124,81,33473,1,0,0:0:0:0:
164,16,33688,1,0,1:0:0:0:
202,81,33904,1,2,0:2:0:0:
169,147,34120,2,0,B|160:187|176:178|166:226,1,75.0000028610231,2|2,1:2|0:2,0:0:0:0:
23,348,34552,6,0,B|4:344|-9:362|-9:362|48:382|105:335,1,150.000005722046,2|0,1:2|1:0,0:0:0:0:
119,280,35199,2,0,P|154:303|164:338,1,75.0000028610231,2|0,0:2|1:0,0:0:0:0:
237,293,35631,1,2,0:2:0:0:
230,380,35847,2,0,B|237:340|220:350|233:303,1,75.0000028610231,2|2,1:2|0:2,0:0:0:0:
338,362,36278,6,0,B|391:307|458:331|451:363|425:373|401:356,1,150.000005722046,2|0,1:2|1:0,0:0:0:0:
335,280,36926,1,2,0:2:0:0:
335,280,37142,2,0,P|346:234|336:192,1,75.0000028610231,0|2,1:0|0:0,0:0:0:0:
436,263,37573,2,0,P|430:216|406:179,1,75.0000028610231,0|2,1:0|0:2,0:0:0:0:
479,23,38005,6,0,B|496:12|496:12|443:5|415:80,1,112.500004291535,2|0,1:2|0:0,0:0:0:0:
434,121,38437,2,0,B|368:127|394:87|318:91,1,112.500004291535,2|0,1:2|0:0,0:0:0:0:
319,96,38868,1,2,1:2:0:0:
248,13,39084,2,0,L|244:97,1,75.0000028610231,2|0,0:2|1:0,0:0:0:0:
279,155,39516,1,2,0:2:0:0:
174,71,39732,6,0,P|113:58|85:143,1,150.000005722046,0|2,1:0|1:2,0:0:0:0:
78,127,40379,1,0,0:0:0:0:
38,62,40594,1,0,1:0:0:0:
0,127,40810,1,2,0:2:0:0:
33,193,41026,2,0,B|42:233|26:224|36:272,1,75.0000028610231,2|2,1:2|0:2,0:0:0:0:
87,331,41458,6,0,B|30:332|58:367|-24:388|-36:364|-33:316|23:306|18:360,1,150.000005722046,2|0,1:2|1:0,0:0:0:0:
103,262,42106,1,2,0:2:0:0:
157,315,42321,1,2,1:2:0:0:
157,315,42537,2,0,P|201:303|241:316,1,75.0000028610231,2|0,0:2|1:0,0:0:0:0:
280,356,42969,1,2,0:2:0:0:
439,358,43185,6,0,B|402:376|373:342|373:342|367:249,1,150.000005722046,0|2,1:0|1:2,0:0:0:0:
368,266,44048,1,0,1:0:0:0:
372,186,44264,1,2,0:0:0:0:
472,225,44480,6,0,P|442:228|427:220,1,37.5000014305115,0|0,1:0|0:0,0:0:0:0:
302,216,44696,2,0,L|301:160,1,37.5000014305115,0|0,1:0|0:0,0:0:0:0:
425,0,44911,6,0,P|365:51|398:93,1,110.000003356934,4|0,1:2|0:0,0:0:0:0:
381,76,45235,1,0,0:0:0:0:
455,133,45343,2,0,B|370:147|410:70|276:103,1,165.000005035401,10|0,1:2|3:0,0:0:0:0:
240,64,45775,2,0,B|229:75|229:75|237:133,1,55.0000016784668,2|0,1:2|0:0,0:0:0:0:
140,22,45991,1,2,0:2:0:0:
133,32,46098,6,0,B|110:94|150:80|132:172,1,110.000003356934,0|0,3:0|0:0,0:0:0:0:
182,184,46422,2,0,P|154:200|120:201,1,55.0000016784668,2|0,0:2|3:0,0:0:0:0:
17,293,46638,5,0,1:0:0:0:
17,293,46854,2,0,L|84:285,1,55.0000016784668,2|0,0:2|0:0,0:0:0:0:
159,372,47070,2,0,B|217:314|184:219|96:270|174:317,1,165.000005035401,10|0,1:2|3:0,0:0:0:0:
88,356,47501,6,0,P|162:324|157:272,1,110.000003356934,0|2,1:0|0:2,0:0:0:0:
124,152,47825,2,0,P|114:232|162:253,1,110.000003356934,0|0,3:0|0:0,0:0:0:0:
229,352,48149,2,0,L|292:346,1,55.0000016784668,2|0,0:2|3:0,0:0:0:0:
466,300,48365,6,0,P|460:286|459:307,1,55.0000016784668,2|0,1:2|0:0,0:0:0:0:
390,356,48580,2,0,P|384:370|383:349,1,55.0000016784668
373,277,48796,2,0,B|381:217|357:231|368:151,1,110.000003356934,8|2,1:2|0:2,0:0:0:0:
469,2,49228,2,0,P|476:38|454:58,1,55.0000016784668,0|0,1:0|0:0,0:0:0:0:
468,166,49444,1,2,0:2:0:0:
482,154,49552,6,0,P|425:114|354:108,1,110.000003356934,0|0,3:0|3:0,0:0:0:0:
366,168,49875,2,0,P|331:156|325:127,1,55.0000016784668,2|0,0:2|3:0,0:0:0:0:
205,17,50091,5,2,1:2:0:0:
205,17,50307,2,0,L|202:83,1,55.0000016784668
103,164,50523,2,0,B|129:144|141:96|106:70|106:70|60:89|66:123,1,165.000005035401,8|0,1:2|3:0,0:0:0:0:
6,140,50955,6,0,P|49:171|102:163,1,110.000003356934,2|0,1:1|3:0,0:0:0:0:
134,35,51278,2,0,P|85:56|65:106,1,110.000003356934,2|0,0:1|0:0,0:0:0:0:
166,186,51602,2,0,B|174:224|155:210|166:260,1,55.0000016784668,2|0,0:1|0:0,0:0:0:0:
81,352,51818,6,0,P|92:294|42:291,1,110.000003356934,0|0,1:2|0:0,0:0:0:0:
42,290,52142,1,0,0:0:0:0:
14,384,52250,2,0,P|93:354|181:350,1,165.000005035401,10|0,1:2|3:0,0:0:0:0:
213,292,52681,2,0,P|237:319|239:354,1,55.0000016784668,2|0,1:2|0:0,0:0:0:0:
357,372,52897,1,2,0:2:0:0:
357,372,53005,6,0,P|311:350|329:304,1,110.000003356934,0|0,3:0|0:0,0:0:0:0:
327,239,53329,2,0,P|368:248|389:271,1,55.0000016784668,2|0,0:2|3:0,0:0:0:0:
501,133,53544,5,0,1:0:0:0:
501,133,53760,2,0,L|431:140,1,55.0000016784668,2|0,0:2|0:0,0:0:0:0:
390,47,53976,2,0,B|345:32|313:93|339:144|386:82|384:159|355:208,1,165.000005035401,10|0,1:2|3:0,0:0:0:0:
455,201,54408,6,0,P|389:175|386:126,1,110.000003356934,0|2,1:0|0:2,0:0:0:0:
460,46,54732,2,0,P|470:116|429:143,1,110.000003356934,0|0,3:0|0:0,0:0:0:0:
323,54,55055,2,0,B|292:47|306:66|247:65,1,55.0000016784668,2|0,0:2|3:0,0:0:0:0:
46,84,55271,6,0,P|52:98|53:77,1,55.0000016784668,2|0,1:2|0:0,0:0:0:0:
122,28,55486,2,0,P|128:14|129:35,1,55.0000016784668
139,107,55702,2,0,B|131:167|155:153|144:233,1,110.000003356934,8|2,1:2|0:2,0:0:0:0:
43,382,56134,2,0,P|36:346|58:326,1,55.0000016784668,2|0,1:2|0:0,0:0:0:0:
44,218,56350,1,2,0:2:0:0:
30,230,56458,6,0,P|87:270|158:276,1,110.000003356934
146,216,56781,2,0,P|181:228|187:257,1,55.0000016784668,2|0,0:2|0:0,0:0:0:0:
268,357,56998,5,0,1:0:0:0:
288,354,57105,1,0,3:0:0:0:
308,351,57213,1,2,3:2:0:0:
329,348,57321,1,0,3:0:0:0:
393,360,57429,5,10,1:2:0:0:
411,337,57536,1,0,3:0:0:0:
417,308,57644,1,2,3:2:0:0:
411,280,57752,1,0,3:0:0:0:
388,220,57861,5,0,1:0:0:0:
391,186,57968,1,0,3:0:0:0:
394,155,58076,1,2,3:2:0:0:
398,123,58184,1,0,3:0:0:0:
505,181,58293,6,0,P|476:194|450:180,1,55.0000016784668,10|0,1:2|3:0,0:0:0:0:
325,157,58509,2,0,P|296:144|270:158,1,55.0000016784668,2|0,1:2|3:0,0:0:0:0:
165,22,58724,6,0,P|194:62|182:99,1,75.0000028610231,6|0,1:2|0:0,0:0:0:0:
19,99,59156,2,0,P|98:75|146:75,1,112.500004291535,2|0,1:2|3:0,0:0:0:0:
195,98,59588,2,0,L|190:145,1,37.5000014305115,2|0,1:2|0:0,0:0:0:0:
95,180,59803,2,0,P|94:151|121:176,1,75.0000028610231,2|0,0:2|1:2,0:0:0:0:
196,261,60235,1,2,0:2:0:0:
196,261,60343,1,0,3:0:0:0:
196,261,60451,6,0,P|117:237|99:238,1,75.0000028610231,0|2,1:0|0:2,0:0:0:0:
32,293,60883,2,0,B|33:274|57:263|57:263|105:304|59:370,1,150.000005722046,2|0,1:2|1:0,0:0:0:0:
65,360,61530,5,2,0:2:0:0:
32,293,61746,1,0,1:0:0:0:
113,310,61962,1,2,0:2:0:0:
256,224,62178,6,0,P|256:288|351:304,1,150,2|0,1:2|0:0,0:0:0:0:
391,362,62609,2,0,B|422:352|416:319|416:319|384:321|386:364,1,100,2|0,1:2|3:0,0:0:0:0:
469,376,63041,1,2,1:2:0:0:
374,267,63257,2,0,B|373:201|397:233|395:155,1,100,2|0,0:2|1:0,0:0:0:0:
476,23,63688,1,2,0:2:0:0:
476,23,63796,1,0,3:0:0:0:
476,23,63904,6,0,P|488:78|460:113,1,100,0|2,1:2|3:2,0:0:0:0:
342,47,64336,1,2,1:2:0:0:
423,59,64552,2,0,P|363:67|247:116,1,150,2|0,0:2|3:0,0:0:0:0:
266,105,64983,1,2,0:2:0:0:
379,7,65199,2,0,P|353:48|366:94,1,100,2|2,1:2|0:2,0:0:0:0:
256,256,65631,6,0,P|178:241|187:291,1,150,6|0,1:2|0:0,0:0:0:0:
226,367,66062,2,0,B|231:321|231:321|236:316|236:316|243:250,1,100,2|0,1:2|3:0,0:0:0:0:
214,203,66494,1,2,1:2:0:0:
100,331,66710,2,0,B|95:284|95:284|90:279|90:279|85:233,1,100,2|0,0:2|1:2,0:0:0:0:
7,111,67142,1,2,0:2:0:0:
7,111,67250,1,0,3:0:0:0:
7,111,67357,6,0,P|63:122|92:84,1,100,0|2,1:2|0:2,0:0:0:0:
90,30,67789,1,2,1:2:0:0:
166,104,68005,2,0,B|197:100|197:72|197:72|166:70|158:97,1,100,2|0,0:2|1:2,0:0:0:0:
81,186,68437,1,2,0:2:0:0:
81,186,68652,2,0,B|73:234|108:229|89:300,1,100,2|2,1:2|0:2,0:0:0:0:
217,364,69084,5,6,1:2:0:0:
221,348,69191,1,0,3:0:0:0:
221,333,69299,1,2,3:2:0:0:
218,319,69407,1,0,3:0:0:0:
210,306,69515,1,10,3:2:0:0:
198,296,69623,1,0,3:0:0:0:
185,290,69731,1,2,3:2:0:0:
170,287,69839,1,0,3:0:0:0:
217,364,69947,5,6,1:2:0:0:
245,361,70054,1,0,3:0:0:0:
272,351,70162,1,2,3:2:0:0:
293,332,70270,1,0,3:0:0:0:
313,312,70378,1,10,0:2:0:0:
338,298,70486,1,0,3:0:0:0:
366,293,70594,1,2,3:2:0:0:
394,292,70702,1,0,3:0:0:0:
460,349,70811,6,0,L|464:279,1,50,4|0,1:2|3:0,0:0:0:0:
470,176,71027,2,0,L|467:225,1,50,0|0,3:0|3:0,0:0:0:0:
274,384,71242,6,0,L|270:314,1,50,8|0,1:2|3:0,0:0:0:0:
264,211,71458,2,0,L|266:260,1,50,0|0,3:0|3:0,0:0:0:0:
482,161,71674,6,0,P|435:140|407:150,1,75.0000028610231,0|8,1:2|3:2,0:0:0:0:
205,203,71890,2,0,P|252:224|280:214,1,75.0000028610231,0|0,1:0|3:0,0:0:0:0:
355,124,72106,5,8,1:2:0:0:
297,203,72213,1,0,3:0:0:0:
390,173,72321,1,0,1:0:0:0:
297,143,72429,1,2,3:2:0:0:
355,222,72537,5,0,3:2:0:0:
345,222,72644,1,0,3:2:0:0:
335,224,72752,1,0,3:2:0:0:
325,226,72860,1,0,3:2:0:0:
316,230,72968,1,2,3:2:0:0:
308,236,73076,1,0,3:2:0:0:
302,244,73184,1,0,3:2:0:0:
297,253,73292,1,2,3:2:0:0:
293,262,73400,1,0,3:2:0:0:
288,271,73508,1,0,3:2:0:0:
283,279,73616,1,0,3:2:0:0:
275,286,73724,1,0,3:2:0:0:
266,290,73831,1,2,3:2:0:0:
257,293,73939,1,0,3:2:0:0:
247,295,74047,1,0,3:2:0:0:
237,296,74155,1,0,3:2:0:0:
207,240,74264,6,0,P|164:235|127:255,1,75.0000028610231,6|0,1:2|0:0,0:0:0:0:
71,359,74480,1,0,0:0:0:0:
6,332,74588,1,0,3:0:0:0:
86,351,74696,2,0,B|99:323|91:287|58:301|57:263|72:211,1,119.999996337891,10|0,1:2|0:0,0:0:0:0:
19,34,75127,6,0,P|21:76|57:78,1,69.9999978637696,2|0,1:2|0:0,0:0:0:0:
75,156,75343,1,2,0:2:0:0:
79,174,75451,1,0,3:0:0:0:
145,150,75559,2,0,P|180:126|164:94,1,69.9999978637696,10|0,1:2|0:0,0:0:0:0:
121,52,75775,2,0,B|122:29|106:22|106:22|96:45|114:59,1,69.9999978637696,2|0,0:2|3:0,0:0:0:0:
213,201,75991,5,0,1:0:0:0:
213,201,76206,2,0,L|304:194,1,69.9999978637696,2|0,0:1|0:0,0:0:0:0:
285,52,76422,2,0,L|376:45,1,69.9999978637696,10|0,1:1|0:0,0:0:0:0:
425,154,76638,6,0,L|434:122,1,20,2|0,0:2|0:0,0:0:0:0:
428,120,76854,6,0,B|397:205|452:175|416:298,1,139.999995727539,2|0,1:1|0:0,0:0:0:0:
363,259,77178,2,0,P|381:304|435:317,1,69.9999978637696,2|8,0:1|1:2,0:0:0:0:
274,384,77393,1,0,0:0:0:0:
254,320,77501,2,0,P|255:368|301:399,1,69.9999978637696,2|0,0:1|0:0,0:0:0:0:
448,356,77717,6,0,P|363:328|301:338,1,139.999995727539,2|0,1:2|0:0,0:0:0:0:
77,376,78149,2,0,P|109:334|102:285,1,69.9999978637696,10|0,1:2|0:0,0:0:0:0:
185,314,78365,2,0,P|164:265|118:246,1,69.9999978637696,2|0,0:2|3:0,0:0:0:0:
73,49,78580,6,0,B|101:131|48:103|74:189,1,139.999995727539,2|2,1:2|0:2,0:0:0:0:
2,175,78904,1,0,3:0:0:0:
24,235,79012,2,0,B|34:252|34:252|105:252,1,69.9999978637696,10|0,1:2|0:0,0:0:0:0:
223,93,79228,6,0,B|250:54|291:69|291:69|275:102|242:93,1,134.999995880127,2|0,0:2|0:0,0:0:0:0:
170,56,79660,6,0,P|159:89|166:123,1,69.9999978637696,2|0,0:1|0:0,0:0:0:0:
344,118,79875,2,0,P|321:92|288:81,1,69.9999978637696,10|0,1:1|0:0,0:0:0:0:
204,238,80091,2,0,P|237:231|263:207,1,69.9999978637696,2|0,0:1|0:0,0:0:0:0:
317,14,80307,6,0,P|292:92|289:164,1,139.999995727539,2|0,1:1|0:0,0:0:0:0:
224,153,80631,2,0,P|236:185|263:207,1,69.9999978637696,2|8,0:1|1:2,0:0:0:0:
462,97,80847,1,0,3:0:0:0:
410,136,80955,2,0,P|397:168|404:202,1,69.9999978637696,2|0,0:1|3:0,0:0:0:0:
431,338,81170,6,0,B|454:317|481:318|481:318|480:252|413:261,1,150,6|0,1:2|3:0,0:0:0:0:
358,249,81602,2,0,L|354:285,1,25,10|0,1:2|0:0,0:0:0:0:
331,384,81818,2,0,B|331:351|318:360|329:306,1,50,2|0,0:2|3:0,0:0:0:0:
192,249,82034,2,0,P|192:301|221:329,1,75.0000028610231,2|0,1:2|0:0,0:0:0:0:
431,338,82250,6,0,P|329:328|242:378,1,194.999991073609,2|0,0:2|0:0,0:0:0:0:
205,318,82681,2,0,P|186:353|187:384,1,64.9999970245363,2|0,0:2|3:0,0:0:0:0:
31,358,82897,1,0,1:0:0:0:
31,358,83113,6,0,B|67:354|67:354|70:356|70:356|122:351,1,69.9999978637696,2|0,0:1|0:0,0:0:0:0:
100,197,83329,2,0,B|136:193|136:193|139:195|139:195|191:190,1,69.9999978637696,10|0,1:1|0:0,0:0:0:0:
271,241,83544,6,0,L|263:276,1,20,2|0,0:1|0:0,0:0:0:0:
258,272,83760,6,0,B|234:183|282:208|243:91,1,139.999995727539,2|0,1:1|0:0,0:0:0:0:
228,70,84084,2,0,P|193:103|193:151,1,69.9999978637696,2|8,0:1|1:2,0:0:0:0:
78,32,84300,1,0,3:0:0:0:
40,87,84408,2,0,P|34:134|65:171,1,69.9999978637696,2|0,0:1|0:0,0:0:0:0:
108,295,84624,6,0,B|212:229|142:125|100:166|89:215|145:225,1,209.999993591309,2|0,1:2|3:0,0:0:0:0:
18,244,85055,6,0,L|65:245,1,37.5000014305115,8|0,1:2|0:0,0:0:0:0:
208,372,85271,2,0,B|219:327|197:345|215:264,1,75.0000028610231,2|0,0:2|0:0,0:0:0:0:
253,102,85487,6,0,B|278:194|227:168|268:290,1,150.000005722046,2|0,1:2|0:0,0:0:0:0:
284,314,85811,2,0,P|319:281|320:237,1,75.0000028610231,0|10,3:0|1:2,0:0:0:0:
434,352,86027,1,0,3:0:0:0:
472,297,86134,2,0,P|478:250|447:212,1,75.0000028610231,2|0,0:2|0:0,0:0:0:0:
328,151,86350,5,0,1:0:0:0:
362,170,86457,1,0,3:0:0:0:
401,172,86565,1,2,0:1:0:0:
437,155,86673,1,0,3:0:0:0:
461,124,86781,1,8,1:2:0:0:
468,84,86889,1,0,3:0:0:0:
456,47,86997,1,2,0:1:0:0:
427,19,87106,1,0,3:0:0:0:
358,58,87214,6,0,P|329:76|286:69,1,75.0000028610231,2|0,1:1|0:0,0:0:0:0:
216,70,87429,2,0,P|182:76|146:56,1,75.0000028610231,0|0,1:0|0:0,0:0:0:0:
85,19,87645,5,8,1:2:0:0:
44,84,87753,1,0,3:0:0:0:
75,155,87861,1,2,1:1:0:0:
150,170,87969,1,0,3:0:0:0:
71,146,88077,6,0,P|33:177|48:216,1,75.0000028610231,6|0,1:2|0:0,0:0:0:0:
79,372,88293,1,0,3:0:0:0:
141,346,88401,1,0,3:0:0:0:
66,369,88509,2,0,B|46:310|92:316|67:240,1,119.999996337891,10|0,1:2|0:0,0:0:0:0:
33,21,88940,6,0,P|84:42|92:78,1,69.9999978637696,2|0,1:2|0:0,0:0:0:0:
140,167,89156,1,2,0:2:0:0:
146,178,89264,1,0,3:0:0:0:
152,82,89372,2,0,B|150:146|148:87|146:152,1,69.9999978637696,8|0,1:2|0:0,0:0:0:0:
63,186,89588,2,0,B|46:196|29:189|29:189|43:172|66:181,1,69.9999978637696,2|0,0:2|3:0,0:0:0:0:
192,284,89803,5,0,1:0:0:0:
192,284,90019,2,0,L|280:292,1,69.9999978637696,2|0,0:1|0:0,0:0:0:0:
293,136,90235,2,0,L|381:144,1,69.9999978637696,10|0,1:1|0:0,0:0:0:0:
444,335,90451,6,0,L|434:370,1,20,2|0,0:2|0:0,0:0:0:0:
423,363,90667,6,0,B|457:274|385:301|442:195,1,139.999995727539,2|0,1:1|0:0,0:0:0:0:
504,204,90991,2,0,P|480:179|488:125,1,69.9999978637696,2|8,0:1|1:2,0:0:0:0:
323,49,91206,1,0,3:0:0:0:
293,119,91314,2,0,P|302:85|353:65,1,69.9999978637696,2|0,0:1|0:0,0:0:0:0:
442,2,91530,6,0,P|416:65|399:150,1,139.999995727539,2|0,1:2|0:0,0:0:0:0:
476,372,91962,2,0,P|495:334|486:293,1,69.9999978637696,10|0,1:2|0:0,0:0:0:0:
425,280,92178,2,0,P|401:244|361:231,1,69.9999978637696,2|0,0:2|3:0,0:0:0:0:
264,368,92393,2,0,P|176:340|112:344,1,139.999995727539,2|2,1:2|0:2,0:0:0:0:
0,352,92717,1,0,3:0:0:0:
76,380,92825,2,0,P|64:344|80:296,1,69.9999978637696,10|0,1:2|0:0,0:0:0:0:
124,216,93041,6,0,B|97:255|56:240|56:240|72:207|105:216,1,134.999995880127,2|0,0:2|0:0,0:0:0:0:
177,253,93473,6,0,P|188:220|181:186,1,69.9999978637696,2|0,0:1|0:0,0:0:0:0:
143,71,93688,2,0,P|110:78|84:102,1,69.9999978637696,10|0,1:1|0:0,0:0:0:0:
3,191,93904,2,0,P|26:217|59:228,1,69.9999978637696,2|0,0:1|0:0,0:0:0:0:
256,152,94120,6,0,B|272:80|232:88|256:12,1,139.999995727539,2|0,1:1|0:0,0:0:0:0:
316,52,94444,2,0,P|348:36|392:40,1,69.9999978637696,2|8,0:1|1:2,0:0:0:0:
148,104,94660,1,0,3:0:0:0:
130,36,94768,2,0,P|165:36|196:52,1,69.9999978637696,2|0,0:1|3:0,0:0:0:0:
312,196,94983,6,0,P|384:204|428:272,1,150,6|0,1:2|3:0,0:0:0:0:
488,208,95415,2,0,L|480:248,1,25,10|0,1:2|0:0,0:0:0:0:
396,375,95631,2,0,B|404:367|401:356|401:356|390:341|396:299,1,50,2|0,0:2|0:0,0:0:0:0:
429,180,95847,2,0,P|411:229|432:262,1,75.0000028610231,2|0,1:2|0:0,0:0:0:0:
511,354,96062,6,0,P|477:313|438:315,1,75.0000028610231,2|0,0:2|3:0,0:0:0:0:
353,274,96278,2,0,L|302:279,1,37.5000014305115,8|0,1:2|0:0,0:0:0:0:
188,364,96494,6,0,P|132:316|52:328,1,134.999995880127,2|0,0:2|0:0,0:0:0:0:
32,368,96926,6,0,B|40:380|40:380|104:384,1,69.9999978637696,2|0,0:1|0:0,0:0:0:0:
172,226,97142,2,0,B|180:214|180:214|244:210,1,69.9999978637696,10|0,1:1|0:0,0:0:0:0:
32,95,97357,6,0,L|24:68,1,20,2|0,0:1|0:0,0:0:0:0:
14,69,97573,6,0,P|54:157|128:124,1,139.999995727539,2|0,1:1|0:0,0:0:0:0:
154,83,97897,2,0,B|140:124|164:114|144:177,1,69.9999978637696,2|8,0:1|1:2,0:0:0:0:
79,306,98113,1,0,3:0:0:0:
68,226,98221,2,0,B|82:267|58:257|78:320,1,69.9999978637696,2|0,0:1|0:0,0:0:0:0:
296,372,98437,6,0,P|328:288|452:312,1,209.999993591309,6|0,1:2|3:0,0:0:0:0:
484,336,98868,2,0,P|440:356|404:344,1,69.9999978637696,8|0,1:2|0:0,0:0:0:0:
176,212,99084,2,0,L|168:120,1,69.9999978637696,2|0,0:2|0:0,0:0:0:0:
216,372,99300,6,0,P|184:288|60:312,1,209.999993591309,6|0,1:2|3:0,0:0:0:0:
28,336,99731,2,0,P|72:356|108:344,1,69.9999978637696,8|0,1:2|0:0,0:0:0:0:
336,212,99947,2,0,L|344:120,1,69.9999978637696,2|0,0:2|3:0,0:0:0:0:
256,12,100163,6,0,B|256:80,1,37.5000014305115,4|0,1:2|0:0,0:0:0:0:
176,212,100379,6,0,P|144:200|84:200,1,75.0000028610231,2|0,0:1|0:0,0:0:0:0:
336,212,100595,2,0,P|368:200|428:200,1,75.0000028610231,10|0,1:1|0:0,0:0:0:0:
256,116,100811,1,2,0:1:0:0:
256,116,101027,6,0,B|232:196|288:184|264:284,1,150.000005722046,6|2,1:1|0:2,0:0:0:0:
256,372,101350,1,2,0:1:0:0:
248,288,101458,1,8,1:2:0:0:
392,320,101674,1,2,1:1:0:0:
120,320,101890,6,0,P|100:336|90:369,1,50,4|0,1:2|0:0,0:0:0:0:
37,244,102106,2,0,P|40:269|57:292,1,50,2|0,0:2|0:0,0:0:0:0:
122,253,102321,1,8,1:2:0:0:
122,253,102429,2,0,B|107:192|132:210|120:128,1,100,2|0,0:2|0:0,0:0:0:0:
63,120,102753,5,2,1:2:0:0:
63,120,102861,2,0,P|38:102|35:76,1,50,2|0,0:0|0:0,0:0:0:0:
108,65,103077,1,2,0:2:0:0:
108,65,103184,2,0,P|127:20|122:4,1,50,10|0,1:2|0:0,0:0:0:0:
53,14,103401,1,0,0:0:0:0:
311,53,103616,5,6,1:2:0:0:
349,30,103723,1,0,3:0:0:0:
390,26,103831,1,0,3:0:0:0:
429,42,103939,1,0,3:0:0:0:
457,73,104047,1,8,1:2:0:0:
468,114,104155,1,0,3:0:0:0:
460,155,104263,1,0,3:0:0:0:
434,188,104371,1,0,3:0:0:0:
366,201,104480,5,0,1:0:0:0:
372,212,104588,1,0,3:0:0:0:
336,269,104696,5,0,3:0:0:0:
348,273,104804,1,0,3:0:0:0:
352,345,104911,5,8,1:2:0:0:
363,341,105019,1,0,3:0:0:0:
415,382,105127,5,0,1:0:0:0:
421,370,105235,1,0,3:0:0:0:
488,368,105343,6,0,P|432:296|372:316,1,129.999994049073,6|0,1:2|0:0,0:0:0:0:
392,305,105667,1,2,0:2:0:0:
473,240,105775,6,0,P|489:216|493:175,1,64.9999970245363,8|0,1:2|0:0,0:0:0:0:
355,384,105991,2,0,L|339:184,1,194.999991073609,2|0,0:2|3:0,0:0:0:0:
431,160,106422,2,0,P|415:184|411:225,1,64.9999970245363,2|0,0:2|0:0,0:0:0:0:
307,316,106638,2,0,B|228:311|269:365|163:358,1,129.999994049073,10|2,1:2|0:2,0:0:0:0:
8,206,107070,5,2,1:2:0:0:
8,206,107178,2,0,P|32:193|74:202,1,64.9999970245363
190,236,107393,1,2,0:2:0:0:
190,236,107501,2,0,P|189:263|160:295,1,64.9999970245363,8|0,1:2|0:0,0:0:0:0:
103,384,107717,2,0,B|78:319|120:342|93:241,1,129.999994049073,2|0,0:2|1:2,0:0:0:0:
68,198,108041,2,0,L|74:125,1,64.9999970245363,0|0,3:0|3:0,0:0:0:0:
86,25,108257,1,0,3:0:0:0:
88,1,108364,1,8,1:2:0:0:
221,45,108580,2,0,L|216:85,1,37.5000014305115,2|0,0:1|3:0,0:0:0:0:
16,150,108796,6,0,B|-17:149|-20:120|-20:120|0:116|6:139,1,75.0000028610231,2|0,1:1|3:0,0:0:0:0:
130,178,109012,1,0,0:0:0:0:
68,198,109120,2,0,P|154:150|224:157,1,150.000005722046,2|0,0:1|0:0,0:0:0:0:
254,193,109444,2,0,P|270:155|265:128,1,50,2|0,0:1|0:0,0:0:0:0:
337,18,109660,6,0,B|320:29|319:62|343:57|322:107,1,85.0000016212464,2|0,1:1|3:0,0:0:0:0:
408,191,109875,1,0,0:0:0:0:
478,161,109983,2,0,B|464:180|443:147|362:162|423:217|355:247|286:217,1,170.000003242493,2|0,0:1|0:0,0:0:0:0:
254,193,110307,6,0,L|265:258,1,50,2|0,0:1|0:0,0:0:0:0:
354,338,110523,6,0,B|339:217|436:182|479:273|421:355,1,279.999991455078,2|0,1:1|3:0,0:0:0:0:
427,363,110847,2,0,B|484:280|441:189|344:224|360:345,1,279.999991455078,2|0,0:1|0:0,0:0:0:0:
291,373,111170,6,0,P|288:353|281:333,1,37.5000014305115,2|0,0:1|0:0,0:0:0:0:
497,158,111386,6,0,P|476:176|443:177,1,50,2|0,1:1|3:0,0:0:0:0:
309,42,111602,1,0,3:0:0:0:
305,24,111710,1,0,3:0:0:0:
369,21,111818,6,0,B|403:45|439:99|401:186|313:153|330:109|375:92,1,200,8|0,1:2|0:0,0:0:0:0:
371,102,112142,1,0,0:0:0:0:
488,8,112250,6,0,P|401:34|354:32,1,129.999994049073,6|0,1:2|0:0,0:0:0:0:
306,0,112573,2,0,P|296:27|313:79,1,64.9999970245363,2|8,0:2|1:2,0:0:0:0:
473,164,112789,1,0,0:0:0:0:
461,176,112897,2,0,B|408:190|345:174|407:119|310:115|253:136,1,194.999991073609,2|0,0:2|3:0,0:0:0:0:
215,150,113329,6,0,P|210:173|221:153,1,64.9999970245363,2|0,0:2|0:0,0:0:0:0:
280,256,113544,2,0,P|291:209|277:170,1,64.9999970245363,10|0,1:2|3:0,0:0:0:0:
238,18,113760,2,0,P|227:65|241:104,1,64.9999970245363,2|0,0:2|3:0,0:0:0:0:
42,180,113976,1,2,1:2:0:0:
42,180,114084,2,0,P|108:176|134:229,1,129.999994049073,0|2,0:0|0:2,0:0:0:0:
198,239,114408,2,0,B|199:282|176:264|181:321,1,64.9999970245363,8|0,1:2|0:0,0:0:0:0:
23,367,114624,2,0,P|27:336|59:322,1,64.9999970245363,2|0,0:2|0:0,0:0:0:0:
157,368,114839,1,0,1:2:0:0:
157,368,114947,2,0,B|127:370|127:370|112:250,1,129.999994049073,0|0,3:0|3:0,0:0:0:0:
148,200,115271,2,0,L|74:208,1,64.9999970245363,8|0,1:2|0:0,0:0:0:0:
17,216,115487,1,0,0:0:0:0:
100,140,115703,5,6,1:1:0:0:
63,115,115811,1,0,3:0:0:0:
52,71,115919,1,0,3:0:0:0:
75,35,116027,1,2,3:1:0:0:
118,25,116135,1,8,1:2:0:0:
155,47,116243,1,0,3:0:0:0:
167,90,116351,1,2,3:1:0:0:
144,127,116458,1,0,3:0:0:0:
100,140,116566,5,6,1:1:0:0:
49,174,116674,1,0,3:0:0:0:
34,233,116782,1,0,3:0:0:0:
65,282,116890,1,2,3:1:0:0:
124,296,116998,1,8,1:2:0:0:
174,266,117106,1,0,3:0:0:0:
191,208,117214,1,2,3:1:0:0:
159,157,117321,1,0,3:0:0:0:
100,140,117429,5,6,1:2:0:0:
256,192,117537,12,0,119156,0:0:0:0:
