osu file format v14

[General]
AudioFilename: audio.mp3
AudioLeadIn: 0
PreviewTime: 35828
Countdown: 0
SampleSet: Soft
StackLeniency: 0.7
Mode: 3
LetterboxInBreaks: 0
SpecialStyle: 0
WidescreenStoryboard: 0

[Editor]
Bookmarks: 11774,23135,28815
DistanceSpacing: 0.5
BeatDivisor: 4
GridSize: 16
TimelineZoom: 2

[Metadata]
Title:pico scope -SACLA-
TitleUnicode:pico scope -SACLA-
Artist:fripSide
ArtistUnicode:fripSide
Creator:FerdiXIA-
Version:Normal
Source:未来光子 播磨サクラ
Tags:crossroads black bullet 15th Anniversary Special Album Mirai Koushi Harima Sakura Future Photon SACLA Female Vocals Anime Japanese Pop J-pop Jpop 南條愛乃 Nanjo Yoshino 八木沼悟志 Yaginuma Satoshi
BeatmapID:4065889
BeatmapSetID:1672943

[Difficulty]
HPDrainRate:7
CircleSize:4
OverallDifficulty:7
ApproachRate:5
SliderMultiplier:1.4
SliderTickRate:1

[Events]
//Background and Video events
0,0,"1.jpg",0,0
//Break Periods
//Storyboard Layer 0 (Background)
//Storyboard Layer 1 (Fail)
//Storyboard Layer 2 (Pass)
//Storyboard Layer 3 (Foreground)
//Storyboard Layer 4 (Overlay)
//Storyboard Sound Samples

[TimingPoints]
3253,355.029585798817,4,2,1,60,1,0
35915,-100,3,2,1,60,0,1
41241,-100,3,2,1,60,0,0
41596,-100,3,2,1,60,0,1
46921,-100,3,2,1,60,0,0
47276,-100,3,2,1,60,0,1
52602,-100,3,2,1,60,0,0
52957,-100,3,2,1,60,0,1
58637,-100,3,2,1,60,0,0

[HitObjects]
192,192,5205,5,2,0:0:0:0:
320,192,5383,1,2,0:0:0:0:
448,192,5383,128,0,5649:0:0:0:0:
64,192,5649,128,2,5915:0:0:0:0:
192,192,5649,1,0,0:0:0:0:
320,192,5915,128,2,6093:0:0:0:0:
64,192,6093,1,2,0:0:0:0:
448,192,6093,1,4,0:0:0:0:
192,192,6448,1,2,0:0:0:0:
320,192,6448,1,0,0:0:0:0:
64,192,6803,1,2,0:0:0:0:
192,192,6803,1,0,0:0:0:0:
320,192,7158,1,2,0:0:0:0:
448,192,7158,1,0,0:0:0:0:
64,192,7513,1,2,0:0:0:0:
448,192,7513,1,0,0:0:0:0:
192,192,7868,1,2,0:0:0:0:
320,192,7868,1,0,0:0:0:0:
64,192,8223,1,2,0:0:0:0:
192,192,8223,1,0,0:0:0:0:
320,192,8578,1,2,0:0:0:0:
448,192,8578,1,0,0:0:0:0:
192,192,8755,1,2,0:0:0:0:
64,192,8933,1,2,0:0:0:0:
448,192,8933,1,4,0:0:0:0:
192,192,9288,1,2,0:0:0:0:
320,192,9288,1,0,0:0:0:0:
64,192,9643,1,2,0:0:0:0:
448,192,9643,1,4,0:0:0:0:
192,192,9821,1,2,0:0:0:0:
320,192,9998,1,2,0:0:0:0:
448,192,9998,1,0,0:0:0:0:
192,192,10176,1,2,0:0:0:0:
64,192,10353,1,2,0:0:0:0:
448,192,10353,1,0,0:0:0:0:
192,192,10531,1,2,0:0:0:0:
320,192,10619,1,0,0:0:0:0:
448,192,10619,1,0,0:0:0:0:
64,192,10886,1,2,0:0:0:0:
320,192,11063,1,0,0:0:0:0:
64,192,11152,1,2,0:0:0:0:
192,192,11152,1,0,0:0:0:0:
320,192,11418,1,2,0:0:0:0:
448,192,11418,1,0,0:0:0:0:
64,192,11596,1,2,0:0:0:0:
192,192,11596,1,0,0:0:0:0:
320,192,11773,1,2,0:0:0:0:
448,192,11773,1,4,0:0:0:0:
320,192,13016,1,2,0:0:0:0:
192,192,13193,1,2,0:0:0:0:
64,192,14613,1,2,0:0:0:0:
320,192,15856,1,2,0:0:0:0:
448,192,16034,1,2,0:0:0:0:
64,192,16744,1,2,0:0:0:0:
320,192,17454,1,2,0:0:0:0:
448,192,17454,1,4,0:0:0:0:
64,192,18696,1,2,0:0:0:0:
192,192,18874,1,2,0:0:0:0:
448,192,19584,1,2,0:0:0:0:
64,192,20294,1,2,0:0:0:0:
192,192,20294,1,4,0:0:0:0:
448,192,21004,1,2,0:0:0:0:
320,192,21714,1,2,0:0:0:0:
448,192,21714,1,0,0:0:0:0:
64,192,22069,1,2,0:0:0:0:
192,192,22069,1,0,0:0:0:0:
320,192,22335,1,2,0:0:0:0:
192,192,22424,1,2,0:0:0:0:
448,192,22602,1,2,0:0:0:0:
64,192,22779,128,2,23134:0:0:0:0:
192,192,22779,1,0,0:0:0:0:
320,192,22957,1,2,0:0:0:0:
192,192,23134,1,2,0:0:0:0:
448,192,23134,1,4,0:0:0:0:
320,192,23489,1,2,0:0:0:0:
448,192,23489,1,0,0:0:0:0:
192,192,23844,1,2,0:0:0:0:
64,192,24199,1,2,0:0:0:0:
448,192,24199,1,0,0:0:0:0:
320,192,24554,1,2,0:0:0:0:
64,192,24909,1,2,0:0:0:0:
192,192,24909,1,0,0:0:0:0:
320,192,25264,1,2,0:0:0:0:
64,192,25619,1,2,0:0:0:0:
448,192,25619,1,0,0:0:0:0:
192,192,25797,1,2,0:0:0:0:
320,192,25974,1,2,0:0:0:0:
448,192,25974,1,4,0:0:0:0:
64,192,26329,1,2,0:0:0:0:
192,192,26329,1,0,0:0:0:0:
448,192,26684,1,2,0:0:0:0:
192,192,27039,1,2,0:0:0:0:
320,192,27039,1,0,0:0:0:0:
64,192,27395,1,2,0:0:0:0:
192,192,27750,1,2,0:0:0:0:
448,192,27750,1,0,0:0:0:0:
320,192,28016,1,2,0:0:0:0:
64,192,28105,128,2,28282:0:0:0:0:
192,192,28282,128,2,28460:0:0:0:0:
320,192,28460,128,2,28637:0:0:0:0:
448,192,28637,128,2,28815:0:0:0:0:
64,192,28815,1,2,0:0:0:0:
192,192,28815,1,4,0:0:0:0:
64,192,29170,1,2,0:0:0:0:
448,192,29170,1,0,0:0:0:0:
320,192,29525,1,2,0:0:0:0:
64,192,29880,1,2,0:0:0:0:
192,192,29880,1,0,0:0:0:0:
320,192,30235,1,2,0:0:0:0:
64,192,30590,1,2,0:0:0:0:
448,192,30590,1,0,0:0:0:0:
192,192,30945,1,2,0:0:0:0:
320,192,31300,1,2,0:0:0:0:
448,192,31300,1,0,0:0:0:0:
192,192,31477,1,2,0:0:0:0:
64,192,31655,1,2,0:0:0:0:
448,192,31655,1,4,0:0:0:0:
192,192,32010,1,2,0:0:0:0:
320,192,32010,1,0,0:0:0:0:
64,192,32365,1,2,0:0:0:0:
448,192,32365,1,0,0:0:0:0:
320,192,32720,1,2,0:0:0:0:
64,192,33075,1,2,0:0:0:0:
192,192,33075,1,0,0:0:0:0:
320,192,33430,1,2,0:0:0:0:
64,192,33785,1,2,0:0:0:0:
448,192,33785,1,0,0:0:0:0:
320,192,34140,1,2,0:0:0:0:
192,192,34318,1,2,0:0:0:0:
64,192,34495,1,2,0:0:0:0:
448,192,34495,1,4,0:0:0:0:
320,192,34673,1,0,0:0:0:0:
64,192,34761,1,2,0:0:0:0:
192,192,34761,1,0,0:0:0:0:
448,192,35028,1,2,0:0:0:0:
192,192,35205,1,0,0:0:0:0:
320,192,35294,1,2,0:0:0:0:
448,192,35294,1,0,0:0:0:0:
64,192,35560,1,2,0:0:0:0:
192,192,35560,1,0,0:0:0:0:
320,192,35738,1,2,0:0:0:0:
448,192,35738,1,0,0:0:0:0:
64,192,35915,1,2,0:0:0:0:
192,192,35915,1,4,0:0:0:0:
64,192,36270,1,8,0:0:0:0:
448,192,36270,1,0,0:0:0:0:
192,192,36625,1,2,0:0:0:0:
320,192,36980,1,8,0:0:0:0:
448,192,36980,1,0,0:0:0:0:
64,192,37335,1,2,0:0:0:0:
192,192,37690,1,8,0:0:0:0:
320,192,37690,1,0,0:0:0:0:
448,192,38045,1,2,0:0:0:0:
64,192,38400,1,8,0:0:0:0:
320,192,38400,1,0,0:0:0:0:
192,192,38578,1,2,0:0:0:0:
320,192,38755,1,2,0:0:0:0:
448,192,38755,1,4,0:0:0:0:
64,192,39110,1,8,0:0:0:0:
192,192,39110,1,0,0:0:0:0:
448,192,39466,1,2,0:0:0:0:
192,192,39821,1,8,0:0:0:0:
320,192,39821,1,0,0:0:0:0:
64,192,40176,1,2,0:0:0:0:
320,192,40531,1,8,0:0:0:0:
448,192,40531,1,0,0:0:0:0:
192,192,40886,1,2,0:0:0:0:
64,192,41152,1,2,0:0:0:0:
320,192,41241,1,8,0:0:0:0:
448,192,41241,1,0,0:0:0:0:
64,192,41418,1,2,0:0:0:0:
192,192,41418,1,0,0:0:0:0:
320,192,41596,1,2,0:0:0:0:
448,192,41596,1,4,0:0:0:0:
64,192,41951,1,8,0:0:0:0:
448,192,41951,1,0,0:0:0:0:
320,192,42306,1,2,0:0:0:0:
64,192,42661,1,8,0:0:0:0:
192,192,42661,1,0,0:0:0:0:
320,192,43016,1,2,0:0:0:0:
64,192,43371,1,8,0:0:0:0:
448,192,43371,1,0,0:0:0:0:
192,192,43726,1,2,0:0:0:0:
320,192,44081,1,8,0:0:0:0:
448,192,44081,1,0,0:0:0:0:
64,192,44258,1,2,0:0:0:0:
192,192,44258,1,0,0:0:0:0:
320,192,44436,1,2,0:0:0:0:
448,192,44436,1,4,0:0:0:0:
64,192,44791,1,8,0:0:0:0:
448,192,44791,1,0,0:0:0:0:
192,192,44968,1,2,0:0:0:0:
320,192,44968,1,0,0:0:0:0:
64,192,45146,1,2,0:0:0:0:
448,192,45146,1,4,0:0:0:0:
64,192,45501,1,8,0:0:0:0:
192,192,45501,1,0,0:0:0:0:
320,192,45679,1,2,0:0:0:0:
448,192,45679,1,0,0:0:0:0:
64,192,45856,1,2,0:0:0:0:
448,192,45856,1,4,0:0:0:0:
320,192,46034,1,0,0:0:0:0:
64,192,46122,1,2,0:0:0:0:
192,192,46122,1,0,0:0:0:0:
448,192,46389,1,2,0:0:0:0:
192,192,46566,1,0,0:0:0:0:
320,192,46655,1,2,0:0:0:0:
448,192,46655,1,0,0:0:0:0:
64,192,46921,1,2,0:0:0:0:
192,192,46921,1,0,0:0:0:0:
320,192,47099,1,2,0:0:0:0:
448,192,47099,1,0,0:0:0:0:
64,192,47276,1,2,0:0:0:0:
192,192,47276,1,4,0:0:0:0:
64,192,47631,1,8,0:0:0:0:
448,192,47631,1,0,0:0:0:0:
192,192,47986,1,2,0:0:0:0:
320,192,48341,1,8,0:0:0:0:
448,192,48341,1,0,0:0:0:0:
64,192,48696,1,2,0:0:0:0:
192,192,49051,1,8,0:0:0:0:
320,192,49051,1,0,0:0:0:0:
448,192,49406,1,2,0:0:0:0:
64,192,49761,1,8,0:0:0:0:
320,192,49761,1,0,0:0:0:0:
192,192,49939,1,2,0:0:0:0:
64,192,50116,1,2,0:0:0:0:
448,192,50116,1,4,0:0:0:0:
192,192,50471,1,8,0:0:0:0:
320,192,50471,1,0,0:0:0:0:
448,192,50826,1,2,0:0:0:0:
64,192,51181,1,8,0:0:0:0:
192,192,51181,1,0,0:0:0:0:
320,192,51537,1,2,0:0:0:0:
64,192,51892,1,8,0:0:0:0:
448,192,51892,1,0,0:0:0:0:
192,192,52247,1,2,0:0:0:0:
320,192,52513,1,2,0:0:0:0:
64,192,52602,1,8,0:0:0:0:
192,192,52602,1,0,0:0:0:0:
320,192,52779,1,2,0:0:0:0:
448,192,52779,1,0,0:0:0:0:
64,192,52957,1,2,0:0:0:0:
192,192,52957,1,4,0:0:0:0:
64,192,53312,1,8,0:0:0:0:
448,192,53312,1,0,0:0:0:0:
320,192,53667,1,2,0:0:0:0:
64,192,54022,1,8,0:0:0:0:
192,192,54022,1,0,0:0:0:0:
448,192,54377,1,2,0:0:0:0:
192,192,54732,1,8,0:0:0:0:
320,192,54732,1,0,0:0:0:0:
64,192,55087,1,2,0:0:0:0:
320,192,55442,1,8,0:0:0:0:
448,192,55442,1,0,0:0:0:0:
64,192,55619,1,2,0:0:0:0:
192,192,55619,1,0,0:0:0:0:
320,192,55797,1,2,0:0:0:0:
448,192,55797,1,4,0:0:0:0:
192,192,56152,1,8,0:0:0:0:
320,192,56152,1,0,0:0:0:0:
64,192,56507,1,2,0:0:0:0:
448,192,56507,1,4,0:0:0:0:
192,192,56862,1,8,0:0:0:0:
320,192,56862,1,0,0:0:0:0:
64,192,57039,1,2,0:0:0:0:
192,192,57217,1,2,0:0:0:0:
448,192,57217,1,4,0:0:0:0:
320,192,57395,1,0,0:0:0:0:
64,192,57483,1,2,0:0:0:0:
192,192,57483,1,0,0:0:0:0:
448,192,57750,1,2,0:0:0:0:
192,192,57927,1,0,0:0:0:0:
320,192,58016,1,2,0:0:0:0:
448,192,58016,1,0,0:0:0:0:
64,192,58282,1,2,0:0:0:0:
192,192,58282,1,0,0:0:0:0:
320,192,58460,1,2,0:0:0:0:
448,192,58460,1,0,0:0:0:0:
64,192,58637,128,2,64318:0:0:0:0:
192,192,58637,1,4,0:0:0:0:
