osu file format v14

[General]
AudioFilename: audio.mp3
AudioLeadIn: 0
PreviewTime: 124242
Countdown: 0
SampleSet: None
StackLeniency: 0.7
Mode: 3
LetterboxInBreaks: 0
SpecialStyle: 0
WidescreenStoryboard: 1

[Editor]
DistanceSpacing: 0.8
BeatDivisor: 4
GridSize: 8
TimelineZoom: 1.9

[Metadata]
Title:only my railgun
TitleUnicode:only my railgun
Artist:fripSide
ArtistUnicode:fripSide
Creator:arcwinolivirus
Version:O2JAM LV.34 Short Ver.
Source:Toaru Kagaku no Railgun
Tags:とある科学の超電磁砲 keweft d12rwin
BeatmapID:1989995
BeatmapSetID:953083

[Difficulty]
HPDrainRate:8
CircleSize:7
OverallDifficulty:8
ApproachRate:5
SliderMultiplier:1.4
SliderTickRate:1

[Events]
//Background and Video events
0,0,"background.jpg",0,0
//Break Periods
//Storyboard Layer 0 (Background)
//Storyboard Layer 1 (Fail)
//Storyboard Layer 2 (Pass)
//Storyboard Layer 3 (Foreground)
//Storyboard Sound Samples

[TimingPoints]
676,419.58041958042,4,2,1,40,1,0
12424,-133.333333333333,4,2,1,40,0,0
13682,-125,4,2,1,40,0,0
13787,-117.647058823529,4,2,1,40,0,0
13892,-111.111111111111,4,2,1,40,0,0
13997,-105.263157894737,4,2,1,40,0,0
14102,-100,4,2,1,40,0,0
32564,-133.333333333333,4,2,1,40,0,0
33822,-125,4,2,1,40,0,0
34032,-117.647058823529,4,2,1,40,0,0
34242,-111.111111111111,4,2,1,40,0,0
39277,-105.263157894737,4,2,1,40,0,0
39696,-100,4,2,1,40,0,0
40116,-66.6666666666667,4,2,1,40,0,0
40221,-200,4,2,1,40,0,0
40536,-66.6666666666667,4,2,1,40,0,0
40641,-200,4,2,1,40,0,0
40955,-100,4,2,1,40,0,0
61095,-66.6666666666667,4,2,1,40,0,0
61200,-200,4,2,1,40,0,0
61410,-66.6666666666667,4,2,1,40,0,0
61515,-200,4,2,1,40,0,0
61724,-66.6666666666667,4,2,1,40,0,0
61829,-200,4,2,1,40,0,0
61934,-133.333333333333,4,2,1,40,0,0
62144,-125,4,2,1,40,0,0
62354,-117.647058823529,4,2,1,40,0,0
62564,-111.111111111111,4,2,1,40,0,0
62669,-105.263157894737,4,2,1,40,0,0
62773,-100,4,2,1,40,0,1
74522,-100,4,2,1,40,0,0
76200,-100,4,2,1,40,0,1
94662,-133.333333333333,4,2,1,40,0,0
95920,-125,4,2,1,40,0,0
96130,-117.647058823529,4,2,1,40,0,0
96340,-111.111111111111,4,2,1,40,0,0
101375,-105.263157894737,4,2,1,40,0,0
101794,-100,4,2,1,40,0,0
102214,-66.6666666666667,4,2,1,40,0,0
102319,-200,4,2,1,40,0,0
102634,-66.6666666666667,4,2,1,40,0,0
102738,-200,4,2,1,40,0,0
103053,-100,4,2,1,40,0,0
123193,-66.6666666666667,4,2,1,40,0,0
123298,-200,4,2,1,40,0,0
123508,-66.6666666666667,4,2,1,40,0,0
123613,-200,4,2,1,40,0,0
123822,-66.6666666666667,4,2,1,40,0,0
123927,-200,4,2,1,40,0,0
124032,-133.333333333333,4,2,1,40,0,0
124242,-125,4,2,1,40,0,0
124452,-117.647058823529,4,2,1,40,0,0
124662,-111.111111111111,4,2,1,40,0,0
124766,-105.263157894737,4,2,1,40,0,0
124871,-100,4,2,1,40,0,1
136620,-100,4,2,1,40,0,0
138298,-100,4,2,1,40,0,1
156759,-100,4,2,1,40,0,0
168508,-133.333333333333,4,2,1,40,0,0
169137,-125,4,2,1,40,0,0
169557,-117.647058823529,4,2,1,40,0,0
169976,-111.111111111111,4,2,1,40,0,0
170081,-105.263157894737,4,2,1,40,0,0
170186,-100,4,2,1,40,0,1
183403,-133.333333333333,4,2,1,40,0,0
198717,-128.205128205128,4,2,1,40,0,0
202074,-123.456790123457,4,2,1,40,0,0
205431,-119.047619047619,4,2,1,40,0,0
208787,-114.942528735632,4,2,1,40,0,0
210466,-111.111111111111,4,2,1,40,0,0
210885,-107.52688172043,4,2,1,40,0,0
211305,-105.263157894737,4,2,1,40,0,0
211724,-103.092783505155,4,2,1,40,0,0
212144,-100,4,2,1,40,0,1
223892,-100,4,2,1,40,0,0
225571,-100,4,2,1,40,0,1
243822,-100,4,2,1,40,0,0

[HitObjects]
36,192,676,5,0,0:0:0:0:
256,192,676,1,0,0:0:0:0:
329,192,676,1,0,0:0:0:0:
182,192,780,1,0,0:0:0:0:
402,192,780,1,0,0:0:0:0:
182,192,885,1,0,0:0:0:0:
402,192,885,1,0,0:0:0:0:
182,192,1095,1,0,0:0:0:0:
256,192,1095,1,0,0:0:0:0:
402,192,1095,1,0,0:0:0:0:
109,192,1305,1,0,0:0:0:0:
329,192,1305,1,0,0:0:0:0:
109,192,1410,1,0,0:0:0:0:
329,192,1410,1,0,0:0:0:0:
36,192,1515,1,0,0:0:0:0:
256,192,1515,1,0,0:0:0:0:
475,192,1515,1,0,0:0:0:0:
109,192,1724,1,0,0:0:0:0:
402,192,1724,1,0,0:0:0:0:
182,192,1934,1,0,0:0:0:0:
256,192,1934,1,0,0:0:0:0:
329,192,1934,1,0,0:0:0:0:
36,192,2144,1,0,0:0:0:0:
475,192,2144,1,0,0:0:0:0:
36,192,2249,1,0,0:0:0:0:
475,192,2249,1,0,0:0:0:0:
182,192,2354,1,0,0:0:0:0:
256,192,2354,1,0,0:0:0:0:
329,192,2354,1,0,0:0:0:0:
109,192,2564,1,0,0:0:0:0:
402,192,2564,1,0,0:0:0:0:
182,192,2773,1,0,0:0:0:0:
329,192,2773,1,0,0:0:0:0:
475,192,2773,1,0,0:0:0:0:
109,192,2983,1,0,0:0:0:0:
402,192,2983,1,0,0:0:0:0:
109,192,3088,1,0,0:0:0:0:
402,192,3088,1,0,0:0:0:0:
329,192,3193,1,0,0:0:0:0:
182,192,3193,1,0,0:0:0:0:
256,192,3193,1,0,0:0:0:0:
402,192,3403,1,0,0:0:0:0:
109,192,3403,1,0,0:0:0:0:
256,192,3613,1,0,0:0:0:0:
36,192,3613,1,0,0:0:0:0:
475,192,3613,1,0,0:0:0:0:
109,192,3822,1,0,0:0:0:0:
329,192,3822,1,0,0:0:0:0:
109,192,3927,1,0,0:0:0:0:
329,192,3927,1,0,0:0:0:0:
36,192,4032,1,0,0:0:0:0:
475,192,4032,1,0,0:0:0:0:
256,192,4032,1,0,0:0:0:0:
182,192,4137,1,0,0:0:0:0:
402,192,4137,1,0,0:0:0:0:
182,192,4242,1,0,0:0:0:0:
402,192,4242,1,0,0:0:0:0:
329,192,4452,1,0,0:0:0:0:
109,192,4452,1,0,0:0:0:0:
402,192,4452,1,0,0:0:0:0:
36,192,4662,1,0,0:0:0:0:
329,192,4662,1,0,0:0:0:0:
36,192,4766,1,0,0:0:0:0:
329,192,4766,1,0,0:0:0:0:
182,192,4871,1,0,0:0:0:0:
109,192,4871,1,0,0:0:0:0:
402,192,4871,1,0,0:0:0:0:
109,192,5081,1,0,0:0:0:0:
402,192,5081,1,0,0:0:0:0:
182,192,5291,1,0,0:0:0:0:
256,192,5291,1,0,0:0:0:0:
329,192,5291,1,0,0:0:0:0:
36,192,5501,1,0,0:0:0:0:
475,192,5501,1,0,0:0:0:0:
36,192,5606,1,0,0:0:0:0:
475,192,5606,1,0,0:0:0:0:
256,192,5710,1,0,0:0:0:0:
329,192,5710,1,0,0:0:0:0:
182,192,5710,1,0,0:0:0:0:
109,192,5920,1,0,0:0:0:0:
402,192,5920,1,0,0:0:0:0:
329,192,6130,1,0,0:0:0:0:
182,192,6130,1,0,0:0:0:0:
256,192,6130,1,0,0:0:0:0:
109,192,6340,1,0,0:0:0:0:
402,192,6340,1,0,0:0:0:0:
109,192,6445,1,0,0:0:0:0:
402,192,6445,1,0,0:0:0:0:
256,192,6550,1,0,0:0:0:0:
475,192,6550,1,0,0:0:0:0:
36,192,6550,1,0,0:0:0:0:
402,192,6759,1,0,0:0:0:0:
182,192,6759,1,0,0:0:0:0:
36,192,6969,1,0,0:0:0:0:
109,192,6969,1,0,0:0:0:0:
256,192,6969,1,0,0:0:0:0:
329,192,7022,1,0,0:0:0:0:
402,192,7074,1,0,0:0:0:0:
475,192,7127,1,0,0:0:0:0:
109,192,7179,1,0,0:0:0:0:
36,192,7179,1,0,0:0:0:0:
182,192,7231,1,0,0:0:0:0:
256,192,7284,1,0,0:0:0:0:
329,192,7284,1,0,0:0:0:0:
36,192,7389,1,0,0:0:0:0:
109,192,7389,1,0,0:0:0:0:
475,192,7389,1,0,0:0:0:0:
182,192,7494,1,0,0:0:0:0:
402,192,7494,1,0,0:0:0:0:
182,192,7599,1,0,0:0:0:0:
402,192,7599,1,0,0:0:0:0:
256,192,7599,1,0,0:0:0:0:
109,192,7808,1,0,0:0:0:0:
182,192,7808,1,0,0:0:0:0:
475,192,7808,1,0,0:0:0:0:
36,192,8018,1,0,0:0:0:0:
256,192,8018,1,0,0:0:0:0:
402,192,8018,1,0,0:0:0:0:
36,192,8123,1,0,0:0:0:0:
402,192,8123,1,0,0:0:0:0:
182,192,8228,1,0,0:0:0:0:
329,192,8228,1,0,0:0:0:0:
475,192,8228,1,0,0:0:0:0:
109,192,8438,1,0,0:0:0:0:
256,192,8438,1,0,0:0:0:0:
402,192,8438,1,0,0:0:0:0:
36,192,8648,1,0,0:0:0:0:
182,192,8648,1,0,0:0:0:0:
329,192,8648,1,0,0:0:0:0:
36,192,8857,1,0,0:0:0:0:
256,192,8857,1,0,0:0:0:0:
475,192,8857,1,0,0:0:0:0:
36,192,8962,1,0,0:0:0:0:
475,192,8962,1,0,0:0:0:0:
182,192,9067,1,0,0:0:0:0:
329,192,9067,1,0,0:0:0:0:
109,192,9067,1,0,0:0:0:0:
109,192,9277,1,0,0:0:0:0:
256,192,9277,1,0,0:0:0:0:
402,192,9277,1,0,0:0:0:0:
36,192,9487,1,0,0:0:0:0:
182,192,9487,1,0,0:0:0:0:
475,192,9487,1,0,0:0:0:0:
109,192,9696,1,0,0:0:0:0:
256,192,9696,1,0,0:0:0:0:
402,192,9696,1,0,0:0:0:0:
109,192,9801,1,0,0:0:0:0:
402,192,9801,1,0,0:0:0:0:
329,192,9906,1,0,0:0:0:0:
182,192,9906,1,0,0:0:0:0:
256,192,9906,1,0,0:0:0:0:
36,192,10011,1,0,0:0:0:0:
475,192,10011,1,0,0:0:0:0:
109,192,10116,1,0,0:0:0:0:
256,192,10116,1,0,0:0:0:0:
402,192,10116,1,0,0:0:0:0:
329,192,10221,1,0,0:0:0:0:
182,192,10221,1,0,0:0:0:0:
36,192,10326,1,0,0:0:0:0:
109,192,10326,1,0,0:0:0:0:
475,192,10326,1,0,0:0:0:0:
256,192,10431,1,0,0:0:0:0:
402,192,10431,1,0,0:0:0:0:
182,192,10536,1,0,0:0:0:0:
109,192,10536,1,0,0:0:0:0:
329,192,10536,1,0,0:0:0:0:
182,192,10641,1,0,0:0:0:0:
329,192,10641,1,0,0:0:0:0:
109,192,10745,1,0,0:0:0:0:
475,192,10745,128,0,11375:0:0:0:0:
402,192,10745,1,0,0:0:0:0:
256,192,10745,1,0,0:0:0:0:
36,192,10850,1,0,0:0:0:0:
329,192,10850,1,0,0:0:0:0:
182,192,10955,1,0,0:0:0:0:
402,192,10955,1,0,0:0:0:0:
109,192,11060,1,0,0:0:0:0:
256,192,11060,1,0,0:0:0:0:
36,192,11165,1,0,0:0:0:0:
402,192,11165,1,0,0:0:0:0:
329,192,11165,1,0,0:0:0:0:
182,192,11270,1,0,0:0:0:0:
256,192,11270,1,0,0:0:0:0:
109,192,11375,1,0,0:0:0:0:
36,192,11375,128,0,12004:0:0:0:0:
329,192,11375,1,0,0:0:0:0:
182,192,11480,1,0,0:0:0:0:
402,192,11480,1,0,0:0:0:0:
109,192,11585,1,0,0:0:0:0:
475,192,11585,1,0,0:0:0:0:
256,192,11585,1,0,0:0:0:0:
402,192,11689,1,0,0:0:0:0:
329,192,11689,1,0,0:0:0:0:
256,192,11794,1,0,0:0:0:0:
182,192,11794,1,0,0:0:0:0:
109,192,11899,1,0,0:0:0:0:
329,192,11899,1,0,0:0:0:0:
402,192,12004,1,0,0:0:0:0:
475,192,12004,1,0,0:0:0:0:
329,192,12057,1,0,0:0:0:0:
182,192,12057,1,0,0:0:0:0:
109,192,12109,1,0,0:0:0:0:
36,192,12109,1,0,0:0:0:0:
475,192,12162,1,0,0:0:0:0:
402,192,12162,1,0,0:0:0:0:
182,192,12214,1,0,0:0:0:0:
329,192,12214,1,0,0:0:0:0:
109,192,12266,1,0,0:0:0:0:
36,192,12266,1,0,0:0:0:0:
475,192,12319,1,0,0:0:0:0:
402,192,12319,1,0,0:0:0:0:
329,192,12371,1,0,0:0:0:0:
182,192,12371,1,0,0:0:0:0:
36,192,12424,1,0,0:0:0:0:
256,192,12424,128,0,13997:0:0:0:0:
402,192,12424,128,0,14102:0:0:0:0:
109,192,12424,128,0,14102:0:0:0:0:
475,192,12424,1,0,0:0:0:0:
182,192,13053,128,0,13263:0:0:0:0:
329,192,13053,128,0,13263:0:0:0:0:
475,192,13263,128,0,13473:0:0:0:0:
329,192,13473,128,0,13682:0:0:0:0:
182,192,13473,128,0,13682:0:0:0:0:
36,192,13682,128,0,13892:0:0:0:0:
182,192,13892,128,0,13997:0:0:0:0:
329,192,13892,128,0,13997:0:0:0:0:
36,192,14102,128,0,14207:0:0:0:0:
475,192,14102,128,0,15780:0:0:0:0:
182,192,14102,1,0,0:0:0:0:
256,192,14102,1,0,0:0:0:0:
329,192,14102,1,0,0:0:0:0:
109,192,14207,128,0,14312:0:0:0:0:
182,192,14312,128,0,14417:0:0:0:0:
256,192,14417,128,0,14522:0:0:0:0:
36,192,14522,1,0,0:0:0:0:
109,192,14522,1,0,0:0:0:0:
182,192,14522,128,0,14731:0:0:0:0:
329,192,14522,1,0,0:0:0:0:
402,192,14522,1,0,0:0:0:0:
109,192,14731,128,0,14941:0:0:0:0:
36,192,14941,128,0,15046:0:0:0:0:
182,192,14941,1,0,0:0:0:0:
256,192,14941,1,0,0:0:0:0:
329,192,14941,1,0,0:0:0:0:
402,192,14941,1,0,0:0:0:0:
109,192,15046,128,0,15151:0:0:0:0:
182,192,15151,128,0,15256:0:0:0:0:
256,192,15256,128,0,15361:0:0:0:0:
36,192,15361,1,0,0:0:0:0:
109,192,15361,1,0,0:0:0:0:
182,192,15361,128,0,15571:0:0:0:0:
329,192,15361,1,0,0:0:0:0:
402,192,15361,1,0,0:0:0:0:
109,192,15571,128,0,15780:0:0:0:0:
36,192,15780,128,0,15885:0:0:0:0:
182,192,15780,1,0,0:0:0:0:
256,192,15780,1,0,0:0:0:0:
329,192,15780,1,0,0:0:0:0:
402,192,15780,128,0,16620:0:0:0:0:
109,192,15885,128,0,15990:0:0:0:0:
182,192,15990,128,0,16095:0:0:0:0:
256,192,16095,128,0,16200:0:0:0:0:
36,192,16200,1,0,0:0:0:0:
109,192,16200,1,0,0:0:0:0:
182,192,16200,128,0,16410:0:0:0:0:
329,192,16200,1,0,0:0:0:0:
475,192,16200,1,0,0:0:0:0:
109,192,16410,128,0,16620:0:0:0:0:
36,192,16620,128,0,16724:0:0:0:0:
182,192,16620,1,0,0:0:0:0:
256,192,16620,1,0,0:0:0:0:
329,192,16620,128,0,17459:0:0:0:0:
475,192,16620,128,0,17459:0:0:0:0:
109,192,16724,128,0,16829:0:0:0:0:
182,192,16829,128,0,16934:0:0:0:0:
256,192,16934,128,0,17039:0:0:0:0:
36,192,17039,1,0,0:0:0:0:
109,192,17039,1,0,0:0:0:0:
182,192,17039,128,0,17249:0:0:0:0:
402,192,17039,1,0,0:0:0:0:
109,192,17249,128,0,17459:0:0:0:0:
402,192,17459,128,0,17564:0:0:0:0:
182,192,17459,1,0,0:0:0:0:
256,192,17459,128,0,19137:0:0:0:0:
36,192,17459,1,0,0:0:0:0:
109,192,17564,128,0,17669:0:0:0:0:
329,192,17669,128,0,17773:0:0:0:0:
182,192,17773,128,0,17878:0:0:0:0:
109,192,17878,1,0,0:0:0:0:
475,192,17878,128,0,18088:0:0:0:0:
402,192,17878,1,0,0:0:0:0:
329,192,17878,1,0,0:0:0:0:
36,192,17878,128,0,18088:0:0:0:0:
402,192,18088,128,0,18298:0:0:0:0:
109,192,18088,128,0,18298:0:0:0:0:
329,192,18298,128,0,18403:0:0:0:0:
182,192,18298,1,0,0:0:0:0:
36,192,18298,1,0,0:0:0:0:
475,192,18298,1,0,0:0:0:0:
109,192,18403,128,0,18508:0:0:0:0:
402,192,18508,128,0,18613:0:0:0:0:
182,192,18613,128,0,18717:0:0:0:0:
109,192,18717,1,0,0:0:0:0:
329,192,18717,128,0,18927:0:0:0:0:
402,192,18717,1,0,0:0:0:0:
475,192,18717,1,0,0:0:0:0:
36,192,18717,128,0,18927:0:0:0:0:
402,192,18927,128,0,19137:0:0:0:0:
109,192,18927,128,0,19137:0:0:0:0:
36,192,19137,128,0,19242:0:0:0:0:
182,192,19137,1,0,0:0:0:0:
329,192,19137,1,0,0:0:0:0:
475,192,19137,128,0,19976:0:0:0:0:
109,192,19242,128,0,19347:0:0:0:0:
182,192,19347,128,0,19452:0:0:0:0:
256,192,19452,128,0,19557:0:0:0:0:
36,192,19557,1,0,0:0:0:0:
109,192,19557,1,0,0:0:0:0:
182,192,19557,128,0,19766:0:0:0:0:
329,192,19557,1,0,0:0:0:0:
402,192,19557,1,0,0:0:0:0:
109,192,19766,128,0,19976:0:0:0:0:
256,192,19976,128,0,20815:0:0:0:0:
329,192,19976,1,0,0:0:0:0:
402,192,19976,128,0,20396:0:0:0:0:
182,192,19976,128,0,20396:0:0:0:0:
36,192,19976,128,0,20396:0:0:0:0:
475,192,20396,128,0,20606:0:0:0:0:
109,192,20396,128,0,20606:0:0:0:0:
329,192,20396,128,0,20606:0:0:0:0:
402,192,20606,128,0,20815:0:0:0:0:
182,192,20606,128,0,20815:0:0:0:0:
36,192,20815,128,0,22494:0:0:0:0:
109,192,20815,1,0,0:0:0:0:
329,192,20815,1,0,0:0:0:0:
475,192,20815,128,0,20920:0:0:0:0:
402,192,20920,128,0,21025:0:0:0:0:
329,192,21025,128,0,21130:0:0:0:0:
256,192,21130,128,0,21235:0:0:0:0:
109,192,21235,1,0,0:0:0:0:
182,192,21235,1,0,0:0:0:0:
329,192,21235,128,0,21445:0:0:0:0:
402,192,21235,1,0,0:0:0:0:
475,192,21235,1,0,0:0:0:0:
402,192,21445,128,0,21655:0:0:0:0:
109,192,21655,1,0,0:0:0:0:
182,192,21655,1,0,0:0:0:0:
256,192,21655,1,0,0:0:0:0:
329,192,21655,1,0,0:0:0:0:
475,192,21655,128,0,21759:0:0:0:0:
402,192,21759,128,0,21864:0:0:0:0:
329,192,21864,128,0,21969:0:0:0:0:
256,192,21969,128,0,22074:0:0:0:0:
109,192,22074,1,0,0:0:0:0:
182,192,22074,1,0,0:0:0:0:
329,192,22074,128,0,22284:0:0:0:0:
402,192,22074,1,0,0:0:0:0:
475,192,22074,1,0,0:0:0:0:
402,192,22284,128,0,22494:0:0:0:0:
109,192,22494,128,0,23333:0:0:0:0:
182,192,22494,1,0,0:0:0:0:
256,192,22494,1,0,0:0:0:0:
329,192,22494,1,0,0:0:0:0:
475,192,22494,128,0,22599:0:0:0:0:
402,192,22599,128,0,22703:0:0:0:0:
329,192,22703,128,0,22808:0:0:0:0:
256,192,22808,128,0,22913:0:0:0:0:
36,192,22913,1,0,0:0:0:0:
182,192,22913,1,0,0:0:0:0:
329,192,22913,128,0,23123:0:0:0:0:
402,192,22913,1,0,0:0:0:0:
475,192,22913,1,0,0:0:0:0:
402,192,23123,128,0,23333:0:0:0:0:
36,192,23333,1,0,0:0:0:0:
182,192,23333,128,0,24172:0:0:0:0:
256,192,23333,1,0,0:0:0:0:
329,192,23333,1,0,0:0:0:0:
475,192,23333,128,0,23438:0:0:0:0:
402,192,23438,128,0,23543:0:0:0:0:
329,192,23543,128,0,23648:0:0:0:0:
256,192,23648,128,0,23752:0:0:0:0:
36,192,23752,1,0,0:0:0:0:
109,192,23752,1,0,0:0:0:0:
329,192,23752,128,0,23962:0:0:0:0:
402,192,23752,1,0,0:0:0:0:
475,192,23752,1,0,0:0:0:0:
402,192,23962,128,0,24172:0:0:0:0:
36,192,24172,128,0,24382:0:0:0:0:
256,192,24172,128,0,24382:0:0:0:0:
109,192,24172,1,0,0:0:0:0:
329,192,24172,128,0,25850:0:0:0:0:
475,192,24172,128,0,24382:0:0:0:0:
109,192,24382,1,0,0:0:0:0:
402,192,24382,1,0,0:0:0:0:
182,192,24487,1,0,0:0:0:0:
256,192,24487,1,0,0:0:0:0:
109,192,24592,1,0,0:0:0:0:
402,192,24592,1,0,0:0:0:0:
36,192,24696,1,0,0:0:0:0:
475,192,24696,1,0,0:0:0:0:
109,192,24801,128,0,25011:0:0:0:0:
256,192,24801,128,0,25011:0:0:0:0:
402,192,24801,128,0,25011:0:0:0:0:
36,192,25011,1,0,0:0:0:0:
475,192,25011,1,0,0:0:0:0:
402,192,25116,1,0,0:0:0:0:
182,192,25116,1,0,0:0:0:0:
109,192,25221,1,0,0:0:0:0:
256,192,25221,1,0,0:0:0:0:
36,192,25326,1,0,0:0:0:0:
402,192,25326,1,0,0:0:0:0:
256,192,25431,128,0,25641:0:0:0:0:
182,192,25431,128,0,25641:0:0:0:0:
475,192,25431,128,0,25641:0:0:0:0:
36,192,25641,1,0,0:0:0:0:
402,192,25641,1,0,0:0:0:0:
109,192,25745,1,0,0:0:0:0:
475,192,25745,1,0,0:0:0:0:
36,192,25850,128,0,26060:0:0:0:0:
182,192,25850,128,0,27529:0:0:0:0:
256,192,25850,128,0,26060:0:0:0:0:
402,192,25850,128,0,26060:0:0:0:0:
109,192,26060,1,0,0:0:0:0:
329,192,26060,1,0,0:0:0:0:
256,192,26165,1,0,0:0:0:0:
475,192,26165,1,0,0:0:0:0:
109,192,26270,1,0,0:0:0:0:
329,192,26270,1,0,0:0:0:0:
36,192,26375,1,0,0:0:0:0:
475,192,26375,1,0,0:0:0:0:
109,192,26480,128,0,26689:0:0:0:0:
256,192,26480,128,0,26689:0:0:0:0:
402,192,26480,128,0,26689:0:0:0:0:
36,192,26689,1,0,0:0:0:0:
329,192,26689,1,0,0:0:0:0:
109,192,26794,1,0,0:0:0:0:
402,192,26794,1,0,0:0:0:0:
256,192,26899,1,0,0:0:0:0:
475,192,26899,1,0,0:0:0:0:
109,192,27004,1,0,0:0:0:0:
402,192,27004,1,0,0:0:0:0:
36,192,27109,128,0,27319:0:0:0:0:
256,192,27109,128,0,27319:0:0:0:0:
475,192,27109,128,0,27319:0:0:0:0:
109,192,27319,1,0,0:0:0:0:
402,192,27319,1,0,0:0:0:0:
36,192,27424,1,0,0:0:0:0:
475,192,27424,1,0,0:0:0:0:
109,192,27529,128,0,27634:0:0:0:0:
329,192,27529,128,0,28158:0:0:0:0:
256,192,27529,1,0,0:0:0:0:
402,192,27529,128,0,28158:0:0:0:0:
36,192,27634,128,0,27738:0:0:0:0:
109,192,27738,128,0,27843:0:0:0:0:
182,192,27843,128,0,27948:0:0:0:0:
109,192,27948,128,0,28158:0:0:0:0:
36,192,27948,1,0,0:0:0:0:
256,192,27948,1,0,0:0:0:0:
475,192,27948,1,0,0:0:0:0:
256,192,28158,128,0,28368:0:0:0:0:
475,192,28158,128,0,28368:0:0:0:0:
36,192,28368,1,0,0:0:0:0:
109,192,28368,128,0,28997:0:0:0:0:
182,192,28368,128,0,28997:0:0:0:0:
402,192,28368,128,0,28473:0:0:0:0:
329,192,28368,1,0,0:0:0:0:
475,192,28473,128,0,28578:0:0:0:0:
402,192,28578,128,0,28682:0:0:0:0:
329,192,28682,128,0,28787:0:0:0:0:
36,192,28787,1,0,0:0:0:0:
256,192,28787,1,0,0:0:0:0:
475,192,28787,1,0,0:0:0:0:
402,192,28787,128,0,28997:0:0:0:0:
329,192,28997,128,0,29207:0:0:0:0:
36,192,28997,128,0,29207:0:0:0:0:
182,192,29207,1,0,0:0:0:0:
402,192,29207,1,0,0:0:0:0:
475,192,29207,128,0,29312:0:0:0:0:
36,192,29312,128,0,29417:0:0:0:0:
256,192,29312,1,0,0:0:0:0:
329,192,29312,1,0,0:0:0:0:
109,192,29417,1,0,0:0:0:0:
402,192,29417,1,0,0:0:0:0:
475,192,29417,128,0,29522:0:0:0:0:
36,192,29522,128,0,29627:0:0:0:0:
182,192,29522,1,0,0:0:0:0:
256,192,29522,1,0,0:0:0:0:
109,192,29627,1,0,0:0:0:0:
402,192,29627,1,0,0:0:0:0:
475,192,29627,128,0,29731:0:0:0:0:
36,192,29731,128,0,29836:0:0:0:0:
256,192,29731,1,0,0:0:0:0:
329,192,29731,1,0,0:0:0:0:
109,192,29836,1,0,0:0:0:0:
402,192,29836,1,0,0:0:0:0:
475,192,29836,128,0,29941:0:0:0:0:
36,192,29941,128,0,30046:0:0:0:0:
182,192,29941,1,0,0:0:0:0:
256,192,29941,1,0,0:0:0:0:
329,192,30046,1,0,0:0:0:0:
402,192,30046,128,0,30151:0:0:0:0:
475,192,30046,1,0,0:0:0:0:
36,192,30151,1,0,0:0:0:0:
109,192,30151,128,0,30256:0:0:0:0:
256,192,30151,1,0,0:0:0:0:
182,192,30256,1,0,0:0:0:0:
402,192,30256,128,0,30361:0:0:0:0:
475,192,30256,1,0,0:0:0:0:
36,192,30361,1,0,0:0:0:0:
109,192,30361,128,0,30466:0:0:0:0:
256,192,30361,1,0,0:0:0:0:
329,192,30466,1,0,0:0:0:0:
402,192,30466,128,0,30571:0:0:0:0:
475,192,30466,1,0,0:0:0:0:
36,192,30571,1,0,0:0:0:0:
109,192,30571,128,0,30676:0:0:0:0:
256,192,30571,1,0,0:0:0:0:
182,192,30676,1,0,0:0:0:0:
402,192,30676,128,0,30780:0:0:0:0:
475,192,30676,1,0,0:0:0:0:
36,192,30780,1,0,0:0:0:0:
109,192,30780,128,0,30885:0:0:0:0:
256,192,30780,1,0,0:0:0:0:
329,192,30885,1,0,0:0:0:0:
402,192,30885,128,0,30990:0:0:0:0:
475,192,30885,1,0,0:0:0:0:
36,192,30990,1,0,0:0:0:0:
109,192,30990,128,0,31095:0:0:0:0:
256,192,30990,1,0,0:0:0:0:
329,192,31095,128,0,31200:0:0:0:0:
402,192,31095,1,0,0:0:0:0:
475,192,31095,1,0,0:0:0:0:
36,192,31200,1,0,0:0:0:0:
109,192,31200,1,0,0:0:0:0:
182,192,31200,128,0,31305:0:0:0:0:
329,192,31305,1,0,0:0:0:0:
402,192,31305,128,0,31410:0:0:0:0:
475,192,31305,1,0,0:0:0:0:
36,192,31410,1,0,0:0:0:0:
109,192,31410,128,0,31515:0:0:0:0:
182,192,31410,1,0,0:0:0:0:
329,192,31515,1,0,0:0:0:0:
402,192,31515,1,0,0:0:0:0:
475,192,31515,128,0,31620:0:0:0:0:
36,192,31620,128,0,31724:0:0:0:0:
109,192,31620,1,0,0:0:0:0:
182,192,31620,1,0,0:0:0:0:
329,192,31724,128,0,32144:0:0:0:0:
402,192,31724,1,0,0:0:0:0:
475,192,31724,1,0,0:0:0:0:
36,192,31829,1,0,0:0:0:0:
109,192,31829,1,0,0:0:0:0:
182,192,31934,128,0,32144:0:0:0:0:
402,192,31934,1,0,0:0:0:0:
475,192,31934,1,0,0:0:0:0:
36,192,32039,1,0,0:0:0:0:
109,192,32039,1,0,0:0:0:0:
402,192,32144,1,0,0:0:0:0:
475,192,32144,1,0,0:0:0:0:
109,192,32196,1,0,0:0:0:0:
36,192,32196,1,0,0:0:0:0:
256,192,32249,1,0,0:0:0:0:
329,192,32249,1,0,0:0:0:0:
402,192,32301,1,0,0:0:0:0:
475,192,32301,1,0,0:0:0:0:
36,192,32354,1,0,0:0:0:0:
109,192,32354,1,0,0:0:0:0:
182,192,32406,1,0,0:0:0:0:
256,192,32406,1,0,0:0:0:0:
402,192,32459,1,0,0:0:0:0:
475,192,32459,1,0,0:0:0:0:
109,192,32511,1,0,0:0:0:0:
36,192,32511,1,0,0:0:0:0:
256,192,32564,128,0,34242:0:0:0:0:
329,192,32564,1,0,0:0:0:0:
182,192,32564,1,0,0:0:0:0:
36,192,32773,128,0,32983:0:0:0:0:
475,192,32983,128,0,33193:0:0:0:0:
182,192,33193,128,0,33403:0:0:0:0:
109,192,33193,128,0,33403:0:0:0:0:
329,192,33403,128,0,33613:0:0:0:0:
402,192,33403,128,0,33613:0:0:0:0:
182,192,33613,128,0,33822:0:0:0:0:
36,192,33613,128,0,33822:0:0:0:0:
329,192,33822,128,0,34032:0:0:0:0:
475,192,33822,128,0,34032:0:0:0:0:
182,192,34032,128,0,34242:0:0:0:0:
109,192,34032,128,0,34242:0:0:0:0:
329,192,34242,1,0,0:0:0:0:
475,192,34242,128,0,36759:0:0:0:0:
36,192,34242,128,0,34452:0:0:0:0:
402,192,34452,1,0,0:0:0:0:
109,192,34452,128,0,34662:0:0:0:0:
329,192,34662,1,0,0:0:0:0:
182,192,34662,128,0,34871:0:0:0:0:
402,192,34871,1,0,0:0:0:0:
256,192,34871,128,0,35081:0:0:0:0:
109,192,35081,1,0,0:0:0:0:
182,192,35081,128,0,35920:0:0:0:0:
402,192,35291,1,0,0:0:0:0:
109,192,35501,1,0,0:0:0:0:
402,192,35710,1,0,0:0:0:0:
256,192,35920,128,0,37599:0:0:0:0:
329,192,35920,1,0,0:0:0:0:
36,192,35920,128,0,36130:0:0:0:0:
402,192,36130,1,0,0:0:0:0:
182,192,36130,128,0,36340:0:0:0:0:
36,192,36340,1,0,0:0:0:0:
329,192,36340,128,0,36550:0:0:0:0:
402,192,36550,1,0,0:0:0:0:
109,192,36550,128,0,36759:0:0:0:0:
36,192,36759,128,0,39277:0:0:0:0:
182,192,36759,1,0,0:0:0:0:
329,192,36759,128,0,37599:0:0:0:0:
402,192,36969,1,0,0:0:0:0:
109,192,37179,1,0,0:0:0:0:
182,192,37389,1,0,0:0:0:0:
109,192,37599,1,0,0:0:0:0:
475,192,37599,128,0,39277:0:0:0:0:
402,192,37599,128,0,37808:0:0:0:0:
182,192,37808,1,0,0:0:0:0:
329,192,37808,128,0,38018:0:0:0:0:
109,192,38018,1,0,0:0:0:0:
256,192,38018,128,0,38228:0:0:0:0:
329,192,38228,1,0,0:0:0:0:
182,192,38228,128,0,38438:0:0:0:0:
402,192,38438,1,0,0:0:0:0:
256,192,38438,128,0,38857:0:0:0:0:
109,192,38648,1,0,0:0:0:0:
329,192,38857,1,0,0:0:0:0:
182,192,39067,1,0,0:0:0:0:
182,192,39277,128,0,39382:0:0:0:0:
329,192,39277,128,0,39382:0:0:0:0:
36,192,39382,128,0,39487:0:0:0:0:
402,192,39382,128,0,39487:0:0:0:0:
182,192,39487,128,0,39592:0:0:0:0:
329,192,39487,128,0,39592:0:0:0:0:
109,192,39592,128,0,39696:0:0:0:0:
475,192,39592,128,0,39696:0:0:0:0:
36,192,39696,128,0,39801:0:0:0:0:
402,192,39696,128,0,39801:0:0:0:0:
182,192,39801,128,0,39906:0:0:0:0:
329,192,39801,128,0,39906:0:0:0:0:
36,192,39906,128,0,40011:0:0:0:0:
475,192,39906,128,0,40011:0:0:0:0:
109,192,40011,128,0,40116:0:0:0:0:
402,192,40011,128,0,40116:0:0:0:0:
182,192,40116,128,0,40536:0:0:0:0:
256,192,40116,1,0,0:0:0:0:
329,192,40116,128,0,40536:0:0:0:0:
109,192,40536,128,0,40955:0:0:0:0:
256,192,40536,1,0,0:0:0:0:
402,192,40536,128,0,40955:0:0:0:0:
36,192,40955,128,0,43473:0:0:0:0:
182,192,40955,1,0,0:0:0:0:
256,192,40955,1,0,0:0:0:0:
475,192,40955,1,0,0:0:0:0:
329,192,40955,128,0,41165:0:0:0:0:
256,192,41165,1,0,0:0:0:0:
109,192,41165,128,0,41375:0:0:0:0:
402,192,41270,1,0,0:0:0:0:
475,192,41270,1,0,0:0:0:0:
182,192,41375,1,0,0:0:0:0:
329,192,41375,1,0,0:0:0:0:
256,192,41375,128,0,41585:0:0:0:0:
402,192,41585,128,0,41794:0:0:0:0:
475,192,41585,1,0,0:0:0:0:
109,192,41794,1,0,0:0:0:0:
256,192,41794,1,0,0:0:0:0:
329,192,41794,1,0,0:0:0:0:
475,192,42004,1,0,0:0:0:0:
402,192,42004,1,0,0:0:0:0:
109,192,42109,1,0,0:0:0:0:
182,192,42109,1,0,0:0:0:0:
256,192,42214,1,0,0:0:0:0:
475,192,42214,1,0,0:0:0:0:
329,192,42214,1,0,0:0:0:0:
109,192,42424,128,0,42634:0:0:0:0:
402,192,42424,1,0,0:0:0:0:
256,192,42634,128,0,44312:0:0:0:0:
329,192,42634,1,0,0:0:0:0:
475,192,42634,1,0,0:0:0:0:
182,192,42634,128,0,42843:0:0:0:0:
109,192,42843,1,0,0:0:0:0:
329,192,42843,1,0,0:0:0:0:
402,192,42948,1,0,0:0:0:0:
475,192,42948,1,0,0:0:0:0:
109,192,43053,1,0,0:0:0:0:
182,192,43053,1,0,0:0:0:0:
329,192,43053,128,0,43263:0:0:0:0:
402,192,43263,128,0,43473:0:0:0:0:
182,192,43263,1,0,0:0:0:0:
109,192,43473,1,0,0:0:0:0:
182,192,43473,1,0,0:0:0:0:
329,192,43473,1,0,0:0:0:0:
475,192,43473,128,0,45151:0:0:0:0:
402,192,43682,1,0,0:0:0:0:
329,192,43682,1,0,0:0:0:0:
109,192,43787,1,0,0:0:0:0:
36,192,43787,1,0,0:0:0:0:
329,192,43892,1,0,0:0:0:0:
182,192,43892,1,0,0:0:0:0:
402,192,43892,1,0,0:0:0:0:
329,192,44102,128,0,44312:0:0:0:0:
109,192,44102,1,0,0:0:0:0:
109,192,44312,128,0,45990:0:0:0:0:
182,192,44312,1,0,0:0:0:0:
402,192,44312,1,0,0:0:0:0:
36,192,44312,128,0,44522:0:0:0:0:
182,192,44522,1,0,0:0:0:0:
329,192,44522,1,0,0:0:0:0:
402,192,44627,1,0,0:0:0:0:
256,192,44627,1,0,0:0:0:0:
36,192,44731,1,0,0:0:0:0:
182,192,44731,1,0,0:0:0:0:
329,192,44731,128,0,44941:0:0:0:0:
182,192,44941,128,0,45151:0:0:0:0:
256,192,44941,1,0,0:0:0:0:
36,192,45151,1,0,0:0:0:0:
256,192,45151,1,0,0:0:0:0:
329,192,45151,1,0,0:0:0:0:
402,192,45151,128,0,46829:0:0:0:0:
329,192,45361,1,0,0:0:0:0:
182,192,45361,1,0,0:0:0:0:
36,192,45466,1,0,0:0:0:0:
256,192,45466,1,0,0:0:0:0:
182,192,45571,1,0,0:0:0:0:
329,192,45571,1,0,0:0:0:0:
475,192,45571,128,0,45780:0:0:0:0:
182,192,45780,128,0,45990:0:0:0:0:
329,192,45780,1,0,0:0:0:0:
256,192,45990,128,0,47669:0:0:0:0:
329,192,45990,1,0,0:0:0:0:
475,192,45990,1,0,0:0:0:0:
36,192,45990,128,0,46200:0:0:0:0:
182,192,46200,128,0,46410:0:0:0:0:
329,192,46410,1,0,0:0:0:0:
475,192,46410,1,0,0:0:0:0:
36,192,46410,128,0,46620:0:0:0:0:
109,192,46620,1,0,0:0:0:0:
329,192,46620,128,0,46829:0:0:0:0:
36,192,46829,1,0,0:0:0:0:
475,192,46829,1,0,0:0:0:0:
182,192,46829,128,0,47249:0:0:0:0:
109,192,47039,1,0,0:0:0:0:
36,192,47039,1,0,0:0:0:0:
402,192,47144,1,0,0:0:0:0:
475,192,47144,1,0,0:0:0:0:
329,192,47249,128,0,47669:0:0:0:0:
109,192,47249,1,0,0:0:0:0:
475,192,47354,1,0,0:0:0:0:
402,192,47354,1,0,0:0:0:0:
109,192,47459,1,0,0:0:0:0:
36,192,47459,1,0,0:0:0:0:
36,192,47669,128,0,48088:0:0:0:0:
109,192,47669,1,0,0:0:0:0:
182,192,47669,1,0,0:0:0:0:
402,192,47669,1,0,0:0:0:0:
475,192,47669,128,0,48088:0:0:0:0:
329,192,47773,1,0,0:0:0:0:
402,192,47878,1,0,0:0:0:0:
109,192,47878,1,0,0:0:0:0:
182,192,47983,1,0,0:0:0:0:
109,192,48088,1,0,0:0:0:0:
329,192,48088,1,0,0:0:0:0:
256,192,48088,1,0,0:0:0:0:
36,192,48298,128,0,48717:0:0:0:0:
109,192,48298,1,0,0:0:0:0:
182,192,48298,128,0,48717:0:0:0:0:
402,192,48298,1,0,0:0:0:0:
256,192,48508,1,0,0:0:0:0:
475,192,48508,1,0,0:0:0:0:
402,192,48613,1,0,0:0:0:0:
109,192,48717,1,0,0:0:0:0:
329,192,48717,1,0,0:0:0:0:
256,192,48822,1,0,0:0:0:0:
36,192,48927,1,0,0:0:0:0:
182,192,48927,128,0,49347:0:0:0:0:
329,192,48927,128,0,49347:0:0:0:0:
475,192,48927,1,0,0:0:0:0:
36,192,49137,1,0,0:0:0:0:
475,192,49137,1,0,0:0:0:0:
109,192,49347,1,0,0:0:0:0:
256,192,49347,128,0,49766:0:0:0:0:
402,192,49347,128,0,49766:0:0:0:0:
475,192,49347,1,0,0:0:0:0:
36,192,49452,1,0,0:0:0:0:
182,192,49557,1,0,0:0:0:0:
36,192,49662,1,0,0:0:0:0:
109,192,49766,1,0,0:0:0:0:
329,192,49766,1,0,0:0:0:0:
475,192,49766,1,0,0:0:0:0:
109,192,49976,1,0,0:0:0:0:
329,192,49976,128,0,50396:0:0:0:0:
402,192,49976,1,0,0:0:0:0:
475,192,49976,128,0,50396:0:0:0:0:
36,192,50186,1,0,0:0:0:0:
256,192,50186,1,0,0:0:0:0:
109,192,50291,1,0,0:0:0:0:
182,192,50396,1,0,0:0:0:0:
256,192,50501,1,0,0:0:0:0:
36,192,50606,1,0,0:0:0:0:
182,192,50606,128,0,51025:0:0:0:0:
329,192,50606,128,0,51025:0:0:0:0:
475,192,50606,1,0,0:0:0:0:
36,192,50815,1,0,0:0:0:0:
475,192,50815,1,0,0:0:0:0:
36,192,51025,1,0,0:0:0:0:
109,192,51025,128,0,51445:0:0:0:0:
256,192,51025,128,0,51445:0:0:0:0:
402,192,51025,1,0,0:0:0:0:
475,192,51130,1,0,0:0:0:0:
329,192,51235,1,0,0:0:0:0:
475,192,51340,1,0,0:0:0:0:
36,192,51445,1,0,0:0:0:0:
182,192,51445,1,0,0:0:0:0:
402,192,51445,1,0,0:0:0:0:
109,192,51655,128,0,52074:0:0:0:0:
256,192,51655,1,0,0:0:0:0:
329,192,51655,1,0,0:0:0:0:
402,192,51655,128,0,52074:0:0:0:0:
182,192,51864,1,0,0:0:0:0:
475,192,51864,1,0,0:0:0:0:
329,192,51969,1,0,0:0:0:0:
256,192,52074,1,0,0:0:0:0:
182,192,52179,1,0,0:0:0:0:
36,192,52284,128,0,52703:0:0:0:0:
109,192,52284,1,0,0:0:0:0:
402,192,52284,1,0,0:0:0:0:
475,192,52284,128,0,52703:0:0:0:0:
182,192,52494,1,0,0:0:0:0:
256,192,52494,1,0,0:0:0:0:
109,192,52703,128,0,53123:0:0:0:0:
182,192,52703,1,0,0:0:0:0:
329,192,52703,1,0,0:0:0:0:
402,192,52703,128,0,53123:0:0:0:0:
256,192,52808,1,0,0:0:0:0:
475,192,52913,1,0,0:0:0:0:
36,192,53018,1,0,0:0:0:0:
182,192,53123,1,0,0:0:0:0:
256,192,53123,1,0,0:0:0:0:
329,192,53123,1,0,0:0:0:0:
36,192,53333,1,0,0:0:0:0:
475,192,53333,1,0,0:0:0:0:
256,192,53333,128,0,53543:0:0:0:0:
329,192,53543,128,0,53752:0:0:0:0:
402,192,53543,1,0,0:0:0:0:
109,192,53543,128,0,53752:0:0:0:0:
182,192,53752,128,0,53962:0:0:0:0:
475,192,53752,128,0,53962:0:0:0:0:
36,192,53962,1,0,0:0:0:0:
402,192,53962,128,0,54172:0:0:0:0:
329,192,53962,1,0,0:0:0:0:
256,192,53962,128,0,54172:0:0:0:0:
109,192,54172,128,0,54382:0:0:0:0:
329,192,54172,128,0,54382:0:0:0:0:
36,192,54382,1,0,0:0:0:0:
182,192,54382,1,0,0:0:0:0:
475,192,54382,1,0,0:0:0:0:
256,192,54382,1,0,0:0:0:0:
402,192,54487,1,0,0:0:0:0:
329,192,54592,1,0,0:0:0:0:
256,192,54696,1,0,0:0:0:0:
36,192,54801,1,0,0:0:0:0:
182,192,54801,128,0,55221:0:0:0:0:
329,192,55011,128,0,55431:0:0:0:0:
475,192,55011,1,0,0:0:0:0:
36,192,55221,128,0,55641:0:0:0:0:
109,192,55221,1,0,0:0:0:0:
256,192,55221,1,0,0:0:0:0:
402,192,55326,1,0,0:0:0:0:
182,192,55431,1,0,0:0:0:0:
475,192,55431,128,0,55850:0:0:0:0:
256,192,55536,1,0,0:0:0:0:
109,192,55641,128,0,56060:0:0:0:0:
329,192,55641,1,0,0:0:0:0:
182,192,55850,1,0,0:0:0:0:
402,192,55850,128,0,56270:0:0:0:0:
36,192,56060,1,0,0:0:0:0:
256,192,56060,1,0,0:0:0:0:
329,192,56060,1,0,0:0:0:0:
475,192,56060,128,0,56480:0:0:0:0:
182,192,56165,1,0,0:0:0:0:
109,192,56270,1,0,0:0:0:0:
329,192,56270,128,0,56689:0:0:0:0:
256,192,56375,1,0,0:0:0:0:
36,192,56480,128,0,56899:0:0:0:0:
182,192,56480,1,0,0:0:0:0:
182,192,56689,128,0,57109:0:0:0:0:
402,192,56689,1,0,0:0:0:0:
109,192,56899,1,0,0:0:0:0:
256,192,56899,1,0,0:0:0:0:
475,192,56899,128,0,57319:0:0:0:0:
402,192,57004,1,0,0:0:0:0:
256,192,57109,1,0,0:0:0:0:
329,192,57109,128,0,57529:0:0:0:0:
109,192,57214,1,0,0:0:0:0:
182,192,57319,128,0,57738:0:0:0:0:
402,192,57319,1,0,0:0:0:0:
36,192,57529,1,0,0:0:0:0:
256,192,57529,128,0,57738:0:0:0:0:
109,192,57738,128,0,58578:0:0:0:0:
329,192,57738,1,0,0:0:0:0:
475,192,57738,128,0,58578:0:0:0:0:
402,192,57738,1,0,0:0:0:0:
36,192,57843,1,0,0:0:0:0:
182,192,57948,1,0,0:0:0:0:
329,192,58053,1,0,0:0:0:0:
256,192,58158,1,0,0:0:0:0:
182,192,58368,1,0,0:0:0:0:
329,192,58368,1,0,0:0:0:0:
36,192,58578,128,0,59417:0:0:0:0:
256,192,58578,1,0,0:0:0:0:
402,192,58578,128,0,59417:0:0:0:0:
182,192,58682,1,0,0:0:0:0:
329,192,58787,1,0,0:0:0:0:
475,192,58892,1,0,0:0:0:0:
109,192,58997,1,0,0:0:0:0:
182,192,59207,1,0,0:0:0:0:
329,192,59207,1,0,0:0:0:0:
109,192,59417,1,0,0:0:0:0:
182,192,59417,1,0,0:0:0:0:
256,192,59417,128,0,60256:0:0:0:0:
329,192,59417,1,0,0:0:0:0:
475,192,59522,1,0,0:0:0:0:
329,192,59627,1,0,0:0:0:0:
36,192,59731,1,0,0:0:0:0:
182,192,59836,1,0,0:0:0:0:
402,192,59836,1,0,0:0:0:0:
475,192,59836,1,0,0:0:0:0:
109,192,59941,1,0,0:0:0:0:
36,192,60046,1,0,0:0:0:0:
329,192,60046,1,0,0:0:0:0:
402,192,60151,1,0,0:0:0:0:
182,192,60256,128,0,60361:0:0:0:0:
475,192,60256,128,0,60361:0:0:0:0:
36,192,60361,128,0,60466:0:0:0:0:
329,192,60361,128,0,60466:0:0:0:0:
182,192,60466,128,0,60571:0:0:0:0:
402,192,60466,128,0,60571:0:0:0:0:
109,192,60571,128,0,60676:0:0:0:0:
329,192,60571,128,0,60676:0:0:0:0:
256,192,60676,128,0,60780:0:0:0:0:
475,192,60676,128,0,60780:0:0:0:0:
36,192,60780,128,0,60885:0:0:0:0:
329,192,60780,128,0,60885:0:0:0:0:
182,192,60885,128,0,60990:0:0:0:0:
475,192,60885,128,0,60990:0:0:0:0:
36,192,60990,128,0,61095:0:0:0:0:
256,192,60990,128,0,61095:0:0:0:0:
109,192,61095,128,0,62773:0:0:0:0:
182,192,61095,1,0,0:0:0:0:
329,192,61095,1,0,0:0:0:0:
402,192,61095,128,0,62773:0:0:0:0:
36,192,61410,1,0,0:0:0:0:
475,192,61410,1,0,0:0:0:0:
182,192,61724,1,0,0:0:0:0:
329,192,61724,1,0,0:0:0:0:
256,192,61934,128,0,62144:0:0:0:0:
475,192,62144,128,0,62354:0:0:0:0:
36,192,62144,128,0,62354:0:0:0:0:
329,192,62354,128,0,62564:0:0:0:0:
182,192,62354,128,0,62564:0:0:0:0:
256,192,62564,128,0,62773:0:0:0:0:
36,192,62773,128,0,63193:0:0:0:0:
182,192,62773,128,0,62878:0:0:0:0:
329,192,62773,128,0,63193:0:0:0:0:
475,192,62773,128,0,64452:0:0:0:0:
402,192,62878,128,0,62983:0:0:0:0:
109,192,62983,128,0,63088:0:0:0:0:
182,192,63088,128,0,63193:0:0:0:0:
109,192,63193,128,0,63613:0:0:0:0:
256,192,63193,128,0,63613:0:0:0:0:
402,192,63193,128,0,63403:0:0:0:0:
329,192,63403,128,0,63508:0:0:0:0:
36,192,63613,128,0,64032:0:0:0:0:
182,192,63613,128,0,63717:0:0:0:0:
329,192,63613,128,0,64032:0:0:0:0:
402,192,63717,128,0,63822:0:0:0:0:
109,192,63822,128,0,63927:0:0:0:0:
182,192,63927,128,0,64032:0:0:0:0:
109,192,64032,128,0,64452:0:0:0:0:
256,192,64032,128,0,64347:0:0:0:0:
402,192,64032,128,0,64242:0:0:0:0:
329,192,64242,128,0,64347:0:0:0:0:
36,192,64452,128,0,65291:0:0:0:0:
182,192,64452,128,0,64557:0:0:0:0:
256,192,64452,128,0,64871:0:0:0:0:
402,192,64452,128,0,64871:0:0:0:0:
329,192,64557,128,0,64662:0:0:0:0:
475,192,64662,128,0,64766:0:0:0:0:
109,192,64766,128,0,64871:0:0:0:0:
182,192,64871,128,0,65291:0:0:0:0:
329,192,64871,128,0,65186:0:0:0:0:
475,192,64871,128,0,65081:0:0:0:0:
402,192,65081,128,0,65186:0:0:0:0:
109,192,65291,128,0,65710:0:0:0:0:
256,192,65291,128,0,65710:0:0:0:0:
329,192,65291,128,0,65396:0:0:0:0:
475,192,65291,128,0,65920:0:0:0:0:
36,192,65396,128,0,65501:0:0:0:0:
182,192,65501,128,0,65606:0:0:0:0:
329,192,65606,128,0,65710:0:0:0:0:
36,192,65710,128,0,65920:0:0:0:0:
182,192,65710,128,0,65920:0:0:0:0:
402,192,65710,128,0,65920:0:0:0:0:
256,192,65920,128,0,66130:0:0:0:0:
329,192,65920,128,0,66130:0:0:0:0:
109,192,66130,128,0,67074:0:0:0:0:
402,192,66130,1,0,0:0:0:0:
475,192,66130,1,0,0:0:0:0:
36,192,66130,1,0,0:0:0:0:
182,192,66235,128,0,67599:0:0:0:0:
36,192,66340,128,0,66864:0:0:0:0:
256,192,66445,128,0,66759:0:0:0:0:
402,192,66550,128,0,67494:0:0:0:0:
475,192,66655,128,0,67284:0:0:0:0:
329,192,66759,128,0,67179:0:0:0:0:
256,192,66864,128,0,66969:0:0:0:0:
36,192,66969,128,0,67703:0:0:0:0:
256,192,67074,128,0,67389:0:0:0:0:
109,192,67179,128,0,68018:0:0:0:0:
329,192,67284,128,0,68333:0:0:0:0:
475,192,67389,128,0,68123:0:0:0:0:
256,192,67494,128,0,67808:0:0:0:0:
402,192,67599,128,0,68438:0:0:0:0:
182,192,67703,128,0,67913:0:0:0:0:
36,192,67808,128,0,68543:0:0:0:0:
256,192,67913,128,0,68228:0:0:0:0:
182,192,68018,128,0,68857:0:0:0:0:
109,192,68123,128,0,68752:0:0:0:0:
475,192,68228,128,0,68962:0:0:0:0:
256,192,68333,128,0,68648:0:0:0:0:
329,192,68438,128,0,69277:0:0:0:0:
402,192,68543,128,0,69172:0:0:0:0:
36,192,68648,128,0,68962:0:0:0:0:
256,192,68752,128,0,69067:0:0:0:0:
109,192,68857,128,0,69067:0:0:0:0:
182,192,68962,128,0,69172:0:0:0:0:
36,192,69067,1,0,0:0:0:0:
475,192,69067,128,0,69487:0:0:0:0:
109,192,69172,1,0,0:0:0:0:
256,192,69172,128,0,69277:0:0:0:0:
182,192,69277,1,0,0:0:0:0:
402,192,69277,128,0,69382:0:0:0:0:
256,192,69382,1,0,0:0:0:0:
329,192,69382,128,0,69487:0:0:0:0:
36,192,69487,128,0,71165:0:0:0:0:
109,192,69487,128,0,69906:0:0:0:0:
182,192,69487,128,0,69592:0:0:0:0:
402,192,69592,128,0,69696:0:0:0:0:
256,192,69696,128,0,69801:0:0:0:0:
475,192,69801,128,0,69906:0:0:0:0:
182,192,69906,128,0,70116:0:0:0:0:
329,192,69906,128,0,70326:0:0:0:0:
256,192,70116,128,0,70221:0:0:0:0:
109,192,70326,128,0,70745:0:0:0:0:
475,192,70326,128,0,70431:0:0:0:0:
182,192,70431,128,0,70536:0:0:0:0:
402,192,70536,128,0,70641:0:0:0:0:
256,192,70641,128,0,70745:0:0:0:0:
182,192,70745,128,0,70955:0:0:0:0:
329,192,70745,128,0,71165:0:0:0:0:
256,192,70955,128,0,71060:0:0:0:0:
182,192,71165,128,0,71270:0:0:0:0:
402,192,71165,128,0,71585:0:0:0:0:
475,192,71165,128,0,72004:0:0:0:0:
36,192,71270,128,0,71375:0:0:0:0:
256,192,71375,128,0,71480:0:0:0:0:
109,192,71480,128,0,71585:0:0:0:0:
182,192,71585,128,0,72004:0:0:0:0:
329,192,71585,128,0,71794:0:0:0:0:
256,192,71794,128,0,71899:0:0:0:0:
36,192,72004,128,0,72843:0:0:0:0:
109,192,72004,128,0,72424:0:0:0:0:
329,192,72004,128,0,72109:0:0:0:0:
475,192,72109,128,0,72214:0:0:0:0:
256,192,72214,128,0,72319:0:0:0:0:
402,192,72319,128,0,72424:0:0:0:0:
182,192,72424,128,0,72634:0:0:0:0:
329,192,72424,128,0,72843:0:0:0:0:
402,192,72634,128,0,72843:0:0:0:0:
256,192,72634,1,0,0:0:0:0:
109,192,72843,128,0,73053:0:0:0:0:
182,192,72843,128,0,73053:0:0:0:0:
256,192,72843,128,0,74522:0:0:0:0:
475,192,72843,128,0,73053:0:0:0:0:
36,192,73053,1,0,0:0:0:0:
402,192,73053,1,0,0:0:0:0:
182,192,73158,1,0,0:0:0:0:
329,192,73158,1,0,0:0:0:0:
109,192,73263,1,0,0:0:0:0:
402,192,73263,1,0,0:0:0:0:
182,192,73368,1,0,0:0:0:0:
475,192,73368,1,0,0:0:0:0:
36,192,73473,128,0,73682:0:0:0:0:
109,192,73473,128,0,73682:0:0:0:0:
329,192,73473,128,0,73682:0:0:0:0:
182,192,73682,1,0,0:0:0:0:
402,192,73682,1,0,0:0:0:0:
109,192,73787,1,0,0:0:0:0:
475,192,73787,1,0,0:0:0:0:
182,192,73892,1,0,0:0:0:0:
402,192,73892,1,0,0:0:0:0:
109,192,73997,1,0,0:0:0:0:
329,192,73997,1,0,0:0:0:0:
36,192,74102,128,0,74312:0:0:0:0:
402,192,74102,128,0,74312:0:0:0:0:
475,192,74102,128,0,74312:0:0:0:0:
182,192,74312,1,0,0:0:0:0:
109,192,74417,1,0,0:0:0:0:
36,192,74522,128,0,74836:0:0:0:0:
402,192,74522,128,0,74836:0:0:0:0:
475,192,74522,128,0,74836:0:0:0:0:
329,192,74522,128,0,74941:0:0:0:0:
109,192,74627,128,0,75256:0:0:0:0:
182,192,74731,128,0,75151:0:0:0:0:
256,192,74836,128,0,75046:0:0:0:0:
475,192,74941,128,0,75256:0:0:0:0:
402,192,74941,128,0,75361:0:0:0:0:
36,192,74941,128,0,75256:0:0:0:0:
329,192,75046,128,0,75466:0:0:0:0:
256,192,75151,128,0,75780:0:0:0:0:
182,192,75256,128,0,75466:0:0:0:0:
109,192,75361,128,0,75571:0:0:0:0:
36,192,75361,128,0,75676:0:0:0:0:
475,192,75361,128,0,75676:0:0:0:0:
402,192,75466,128,0,75676:0:0:0:0:
329,192,75571,128,0,75780:0:0:0:0:
182,192,75571,128,0,76095:0:0:0:0:
109,192,75676,128,0,75885:0:0:0:0:
402,192,75780,128,0,76095:0:0:0:0:
475,192,75780,128,0,76095:0:0:0:0:
36,192,75780,128,0,76095:0:0:0:0:
256,192,75885,128,0,75990:0:0:0:0:
329,192,75990,128,0,76095:0:0:0:0:
109,192,75990,128,0,76095:0:0:0:0:
256,192,76095,128,0,76200:0:0:0:0:
36,192,76200,128,0,76620:0:0:0:0:
182,192,76200,128,0,76620:0:0:0:0:
402,192,76200,128,0,76305:0:0:0:0:
475,192,76200,128,0,77878:0:0:0:0:
256,192,76305,128,0,76410:0:0:0:0:
109,192,76410,128,0,76515:0:0:0:0:
329,192,76515,128,0,76620:0:0:0:0:
109,192,76620,128,0,77039:0:0:0:0:
256,192,76620,128,0,77039:0:0:0:0:
402,192,76620,128,0,76829:0:0:0:0:
329,192,76829,128,0,76934:0:0:0:0:
36,192,77039,128,0,77459:0:0:0:0:
182,192,77039,128,0,77459:0:0:0:0:
402,192,77039,128,0,77144:0:0:0:0:
256,192,77144,128,0,77249:0:0:0:0:
109,192,77249,128,0,77354:0:0:0:0:
329,192,77354,128,0,77459:0:0:0:0:
109,192,77459,128,0,77878:0:0:0:0:
256,192,77459,128,0,77773:0:0:0:0:
402,192,77459,128,0,77669:0:0:0:0:
329,192,77669,128,0,77773:0:0:0:0:
36,192,77878,128,0,77983:0:0:0:0:
182,192,77878,128,0,78717:0:0:0:0:
256,192,77878,128,0,78298:0:0:0:0:
402,192,77878,128,0,78298:0:0:0:0:
329,192,77983,128,0,78088:0:0:0:0:
109,192,78088,128,0,78193:0:0:0:0:
475,192,78193,128,0,78298:0:0:0:0:
36,192,78298,128,0,78717:0:0:0:0:
109,192,78298,128,0,78613:0:0:0:0:
329,192,78298,128,0,78508:0:0:0:0:
402,192,78508,128,0,78613:0:0:0:0:
109,192,78717,128,0,79137:0:0:0:0:
256,192,78717,128,0,79137:0:0:0:0:
329,192,78717,128,0,79557:0:0:0:0:
475,192,78717,128,0,78822:0:0:0:0:
182,192,78822,128,0,78927:0:0:0:0:
402,192,78927,128,0,79032:0:0:0:0:
36,192,79032,128,0,79137:0:0:0:0:
182,192,79137,128,0,79347:0:0:0:0:
402,192,79137,128,0,79452:0:0:0:0:
475,192,79137,128,0,79557:0:0:0:0:
109,192,79347,128,0,79452:0:0:0:0:
36,192,79557,128,0,81235:0:0:0:0:
109,192,79557,128,0,79976:0:0:0:0:
256,192,79557,128,0,79976:0:0:0:0:
402,192,79557,128,0,79662:0:0:0:0:
182,192,79662,128,0,79766:0:0:0:0:
329,192,79766,128,0,79871:0:0:0:0:
402,192,79871,128,0,79976:0:0:0:0:
182,192,79976,128,0,80186:0:0:0:0:
329,192,79976,128,0,80396:0:0:0:0:
475,192,79976,128,0,80396:0:0:0:0:
109,192,80186,128,0,80291:0:0:0:0:
109,192,80396,128,0,80815:0:0:0:0:
256,192,80396,128,0,80815:0:0:0:0:
402,192,80396,128,0,80501:0:0:0:0:
182,192,80501,128,0,80606:0:0:0:0:
329,192,80606,128,0,80710:0:0:0:0:
402,192,80710,128,0,80815:0:0:0:0:
182,192,80815,128,0,81025:0:0:0:0:
329,192,80815,128,0,81235:0:0:0:0:
475,192,80815,128,0,81235:0:0:0:0:
109,192,81025,128,0,81130:0:0:0:0:
109,192,81235,128,0,81655:0:0:0:0:
182,192,81235,128,0,82074:0:0:0:0:
256,192,81235,128,0,81340:0:0:0:0:
402,192,81235,128,0,81655:0:0:0:0:
329,192,81340,128,0,81445:0:0:0:0:
475,192,81445,128,0,81550:0:0:0:0:
256,192,81550,128,0,81655:0:0:0:0:
36,192,81655,128,0,82074:0:0:0:0:
329,192,81655,128,0,81864:0:0:0:0:
475,192,81655,128,0,82074:0:0:0:0:
256,192,81864,128,0,81969:0:0:0:0:
109,192,82074,128,0,82494:0:0:0:0:
256,192,82074,128,0,82179:0:0:0:0:
329,192,82074,128,0,82913:0:0:0:0:
402,192,82074,128,0,82494:0:0:0:0:
182,192,82179,128,0,82284:0:0:0:0:
36,192,82284,128,0,82389:0:0:0:0:
256,192,82389,128,0,82494:0:0:0:0:
36,192,82494,128,0,82913:0:0:0:0:
182,192,82494,128,0,82703:0:0:0:0:
475,192,82494,128,0,82808:0:0:0:0:
256,192,82703,128,0,82808:0:0:0:0:
109,192,82913,128,0,83018:0:0:0:0:
256,192,82913,128,0,83333:0:0:0:0:
402,192,82913,128,0,83333:0:0:0:0:
475,192,82913,128,0,84592:0:0:0:0:
182,192,83018,128,0,83123:0:0:0:0:
329,192,83123,128,0,83228:0:0:0:0:
109,192,83228,128,0,83333:0:0:0:0:
36,192,83333,128,0,83752:0:0:0:0:
182,192,83333,128,0,83752:0:0:0:0:
329,192,83333,128,0,83543:0:0:0:0:
402,192,83543,128,0,83648:0:0:0:0:
109,192,83752,128,0,83857:0:0:0:0:
256,192,83752,128,0,84172:0:0:0:0:
402,192,83752,128,0,84172:0:0:0:0:
182,192,83857,128,0,83962:0:0:0:0:
329,192,83962,128,0,84067:0:0:0:0:
109,192,84067,128,0,84172:0:0:0:0:
36,192,84172,128,0,84592:0:0:0:0:
182,192,84172,128,0,84592:0:0:0:0:
329,192,84172,128,0,84382:0:0:0:0:
402,192,84382,128,0,84487:0:0:0:0:
109,192,84592,128,0,85431:0:0:0:0:
256,192,84592,128,0,85011:0:0:0:0:
329,192,84592,128,0,84696:0:0:0:0:
182,192,84696,128,0,84801:0:0:0:0:
475,192,84801,128,0,84906:0:0:0:0:
402,192,84906,128,0,85011:0:0:0:0:
182,192,85011,128,0,85221:0:0:0:0:
329,192,85011,128,0,85431:0:0:0:0:
475,192,85221,128,0,85326:0:0:0:0:
182,192,85431,128,0,85536:0:0:0:0:
256,192,85431,128,0,85850:0:0:0:0:
402,192,85431,128,0,86270:0:0:0:0:
329,192,85536,128,0,85641:0:0:0:0:
36,192,85641,128,0,85745:0:0:0:0:
109,192,85745,128,0,85850:0:0:0:0:
182,192,85850,128,0,86270:0:0:0:0:
329,192,85850,128,0,86060:0:0:0:0:
256,192,86060,128,0,86165:0:0:0:0:
36,192,86270,128,0,86480:0:0:0:0:
109,192,86270,128,0,87948:0:0:0:0:
329,192,86270,128,0,86480:0:0:0:0:
475,192,86270,128,0,86480:0:0:0:0:
256,192,86480,1,0,0:0:0:0:
402,192,86480,1,0,0:0:0:0:
182,192,86585,1,0,0:0:0:0:
475,192,86585,1,0,0:0:0:0:
256,192,86689,1,0,0:0:0:0:
402,192,86689,1,0,0:0:0:0:
182,192,86794,1,0,0:0:0:0:
475,192,86794,1,0,0:0:0:0:
36,192,86899,128,0,87109:0:0:0:0:
329,192,86899,128,0,87109:0:0:0:0:
402,192,86899,128,0,87109:0:0:0:0:
182,192,87109,1,0,0:0:0:0:
256,192,87109,1,0,0:0:0:0:
402,192,87214,1,0,0:0:0:0:
475,192,87214,1,0,0:0:0:0:
182,192,87319,1,0,0:0:0:0:
256,192,87319,1,0,0:0:0:0:
402,192,87424,1,0,0:0:0:0:
475,192,87424,1,0,0:0:0:0:
36,192,87529,128,0,87738:0:0:0:0:
256,192,87529,128,0,87738:0:0:0:0:
329,192,87529,128,0,87738:0:0:0:0:
182,192,87738,1,0,0:0:0:0:
402,192,87738,1,0,0:0:0:0:
256,192,87843,1,0,0:0:0:0:
329,192,87843,1,0,0:0:0:0:
36,192,87948,128,0,88158:0:0:0:0:
182,192,87948,128,0,88158:0:0:0:0:
402,192,87948,128,0,89627:0:0:0:0:
475,192,87948,128,0,88158:0:0:0:0:
109,192,88158,1,0,0:0:0:0:
256,192,88158,1,0,0:0:0:0:
36,192,88263,1,0,0:0:0:0:
329,192,88263,1,0,0:0:0:0:
109,192,88368,1,0,0:0:0:0:
256,192,88368,1,0,0:0:0:0:
36,192,88473,1,0,0:0:0:0:
329,192,88473,1,0,0:0:0:0:
109,192,88578,128,0,88787:0:0:0:0:
182,192,88578,128,0,88787:0:0:0:0:
475,192,88578,128,0,88787:0:0:0:0:
256,192,88787,1,0,0:0:0:0:
329,192,88787,1,0,0:0:0:0:
36,192,88892,1,0,0:0:0:0:
109,192,88892,1,0,0:0:0:0:
256,192,88997,1,0,0:0:0:0:
329,192,88997,1,0,0:0:0:0:
36,192,89102,1,0,0:0:0:0:
109,192,89102,1,0,0:0:0:0:
182,192,89207,128,0,89417:0:0:0:0:
256,192,89207,128,0,89417:0:0:0:0:
475,192,89207,128,0,89417:0:0:0:0:
36,192,89417,1,0,0:0:0:0:
329,192,89417,1,0,0:0:0:0:
109,192,89522,1,0,0:0:0:0:
182,192,89522,1,0,0:0:0:0:
36,192,89627,128,0,89731:0:0:0:0:
256,192,89627,128,0,90256:0:0:0:0:
329,192,89627,1,0,0:0:0:0:
475,192,89627,128,0,90256:0:0:0:0:
182,192,89731,128,0,89836:0:0:0:0:
109,192,89836,128,0,89941:0:0:0:0:
182,192,89941,128,0,90046:0:0:0:0:
36,192,90046,1,0,0:0:0:0:
109,192,90046,1,0,0:0:0:0:
329,192,90046,128,0,90256:0:0:0:0:
402,192,90046,1,0,0:0:0:0:
402,192,90256,128,0,90466:0:0:0:0:
182,192,90256,1,0,0:0:0:0:
36,192,90466,128,0,91095:0:0:0:0:
182,192,90466,1,0,0:0:0:0:
256,192,90466,128,0,91095:0:0:0:0:
329,192,90466,128,0,90571:0:0:0:0:
109,192,90466,1,0,0:0:0:0:
475,192,90571,128,0,90676:0:0:0:0:
402,192,90676,128,0,90780:0:0:0:0:
329,192,90780,128,0,90885:0:0:0:0:
109,192,90885,1,0,0:0:0:0:
182,192,90885,128,0,91095:0:0:0:0:
402,192,90885,1,0,0:0:0:0:
475,192,90885,1,0,0:0:0:0:
109,192,91095,1,0,0:0:0:0:
402,192,91095,128,0,91305:0:0:0:0:
36,192,91305,128,0,91410:0:0:0:0:
182,192,91305,1,0,0:0:0:0:
256,192,91305,1,0,0:0:0:0:
109,192,91410,1,0,0:0:0:0:
329,192,91410,1,0,0:0:0:0:
475,192,91410,128,0,91515:0:0:0:0:
36,192,91515,128,0,91620:0:0:0:0:
256,192,91515,1,0,0:0:0:0:
402,192,91515,1,0,0:0:0:0:
109,192,91620,1,0,0:0:0:0:
182,192,91620,1,0,0:0:0:0:
475,192,91620,128,0,91724:0:0:0:0:
36,192,91724,128,0,91829:0:0:0:0:
256,192,91724,1,0,0:0:0:0:
329,192,91724,1,0,0:0:0:0:
182,192,91829,1,0,0:0:0:0:
402,192,91829,1,0,0:0:0:0:
475,192,91829,128,0,91934:0:0:0:0:
36,192,91934,128,0,92039:0:0:0:0:
109,192,91934,1,0,0:0:0:0:
256,192,91934,1,0,0:0:0:0:
329,192,92039,1,0,0:0:0:0:
402,192,92039,1,0,0:0:0:0:
475,192,92039,128,0,92170:0:0:0:0:
36,192,92144,1,0,0:0:0:0:
182,192,92144,128,0,92249:0:0:0:0:
256,192,92144,1,0,0:0:0:0:
109,192,92249,1,0,0:0:0:0:
329,192,92249,128,0,92354:0:0:0:0:
475,192,92249,1,0,0:0:0:0:
36,192,92354,1,0,0:0:0:0:
182,192,92354,128,0,92459:0:0:0:0:
256,192,92354,1,0,0:0:0:0:
329,192,92459,128,0,92564:0:0:0:0:
402,192,92459,1,0,0:0:0:0:
475,192,92459,1,0,0:0:0:0:
36,192,92564,1,0,0:0:0:0:
182,192,92564,128,0,92669:0:0:0:0:
256,192,92564,1,0,0:0:0:0:
109,192,92669,1,0,0:0:0:0:
329,192,92669,128,0,92773:0:0:0:0:
475,192,92669,1,0,0:0:0:0:
36,192,92773,1,0,0:0:0:0:
182,192,92773,128,0,92878:0:0:0:0:
256,192,92773,1,0,0:0:0:0:
329,192,92878,128,0,92983:0:0:0:0:
402,192,92878,1,0,0:0:0:0:
475,192,92878,1,0,0:0:0:0:
36,192,92983,1,0,0:0:0:0:
109,192,92983,1,0,0:0:0:0:
182,192,92983,128,0,93088:0:0:0:0:
256,192,92983,1,0,0:0:0:0:
329,192,93088,128,0,93193:0:0:0:0:
402,192,93088,1,0,0:0:0:0:
475,192,93088,1,0,0:0:0:0:
36,192,93193,1,0,0:0:0:0:
109,192,93193,128,0,93298:0:0:0:0:
182,192,93193,1,0,0:0:0:0:
256,192,93193,1,0,0:0:0:0:
329,192,93298,1,0,0:0:0:0:
402,192,93298,128,0,93403:0:0:0:0:
475,192,93298,1,0,0:0:0:0:
36,192,93403,1,0,0:0:0:0:
109,192,93403,1,0,0:0:0:0:
182,192,93403,128,0,93508:0:0:0:0:
256,192,93403,1,0,0:0:0:0:
329,192,93508,128,0,93613:0:0:0:0:
402,192,93508,1,0,0:0:0:0:
475,192,93508,1,0,0:0:0:0:
36,192,93613,128,0,93717:0:0:0:0:
109,192,93613,1,0,0:0:0:0:
182,192,93613,1,0,0:0:0:0:
256,192,93613,1,0,0:0:0:0:
329,192,93717,1,0,0:0:0:0:
402,192,93717,1,0,0:0:0:0:
475,192,93717,128,0,93822:0:0:0:0:
36,192,93822,1,0,0:0:0:0:
109,192,93822,1,0,0:0:0:0:
182,192,93822,128,0,94032:0:0:0:0:
402,192,93927,1,0,0:0:0:0:
475,192,93927,1,0,0:0:0:0:
36,192,94032,1,0,0:0:0:0:
109,192,94032,1,0,0:0:0:0:
329,192,94032,128,0,94242:0:0:0:0:
402,192,94137,1,0,0:0:0:0:
475,192,94137,1,0,0:0:0:0:
109,192,94242,1,0,0:0:0:0:
36,192,94242,1,0,0:0:0:0:
182,192,94294,1,0,0:0:0:0:
256,192,94294,1,0,0:0:0:0:
475,192,94347,1,0,0:0:0:0:
402,192,94347,1,0,0:0:0:0:
36,192,94399,1,0,0:0:0:0:
109,192,94399,1,0,0:0:0:0:
329,192,94452,1,0,0:0:0:0:
256,192,94452,1,0,0:0:0:0:
402,192,94504,1,0,0:0:0:0:
475,192,94504,1,0,0:0:0:0:
36,192,94557,1,0,0:0:0:0:
109,192,94557,1,0,0:0:0:0:
329,192,94609,1,0,0:0:0:0:
182,192,94609,1,0,0:0:0:0:
475,192,94662,1,0,0:0:0:0:
402,192,94662,1,0,0:0:0:0:
256,192,94662,1,0,0:0:0:0:
109,192,94662,1,0,0:0:0:0:
36,192,94662,1,0,0:0:0:0:
