osu file format v14

[General]
AudioFilename: audio.mp3
AudioLeadIn: 0
PreviewTime: 124242
Countdown: 0
SampleSet: Soft
StackLeniency: 0.7
Mode: 3
LetterboxInBreaks: 0
SpecialStyle: 0
WidescreenStoryboard: 0

[Editor]
DistanceSpacing: 0.8
BeatDivisor: 8
GridSize: 8
TimelineZoom: 1.9

[Metadata]
Title:only my railgun
TitleUnicode:only my railgun
Artist:fripSide
ArtistUnicode:fripSide
Creator:arcwinolivirus
Version:O2JAM LV 44 REMASTERED
Source:Toaru Kagaku no Railgun
Tags:とある科学の超電磁砲 keweft d12rwin
BeatmapID:1989994
BeatmapSetID:953083

[Difficulty]
HPDrainRate:8
CircleSize:7
OverallDifficulty:8
ApproachRate:5
SliderMultiplier:1.4
SliderTickRate:1

[Events]
//Background and Video events
0,0,"background.jpg",0,0
//Break Periods
//Storyboard Layer 0 (Background)
//Storyboard Layer 1 (Fail)
//Storyboard Layer 2 (Pass)
//Storyboard Layer 3 (Foreground)
//Storyboard Sound Samples

[TimingPoints]
676,419.58041958042,4,2,1,40,1,0
12424,-133.333333333333,4,2,1,40,0,0
13682,-125,4,2,1,40,0,0
13787,-117.647058823529,4,2,1,40,0,0
13892,-111.111111111111,4,2,1,40,0,0
13997,-105.263157894737,4,2,1,40,0,0
14102,-100,4,2,1,40,0,0
32564,-133.333333333333,4,2,1,40,0,0
33822,-125,4,2,1,40,0,0
34032,-117.647058823529,4,2,1,40,0,0
34242,-111.111111111111,4,2,1,40,0,0
39277,-105.263157894737,4,2,1,40,0,0
39696,-100,4,2,1,40,0,0
40116,-66.6666666666667,4,2,1,40,0,0
40221,-200,4,2,1,40,0,0
40536,-66.6666666666667,4,2,1,40,0,0
40641,-200,4,2,1,40,0,0
40955,-100,4,2,1,40,0,0
61095,-66.6666666666667,4,2,1,40,0,0
61200,-200,4,2,1,40,0,0
61410,-66.6666666666667,4,2,1,40,0,0
61515,-200,4,2,1,40,0,0
61724,-66.6666666666667,4,2,1,40,0,0
61829,-200,4,2,1,40,0,0
61934,-133.333333333333,4,2,1,40,0,0
62144,-125,4,2,1,40,0,0
62354,-117.647058823529,4,2,1,40,0,0
62564,-111.111111111111,4,2,1,40,0,0
62669,-105.263157894737,4,2,1,40,0,0
62773,-100,4,2,1,40,0,1
74522,-100,4,2,1,40,0,0
76200,-100,4,2,1,40,0,1
94662,-133.333333333333,4,2,1,40,0,0
95920,-125,4,2,1,40,0,0
96130,-117.647058823529,4,2,1,40,0,0
96340,-111.111111111111,4,2,1,40,0,0
101375,-105.263157894737,4,2,1,40,0,0
101794,-100,4,2,1,40,0,0
102214,-66.6666666666667,4,2,1,40,0,0
102319,-200,4,2,1,40,0,0
102634,-66.6666666666667,4,2,1,40,0,0
102738,-200,4,2,1,40,0,0
103053,-100,4,2,1,40,0,0
123193,-66.6666666666667,4,2,1,40,0,0
123298,-200,4,2,1,40,0,0
123508,-66.6666666666667,4,2,1,40,0,0
123613,-200,4,2,1,40,0,0
123822,-66.6666666666667,4,2,1,40,0,0
123927,-200,4,2,1,40,0,0
124032,-133.333333333333,4,2,1,40,0,0
124242,-125,4,2,1,40,0,0
124452,-117.647058823529,4,2,1,40,0,0
124662,-111.111111111111,4,2,1,40,0,0
124766,-105.263157894737,4,2,1,40,0,0
124871,-100,4,2,1,40,0,1
136620,-100,4,2,1,40,0,0
138298,-100,4,2,1,40,0,1
156759,-100,4,2,1,40,0,0
168508,-133.333333333333,4,2,1,40,0,0
169137,-125,4,2,1,40,0,0
169557,-117.647058823529,4,2,1,40,0,0
169976,-111.111111111111,4,2,1,40,0,0
170081,-105.263157894737,4,2,1,40,0,0
170186,-100,4,2,1,40,0,1
183403,-133.333333333333,4,2,1,40,0,0
198717,-128.205128205128,4,2,1,40,0,0
202074,-123.456790123457,4,2,1,40,0,0
205431,-119.047619047619,4,2,1,40,0,0
208787,-114.942528735632,4,2,1,40,0,0
210466,-111.111111111111,4,2,1,40,0,0
210885,-107.52688172043,4,2,1,40,0,0
211305,-105.263157894737,4,2,1,40,0,0
211724,-103.092783505155,4,2,1,40,0,0
212144,-100,4,2,1,40,0,1
223892,-100,4,2,1,40,0,0
225571,-100,4,2,1,40,0,1
243822,-100,4,2,1,40,0,0

[HitObjects]
36,192,676,5,0,0:0:0:0:
256,192,676,1,0,0:0:0:0:
329,192,676,1,0,0:0:0:0:
182,192,780,1,0,0:0:0:0:
402,192,780,1,0,0:0:0:0:
182,192,885,1,0,0:0:0:0:
402,192,885,1,0,0:0:0:0:
182,192,1095,1,0,0:0:0:0:
256,192,1095,1,0,0:0:0:0:
402,192,1095,1,0,0:0:0:0:
109,192,1305,1,0,0:0:0:0:
329,192,1305,1,0,0:0:0:0:
109,192,1410,1,0,0:0:0:0:
329,192,1410,1,0,0:0:0:0:
36,192,1515,1,0,0:0:0:0:
256,192,1515,1,0,0:0:0:0:
475,192,1515,1,0,0:0:0:0:
109,192,1724,1,0,0:0:0:0:
402,192,1724,1,0,0:0:0:0:
182,192,1934,1,0,0:0:0:0:
256,192,1934,1,0,0:0:0:0:
329,192,1934,1,0,0:0:0:0:
36,192,2144,1,0,0:0:0:0:
475,192,2144,1,0,0:0:0:0:
36,192,2249,1,0,0:0:0:0:
475,192,2249,1,0,0:0:0:0:
182,192,2354,1,0,0:0:0:0:
256,192,2354,1,0,0:0:0:0:
329,192,2354,1,0,0:0:0:0:
109,192,2564,1,0,0:0:0:0:
402,192,2564,1,0,0:0:0:0:
182,192,2773,1,0,0:0:0:0:
329,192,2773,1,0,0:0:0:0:
475,192,2773,1,0,0:0:0:0:
109,192,2983,1,0,0:0:0:0:
402,192,2983,1,0,0:0:0:0:
109,192,3088,1,0,0:0:0:0:
402,192,3088,1,0,0:0:0:0:
329,192,3193,1,0,0:0:0:0:
182,192,3193,1,0,0:0:0:0:
256,192,3193,1,0,0:0:0:0:
402,192,3403,1,0,0:0:0:0:
109,192,3403,1,0,0:0:0:0:
256,192,3613,1,0,0:0:0:0:
36,192,3613,1,0,0:0:0:0:
475,192,3613,1,0,0:0:0:0:
109,192,3822,1,0,0:0:0:0:
329,192,3822,1,0,0:0:0:0:
109,192,3927,1,0,0:0:0:0:
329,192,3927,1,0,0:0:0:0:
36,192,4032,1,0,0:0:0:0:
475,192,4032,1,0,0:0:0:0:
256,192,4032,1,0,0:0:0:0:
182,192,4137,1,0,0:0:0:0:
402,192,4137,1,0,0:0:0:0:
182,192,4242,1,0,0:0:0:0:
402,192,4242,1,0,0:0:0:0:
329,192,4452,1,0,0:0:0:0:
109,192,4452,1,0,0:0:0:0:
402,192,4452,1,0,0:0:0:0:
36,192,4662,1,0,0:0:0:0:
329,192,4662,1,0,0:0:0:0:
36,192,4766,1,0,0:0:0:0:
329,192,4766,1,0,0:0:0:0:
182,192,4871,1,0,0:0:0:0:
109,192,4871,1,0,0:0:0:0:
402,192,4871,1,0,0:0:0:0:
109,192,5081,1,0,0:0:0:0:
402,192,5081,1,0,0:0:0:0:
182,192,5291,1,0,0:0:0:0:
256,192,5291,1,0,0:0:0:0:
329,192,5291,1,0,0:0:0:0:
36,192,5501,1,0,0:0:0:0:
475,192,5501,1,0,0:0:0:0:
36,192,5606,1,0,0:0:0:0:
475,192,5606,1,0,0:0:0:0:
256,192,5710,1,0,0:0:0:0:
329,192,5710,1,0,0:0:0:0:
182,192,5710,1,0,0:0:0:0:
109,192,5920,1,0,0:0:0:0:
402,192,5920,1,0,0:0:0:0:
329,192,6130,1,0,0:0:0:0:
182,192,6130,1,0,0:0:0:0:
256,192,6130,1,0,0:0:0:0:
109,192,6340,1,0,0:0:0:0:
402,192,6340,1,0,0:0:0:0:
109,192,6445,1,0,0:0:0:0:
402,192,6445,1,0,0:0:0:0:
256,192,6550,1,0,0:0:0:0:
475,192,6550,1,0,0:0:0:0:
36,192,6550,1,0,0:0:0:0:
402,192,6759,1,0,0:0:0:0:
182,192,6759,1,0,0:0:0:0:
36,192,6969,1,0,0:0:0:0:
109,192,6969,1,0,0:0:0:0:
475,192,6969,1,0,0:0:0:0:
402,192,7022,1,0,0:0:0:0:
329,192,7074,1,0,0:0:0:0:
256,192,7127,1,0,0:0:0:0:
109,192,7179,1,0,0:0:0:0:
182,192,7179,1,0,0:0:0:0:
475,192,7231,1,0,0:0:0:0:
402,192,7284,1,0,0:0:0:0:
329,192,7284,1,0,0:0:0:0:
36,192,7389,1,0,0:0:0:0:
109,192,7389,1,0,0:0:0:0:
256,192,7389,1,0,0:0:0:0:
182,192,7494,1,0,0:0:0:0:
402,192,7494,1,0,0:0:0:0:
182,192,7599,1,0,0:0:0:0:
402,192,7599,1,0,0:0:0:0:
256,192,7599,1,0,0:0:0:0:
109,192,7808,1,0,0:0:0:0:
182,192,7808,1,0,0:0:0:0:
475,192,7808,1,0,0:0:0:0:
36,192,8018,1,0,0:0:0:0:
256,192,8018,1,0,0:0:0:0:
402,192,8018,1,0,0:0:0:0:
36,192,8123,1,0,0:0:0:0:
402,192,8123,1,0,0:0:0:0:
182,192,8228,1,0,0:0:0:0:
329,192,8228,1,0,0:0:0:0:
475,192,8228,1,0,0:0:0:0:
109,192,8438,1,0,0:0:0:0:
256,192,8438,1,0,0:0:0:0:
402,192,8438,1,0,0:0:0:0:
36,192,8648,1,0,0:0:0:0:
182,192,8648,1,0,0:0:0:0:
329,192,8648,1,0,0:0:0:0:
36,192,8857,1,0,0:0:0:0:
256,192,8857,1,0,0:0:0:0:
475,192,8857,1,0,0:0:0:0:
36,192,8962,1,0,0:0:0:0:
475,192,8962,1,0,0:0:0:0:
182,192,9067,1,0,0:0:0:0:
329,192,9067,1,0,0:0:0:0:
109,192,9067,1,0,0:0:0:0:
109,192,9277,1,0,0:0:0:0:
256,192,9277,1,0,0:0:0:0:
402,192,9277,1,0,0:0:0:0:
36,192,9487,1,0,0:0:0:0:
182,192,9487,1,0,0:0:0:0:
475,192,9487,1,0,0:0:0:0:
109,192,9696,1,0,0:0:0:0:
256,192,9696,1,0,0:0:0:0:
402,192,9696,1,0,0:0:0:0:
109,192,9801,1,0,0:0:0:0:
402,192,9801,1,0,0:0:0:0:
329,192,9906,1,0,0:0:0:0:
182,192,9906,1,0,0:0:0:0:
256,192,9906,1,0,0:0:0:0:
36,192,10011,1,0,0:0:0:0:
475,192,10011,1,0,0:0:0:0:
109,192,10116,1,0,0:0:0:0:
256,192,10116,1,0,0:0:0:0:
402,192,10116,1,0,0:0:0:0:
329,192,10221,1,0,0:0:0:0:
182,192,10221,1,0,0:0:0:0:
36,192,10326,1,0,0:0:0:0:
109,192,10326,1,0,0:0:0:0:
475,192,10326,1,0,0:0:0:0:
256,192,10431,1,0,0:0:0:0:
402,192,10431,1,0,0:0:0:0:
182,192,10536,1,0,0:0:0:0:
109,192,10536,1,0,0:0:0:0:
329,192,10536,1,0,0:0:0:0:
182,192,10641,1,0,0:0:0:0:
329,192,10641,1,0,0:0:0:0:
109,192,10745,1,0,0:0:0:0:
475,192,10745,128,0,11375:0:0:0:0:
402,192,10745,1,0,0:0:0:0:
256,192,10745,1,0,0:0:0:0:
36,192,10850,1,0,0:0:0:0:
329,192,10850,1,0,0:0:0:0:
182,192,10955,1,0,0:0:0:0:
402,192,10955,1,0,0:0:0:0:
109,192,11060,1,0,0:0:0:0:
256,192,11060,1,0,0:0:0:0:
36,192,11165,1,0,0:0:0:0:
402,192,11165,1,0,0:0:0:0:
329,192,11165,1,0,0:0:0:0:
182,192,11270,1,0,0:0:0:0:
256,192,11270,1,0,0:0:0:0:
109,192,11375,1,0,0:0:0:0:
36,192,11375,128,0,12004:0:0:0:0:
329,192,11375,1,0,0:0:0:0:
182,192,11480,1,0,0:0:0:0:
402,192,11480,1,0,0:0:0:0:
109,192,11585,1,0,0:0:0:0:
475,192,11585,1,0,0:0:0:0:
256,192,11585,1,0,0:0:0:0:
402,192,11689,1,0,0:0:0:0:
329,192,11689,1,0,0:0:0:0:
256,192,11794,1,0,0:0:0:0:
182,192,11794,1,0,0:0:0:0:
109,192,11899,1,0,0:0:0:0:
329,192,11899,1,0,0:0:0:0:
402,192,12004,1,0,0:0:0:0:
475,192,12004,1,0,0:0:0:0:
329,192,12057,1,0,0:0:0:0:
182,192,12057,1,0,0:0:0:0:
109,192,12109,1,0,0:0:0:0:
36,192,12109,1,0,0:0:0:0:
475,192,12162,1,0,0:0:0:0:
402,192,12162,1,0,0:0:0:0:
182,192,12214,1,0,0:0:0:0:
329,192,12214,1,0,0:0:0:0:
109,192,12266,1,0,0:0:0:0:
36,192,12266,1,0,0:0:0:0:
475,192,12319,1,0,0:0:0:0:
402,192,12319,1,0,0:0:0:0:
329,192,12371,1,0,0:0:0:0:
182,192,12371,1,0,0:0:0:0:
36,192,12424,1,0,0:0:0:0:
256,192,12424,128,0,13997:0:0:0:0:
402,192,12424,128,0,14102:0:0:0:0:
109,192,12424,128,0,14102:0:0:0:0:
475,192,12424,128,0,12634:0:0:0:0:
329,192,12634,128,0,12843:0:0:0:0:
36,192,12843,128,0,13053:0:0:0:0:
182,192,13053,128,0,13263:0:0:0:0:
329,192,13053,128,0,13263:0:0:0:0:
475,192,13263,128,0,13473:0:0:0:0:
329,192,13473,128,0,13682:0:0:0:0:
182,192,13473,128,0,13682:0:0:0:0:
36,192,13682,128,0,13892:0:0:0:0:
182,192,13892,128,0,13997:0:0:0:0:
329,192,13892,128,0,13997:0:0:0:0:
36,192,14102,128,0,14207:0:0:0:0:
475,192,14102,128,0,15780:0:0:0:0:
182,192,14102,1,0,0:0:0:0:
256,192,14102,1,0,0:0:0:0:
329,192,14102,1,0,0:0:0:0:
109,192,14207,128,0,14312:0:0:0:0:
182,192,14312,128,0,14417:0:0:0:0:
256,192,14417,128,0,14522:0:0:0:0:
36,192,14522,1,0,0:0:0:0:
109,192,14522,1,0,0:0:0:0:
182,192,14522,128,0,14731:0:0:0:0:
329,192,14522,1,0,0:0:0:0:
402,192,14522,1,0,0:0:0:0:
109,192,14731,128,0,14941:0:0:0:0:
36,192,14941,128,0,15046:0:0:0:0:
182,192,14941,1,0,0:0:0:0:
256,192,14941,1,0,0:0:0:0:
329,192,14941,1,0,0:0:0:0:
402,192,14941,1,0,0:0:0:0:
109,192,15046,128,0,15151:0:0:0:0:
182,192,15151,128,0,15256:0:0:0:0:
256,192,15256,128,0,15361:0:0:0:0:
36,192,15361,1,0,0:0:0:0:
109,192,15361,1,0,0:0:0:0:
182,192,15361,128,0,15571:0:0:0:0:
329,192,15361,1,0,0:0:0:0:
402,192,15361,1,0,0:0:0:0:
109,192,15571,128,0,15780:0:0:0:0:
36,192,15780,128,0,15885:0:0:0:0:
182,192,15780,1,0,0:0:0:0:
256,192,15780,1,0,0:0:0:0:
329,192,15780,1,0,0:0:0:0:
402,192,15780,128,0,16620:0:0:0:0:
109,192,15885,128,0,15990:0:0:0:0:
182,192,15990,128,0,16095:0:0:0:0:
256,192,16095,128,0,16200:0:0:0:0:
36,192,16200,1,0,0:0:0:0:
109,192,16200,1,0,0:0:0:0:
182,192,16200,128,0,16410:0:0:0:0:
329,192,16200,1,0,0:0:0:0:
475,192,16200,1,0,0:0:0:0:
109,192,16410,128,0,16620:0:0:0:0:
36,192,16620,128,0,16724:0:0:0:0:
182,192,16620,1,0,0:0:0:0:
256,192,16620,1,0,0:0:0:0:
329,192,16620,128,0,17459:0:0:0:0:
475,192,16620,128,0,17459:0:0:0:0:
109,192,16724,128,0,16829:0:0:0:0:
182,192,16829,128,0,16934:0:0:0:0:
256,192,16934,128,0,17039:0:0:0:0:
36,192,17039,1,0,0:0:0:0:
109,192,17039,1,0,0:0:0:0:
182,192,17039,128,0,17249:0:0:0:0:
402,192,17039,1,0,0:0:0:0:
109,192,17249,128,0,17459:0:0:0:0:
402,192,17459,128,0,17564:0:0:0:0:
182,192,17459,1,0,0:0:0:0:
256,192,17459,128,0,19137:0:0:0:0:
36,192,17459,1,0,0:0:0:0:
109,192,17564,128,0,17669:0:0:0:0:
329,192,17669,128,0,17773:0:0:0:0:
182,192,17773,128,0,17878:0:0:0:0:
109,192,17878,1,0,0:0:0:0:
475,192,17878,128,0,18088:0:0:0:0:
402,192,17878,1,0,0:0:0:0:
329,192,17878,1,0,0:0:0:0:
36,192,17878,128,0,18088:0:0:0:0:
402,192,18088,128,0,18298:0:0:0:0:
109,192,18088,128,0,18298:0:0:0:0:
329,192,18298,128,0,18403:0:0:0:0:
182,192,18298,1,0,0:0:0:0:
36,192,18298,1,0,0:0:0:0:
475,192,18298,1,0,0:0:0:0:
109,192,18403,128,0,18508:0:0:0:0:
402,192,18508,128,0,18613:0:0:0:0:
182,192,18613,128,0,18717:0:0:0:0:
109,192,18717,1,0,0:0:0:0:
329,192,18717,128,0,18927:0:0:0:0:
402,192,18717,1,0,0:0:0:0:
475,192,18717,1,0,0:0:0:0:
36,192,18717,128,0,18927:0:0:0:0:
402,192,18927,128,0,19137:0:0:0:0:
109,192,18927,128,0,19137:0:0:0:0:
36,192,19137,128,0,19242:0:0:0:0:
182,192,19137,1,0,0:0:0:0:
329,192,19137,1,0,0:0:0:0:
475,192,19137,128,0,19976:0:0:0:0:
109,192,19242,128,0,19347:0:0:0:0:
182,192,19347,128,0,19452:0:0:0:0:
256,192,19452,128,0,19557:0:0:0:0:
36,192,19557,1,0,0:0:0:0:
109,192,19557,1,0,0:0:0:0:
182,192,19557,128,0,19766:0:0:0:0:
329,192,19557,1,0,0:0:0:0:
402,192,19557,1,0,0:0:0:0:
109,192,19766,128,0,19976:0:0:0:0:
256,192,19976,128,0,20815:0:0:0:0:
329,192,19976,1,0,0:0:0:0:
402,192,19976,128,0,20396:0:0:0:0:
182,192,19976,128,0,20396:0:0:0:0:
36,192,19976,128,0,20396:0:0:0:0:
475,192,20396,128,0,20606:0:0:0:0:
109,192,20396,128,0,20606:0:0:0:0:
329,192,20396,128,0,20606:0:0:0:0:
402,192,20606,128,0,20815:0:0:0:0:
182,192,20606,128,0,20815:0:0:0:0:
36,192,20815,128,0,22494:0:0:0:0:
109,192,20815,1,0,0:0:0:0:
329,192,20815,1,0,0:0:0:0:
475,192,20815,128,0,20920:0:0:0:0:
402,192,20920,128,0,21025:0:0:0:0:
329,192,21025,128,0,21130:0:0:0:0:
256,192,21130,128,0,21235:0:0:0:0:
109,192,21235,1,0,0:0:0:0:
182,192,21235,1,0,0:0:0:0:
329,192,21235,128,0,21445:0:0:0:0:
402,192,21235,1,0,0:0:0:0:
475,192,21235,1,0,0:0:0:0:
402,192,21445,128,0,21655:0:0:0:0:
109,192,21655,1,0,0:0:0:0:
182,192,21655,1,0,0:0:0:0:
256,192,21655,1,0,0:0:0:0:
329,192,21655,1,0,0:0:0:0:
475,192,21655,128,0,21759:0:0:0:0:
402,192,21759,128,0,21864:0:0:0:0:
329,192,21864,128,0,21969:0:0:0:0:
256,192,21969,128,0,22074:0:0:0:0:
109,192,22074,1,0,0:0:0:0:
182,192,22074,1,0,0:0:0:0:
329,192,22074,128,0,22284:0:0:0:0:
402,192,22074,1,0,0:0:0:0:
475,192,22074,1,0,0:0:0:0:
402,192,22284,128,0,22494:0:0:0:0:
109,192,22494,128,0,23333:0:0:0:0:
182,192,22494,1,0,0:0:0:0:
256,192,22494,1,0,0:0:0:0:
329,192,22494,1,0,0:0:0:0:
475,192,22494,128,0,22599:0:0:0:0:
402,192,22599,128,0,22703:0:0:0:0:
329,192,22703,128,0,22808:0:0:0:0:
256,192,22808,128,0,22913:0:0:0:0:
36,192,22913,1,0,0:0:0:0:
182,192,22913,1,0,0:0:0:0:
329,192,22913,128,0,23123:0:0:0:0:
402,192,22913,1,0,0:0:0:0:
475,192,22913,1,0,0:0:0:0:
402,192,23123,128,0,23333:0:0:0:0:
36,192,23333,1,0,0:0:0:0:
182,192,23333,128,0,24172:0:0:0:0:
256,192,23333,1,0,0:0:0:0:
329,192,23333,1,0,0:0:0:0:
475,192,23333,128,0,23438:0:0:0:0:
402,192,23438,128,0,23543:0:0:0:0:
329,192,23543,128,0,23648:0:0:0:0:
256,192,23648,128,0,23752:0:0:0:0:
36,192,23752,1,0,0:0:0:0:
109,192,23752,1,0,0:0:0:0:
329,192,23752,128,0,23962:0:0:0:0:
402,192,23752,1,0,0:0:0:0:
475,192,23752,1,0,0:0:0:0:
402,192,23962,128,0,24172:0:0:0:0:
36,192,24172,128,0,24382:0:0:0:0:
256,192,24172,128,0,24382:0:0:0:0:
109,192,24172,1,0,0:0:0:0:
329,192,24172,128,0,25850:0:0:0:0:
475,192,24172,128,0,24382:0:0:0:0:
109,192,24382,1,0,0:0:0:0:
402,192,24382,1,0,0:0:0:0:
182,192,24487,1,0,0:0:0:0:
256,192,24487,1,0,0:0:0:0:
109,192,24592,1,0,0:0:0:0:
402,192,24592,1,0,0:0:0:0:
36,192,24696,1,0,0:0:0:0:
475,192,24696,1,0,0:0:0:0:
109,192,24801,128,0,25011:0:0:0:0:
256,192,24801,128,0,25011:0:0:0:0:
402,192,24801,128,0,25011:0:0:0:0:
36,192,25011,1,0,0:0:0:0:
475,192,25011,1,0,0:0:0:0:
402,192,25116,1,0,0:0:0:0:
182,192,25116,1,0,0:0:0:0:
109,192,25221,1,0,0:0:0:0:
256,192,25221,1,0,0:0:0:0:
36,192,25326,1,0,0:0:0:0:
402,192,25326,1,0,0:0:0:0:
256,192,25431,128,0,25641:0:0:0:0:
182,192,25431,128,0,25641:0:0:0:0:
475,192,25431,128,0,25641:0:0:0:0:
36,192,25641,1,0,0:0:0:0:
402,192,25641,1,0,0:0:0:0:
109,192,25745,1,0,0:0:0:0:
475,192,25745,1,0,0:0:0:0:
36,192,25850,128,0,26060:0:0:0:0:
182,192,25850,128,0,27529:0:0:0:0:
256,192,25850,128,0,26060:0:0:0:0:
402,192,25850,128,0,26060:0:0:0:0:
109,192,26060,1,0,0:0:0:0:
329,192,26060,1,0,0:0:0:0:
256,192,26165,1,0,0:0:0:0:
475,192,26165,1,0,0:0:0:0:
109,192,26270,1,0,0:0:0:0:
329,192,26270,1,0,0:0:0:0:
36,192,26375,1,0,0:0:0:0:
475,192,26375,1,0,0:0:0:0:
109,192,26480,128,0,26689:0:0:0:0:
256,192,26480,128,0,26689:0:0:0:0:
402,192,26480,128,0,26689:0:0:0:0:
36,192,26689,1,0,0:0:0:0:
329,192,26689,1,0,0:0:0:0:
109,192,26794,1,0,0:0:0:0:
402,192,26794,1,0,0:0:0:0:
256,192,26899,1,0,0:0:0:0:
475,192,26899,1,0,0:0:0:0:
109,192,27004,1,0,0:0:0:0:
402,192,27004,1,0,0:0:0:0:
36,192,27109,128,0,27319:0:0:0:0:
256,192,27109,128,0,27319:0:0:0:0:
475,192,27109,128,0,27319:0:0:0:0:
109,192,27319,1,0,0:0:0:0:
402,192,27319,1,0,0:0:0:0:
36,192,27424,1,0,0:0:0:0:
475,192,27424,1,0,0:0:0:0:
109,192,27529,128,0,27634:0:0:0:0:
329,192,27529,128,0,28158:0:0:0:0:
256,192,27529,1,0,0:0:0:0:
402,192,27529,128,0,28158:0:0:0:0:
36,192,27634,128,0,27738:0:0:0:0:
109,192,27738,128,0,27843:0:0:0:0:
182,192,27843,128,0,27948:0:0:0:0:
109,192,27948,128,0,28158:0:0:0:0:
36,192,27948,1,0,0:0:0:0:
256,192,27948,1,0,0:0:0:0:
475,192,27948,1,0,0:0:0:0:
256,192,28158,128,0,28368:0:0:0:0:
475,192,28158,128,0,28368:0:0:0:0:
36,192,28368,1,0,0:0:0:0:
109,192,28368,128,0,28997:0:0:0:0:
182,192,28368,128,0,28997:0:0:0:0:
402,192,28368,128,0,28473:0:0:0:0:
329,192,28368,1,0,0:0:0:0:
475,192,28473,128,0,28578:0:0:0:0:
402,192,28578,128,0,28682:0:0:0:0:
329,192,28682,128,0,28787:0:0:0:0:
36,192,28787,1,0,0:0:0:0:
256,192,28787,1,0,0:0:0:0:
475,192,28787,1,0,0:0:0:0:
402,192,28787,128,0,28997:0:0:0:0:
329,192,28997,128,0,29207:0:0:0:0:
36,192,28997,128,0,29207:0:0:0:0:
182,192,29207,1,0,0:0:0:0:
402,192,29207,1,0,0:0:0:0:
475,192,29207,128,0,29312:0:0:0:0:
36,192,29312,128,0,29417:0:0:0:0:
256,192,29312,1,0,0:0:0:0:
329,192,29312,1,0,0:0:0:0:
109,192,29417,1,0,0:0:0:0:
402,192,29417,1,0,0:0:0:0:
475,192,29417,128,0,29522:0:0:0:0:
36,192,29522,128,0,29627:0:0:0:0:
182,192,29522,1,0,0:0:0:0:
256,192,29522,1,0,0:0:0:0:
109,192,29627,1,0,0:0:0:0:
402,192,29627,1,0,0:0:0:0:
475,192,29627,128,0,29731:0:0:0:0:
36,192,29731,128,0,29836:0:0:0:0:
256,192,29731,1,0,0:0:0:0:
329,192,29731,1,0,0:0:0:0:
109,192,29836,1,0,0:0:0:0:
402,192,29836,1,0,0:0:0:0:
475,192,29836,128,0,29941:0:0:0:0:
36,192,29941,128,0,30046:0:0:0:0:
182,192,29941,1,0,0:0:0:0:
256,192,29941,1,0,0:0:0:0:
329,192,30046,1,0,0:0:0:0:
402,192,30046,128,0,30151:0:0:0:0:
475,192,30046,1,0,0:0:0:0:
36,192,30151,1,0,0:0:0:0:
109,192,30151,128,0,30256:0:0:0:0:
256,192,30151,1,0,0:0:0:0:
182,192,30256,1,0,0:0:0:0:
402,192,30256,128,0,30361:0:0:0:0:
475,192,30256,1,0,0:0:0:0:
36,192,30361,1,0,0:0:0:0:
109,192,30361,128,0,30466:0:0:0:0:
256,192,30361,1,0,0:0:0:0:
329,192,30466,1,0,0:0:0:0:
402,192,30466,128,0,30571:0:0:0:0:
475,192,30466,1,0,0:0:0:0:
36,192,30571,1,0,0:0:0:0:
109,192,30571,128,0,30676:0:0:0:0:
256,192,30571,1,0,0:0:0:0:
182,192,30676,1,0,0:0:0:0:
402,192,30676,128,0,30780:0:0:0:0:
475,192,30676,1,0,0:0:0:0:
36,192,30780,1,0,0:0:0:0:
109,192,30780,128,0,30885:0:0:0:0:
256,192,30780,1,0,0:0:0:0:
329,192,30885,1,0,0:0:0:0:
402,192,30885,128,0,30990:0:0:0:0:
475,192,30885,1,0,0:0:0:0:
36,192,30990,1,0,0:0:0:0:
109,192,30990,128,0,31095:0:0:0:0:
256,192,30990,1,0,0:0:0:0:
329,192,31095,128,0,31200:0:0:0:0:
402,192,31095,1,0,0:0:0:0:
475,192,31095,1,0,0:0:0:0:
36,192,31200,1,0,0:0:0:0:
109,192,31200,1,0,0:0:0:0:
182,192,31200,128,0,31305:0:0:0:0:
329,192,31305,1,0,0:0:0:0:
402,192,31305,128,0,31410:0:0:0:0:
475,192,31305,1,0,0:0:0:0:
36,192,31410,1,0,0:0:0:0:
109,192,31410,128,0,31515:0:0:0:0:
182,192,31410,1,0,0:0:0:0:
329,192,31515,1,0,0:0:0:0:
402,192,31515,1,0,0:0:0:0:
475,192,31515,128,0,31620:0:0:0:0:
36,192,31620,128,0,31724:0:0:0:0:
109,192,31620,1,0,0:0:0:0:
182,192,31620,1,0,0:0:0:0:
329,192,31724,128,0,32144:0:0:0:0:
402,192,31724,1,0,0:0:0:0:
475,192,31724,1,0,0:0:0:0:
36,192,31829,1,0,0:0:0:0:
109,192,31829,1,0,0:0:0:0:
182,192,31934,128,0,32144:0:0:0:0:
402,192,31934,1,0,0:0:0:0:
475,192,31934,1,0,0:0:0:0:
36,192,32039,1,0,0:0:0:0:
109,192,32039,1,0,0:0:0:0:
402,192,32144,1,0,0:0:0:0:
475,192,32144,1,0,0:0:0:0:
109,192,32196,1,0,0:0:0:0:
36,192,32196,1,0,0:0:0:0:
256,192,32249,1,0,0:0:0:0:
329,192,32249,1,0,0:0:0:0:
402,192,32301,1,0,0:0:0:0:
475,192,32301,1,0,0:0:0:0:
36,192,32354,1,0,0:0:0:0:
109,192,32354,1,0,0:0:0:0:
182,192,32406,1,0,0:0:0:0:
256,192,32406,1,0,0:0:0:0:
402,192,32459,1,0,0:0:0:0:
475,192,32459,1,0,0:0:0:0:
109,192,32511,1,0,0:0:0:0:
36,192,32511,1,0,0:0:0:0:
256,192,32564,128,0,34242:0:0:0:0:
329,192,32564,1,0,0:0:0:0:
182,192,32564,1,0,0:0:0:0:
36,192,32773,128,0,32983:0:0:0:0:
475,192,32983,128,0,33193:0:0:0:0:
182,192,33193,128,0,33403:0:0:0:0:
109,192,33193,128,0,33403:0:0:0:0:
329,192,33403,128,0,33613:0:0:0:0:
402,192,33403,128,0,33613:0:0:0:0:
182,192,33613,128,0,33822:0:0:0:0:
36,192,33613,128,0,33822:0:0:0:0:
329,192,33822,128,0,34032:0:0:0:0:
475,192,33822,128,0,34032:0:0:0:0:
182,192,34032,128,0,34242:0:0:0:0:
109,192,34032,128,0,34242:0:0:0:0:
329,192,34242,1,0,0:0:0:0:
475,192,34242,128,0,36759:0:0:0:0:
36,192,34242,128,0,34452:0:0:0:0:
402,192,34452,1,0,0:0:0:0:
109,192,34452,128,0,34662:0:0:0:0:
329,192,34662,1,0,0:0:0:0:
182,192,34662,128,0,34871:0:0:0:0:
402,192,34871,1,0,0:0:0:0:
256,192,34871,128,0,35081:0:0:0:0:
109,192,35081,1,0,0:0:0:0:
182,192,35081,128,0,35920:0:0:0:0:
402,192,35291,1,0,0:0:0:0:
109,192,35501,1,0,0:0:0:0:
402,192,35710,1,0,0:0:0:0:
256,192,35920,128,0,37599:0:0:0:0:
329,192,35920,1,0,0:0:0:0:
36,192,35920,128,0,36130:0:0:0:0:
402,192,36130,1,0,0:0:0:0:
182,192,36130,128,0,36340:0:0:0:0:
36,192,36340,1,0,0:0:0:0:
329,192,36340,128,0,36550:0:0:0:0:
402,192,36550,1,0,0:0:0:0:
109,192,36550,128,0,36759:0:0:0:0:
36,192,36759,128,0,39277:0:0:0:0:
182,192,36759,1,0,0:0:0:0:
329,192,36759,128,0,37599:0:0:0:0:
402,192,36969,1,0,0:0:0:0:
109,192,37179,1,0,0:0:0:0:
182,192,37389,1,0,0:0:0:0:
109,192,37599,1,0,0:0:0:0:
475,192,37599,128,0,39277:0:0:0:0:
402,192,37599,128,0,37808:0:0:0:0:
182,192,37808,1,0,0:0:0:0:
329,192,37808,128,0,38018:0:0:0:0:
109,192,38018,1,0,0:0:0:0:
256,192,38018,128,0,38228:0:0:0:0:
329,192,38228,1,0,0:0:0:0:
182,192,38228,128,0,38438:0:0:0:0:
402,192,38438,1,0,0:0:0:0:
256,192,38438,128,0,38857:0:0:0:0:
109,192,38648,1,0,0:0:0:0:
329,192,38857,1,0,0:0:0:0:
182,192,39067,1,0,0:0:0:0:
182,192,39277,128,0,39382:0:0:0:0:
329,192,39277,128,0,39382:0:0:0:0:
36,192,39382,128,0,39487:0:0:0:0:
402,192,39382,128,0,39487:0:0:0:0:
182,192,39487,128,0,39592:0:0:0:0:
329,192,39487,128,0,39592:0:0:0:0:
109,192,39592,128,0,39696:0:0:0:0:
475,192,39592,128,0,39696:0:0:0:0:
36,192,39696,128,0,39801:0:0:0:0:
402,192,39696,128,0,39801:0:0:0:0:
182,192,39801,128,0,39906:0:0:0:0:
329,192,39801,128,0,39906:0:0:0:0:
36,192,39906,128,0,40011:0:0:0:0:
475,192,39906,128,0,40011:0:0:0:0:
109,192,40011,128,0,40116:0:0:0:0:
402,192,40011,128,0,40116:0:0:0:0:
182,192,40116,128,0,40536:0:0:0:0:
256,192,40116,1,0,0:0:0:0:
329,192,40116,128,0,40536:0:0:0:0:
109,192,40536,128,0,40955:0:0:0:0:
256,192,40536,1,0,0:0:0:0:
402,192,40536,128,0,40955:0:0:0:0:
36,192,40955,128,0,43473:0:0:0:0:
182,192,40955,1,0,0:0:0:0:
256,192,40955,1,0,0:0:0:0:
475,192,40955,1,0,0:0:0:0:
329,192,40955,128,0,41165:0:0:0:0:
256,192,41165,1,0,0:0:0:0:
109,192,41165,128,0,41375:0:0:0:0:
402,192,41270,1,0,0:0:0:0:
475,192,41270,1,0,0:0:0:0:
182,192,41375,1,0,0:0:0:0:
329,192,41375,1,0,0:0:0:0:
256,192,41375,128,0,41585:0:0:0:0:
402,192,41585,128,0,41794:0:0:0:0:
475,192,41585,1,0,0:0:0:0:
109,192,41794,1,0,0:0:0:0:
256,192,41794,1,0,0:0:0:0:
329,192,41794,1,0,0:0:0:0:
475,192,42004,1,0,0:0:0:0:
402,192,42004,1,0,0:0:0:0:
109,192,42109,1,0,0:0:0:0:
182,192,42109,1,0,0:0:0:0:
256,192,42214,1,0,0:0:0:0:
475,192,42214,1,0,0:0:0:0:
329,192,42214,1,0,0:0:0:0:
109,192,42424,128,0,42634:0:0:0:0:
402,192,42424,1,0,0:0:0:0:
256,192,42634,128,0,44312:0:0:0:0:
329,192,42634,1,0,0:0:0:0:
475,192,42634,1,0,0:0:0:0:
182,192,42634,128,0,42843:0:0:0:0:
109,192,42843,1,0,0:0:0:0:
329,192,42843,1,0,0:0:0:0:
402,192,42948,1,0,0:0:0:0:
475,192,42948,1,0,0:0:0:0:
109,192,43053,1,0,0:0:0:0:
182,192,43053,1,0,0:0:0:0:
329,192,43053,128,0,43263:0:0:0:0:
402,192,43263,128,0,43473:0:0:0:0:
182,192,43263,1,0,0:0:0:0:
109,192,43473,1,0,0:0:0:0:
182,192,43473,1,0,0:0:0:0:
329,192,43473,1,0,0:0:0:0:
475,192,43473,128,0,45151:0:0:0:0:
402,192,43682,1,0,0:0:0:0:
329,192,43682,1,0,0:0:0:0:
109,192,43787,1,0,0:0:0:0:
36,192,43787,1,0,0:0:0:0:
329,192,43892,1,0,0:0:0:0:
182,192,43892,1,0,0:0:0:0:
402,192,43892,1,0,0:0:0:0:
329,192,44102,128,0,44312:0:0:0:0:
109,192,44102,1,0,0:0:0:0:
109,192,44312,128,0,45990:0:0:0:0:
182,192,44312,1,0,0:0:0:0:
402,192,44312,1,0,0:0:0:0:
36,192,44312,128,0,44522:0:0:0:0:
182,192,44522,1,0,0:0:0:0:
329,192,44522,1,0,0:0:0:0:
402,192,44627,1,0,0:0:0:0:
256,192,44627,1,0,0:0:0:0:
36,192,44731,1,0,0:0:0:0:
182,192,44731,1,0,0:0:0:0:
329,192,44731,128,0,44941:0:0:0:0:
182,192,44941,128,0,45151:0:0:0:0:
256,192,44941,1,0,0:0:0:0:
36,192,45151,1,0,0:0:0:0:
256,192,45151,1,0,0:0:0:0:
329,192,45151,1,0,0:0:0:0:
402,192,45151,128,0,46829:0:0:0:0:
329,192,45361,1,0,0:0:0:0:
182,192,45361,1,0,0:0:0:0:
36,192,45466,1,0,0:0:0:0:
256,192,45466,1,0,0:0:0:0:
182,192,45571,1,0,0:0:0:0:
329,192,45571,1,0,0:0:0:0:
475,192,45571,128,0,45780:0:0:0:0:
182,192,45780,128,0,45990:0:0:0:0:
329,192,45780,1,0,0:0:0:0:
256,192,45990,128,0,47669:0:0:0:0:
329,192,45990,1,0,0:0:0:0:
475,192,45990,1,0,0:0:0:0:
36,192,45990,128,0,46200:0:0:0:0:
182,192,46200,128,0,46410:0:0:0:0:
329,192,46410,1,0,0:0:0:0:
475,192,46410,1,0,0:0:0:0:
36,192,46410,128,0,46620:0:0:0:0:
109,192,46620,1,0,0:0:0:0:
329,192,46620,128,0,46829:0:0:0:0:
36,192,46829,1,0,0:0:0:0:
475,192,46829,1,0,0:0:0:0:
182,192,46829,128,0,47249:0:0:0:0:
109,192,47039,1,0,0:0:0:0:
36,192,47039,1,0,0:0:0:0:
402,192,47144,1,0,0:0:0:0:
475,192,47144,1,0,0:0:0:0:
329,192,47249,128,0,47669:0:0:0:0:
109,192,47249,1,0,0:0:0:0:
475,192,47354,1,0,0:0:0:0:
402,192,47354,1,0,0:0:0:0:
109,192,47459,1,0,0:0:0:0:
36,192,47459,1,0,0:0:0:0:
36,192,47669,128,0,48088:0:0:0:0:
109,192,47669,1,0,0:0:0:0:
182,192,47669,1,0,0:0:0:0:
402,192,47669,1,0,0:0:0:0:
475,192,47669,128,0,48088:0:0:0:0:
329,192,47773,1,0,0:0:0:0:
402,192,47878,1,0,0:0:0:0:
256,192,47878,1,0,0:0:0:0:
182,192,47983,1,0,0:0:0:0:
109,192,48088,1,0,0:0:0:0:
329,192,48088,1,0,0:0:0:0:
256,192,48088,1,0,0:0:0:0:
36,192,48298,128,0,48717:0:0:0:0:
109,192,48298,1,0,0:0:0:0:
182,192,48298,128,0,48717:0:0:0:0:
402,192,48298,1,0,0:0:0:0:
256,192,48508,1,0,0:0:0:0:
475,192,48508,1,0,0:0:0:0:
402,192,48613,1,0,0:0:0:0:
109,192,48717,1,0,0:0:0:0:
329,192,48717,1,0,0:0:0:0:
256,192,48822,1,0,0:0:0:0:
36,192,48927,1,0,0:0:0:0:
182,192,48927,128,0,49347:0:0:0:0:
329,192,48927,128,0,49347:0:0:0:0:
475,192,48927,1,0,0:0:0:0:
36,192,49137,1,0,0:0:0:0:
475,192,49137,1,0,0:0:0:0:
109,192,49347,1,0,0:0:0:0:
256,192,49347,128,0,49766:0:0:0:0:
402,192,49347,128,0,49766:0:0:0:0:
475,192,49347,1,0,0:0:0:0:
36,192,49452,1,0,0:0:0:0:
182,192,49557,1,0,0:0:0:0:
36,192,49662,1,0,0:0:0:0:
109,192,49766,1,0,0:0:0:0:
329,192,49766,1,0,0:0:0:0:
475,192,49766,1,0,0:0:0:0:
109,192,49976,1,0,0:0:0:0:
329,192,49976,128,0,50396:0:0:0:0:
402,192,49976,1,0,0:0:0:0:
475,192,49976,128,0,50396:0:0:0:0:
36,192,50186,1,0,0:0:0:0:
256,192,50186,1,0,0:0:0:0:
109,192,50291,1,0,0:0:0:0:
182,192,50396,1,0,0:0:0:0:
256,192,50501,1,0,0:0:0:0:
36,192,50606,1,0,0:0:0:0:
182,192,50606,128,0,51025:0:0:0:0:
329,192,50606,128,0,51025:0:0:0:0:
475,192,50606,1,0,0:0:0:0:
36,192,50815,1,0,0:0:0:0:
475,192,50815,1,0,0:0:0:0:
36,192,51025,1,0,0:0:0:0:
109,192,51025,128,0,51445:0:0:0:0:
256,192,51025,128,0,51445:0:0:0:0:
402,192,51025,1,0,0:0:0:0:
475,192,51130,1,0,0:0:0:0:
329,192,51235,1,0,0:0:0:0:
475,192,51340,1,0,0:0:0:0:
36,192,51445,1,0,0:0:0:0:
182,192,51445,1,0,0:0:0:0:
402,192,51445,1,0,0:0:0:0:
109,192,51655,128,0,52074:0:0:0:0:
256,192,51655,1,0,0:0:0:0:
329,192,51655,1,0,0:0:0:0:
402,192,51655,128,0,52074:0:0:0:0:
182,192,51864,1,0,0:0:0:0:
475,192,51864,1,0,0:0:0:0:
329,192,51969,1,0,0:0:0:0:
256,192,52074,1,0,0:0:0:0:
182,192,52179,1,0,0:0:0:0:
36,192,52284,128,0,52703:0:0:0:0:
109,192,52284,1,0,0:0:0:0:
402,192,52284,1,0,0:0:0:0:
475,192,52284,128,0,52703:0:0:0:0:
182,192,52494,1,0,0:0:0:0:
256,192,52494,1,0,0:0:0:0:
109,192,52703,128,0,53123:0:0:0:0:
182,192,52703,1,0,0:0:0:0:
329,192,52703,1,0,0:0:0:0:
402,192,52703,128,0,53123:0:0:0:0:
256,192,52808,1,0,0:0:0:0:
475,192,52913,1,0,0:0:0:0:
36,192,53018,1,0,0:0:0:0:
182,192,53123,1,0,0:0:0:0:
256,192,53123,1,0,0:0:0:0:
329,192,53123,1,0,0:0:0:0:
36,192,53333,1,0,0:0:0:0:
475,192,53333,1,0,0:0:0:0:
256,192,53333,128,0,53543:0:0:0:0:
329,192,53543,128,0,53752:0:0:0:0:
402,192,53543,1,0,0:0:0:0:
109,192,53543,128,0,53752:0:0:0:0:
182,192,53752,128,0,53962:0:0:0:0:
475,192,53752,128,0,53962:0:0:0:0:
36,192,53962,1,0,0:0:0:0:
402,192,53962,128,0,54172:0:0:0:0:
329,192,53962,1,0,0:0:0:0:
256,192,53962,128,0,54172:0:0:0:0:
109,192,54172,128,0,54382:0:0:0:0:
329,192,54172,128,0,54382:0:0:0:0:
36,192,54382,1,0,0:0:0:0:
182,192,54382,1,0,0:0:0:0:
475,192,54382,1,0,0:0:0:0:
256,192,54382,1,0,0:0:0:0:
402,192,54487,1,0,0:0:0:0:
329,192,54592,1,0,0:0:0:0:
256,192,54696,1,0,0:0:0:0:
36,192,54801,1,0,0:0:0:0:
182,192,54801,128,0,55221:0:0:0:0:
329,192,55011,128,0,55431:0:0:0:0:
475,192,55011,1,0,0:0:0:0:
36,192,55221,128,0,55641:0:0:0:0:
109,192,55221,1,0,0:0:0:0:
256,192,55221,1,0,0:0:0:0:
402,192,55326,1,0,0:0:0:0:
182,192,55431,1,0,0:0:0:0:
475,192,55431,128,0,55850:0:0:0:0:
256,192,55536,1,0,0:0:0:0:
109,192,55641,128,0,56060:0:0:0:0:
329,192,55641,1,0,0:0:0:0:
182,192,55850,1,0,0:0:0:0:
402,192,55850,128,0,56270:0:0:0:0:
36,192,56060,1,0,0:0:0:0:
256,192,56060,1,0,0:0:0:0:
329,192,56060,1,0,0:0:0:0:
475,192,56060,128,0,56480:0:0:0:0:
182,192,56165,1,0,0:0:0:0:
109,192,56270,1,0,0:0:0:0:
329,192,56270,128,0,56689:0:0:0:0:
256,192,56375,1,0,0:0:0:0:
36,192,56480,128,0,56899:0:0:0:0:
182,192,56480,1,0,0:0:0:0:
182,192,56689,128,0,57109:0:0:0:0:
402,192,56689,1,0,0:0:0:0:
109,192,56899,1,0,0:0:0:0:
256,192,56899,1,0,0:0:0:0:
475,192,56899,128,0,57319:0:0:0:0:
402,192,57004,1,0,0:0:0:0:
256,192,57109,1,0,0:0:0:0:
329,192,57109,128,0,57529:0:0:0:0:
109,192,57214,1,0,0:0:0:0:
182,192,57319,128,0,57738:0:0:0:0:
402,192,57319,1,0,0:0:0:0:
36,192,57529,1,0,0:0:0:0:
256,192,57529,128,0,57738:0:0:0:0:
109,192,57738,128,0,58578:0:0:0:0:
329,192,57738,1,0,0:0:0:0:
475,192,57738,128,0,58578:0:0:0:0:
402,192,57738,1,0,0:0:0:0:
36,192,57843,1,0,0:0:0:0:
182,192,57948,1,0,0:0:0:0:
329,192,58053,1,0,0:0:0:0:
256,192,58158,1,0,0:0:0:0:
182,192,58368,1,0,0:0:0:0:
329,192,58368,1,0,0:0:0:0:
36,192,58578,128,0,59417:0:0:0:0:
256,192,58578,1,0,0:0:0:0:
402,192,58578,128,0,59417:0:0:0:0:
182,192,58682,1,0,0:0:0:0:
329,192,58787,1,0,0:0:0:0:
475,192,58892,1,0,0:0:0:0:
109,192,58997,1,0,0:0:0:0:
182,192,59207,1,0,0:0:0:0:
329,192,59207,1,0,0:0:0:0:
109,192,59417,1,0,0:0:0:0:
182,192,59417,1,0,0:0:0:0:
256,192,59417,128,0,60256:0:0:0:0:
329,192,59417,1,0,0:0:0:0:
475,192,59522,1,0,0:0:0:0:
329,192,59627,1,0,0:0:0:0:
36,192,59731,1,0,0:0:0:0:
182,192,59836,1,0,0:0:0:0:
402,192,59836,1,0,0:0:0:0:
475,192,59836,1,0,0:0:0:0:
109,192,59941,1,0,0:0:0:0:
36,192,60046,1,0,0:0:0:0:
329,192,60046,1,0,0:0:0:0:
402,192,60151,1,0,0:0:0:0:
109,192,60256,128,0,60361:0:0:0:0:
475,192,60256,128,0,60361:0:0:0:0:
36,192,60361,128,0,60466:0:0:0:0:
256,192,60361,128,0,60466:0:0:0:0:
182,192,60466,128,0,60571:0:0:0:0:
402,192,60466,128,0,60571:0:0:0:0:
109,192,60571,128,0,60676:0:0:0:0:
329,192,60571,128,0,60676:0:0:0:0:
256,192,60676,128,0,60780:0:0:0:0:
475,192,60676,128,0,60780:0:0:0:0:
36,192,60780,128,0,60885:0:0:0:0:
329,192,60780,128,0,60885:0:0:0:0:
182,192,60885,128,0,60990:0:0:0:0:
475,192,60885,128,0,60990:0:0:0:0:
36,192,60990,128,0,61095:0:0:0:0:
256,192,60990,128,0,61095:0:0:0:0:
109,192,61095,128,0,62773:0:0:0:0:
182,192,61095,1,0,0:0:0:0:
329,192,61095,1,0,0:0:0:0:
402,192,61095,128,0,62773:0:0:0:0:
36,192,61410,1,0,0:0:0:0:
475,192,61410,1,0,0:0:0:0:
182,192,61724,1,0,0:0:0:0:
329,192,61724,1,0,0:0:0:0:
256,192,61934,128,0,62144:0:0:0:0:
475,192,62144,128,0,62354:0:0:0:0:
36,192,62144,128,0,62354:0:0:0:0:
329,192,62354,128,0,62564:0:0:0:0:
182,192,62354,128,0,62564:0:0:0:0:
256,192,62564,128,0,62773:0:0:0:0:
36,192,62773,128,0,63193:0:0:0:0:
182,192,62773,128,0,62878:0:0:0:0:
329,192,62773,128,0,63193:0:0:0:0:
475,192,62773,128,0,64452:0:0:0:0:
402,192,62878,128,0,62983:0:0:0:0:
109,192,62983,128,0,63088:0:0:0:0:
182,192,63088,128,0,63193:0:0:0:0:
109,192,63193,128,0,63613:0:0:0:0:
256,192,63193,128,0,63613:0:0:0:0:
402,192,63193,128,0,63403:0:0:0:0:
329,192,63403,128,0,63508:0:0:0:0:
36,192,63613,128,0,64032:0:0:0:0:
182,192,63613,128,0,63717:0:0:0:0:
329,192,63613,128,0,64032:0:0:0:0:
402,192,63717,128,0,63822:0:0:0:0:
109,192,63822,128,0,63927:0:0:0:0:
182,192,63927,128,0,64032:0:0:0:0:
109,192,64032,128,0,64452:0:0:0:0:
256,192,64032,128,0,64347:0:0:0:0:
402,192,64032,128,0,64242:0:0:0:0:
329,192,64242,128,0,64347:0:0:0:0:
36,192,64452,128,0,65291:0:0:0:0:
182,192,64452,128,0,64557:0:0:0:0:
256,192,64452,128,0,64871:0:0:0:0:
402,192,64452,128,0,64871:0:0:0:0:
329,192,64557,128,0,64662:0:0:0:0:
475,192,64662,128,0,64766:0:0:0:0:
109,192,64766,128,0,64871:0:0:0:0:
182,192,64871,128,0,65291:0:0:0:0:
329,192,64871,128,0,65186:0:0:0:0:
475,192,64871,128,0,65081:0:0:0:0:
402,192,65081,128,0,65186:0:0:0:0:
109,192,65291,128,0,65710:0:0:0:0:
256,192,65291,128,0,65710:0:0:0:0:
329,192,65291,128,0,65396:0:0:0:0:
475,192,65291,128,0,65920:0:0:0:0:
36,192,65396,128,0,65501:0:0:0:0:
182,192,65501,128,0,65606:0:0:0:0:
329,192,65606,128,0,65710:0:0:0:0:
36,192,65710,128,0,65920:0:0:0:0:
182,192,65710,128,0,65920:0:0:0:0:
402,192,65710,128,0,65920:0:0:0:0:
256,192,65920,128,0,66130:0:0:0:0:
329,192,65920,128,0,66130:0:0:0:0:
109,192,66130,128,0,67074:0:0:0:0:
402,192,66130,1,0,0:0:0:0:
475,192,66130,1,0,0:0:0:0:
36,192,66130,1,0,0:0:0:0:
182,192,66235,128,0,67599:0:0:0:0:
36,192,66340,128,0,66864:0:0:0:0:
256,192,66445,128,0,66759:0:0:0:0:
402,192,66550,128,0,67494:0:0:0:0:
475,192,66655,128,0,67284:0:0:0:0:
329,192,66759,128,0,67179:0:0:0:0:
256,192,66864,128,0,66969:0:0:0:0:
36,192,66969,128,0,67703:0:0:0:0:
256,192,67074,128,0,67389:0:0:0:0:
109,192,67179,128,0,68018:0:0:0:0:
329,192,67284,128,0,68333:0:0:0:0:
475,192,67389,128,0,68123:0:0:0:0:
256,192,67494,128,0,67808:0:0:0:0:
402,192,67599,128,0,68438:0:0:0:0:
182,192,67703,128,0,67913:0:0:0:0:
36,192,67808,128,0,68543:0:0:0:0:
256,192,67913,128,0,68228:0:0:0:0:
182,192,68018,128,0,68857:0:0:0:0:
109,192,68123,128,0,68752:0:0:0:0:
475,192,68228,128,0,68962:0:0:0:0:
256,192,68333,128,0,68648:0:0:0:0:
329,192,68438,128,0,69277:0:0:0:0:
402,192,68543,128,0,69172:0:0:0:0:
36,192,68648,128,0,68962:0:0:0:0:
256,192,68752,128,0,69067:0:0:0:0:
109,192,68857,128,0,69067:0:0:0:0:
182,192,68962,128,0,69172:0:0:0:0:
36,192,69067,1,0,0:0:0:0:
475,192,69067,128,0,69487:0:0:0:0:
109,192,69172,1,0,0:0:0:0:
256,192,69172,128,0,69277:0:0:0:0:
182,192,69277,1,0,0:0:0:0:
402,192,69277,128,0,69382:0:0:0:0:
256,192,69382,1,0,0:0:0:0:
329,192,69382,128,0,69487:0:0:0:0:
36,192,69487,128,0,71165:0:0:0:0:
109,192,69487,128,0,69906:0:0:0:0:
182,192,69487,128,0,69592:0:0:0:0:
402,192,69592,128,0,69696:0:0:0:0:
256,192,69696,128,0,69801:0:0:0:0:
475,192,69801,128,0,69906:0:0:0:0:
182,192,69906,128,0,70116:0:0:0:0:
329,192,69906,128,0,70326:0:0:0:0:
256,192,70116,128,0,70221:0:0:0:0:
109,192,70326,128,0,70745:0:0:0:0:
475,192,70326,128,0,70431:0:0:0:0:
182,192,70431,128,0,70536:0:0:0:0:
402,192,70536,128,0,70641:0:0:0:0:
256,192,70641,128,0,70745:0:0:0:0:
182,192,70745,128,0,70955:0:0:0:0:
329,192,70745,128,0,71165:0:0:0:0:
256,192,70955,128,0,71060:0:0:0:0:
182,192,71165,128,0,71270:0:0:0:0:
402,192,71165,128,0,71585:0:0:0:0:
475,192,71165,128,0,72004:0:0:0:0:
36,192,71270,128,0,71375:0:0:0:0:
256,192,71375,128,0,71480:0:0:0:0:
109,192,71480,128,0,71585:0:0:0:0:
182,192,71585,128,0,72004:0:0:0:0:
329,192,71585,128,0,71794:0:0:0:0:
256,192,71794,128,0,71899:0:0:0:0:
36,192,72004,128,0,72843:0:0:0:0:
109,192,72004,128,0,72424:0:0:0:0:
329,192,72004,128,0,72109:0:0:0:0:
475,192,72109,128,0,72214:0:0:0:0:
256,192,72214,128,0,72319:0:0:0:0:
402,192,72319,128,0,72424:0:0:0:0:
182,192,72424,128,0,72634:0:0:0:0:
329,192,72424,128,0,72843:0:0:0:0:
402,192,72634,128,0,72843:0:0:0:0:
256,192,72634,1,0,0:0:0:0:
109,192,72843,128,0,73053:0:0:0:0:
182,192,72843,128,0,73053:0:0:0:0:
256,192,72843,128,0,74522:0:0:0:0:
475,192,72843,128,0,73053:0:0:0:0:
36,192,73053,1,0,0:0:0:0:
402,192,73053,1,0,0:0:0:0:
182,192,73158,1,0,0:0:0:0:
329,192,73158,1,0,0:0:0:0:
109,192,73263,1,0,0:0:0:0:
402,192,73263,1,0,0:0:0:0:
182,192,73368,1,0,0:0:0:0:
475,192,73368,1,0,0:0:0:0:
36,192,73473,128,0,73682:0:0:0:0:
109,192,73473,128,0,73682:0:0:0:0:
329,192,73473,128,0,73682:0:0:0:0:
182,192,73682,1,0,0:0:0:0:
402,192,73682,1,0,0:0:0:0:
109,192,73787,1,0,0:0:0:0:
475,192,73787,1,0,0:0:0:0:
182,192,73892,1,0,0:0:0:0:
402,192,73892,1,0,0:0:0:0:
109,192,73997,1,0,0:0:0:0:
329,192,73997,1,0,0:0:0:0:
36,192,74102,128,0,74312:0:0:0:0:
402,192,74102,128,0,74312:0:0:0:0:
475,192,74102,128,0,74312:0:0:0:0:
182,192,74312,1,0,0:0:0:0:
109,192,74417,1,0,0:0:0:0:
36,192,74522,128,0,74836:0:0:0:0:
402,192,74522,128,0,74836:0:0:0:0:
475,192,74522,128,0,74836:0:0:0:0:
329,192,74522,128,0,74941:0:0:0:0:
109,192,74627,128,0,75256:0:0:0:0:
182,192,74731,128,0,75151:0:0:0:0:
256,192,74836,128,0,75046:0:0:0:0:
475,192,74941,128,0,75256:0:0:0:0:
402,192,74941,128,0,75361:0:0:0:0:
36,192,74941,128,0,75256:0:0:0:0:
329,192,75046,128,0,75466:0:0:0:0:
256,192,75151,128,0,75780:0:0:0:0:
182,192,75256,128,0,75466:0:0:0:0:
109,192,75361,128,0,75571:0:0:0:0:
36,192,75361,128,0,75676:0:0:0:0:
475,192,75361,128,0,75676:0:0:0:0:
402,192,75466,128,0,75676:0:0:0:0:
329,192,75571,128,0,75780:0:0:0:0:
182,192,75571,128,0,76095:0:0:0:0:
109,192,75676,128,0,75885:0:0:0:0:
402,192,75780,128,0,76095:0:0:0:0:
475,192,75780,128,0,76095:0:0:0:0:
36,192,75780,128,0,76095:0:0:0:0:
256,192,75885,128,0,75990:0:0:0:0:
329,192,75990,128,0,76095:0:0:0:0:
109,192,75990,128,0,76095:0:0:0:0:
256,192,76095,128,0,76200:0:0:0:0:
36,192,76200,128,0,76620:0:0:0:0:
182,192,76200,128,0,76620:0:0:0:0:
402,192,76200,128,0,76305:0:0:0:0:
475,192,76200,128,0,77878:0:0:0:0:
256,192,76305,128,0,76410:0:0:0:0:
109,192,76410,128,0,76515:0:0:0:0:
329,192,76515,128,0,76620:0:0:0:0:
109,192,76620,128,0,77039:0:0:0:0:
256,192,76620,128,0,77039:0:0:0:0:
402,192,76620,128,0,76829:0:0:0:0:
329,192,76829,128,0,76934:0:0:0:0:
36,192,77039,128,0,77459:0:0:0:0:
182,192,77039,128,0,77459:0:0:0:0:
402,192,77039,128,0,77144:0:0:0:0:
256,192,77144,128,0,77249:0:0:0:0:
109,192,77249,128,0,77354:0:0:0:0:
329,192,77354,128,0,77459:0:0:0:0:
109,192,77459,128,0,77878:0:0:0:0:
256,192,77459,128,0,77773:0:0:0:0:
402,192,77459,128,0,77669:0:0:0:0:
329,192,77669,128,0,77773:0:0:0:0:
36,192,77878,128,0,77983:0:0:0:0:
182,192,77878,128,0,78717:0:0:0:0:
256,192,77878,128,0,78298:0:0:0:0:
402,192,77878,128,0,78298:0:0:0:0:
329,192,77983,128,0,78088:0:0:0:0:
109,192,78088,128,0,78193:0:0:0:0:
475,192,78193,128,0,78298:0:0:0:0:
36,192,78298,128,0,78717:0:0:0:0:
109,192,78298,128,0,78613:0:0:0:0:
329,192,78298,128,0,78508:0:0:0:0:
402,192,78508,128,0,78613:0:0:0:0:
109,192,78717,128,0,79137:0:0:0:0:
256,192,78717,128,0,79137:0:0:0:0:
329,192,78717,128,0,79557:0:0:0:0:
475,192,78717,128,0,78822:0:0:0:0:
182,192,78822,128,0,78927:0:0:0:0:
402,192,78927,128,0,79032:0:0:0:0:
36,192,79032,128,0,79137:0:0:0:0:
182,192,79137,128,0,79347:0:0:0:0:
402,192,79137,128,0,79452:0:0:0:0:
475,192,79137,128,0,79557:0:0:0:0:
109,192,79347,128,0,79452:0:0:0:0:
36,192,79557,128,0,81235:0:0:0:0:
109,192,79557,128,0,79976:0:0:0:0:
256,192,79557,128,0,79976:0:0:0:0:
402,192,79557,128,0,79662:0:0:0:0:
182,192,79662,128,0,79766:0:0:0:0:
329,192,79766,128,0,79871:0:0:0:0:
402,192,79871,128,0,79976:0:0:0:0:
182,192,79976,128,0,80186:0:0:0:0:
329,192,79976,128,0,80396:0:0:0:0:
475,192,79976,128,0,80396:0:0:0:0:
109,192,80186,128,0,80291:0:0:0:0:
109,192,80396,128,0,80815:0:0:0:0:
256,192,80396,128,0,80815:0:0:0:0:
402,192,80396,128,0,80501:0:0:0:0:
182,192,80501,128,0,80606:0:0:0:0:
329,192,80606,128,0,80710:0:0:0:0:
402,192,80710,128,0,80815:0:0:0:0:
182,192,80815,128,0,81025:0:0:0:0:
329,192,80815,128,0,81235:0:0:0:0:
475,192,80815,128,0,81235:0:0:0:0:
109,192,81025,128,0,81130:0:0:0:0:
109,192,81235,128,0,81655:0:0:0:0:
182,192,81235,128,0,82074:0:0:0:0:
256,192,81235,128,0,81340:0:0:0:0:
402,192,81235,128,0,81655:0:0:0:0:
329,192,81340,128,0,81445:0:0:0:0:
475,192,81445,128,0,81550:0:0:0:0:
256,192,81550,128,0,81655:0:0:0:0:
36,192,81655,128,0,82074:0:0:0:0:
329,192,81655,128,0,81864:0:0:0:0:
475,192,81655,128,0,82074:0:0:0:0:
256,192,81864,128,0,81969:0:0:0:0:
109,192,82074,128,0,82494:0:0:0:0:
256,192,82074,128,0,82179:0:0:0:0:
329,192,82074,128,0,82913:0:0:0:0:
402,192,82074,128,0,82494:0:0:0:0:
182,192,82179,128,0,82284:0:0:0:0:
36,192,82284,128,0,82389:0:0:0:0:
256,192,82389,128,0,82494:0:0:0:0:
36,192,82494,128,0,82913:0:0:0:0:
182,192,82494,128,0,82703:0:0:0:0:
475,192,82494,128,0,82808:0:0:0:0:
256,192,82703,128,0,82808:0:0:0:0:
109,192,82913,128,0,83018:0:0:0:0:
256,192,82913,128,0,83333:0:0:0:0:
402,192,82913,128,0,83333:0:0:0:0:
475,192,82913,128,0,84592:0:0:0:0:
182,192,83018,128,0,83123:0:0:0:0:
329,192,83123,128,0,83228:0:0:0:0:
109,192,83228,128,0,83333:0:0:0:0:
36,192,83333,128,0,83752:0:0:0:0:
182,192,83333,128,0,83752:0:0:0:0:
329,192,83333,128,0,83543:0:0:0:0:
402,192,83543,128,0,83648:0:0:0:0:
109,192,83752,128,0,83857:0:0:0:0:
256,192,83752,128,0,84172:0:0:0:0:
402,192,83752,128,0,84172:0:0:0:0:
182,192,83857,128,0,83962:0:0:0:0:
329,192,83962,128,0,84067:0:0:0:0:
109,192,84067,128,0,84172:0:0:0:0:
36,192,84172,128,0,84592:0:0:0:0:
182,192,84172,128,0,84592:0:0:0:0:
329,192,84172,128,0,84382:0:0:0:0:
402,192,84382,128,0,84487:0:0:0:0:
109,192,84592,128,0,85431:0:0:0:0:
256,192,84592,128,0,85011:0:0:0:0:
329,192,84592,128,0,84696:0:0:0:0:
182,192,84696,128,0,84801:0:0:0:0:
475,192,84801,128,0,84906:0:0:0:0:
402,192,84906,128,0,85011:0:0:0:0:
182,192,85011,128,0,85221:0:0:0:0:
329,192,85011,128,0,85431:0:0:0:0:
475,192,85221,128,0,85326:0:0:0:0:
182,192,85431,128,0,85536:0:0:0:0:
256,192,85431,128,0,85850:0:0:0:0:
402,192,85431,128,0,86270:0:0:0:0:
329,192,85536,128,0,85641:0:0:0:0:
36,192,85641,128,0,85745:0:0:0:0:
109,192,85745,128,0,85850:0:0:0:0:
182,192,85850,128,0,86270:0:0:0:0:
329,192,85850,128,0,86060:0:0:0:0:
256,192,86060,128,0,86165:0:0:0:0:
36,192,86270,128,0,86480:0:0:0:0:
109,192,86270,128,0,87948:0:0:0:0:
329,192,86270,128,0,86480:0:0:0:0:
475,192,86270,128,0,86480:0:0:0:0:
256,192,86480,1,0,0:0:0:0:
402,192,86480,1,0,0:0:0:0:
182,192,86585,1,0,0:0:0:0:
475,192,86585,1,0,0:0:0:0:
256,192,86689,1,0,0:0:0:0:
402,192,86689,1,0,0:0:0:0:
182,192,86794,1,0,0:0:0:0:
475,192,86794,1,0,0:0:0:0:
36,192,86899,128,0,87109:0:0:0:0:
329,192,86899,128,0,87109:0:0:0:0:
402,192,86899,128,0,87109:0:0:0:0:
182,192,87109,1,0,0:0:0:0:
256,192,87109,1,0,0:0:0:0:
402,192,87214,1,0,0:0:0:0:
475,192,87214,1,0,0:0:0:0:
182,192,87319,1,0,0:0:0:0:
256,192,87319,1,0,0:0:0:0:
402,192,87424,1,0,0:0:0:0:
475,192,87424,1,0,0:0:0:0:
36,192,87529,128,0,87738:0:0:0:0:
256,192,87529,128,0,87738:0:0:0:0:
329,192,87529,128,0,87738:0:0:0:0:
182,192,87738,1,0,0:0:0:0:
402,192,87738,1,0,0:0:0:0:
256,192,87843,1,0,0:0:0:0:
329,192,87843,1,0,0:0:0:0:
36,192,87948,128,0,88158:0:0:0:0:
182,192,87948,128,0,88158:0:0:0:0:
402,192,87948,128,0,89627:0:0:0:0:
475,192,87948,128,0,88158:0:0:0:0:
109,192,88158,1,0,0:0:0:0:
256,192,88158,1,0,0:0:0:0:
36,192,88263,1,0,0:0:0:0:
329,192,88263,1,0,0:0:0:0:
109,192,88368,1,0,0:0:0:0:
256,192,88368,1,0,0:0:0:0:
36,192,88473,1,0,0:0:0:0:
329,192,88473,1,0,0:0:0:0:
109,192,88578,128,0,88787:0:0:0:0:
182,192,88578,128,0,88787:0:0:0:0:
475,192,88578,128,0,88787:0:0:0:0:
256,192,88787,1,0,0:0:0:0:
329,192,88787,1,0,0:0:0:0:
36,192,88892,1,0,0:0:0:0:
109,192,88892,1,0,0:0:0:0:
256,192,88997,1,0,0:0:0:0:
329,192,88997,1,0,0:0:0:0:
36,192,89102,1,0,0:0:0:0:
109,192,89102,1,0,0:0:0:0:
182,192,89207,128,0,89417:0:0:0:0:
256,192,89207,128,0,89417:0:0:0:0:
475,192,89207,128,0,89417:0:0:0:0:
36,192,89417,1,0,0:0:0:0:
329,192,89417,1,0,0:0:0:0:
109,192,89522,1,0,0:0:0:0:
182,192,89522,1,0,0:0:0:0:
36,192,89627,128,0,89731:0:0:0:0:
256,192,89627,128,0,90256:0:0:0:0:
329,192,89627,1,0,0:0:0:0:
475,192,89627,128,0,90256:0:0:0:0:
182,192,89731,128,0,89836:0:0:0:0:
109,192,89836,128,0,89941:0:0:0:0:
182,192,89941,128,0,90046:0:0:0:0:
36,192,90046,1,0,0:0:0:0:
109,192,90046,1,0,0:0:0:0:
329,192,90046,128,0,90256:0:0:0:0:
402,192,90046,1,0,0:0:0:0:
402,192,90256,128,0,90466:0:0:0:0:
182,192,90256,1,0,0:0:0:0:
36,192,90466,128,0,91095:0:0:0:0:
182,192,90466,1,0,0:0:0:0:
256,192,90466,128,0,91095:0:0:0:0:
329,192,90466,128,0,90571:0:0:0:0:
109,192,90466,1,0,0:0:0:0:
475,192,90571,128,0,90676:0:0:0:0:
402,192,90676,128,0,90780:0:0:0:0:
329,192,90780,128,0,90885:0:0:0:0:
109,192,90885,1,0,0:0:0:0:
182,192,90885,128,0,91095:0:0:0:0:
402,192,90885,1,0,0:0:0:0:
475,192,90885,1,0,0:0:0:0:
109,192,91095,1,0,0:0:0:0:
402,192,91095,128,0,91305:0:0:0:0:
36,192,91305,128,0,91410:0:0:0:0:
182,192,91305,1,0,0:0:0:0:
256,192,91305,1,0,0:0:0:0:
109,192,91410,1,0,0:0:0:0:
329,192,91410,1,0,0:0:0:0:
475,192,91410,128,0,91515:0:0:0:0:
36,192,91515,128,0,91620:0:0:0:0:
256,192,91515,1,0,0:0:0:0:
402,192,91515,1,0,0:0:0:0:
109,192,91620,1,0,0:0:0:0:
182,192,91620,1,0,0:0:0:0:
475,192,91620,128,0,91724:0:0:0:0:
36,192,91724,128,0,91829:0:0:0:0:
256,192,91724,1,0,0:0:0:0:
329,192,91724,1,0,0:0:0:0:
182,192,91829,1,0,0:0:0:0:
402,192,91829,1,0,0:0:0:0:
475,192,91829,128,0,91934:0:0:0:0:
36,192,91934,128,0,92039:0:0:0:0:
109,192,91934,1,0,0:0:0:0:
256,192,91934,1,0,0:0:0:0:
329,192,92039,1,0,0:0:0:0:
402,192,92039,1,0,0:0:0:0:
475,192,92039,128,0,92170:0:0:0:0:
36,192,92144,1,0,0:0:0:0:
182,192,92144,128,0,92249:0:0:0:0:
256,192,92144,1,0,0:0:0:0:
109,192,92249,1,0,0:0:0:0:
329,192,92249,128,0,92354:0:0:0:0:
475,192,92249,1,0,0:0:0:0:
36,192,92354,1,0,0:0:0:0:
182,192,92354,128,0,92459:0:0:0:0:
256,192,92354,1,0,0:0:0:0:
329,192,92459,128,0,92564:0:0:0:0:
402,192,92459,1,0,0:0:0:0:
475,192,92459,1,0,0:0:0:0:
36,192,92564,1,0,0:0:0:0:
182,192,92564,128,0,92669:0:0:0:0:
256,192,92564,1,0,0:0:0:0:
109,192,92669,1,0,0:0:0:0:
329,192,92669,128,0,92773:0:0:0:0:
475,192,92669,1,0,0:0:0:0:
36,192,92773,1,0,0:0:0:0:
182,192,92773,128,0,92878:0:0:0:0:
256,192,92773,1,0,0:0:0:0:
329,192,92878,128,0,92983:0:0:0:0:
402,192,92878,1,0,0:0:0:0:
475,192,92878,1,0,0:0:0:0:
36,192,92983,1,0,0:0:0:0:
109,192,92983,1,0,0:0:0:0:
182,192,92983,128,0,93088:0:0:0:0:
256,192,92983,1,0,0:0:0:0:
329,192,93088,128,0,93193:0:0:0:0:
402,192,93088,1,0,0:0:0:0:
475,192,93088,1,0,0:0:0:0:
36,192,93193,1,0,0:0:0:0:
109,192,93193,128,0,93298:0:0:0:0:
182,192,93193,1,0,0:0:0:0:
256,192,93193,1,0,0:0:0:0:
329,192,93298,1,0,0:0:0:0:
402,192,93298,128,0,93403:0:0:0:0:
475,192,93298,1,0,0:0:0:0:
36,192,93403,1,0,0:0:0:0:
109,192,93403,1,0,0:0:0:0:
182,192,93403,128,0,93508:0:0:0:0:
256,192,93403,1,0,0:0:0:0:
329,192,93508,128,0,93613:0:0:0:0:
402,192,93508,1,0,0:0:0:0:
475,192,93508,1,0,0:0:0:0:
36,192,93613,128,0,93717:0:0:0:0:
109,192,93613,1,0,0:0:0:0:
182,192,93613,1,0,0:0:0:0:
256,192,93613,1,0,0:0:0:0:
329,192,93717,1,0,0:0:0:0:
402,192,93717,1,0,0:0:0:0:
475,192,93717,128,0,93822:0:0:0:0:
36,192,93822,1,0,0:0:0:0:
109,192,93822,1,0,0:0:0:0:
182,192,93822,128,0,94032:0:0:0:0:
402,192,93927,1,0,0:0:0:0:
475,192,93927,1,0,0:0:0:0:
36,192,94032,1,0,0:0:0:0:
109,192,94032,1,0,0:0:0:0:
329,192,94032,128,0,94242:0:0:0:0:
402,192,94137,1,0,0:0:0:0:
475,192,94137,1,0,0:0:0:0:
109,192,94242,1,0,0:0:0:0:
36,192,94242,1,0,0:0:0:0:
182,192,94294,1,0,0:0:0:0:
256,192,94294,1,0,0:0:0:0:
475,192,94347,1,0,0:0:0:0:
402,192,94347,1,0,0:0:0:0:
36,192,94399,1,0,0:0:0:0:
109,192,94399,1,0,0:0:0:0:
329,192,94452,1,0,0:0:0:0:
256,192,94452,1,0,0:0:0:0:
402,192,94504,1,0,0:0:0:0:
475,192,94504,1,0,0:0:0:0:
36,192,94557,1,0,0:0:0:0:
109,192,94557,1,0,0:0:0:0:
329,192,94609,1,0,0:0:0:0:
182,192,94609,1,0,0:0:0:0:
475,192,94662,1,0,0:0:0:0:
256,192,94662,128,0,96340:0:0:0:0:
402,192,94662,1,0,0:0:0:0:
329,192,94871,128,0,95081:0:0:0:0:
182,192,95081,128,0,95291:0:0:0:0:
329,192,95291,128,0,95501:0:0:0:0:
402,192,95291,128,0,95501:0:0:0:0:
109,192,95501,128,0,95710:0:0:0:0:
182,192,95501,128,0,95710:0:0:0:0:
329,192,95710,128,0,95920:0:0:0:0:
475,192,95710,128,0,95920:0:0:0:0:
182,192,95920,128,0,96130:0:0:0:0:
36,192,95920,128,0,96130:0:0:0:0:
329,192,96130,128,0,96340:0:0:0:0:
402,192,96130,128,0,96340:0:0:0:0:
36,192,96340,128,0,98857:0:0:0:0:
182,192,96340,128,0,96445:0:0:0:0:
475,192,96340,128,0,96445:0:0:0:0:
109,192,96550,128,0,96655:0:0:0:0:
402,192,96550,128,0,96655:0:0:0:0:
329,192,96759,128,0,96864:0:0:0:0:
475,192,96759,128,0,96864:0:0:0:0:
109,192,96969,128,0,97074:0:0:0:0:
256,192,96969,128,0,97074:0:0:0:0:
329,192,97179,128,0,97284:0:0:0:0:
402,192,97179,128,0,97284:0:0:0:0:
109,192,97389,1,0,0:0:0:0:
402,192,97599,1,0,0:0:0:0:
109,192,97808,1,0,0:0:0:0:
182,192,98018,128,0,98123:0:0:0:0:
256,192,98018,128,0,99696:0:0:0:0:
475,192,98018,128,0,98123:0:0:0:0:
109,192,98228,128,0,98333:0:0:0:0:
329,192,98228,128,0,98333:0:0:0:0:
182,192,98438,128,0,98543:0:0:0:0:
475,192,98438,128,0,98543:0:0:0:0:
109,192,98648,128,0,98752:0:0:0:0:
402,192,98648,128,0,98752:0:0:0:0:
182,192,98857,128,0,98962:0:0:0:0:
329,192,98857,128,0,98962:0:0:0:0:
475,192,98857,128,0,101375:0:0:0:0:
109,192,99067,1,0,0:0:0:0:
402,192,99277,1,0,0:0:0:0:
109,192,99487,1,0,0:0:0:0:
36,192,99696,128,0,101375:0:0:0:0:
182,192,99696,128,0,99801:0:0:0:0:
402,192,99696,128,0,99801:0:0:0:0:
109,192,99906,128,0,100011:0:0:0:0:
329,192,99906,128,0,100011:0:0:0:0:
256,192,100116,128,0,100221:0:0:0:0:
402,192,100116,128,0,100221:0:0:0:0:
182,192,100326,128,0,100431:0:0:0:0:
329,192,100326,128,0,100431:0:0:0:0:
109,192,100536,128,0,100641:0:0:0:0:
256,192,100536,128,0,100641:0:0:0:0:
402,192,100745,1,0,0:0:0:0:
109,192,100955,1,0,0:0:0:0:
402,192,101165,1,0,0:0:0:0:
256,192,101375,128,0,101480:0:0:0:0:
402,192,101375,128,0,101480:0:0:0:0:
109,192,101480,128,0,101585:0:0:0:0:
475,192,101480,128,0,101585:0:0:0:0:
182,192,101585,128,0,101689:0:0:0:0:
329,192,101585,128,0,101689:0:0:0:0:
36,192,101689,128,0,101794:0:0:0:0:
402,192,101689,128,0,101794:0:0:0:0:
109,192,101794,128,0,101899:0:0:0:0:
475,192,101794,128,0,101899:0:0:0:0:
182,192,101899,128,0,102004:0:0:0:0:
329,192,101899,128,0,102004:0:0:0:0:
36,192,102004,128,0,102109:0:0:0:0:
475,192,102004,128,0,102109:0:0:0:0:
109,192,102109,128,0,102214:0:0:0:0:
402,192,102109,128,0,102214:0:0:0:0:
182,192,102214,128,0,102634:0:0:0:0:
256,192,102214,1,0,0:0:0:0:
329,192,102214,128,0,102634:0:0:0:0:
109,192,102634,128,0,103053:0:0:0:0:
256,192,102634,1,0,0:0:0:0:
402,192,102634,128,0,103053:0:0:0:0:
182,192,103053,128,0,103263:0:0:0:0:
256,192,103053,1,0,0:0:0:0:
329,192,103053,128,0,103263:0:0:0:0:
475,192,103053,128,0,105571:0:0:0:0:
36,192,103053,1,0,0:0:0:0:
36,192,103368,1,0,0:0:0:0:
109,192,103368,1,0,0:0:0:0:
182,192,103473,1,0,0:0:0:0:
329,192,103473,1,0,0:0:0:0:
402,192,103473,1,0,0:0:0:0:
109,192,103682,128,0,103892:0:0:0:0:
402,192,103682,128,0,103892:0:0:0:0:
182,192,103892,128,0,104102:0:0:0:0:
256,192,103892,1,0,0:0:0:0:
329,192,103892,128,0,104102:0:0:0:0:
36,192,104207,1,0,0:0:0:0:
402,192,104207,1,0,0:0:0:0:
109,192,104312,1,0,0:0:0:0:
182,192,104312,1,0,0:0:0:0:
329,192,104312,1,0,0:0:0:0:
109,192,104522,128,0,104731:0:0:0:0:
402,192,104522,128,0,104731:0:0:0:0:
36,192,104731,1,0,0:0:0:0:
182,192,104731,128,0,104941:0:0:0:0:
256,192,104731,128,0,106410:0:0:0:0:
329,192,104731,128,0,104941:0:0:0:0:
36,192,105046,1,0,0:0:0:0:
109,192,105046,1,0,0:0:0:0:
182,192,105151,1,0,0:0:0:0:
329,192,105151,1,0,0:0:0:0:
402,192,105151,1,0,0:0:0:0:
109,192,105361,128,0,105571:0:0:0:0:
402,192,105361,128,0,105571:0:0:0:0:
36,192,105571,128,0,107249:0:0:0:0:
182,192,105571,128,0,105780:0:0:0:0:
329,192,105571,128,0,105780:0:0:0:0:
182,192,105885,1,0,0:0:0:0:
475,192,105885,1,0,0:0:0:0:
109,192,105990,1,0,0:0:0:0:
329,192,105990,1,0,0:0:0:0:
402,192,105990,1,0,0:0:0:0:
182,192,106200,128,0,106410:0:0:0:0:
475,192,106200,128,0,106410:0:0:0:0:
109,192,106410,128,0,106620:0:0:0:0:
329,192,106410,128,0,106620:0:0:0:0:
402,192,106410,128,0,108088:0:0:0:0:
109,192,106724,1,0,0:0:0:0:
329,192,106724,1,0,0:0:0:0:
182,192,106829,1,0,0:0:0:0:
256,192,106829,1,0,0:0:0:0:
475,192,106829,1,0,0:0:0:0:
182,192,107039,128,0,107249:0:0:0:0:
329,192,107039,128,0,107249:0:0:0:0:
109,192,107249,128,0,108927:0:0:0:0:
256,192,107249,128,0,107459:0:0:0:0:
475,192,107249,128,0,107459:0:0:0:0:
256,192,107564,1,0,0:0:0:0:
475,192,107564,1,0,0:0:0:0:
36,192,107669,1,0,0:0:0:0:
182,192,107669,1,0,0:0:0:0:
329,192,107669,1,0,0:0:0:0:
36,192,107878,128,0,108088:0:0:0:0:
329,192,107878,128,0,108088:0:0:0:0:
182,192,108088,128,0,108298:0:0:0:0:
256,192,108088,128,0,109766:0:0:0:0:
475,192,108088,128,0,108298:0:0:0:0:
329,192,108298,1,0,0:0:0:0:
36,192,108298,1,0,0:0:0:0:
402,192,108403,1,0,0:0:0:0:
36,192,108508,1,0,0:0:0:0:
182,192,108508,1,0,0:0:0:0:
475,192,108508,1,0,0:0:0:0:
329,192,108717,1,0,0:0:0:0:
182,192,108717,1,0,0:0:0:0:
475,192,108822,1,0,0:0:0:0:
36,192,108927,1,0,0:0:0:0:
329,192,108927,1,0,0:0:0:0:
402,192,108927,1,0,0:0:0:0:
182,192,109137,1,0,0:0:0:0:
402,192,109137,1,0,0:0:0:0:
109,192,109242,128,0,109347:0:0:0:0:
329,192,109242,128,0,109347:0:0:0:0:
109,192,109452,1,0,0:0:0:0:
329,192,109452,1,0,0:0:0:0:
182,192,109557,128,0,109662:0:0:0:0:
402,192,109557,128,0,109662:0:0:0:0:
36,192,109766,128,0,110186:0:0:0:0:
109,192,109766,1,0,0:0:0:0:
402,192,109766,1,0,0:0:0:0:
475,192,109766,128,0,110186:0:0:0:0:
182,192,109871,1,0,0:0:0:0:
329,192,109871,1,0,0:0:0:0:
109,192,109976,1,0,0:0:0:0:
402,192,109976,1,0,0:0:0:0:
182,192,110081,1,0,0:0:0:0:
329,192,110081,1,0,0:0:0:0:
109,192,110186,128,0,110291:0:0:0:0:
402,192,110186,128,0,110291:0:0:0:0:
256,192,110186,1,0,0:0:0:0:
109,192,110396,1,0,0:0:0:0:
329,192,110396,128,0,110815:0:0:0:0:
402,192,110396,1,0,0:0:0:0:
475,192,110396,128,0,110815:0:0:0:0:
36,192,110606,1,0,0:0:0:0:
182,192,110606,1,0,0:0:0:0:
109,192,110710,1,0,0:0:0:0:
256,192,110710,1,0,0:0:0:0:
182,192,110815,1,0,0:0:0:0:
402,192,110815,1,0,0:0:0:0:
109,192,110920,1,0,0:0:0:0:
256,192,110920,1,0,0:0:0:0:
36,192,111025,128,0,111130:0:0:0:0:
182,192,111025,128,0,111445:0:0:0:0:
329,192,111025,128,0,111445:0:0:0:0:
475,192,111025,128,0,111130:0:0:0:0:
36,192,111235,1,0,0:0:0:0:
475,192,111235,1,0,0:0:0:0:
36,192,111445,1,0,0:0:0:0:
109,192,111445,128,0,111864:0:0:0:0:
256,192,111445,128,0,111864:0:0:0:0:
402,192,111445,1,0,0:0:0:0:
182,192,111550,1,0,0:0:0:0:
475,192,111550,1,0,0:0:0:0:
36,192,111655,1,0,0:0:0:0:
329,192,111655,1,0,0:0:0:0:
182,192,111759,1,0,0:0:0:0:
475,192,111759,1,0,0:0:0:0:
36,192,111864,1,0,0:0:0:0:
329,192,111864,128,0,111969:0:0:0:0:
402,192,111864,128,0,111969:0:0:0:0:
36,192,112074,128,0,112494:0:0:0:0:
109,192,112074,1,0,0:0:0:0:
182,192,112074,128,0,112494:0:0:0:0:
402,192,112074,1,0,0:0:0:0:
329,192,112284,1,0,0:0:0:0:
475,192,112284,1,0,0:0:0:0:
256,192,112389,1,0,0:0:0:0:
402,192,112389,1,0,0:0:0:0:
109,192,112494,1,0,0:0:0:0:
329,192,112494,1,0,0:0:0:0:
256,192,112599,1,0,0:0:0:0:
402,192,112599,1,0,0:0:0:0:
36,192,112703,128,0,112808:0:0:0:0:
182,192,112703,128,0,113123:0:0:0:0:
329,192,112703,128,0,113123:0:0:0:0:
475,192,112703,128,0,112808:0:0:0:0:
36,192,112913,1,0,0:0:0:0:
475,192,112913,1,0,0:0:0:0:
109,192,113123,1,0,0:0:0:0:
256,192,113123,128,0,113543:0:0:0:0:
402,192,113123,128,0,113543:0:0:0:0:
475,192,113123,1,0,0:0:0:0:
36,192,113228,1,0,0:0:0:0:
329,192,113228,1,0,0:0:0:0:
182,192,113333,1,0,0:0:0:0:
475,192,113333,1,0,0:0:0:0:
36,192,113438,1,0,0:0:0:0:
329,192,113438,1,0,0:0:0:0:
109,192,113543,1,0,0:0:0:0:
182,192,113543,128,0,113648:0:0:0:0:
475,192,113543,128,0,113648:0:0:0:0:
109,192,113752,128,0,114172:0:0:0:0:
182,192,113752,1,0,0:0:0:0:
329,192,113752,1,0,0:0:0:0:
402,192,113752,128,0,114172:0:0:0:0:
36,192,113962,1,0,0:0:0:0:
329,192,113962,1,0,0:0:0:0:
182,192,114067,1,0,0:0:0:0:
475,192,114067,1,0,0:0:0:0:
36,192,114172,1,0,0:0:0:0:
329,192,114172,1,0,0:0:0:0:
182,192,114277,1,0,0:0:0:0:
256,192,114277,1,0,0:0:0:0:
36,192,114382,128,0,114801:0:0:0:0:
109,192,114382,128,0,114487:0:0:0:0:
402,192,114382,128,0,114487:0:0:0:0:
475,192,114382,128,0,114801:0:0:0:0:
256,192,114592,1,0,0:0:0:0:
329,192,114592,1,0,0:0:0:0:
109,192,114801,128,0,115221:0:0:0:0:
182,192,114801,1,0,0:0:0:0:
329,192,114801,1,0,0:0:0:0:
402,192,114801,128,0,115221:0:0:0:0:
36,192,114906,1,0,0:0:0:0:
475,192,114906,1,0,0:0:0:0:
182,192,115011,1,0,0:0:0:0:
329,192,115011,1,0,0:0:0:0:
36,192,115116,1,0,0:0:0:0:
475,192,115116,1,0,0:0:0:0:
182,192,115221,128,0,115431:0:0:0:0:
256,192,115221,1,0,0:0:0:0:
329,192,115221,128,0,115431:0:0:0:0:
36,192,115431,1,0,0:0:0:0:
109,192,115431,1,0,0:0:0:0:
475,192,115431,128,0,115641:0:0:0:0:
109,192,115641,1,0,0:0:0:0:
182,192,115641,128,0,116060:0:0:0:0:
329,192,115641,1,0,0:0:0:0:
402,192,115641,128,0,115850:0:0:0:0:
329,192,115850,128,0,116060:0:0:0:0:
109,192,116060,128,0,116480:0:0:0:0:
256,192,116060,1,0,0:0:0:0:
36,192,116060,1,0,0:0:0:0:
475,192,116060,128,0,116270:0:0:0:0:
182,192,116270,1,0,0:0:0:0:
402,192,116270,128,0,116480:0:0:0:0:
329,192,116270,128,0,116480:0:0:0:0:
36,192,116480,1,0,0:0:0:0:
256,192,116480,1,0,0:0:0:0:
475,192,116480,1,0,0:0:0:0:
182,192,116585,1,0,0:0:0:0:
329,192,116585,1,0,0:0:0:0:
402,192,116689,1,0,0:0:0:0:
109,192,116689,1,0,0:0:0:0:
36,192,116794,1,0,0:0:0:0:
256,192,116794,1,0,0:0:0:0:
329,192,116899,128,0,117319:0:0:0:0:
402,192,116899,128,0,117109:0:0:0:0:
475,192,116899,1,0,0:0:0:0:
36,192,117109,1,0,0:0:0:0:
109,192,117109,128,0,117214:0:0:0:0:
182,192,117109,128,0,117529:0:0:0:0:
256,192,117319,1,0,0:0:0:0:
402,192,117319,1,0,0:0:0:0:
475,192,117319,128,0,117738:0:0:0:0:
109,192,117424,1,0,0:0:0:0:
36,192,117529,128,0,117948:0:0:0:0:
402,192,117529,1,0,0:0:0:0:
182,192,117634,1,0,0:0:0:0:
256,192,117634,1,0,0:0:0:0:
109,192,117738,1,0,0:0:0:0:
329,192,117738,128,0,117948:0:0:0:0:
402,192,117738,128,0,118158:0:0:0:0:
109,192,117948,128,0,118368:0:0:0:0:
182,192,117948,128,0,118053:0:0:0:0:
475,192,117948,1,0,0:0:0:0:
36,192,118158,128,0,118578:0:0:0:0:
182,192,118158,1,0,0:0:0:0:
256,192,118158,1,0,0:0:0:0:
329,192,118158,1,0,0:0:0:0:
402,192,118263,1,0,0:0:0:0:
475,192,118263,1,0,0:0:0:0:
182,192,118368,128,0,118787:0:0:0:0:
256,192,118368,1,0,0:0:0:0:
402,192,118473,1,0,0:0:0:0:
329,192,118473,1,0,0:0:0:0:
256,192,118578,128,0,118787:0:0:0:0:
109,192,118578,1,0,0:0:0:0:
475,192,118578,128,0,118997:0:0:0:0:
36,192,118787,128,0,118892:0:0:0:0:
402,192,118787,1,0,0:0:0:0:
329,192,118787,128,0,119207:0:0:0:0:
36,192,118997,128,0,119417:0:0:0:0:
109,192,118997,1,0,0:0:0:0:
256,192,118997,1,0,0:0:0:0:
475,192,119102,1,0,0:0:0:0:
402,192,119102,1,0,0:0:0:0:
182,192,119207,128,0,119627:0:0:0:0:
256,192,119207,1,0,0:0:0:0:
402,192,119312,1,0,0:0:0:0:
475,192,119312,1,0,0:0:0:0:
109,192,119417,1,0,0:0:0:0:
256,192,119417,128,0,119522:0:0:0:0:
329,192,119417,128,0,119836:0:0:0:0:
256,192,119627,128,0,119836:0:0:0:0:
402,192,119627,1,0,0:0:0:0:
475,192,119627,128,0,119731:0:0:0:0:
36,192,119836,128,0,120676:0:0:0:0:
182,192,119836,1,0,0:0:0:0:
402,192,119836,128,0,120676:0:0:0:0:
109,192,119941,1,0,0:0:0:0:
256,192,119941,1,0,0:0:0:0:
329,192,120046,1,0,0:0:0:0:
182,192,120046,1,0,0:0:0:0:
475,192,120151,1,0,0:0:0:0:
256,192,120151,1,0,0:0:0:0:
109,192,120256,128,0,120466:0:0:0:0:
329,192,120256,1,0,0:0:0:0:
182,192,120466,128,0,120571:0:0:0:0:
256,192,120466,1,0,0:0:0:0:
109,192,120676,128,0,121515:0:0:0:0:
329,192,120676,1,0,0:0:0:0:
475,192,120676,128,0,121515:0:0:0:0:
402,192,120780,1,0,0:0:0:0:
256,192,120780,1,0,0:0:0:0:
182,192,120885,1,0,0:0:0:0:
329,192,120885,1,0,0:0:0:0:
36,192,120990,1,0,0:0:0:0:
256,192,120990,1,0,0:0:0:0:
182,192,121095,1,0,0:0:0:0:
402,192,121095,128,0,121305:0:0:0:0:
256,192,121305,1,0,0:0:0:0:
329,192,121305,128,0,121410:0:0:0:0:
256,192,121515,128,0,122354:0:0:0:0:
182,192,121515,1,0,0:0:0:0:
402,192,121515,1,0,0:0:0:0:
36,192,121620,1,0,0:0:0:0:
329,192,121620,1,0,0:0:0:0:
182,192,121724,1,0,0:0:0:0:
109,192,121724,1,0,0:0:0:0:
475,192,121829,1,0,0:0:0:0:
402,192,121829,1,0,0:0:0:0:
36,192,121934,128,0,122144:0:0:0:0:
109,192,121934,1,0,0:0:0:0:
329,192,121934,128,0,122144:0:0:0:0:
182,192,122144,128,0,122249:0:0:0:0:
402,192,122144,128,0,122249:0:0:0:0:
475,192,122144,1,0,0:0:0:0:
36,192,122354,128,0,122459:0:0:0:0:
329,192,122354,1,0,0:0:0:0:
402,192,122354,128,0,122459:0:0:0:0:
182,192,122459,1,0,0:0:0:0:
256,192,122459,128,0,122564:0:0:0:0:
475,192,122459,128,0,122564:0:0:0:0:
36,192,122564,1,0,0:0:0:0:
109,192,122564,128,0,122669:0:0:0:0:
329,192,122564,128,0,122669:0:0:0:0:
182,192,122669,128,0,122773:0:0:0:0:
402,192,122669,128,0,122773:0:0:0:0:
475,192,122669,1,0,0:0:0:0:
36,192,122773,128,0,122878:0:0:0:0:
109,192,122773,1,0,0:0:0:0:
256,192,122773,128,0,122878:0:0:0:0:
182,192,122878,128,0,122983:0:0:0:0:
402,192,122878,1,0,0:0:0:0:
475,192,122878,128,0,122983:0:0:0:0:
36,192,122983,128,0,123088:0:0:0:0:
109,192,122983,1,0,0:0:0:0:
329,192,122983,128,0,123088:0:0:0:0:
256,192,123088,128,0,123193:0:0:0:0:
402,192,123088,1,0,0:0:0:0:
475,192,123088,128,0,123193:0:0:0:0:
109,192,123193,1,0,0:0:0:0:
182,192,123193,128,0,124871:0:0:0:0:
329,192,123193,128,0,124871:0:0:0:0:
36,192,123193,1,0,0:0:0:0:
402,192,123508,1,0,0:0:0:0:
475,192,123508,1,0,0:0:0:0:
109,192,123822,1,0,0:0:0:0:
36,192,123822,1,0,0:0:0:0:
256,192,124032,128,0,124242:0:0:0:0:
475,192,124242,128,0,124452:0:0:0:0:
36,192,124242,128,0,124452:0:0:0:0:
256,192,124452,128,0,124662:0:0:0:0:
402,192,124662,128,0,124871:0:0:0:0:
109,192,124662,128,0,124871:0:0:0:0:
36,192,124871,128,0,126550:0:0:0:0:
256,192,124871,1,0,0:0:0:0:
475,192,124871,128,0,124976:0:0:0:0:
402,192,124976,128,0,125081:0:0:0:0:
329,192,125081,128,0,125186:0:0:0:0:
182,192,125081,128,0,125186:0:0:0:0:
256,192,125186,128,0,125291:0:0:0:0:
109,192,125291,1,0,0:0:0:0:
182,192,125291,1,0,0:0:0:0:
329,192,125291,128,0,125501:0:0:0:0:
402,192,125291,1,0,0:0:0:0:
475,192,125291,1,0,0:0:0:0:
402,192,125501,128,0,125710:0:0:0:0:
109,192,125501,128,0,125606:0:0:0:0:
109,192,125710,1,0,0:0:0:0:
182,192,125710,1,0,0:0:0:0:
256,192,125710,1,0,0:0:0:0:
329,192,125710,1,0,0:0:0:0:
475,192,125710,128,0,125815:0:0:0:0:
402,192,125815,128,0,125920:0:0:0:0:
329,192,125920,128,0,126025:0:0:0:0:
182,192,125920,128,0,126025:0:0:0:0:
256,192,126025,128,0,126130:0:0:0:0:
109,192,126130,1,0,0:0:0:0:
182,192,126130,1,0,0:0:0:0:
329,192,126130,128,0,126340:0:0:0:0:
402,192,126130,1,0,0:0:0:0:
475,192,126130,1,0,0:0:0:0:
402,192,126340,128,0,126550:0:0:0:0:
109,192,126340,128,0,126445:0:0:0:0:
109,192,126550,128,0,127389:0:0:0:0:
182,192,126550,1,0,0:0:0:0:
256,192,126550,1,0,0:0:0:0:
329,192,126550,1,0,0:0:0:0:
475,192,126550,128,0,126655:0:0:0:0:
402,192,126655,128,0,126759:0:0:0:0:
329,192,126759,128,0,126864:0:0:0:0:
182,192,126759,128,0,126864:0:0:0:0:
256,192,126864,128,0,126969:0:0:0:0:
36,192,126969,1,0,0:0:0:0:
182,192,126969,1,0,0:0:0:0:
329,192,126969,128,0,127179:0:0:0:0:
402,192,126969,1,0,0:0:0:0:
475,192,126969,1,0,0:0:0:0:
402,192,127179,128,0,127389:0:0:0:0:
182,192,127179,128,0,127284:0:0:0:0:
36,192,127389,128,0,128228:0:0:0:0:
182,192,127389,128,0,128228:0:0:0:0:
256,192,127389,1,0,0:0:0:0:
329,192,127389,1,0,0:0:0:0:
475,192,127389,128,0,127494:0:0:0:0:
402,192,127494,128,0,127599:0:0:0:0:
329,192,127599,128,0,127703:0:0:0:0:
109,192,127599,128,0,127703:0:0:0:0:
256,192,127703,128,0,127808:0:0:0:0:
109,192,127808,1,0,0:0:0:0:
329,192,127808,128,0,128018:0:0:0:0:
402,192,127808,1,0,0:0:0:0:
475,192,127808,1,0,0:0:0:0:
402,192,128018,128,0,128228:0:0:0:0:
256,192,128018,128,0,128123:0:0:0:0:
256,192,128228,128,0,129906:0:0:0:0:
329,192,128228,1,0,0:0:0:0:
475,192,128228,128,0,128333:0:0:0:0:
109,192,128228,128,0,128438:0:0:0:0:
402,192,128333,128,0,128438:0:0:0:0:
182,192,128438,128,0,128543:0:0:0:0:
329,192,128543,128,0,128648:0:0:0:0:
36,192,128648,1,0,0:0:0:0:
109,192,128648,1,0,0:0:0:0:
182,192,128648,128,0,128857:0:0:0:0:
402,192,128648,1,0,0:0:0:0:
475,192,128648,128,0,128857:0:0:0:0:
109,192,128857,128,0,129067:0:0:0:0:
182,192,129067,1,0,0:0:0:0:
329,192,129067,1,0,0:0:0:0:
475,192,129067,128,0,129172:0:0:0:0:
36,192,129067,128,0,129277:0:0:0:0:
402,192,129172,128,0,129277:0:0:0:0:
182,192,129277,128,0,129382:0:0:0:0:
329,192,129382,128,0,129487:0:0:0:0:
36,192,129487,1,0,0:0:0:0:
109,192,129487,1,0,0:0:0:0:
182,192,129487,128,0,129696:0:0:0:0:
475,192,129487,1,0,0:0:0:0:
402,192,129487,128,0,129696:0:0:0:0:
109,192,129696,128,0,129906:0:0:0:0:
36,192,129906,128,0,130745:0:0:0:0:
329,192,129906,1,0,0:0:0:0:
475,192,129906,128,0,130011:0:0:0:0:
182,192,129906,128,0,130116:0:0:0:0:
402,192,130011,128,0,130116:0:0:0:0:
329,192,130116,128,0,130221:0:0:0:0:
256,192,130221,128,0,130326:0:0:0:0:
182,192,130326,1,0,0:0:0:0:
329,192,130326,128,0,130536:0:0:0:0:
402,192,130326,1,0,0:0:0:0:
475,192,130326,1,0,0:0:0:0:
109,192,130326,128,0,130536:0:0:0:0:
402,192,130536,128,0,130745:0:0:0:0:
182,192,130536,128,0,130641:0:0:0:0:
109,192,130745,1,0,0:0:0:0:
182,192,130745,1,0,0:0:0:0:
256,192,130745,128,0,131585:0:0:0:0:
329,192,130745,1,0,0:0:0:0:
475,192,130745,128,0,130850:0:0:0:0:
402,192,130850,128,0,130955:0:0:0:0:
329,192,130955,128,0,131060:0:0:0:0:
182,192,130955,128,0,131060:0:0:0:0:
109,192,131060,128,0,131165:0:0:0:0:
36,192,131165,128,0,131375:0:0:0:0:
182,192,131165,1,0,0:0:0:0:
329,192,131165,1,0,0:0:0:0:
402,192,131165,1,0,0:0:0:0:
475,192,131165,128,0,131375:0:0:0:0:
109,192,131375,128,0,131585:0:0:0:0:
402,192,131375,128,0,131480:0:0:0:0:
36,192,131585,128,0,131689:0:0:0:0:
182,192,131585,1,0,0:0:0:0:
329,192,131585,1,0,0:0:0:0:
402,192,131585,1,0,0:0:0:0:
475,192,131585,128,0,133263:0:0:0:0:
109,192,131689,128,0,131794:0:0:0:0:
182,192,131794,128,0,131899:0:0:0:0:
329,192,131794,128,0,131899:0:0:0:0:
256,192,131899,128,0,132004:0:0:0:0:
36,192,132004,1,0,0:0:0:0:
109,192,132004,1,0,0:0:0:0:
182,192,132004,128,0,132214:0:0:0:0:
329,192,132004,1,0,0:0:0:0:
402,192,132004,1,0,0:0:0:0:
109,192,132214,128,0,132424:0:0:0:0:
402,192,132214,128,0,132319:0:0:0:0:
36,192,132424,128,0,132529:0:0:0:0:
182,192,132424,1,0,0:0:0:0:
256,192,132424,1,0,0:0:0:0:
329,192,132424,1,0,0:0:0:0:
402,192,132424,1,0,0:0:0:0:
109,192,132529,128,0,132634:0:0:0:0:
182,192,132634,128,0,132738:0:0:0:0:
329,192,132634,128,0,132738:0:0:0:0:
256,192,132738,128,0,132843:0:0:0:0:
36,192,132843,1,0,0:0:0:0:
109,192,132843,1,0,0:0:0:0:
182,192,132843,128,0,133053:0:0:0:0:
329,192,132843,1,0,0:0:0:0:
402,192,132843,1,0,0:0:0:0:
109,192,133053,128,0,133263:0:0:0:0:
402,192,133053,128,0,133158:0:0:0:0:
36,192,133263,128,0,133368:0:0:0:0:
182,192,133263,1,0,0:0:0:0:
256,192,133263,1,0,0:0:0:0:
329,192,133263,1,0,0:0:0:0:
402,192,133263,128,0,134102:0:0:0:0:
109,192,133368,128,0,133473:0:0:0:0:
182,192,133473,128,0,133578:0:0:0:0:
329,192,133473,128,0,133578:0:0:0:0:
256,192,133578,128,0,133682:0:0:0:0:
36,192,133682,1,0,0:0:0:0:
109,192,133682,1,0,0:0:0:0:
182,192,133682,128,0,133892:0:0:0:0:
329,192,133682,1,0,0:0:0:0:
475,192,133682,1,0,0:0:0:0:
109,192,133892,128,0,134102:0:0:0:0:
329,192,133892,128,0,133997:0:0:0:0:
36,192,134102,128,0,134207:0:0:0:0:
182,192,134102,1,0,0:0:0:0:
256,192,134102,1,0,0:0:0:0:
329,192,134102,128,0,134941:0:0:0:0:
475,192,134102,1,0,0:0:0:0:
109,192,134207,128,0,134312:0:0:0:0:
182,192,134312,128,0,134417:0:0:0:0:
402,192,134312,128,0,134417:0:0:0:0:
256,192,134417,128,0,134522:0:0:0:0:
36,192,134522,1,0,0:0:0:0:
109,192,134522,1,0,0:0:0:0:
182,192,134522,128,0,134731:0:0:0:0:
402,192,134522,1,0,0:0:0:0:
475,192,134522,1,0,0:0:0:0:
109,192,134731,128,0,134941:0:0:0:0:
256,192,134731,128,0,134836:0:0:0:0:
36,192,134941,1,0,0:0:0:0:
182,192,134941,128,0,136620:0:0:0:0:
256,192,134941,1,0,0:0:0:0:
402,192,134941,128,0,135151:0:0:0:0:
475,192,134941,128,0,135151:0:0:0:0:
109,192,135151,1,0,0:0:0:0:
329,192,135151,1,0,0:0:0:0:
36,192,135256,1,0,0:0:0:0:
402,192,135256,1,0,0:0:0:0:
109,192,135361,1,0,0:0:0:0:
329,192,135361,1,0,0:0:0:0:
36,192,135466,1,0,0:0:0:0:
402,192,135466,1,0,0:0:0:0:
109,192,135571,128,0,135780:0:0:0:0:
256,192,135571,128,0,135780:0:0:0:0:
329,192,135571,128,0,135780:0:0:0:0:
36,192,135780,1,0,0:0:0:0:
402,192,135780,1,0,0:0:0:0:
109,192,135885,1,0,0:0:0:0:
475,192,135885,1,0,0:0:0:0:
36,192,135990,1,0,0:0:0:0:
402,192,135990,1,0,0:0:0:0:
109,192,136095,1,0,0:0:0:0:
475,192,136095,1,0,0:0:0:0:
36,192,136200,128,0,136410:0:0:0:0:
329,192,136200,128,0,136410:0:0:0:0:
402,192,136200,128,0,136410:0:0:0:0:
109,192,136410,1,0,0:0:0:0:
475,192,136410,1,0,0:0:0:0:
256,192,136515,1,0,0:0:0:0:
329,192,136515,1,0,0:0:0:0:
475,192,136620,128,0,136829:0:0:0:0:
36,192,136620,128,0,136829:0:0:0:0:
402,192,136724,128,0,137039:0:0:0:0:
109,192,136724,128,0,137039:0:0:0:0:
329,192,136829,128,0,136934:0:0:0:0:
182,192,136829,128,0,136934:0:0:0:0:
475,192,136934,128,0,137249:0:0:0:0:
36,192,136934,128,0,137249:0:0:0:0:
256,192,137039,128,0,137354:0:0:0:0:
182,192,137039,128,0,137144:0:0:0:0:
329,192,137039,128,0,137144:0:0:0:0:
402,192,137144,128,0,137354:0:0:0:0:
109,192,137144,128,0,137354:0:0:0:0:
182,192,137249,128,0,137459:0:0:0:0:
329,192,137249,128,0,137459:0:0:0:0:
475,192,137354,128,0,137564:0:0:0:0:
36,192,137354,128,0,137564:0:0:0:0:
402,192,137459,128,0,137669:0:0:0:0:
109,192,137459,128,0,137773:0:0:0:0:
256,192,137459,128,0,137773:0:0:0:0:
329,192,137564,128,0,137773:0:0:0:0:
182,192,137564,128,0,137669:0:0:0:0:
36,192,137669,128,0,138193:0:0:0:0:
475,192,137669,128,0,138193:0:0:0:0:
182,192,137773,128,0,137878:0:0:0:0:
402,192,137773,128,0,137878:0:0:0:0:
109,192,137878,128,0,137983:0:0:0:0:
256,192,137878,128,0,138298:0:0:0:0:
329,192,137878,128,0,137983:0:0:0:0:
182,192,137983,128,0,138088:0:0:0:0:
402,192,137983,128,0,138088:0:0:0:0:
109,192,138088,128,0,138193:0:0:0:0:
329,192,138088,128,0,138193:0:0:0:0:
182,192,138193,128,0,138298:0:0:0:0:
402,192,138193,128,0,138298:0:0:0:0:
36,192,138298,128,0,139976:0:0:0:0:
109,192,138298,128,0,138403:0:0:0:0:
329,192,138298,128,0,138717:0:0:0:0:
475,192,138298,128,0,138717:0:0:0:0:
402,192,138403,128,0,138508:0:0:0:0:
256,192,138508,128,0,138613:0:0:0:0:
182,192,138613,128,0,138717:0:0:0:0:
109,192,138717,128,0,138927:0:0:0:0:
256,192,138717,128,0,139137:0:0:0:0:
402,192,138717,128,0,139137:0:0:0:0:
182,192,138927,128,0,139032:0:0:0:0:
109,192,139137,128,0,139242:0:0:0:0:
329,192,139137,128,0,139557:0:0:0:0:
475,192,139137,128,0,139557:0:0:0:0:
402,192,139242,128,0,139347:0:0:0:0:
256,192,139347,128,0,139452:0:0:0:0:
182,192,139452,128,0,139557:0:0:0:0:
109,192,139557,128,0,139766:0:0:0:0:
256,192,139557,128,0,139871:0:0:0:0:
402,192,139557,128,0,139976:0:0:0:0:
182,192,139766,128,0,139871:0:0:0:0:
109,192,139976,128,0,140396:0:0:0:0:
256,192,139976,128,0,140396:0:0:0:0:
329,192,139976,128,0,140815:0:0:0:0:
475,192,139976,128,0,140081:0:0:0:0:
402,192,140081,128,0,140186:0:0:0:0:
36,192,140186,128,0,140291:0:0:0:0:
182,192,140291,128,0,140396:0:0:0:0:
36,192,140396,128,0,140606:0:0:0:0:
402,192,140396,128,0,140710:0:0:0:0:
475,192,140396,128,0,140815:0:0:0:0:
109,192,140606,128,0,140815:0:0:0:0:
36,192,140815,128,0,140920:0:0:0:0:
182,192,140815,128,0,141655:0:0:0:0:
256,192,140815,128,0,141235:0:0:0:0:
402,192,140815,128,0,141235:0:0:0:0:
109,192,140920,128,0,141025:0:0:0:0:
475,192,141025,128,0,141130:0:0:0:0:
329,192,141130,128,0,141235:0:0:0:0:
36,192,141235,128,0,141655:0:0:0:0:
109,192,141235,128,0,141550:0:0:0:0:
475,192,141235,128,0,141445:0:0:0:0:
329,192,141445,128,0,141655:0:0:0:0:
109,192,141655,128,0,141759:0:0:0:0:
256,192,141655,128,0,142074:0:0:0:0:
402,192,141655,128,0,142074:0:0:0:0:
475,192,141655,128,0,143333:0:0:0:0:
36,192,141759,128,0,141864:0:0:0:0:
182,192,141864,128,0,141969:0:0:0:0:
109,192,141969,128,0,142074:0:0:0:0:
36,192,142074,128,0,142494:0:0:0:0:
182,192,142074,128,0,142494:0:0:0:0:
329,192,142074,128,0,142284:0:0:0:0:
402,192,142284,128,0,142389:0:0:0:0:
109,192,142494,128,0,142599:0:0:0:0:
256,192,142494,128,0,142913:0:0:0:0:
402,192,142494,128,0,142913:0:0:0:0:
36,192,142599,128,0,142703:0:0:0:0:
182,192,142703,128,0,142808:0:0:0:0:
109,192,142808,128,0,142913:0:0:0:0:
36,192,142913,128,0,143333:0:0:0:0:
182,192,142913,128,0,143333:0:0:0:0:
329,192,142913,128,0,143123:0:0:0:0:
402,192,143123,128,0,143228:0:0:0:0:
109,192,143333,128,0,143752:0:0:0:0:
256,192,143333,128,0,143438:0:0:0:0:
329,192,143333,128,0,144172:0:0:0:0:
402,192,143333,128,0,143752:0:0:0:0:
182,192,143438,128,0,143543:0:0:0:0:
36,192,143543,128,0,143648:0:0:0:0:
256,192,143648,128,0,143752:0:0:0:0:
36,192,143752,128,0,144172:0:0:0:0:
182,192,143752,128,0,143962:0:0:0:0:
475,192,143752,128,0,144172:0:0:0:0:
256,192,143962,128,0,144067:0:0:0:0:
109,192,144172,128,0,144592:0:0:0:0:
182,192,144172,128,0,145011:0:0:0:0:
256,192,144172,128,0,144277:0:0:0:0:
402,192,144172,128,0,144592:0:0:0:0:
329,192,144277,128,0,144382:0:0:0:0:
475,192,144382,128,0,144487:0:0:0:0:
256,192,144487,128,0,144592:0:0:0:0:
36,192,144592,128,0,144906:0:0:0:0:
329,192,144592,128,0,144801:0:0:0:0:
475,192,144592,128,0,145011:0:0:0:0:
256,192,144801,128,0,144906:0:0:0:0:
36,192,145011,128,0,146689:0:0:0:0:
109,192,145011,128,0,145431:0:0:0:0:
256,192,145011,128,0,145431:0:0:0:0:
402,192,145011,128,0,145116:0:0:0:0:
329,192,145116,128,0,145221:0:0:0:0:
475,192,145221,128,0,145326:0:0:0:0:
402,192,145326,128,0,145431:0:0:0:0:
182,192,145431,128,0,145641:0:0:0:0:
329,192,145431,128,0,145850:0:0:0:0:
475,192,145431,128,0,145850:0:0:0:0:
109,192,145641,128,0,145745:0:0:0:0:
109,192,145850,128,0,146270:0:0:0:0:
256,192,145850,128,0,146270:0:0:0:0:
402,192,145850,128,0,145955:0:0:0:0:
329,192,145955,128,0,146060:0:0:0:0:
475,192,146060,128,0,146165:0:0:0:0:
402,192,146165,128,0,146270:0:0:0:0:
182,192,146270,128,0,146480:0:0:0:0:
329,192,146270,128,0,146689:0:0:0:0:
475,192,146270,128,0,146689:0:0:0:0:
109,192,146480,128,0,146585:0:0:0:0:
182,192,146689,128,0,146794:0:0:0:0:
256,192,146689,128,0,147109:0:0:0:0:
402,192,146689,128,0,147529:0:0:0:0:
109,192,146794,128,0,146899:0:0:0:0:
36,192,146899,128,0,147004:0:0:0:0:
109,192,147004,128,0,147109:0:0:0:0:
182,192,147109,128,0,147529:0:0:0:0:
329,192,147109,128,0,147319:0:0:0:0:
475,192,147319,128,0,147424:0:0:0:0:
109,192,147529,128,0,148368:0:0:0:0:
256,192,147529,128,0,147948:0:0:0:0:
329,192,147529,128,0,147634:0:0:0:0:
402,192,147634,128,0,147738:0:0:0:0:
475,192,147738,128,0,147843:0:0:0:0:
402,192,147843,128,0,147948:0:0:0:0:
182,192,147948,128,0,148158:0:0:0:0:
329,192,147948,128,0,148368:0:0:0:0:
36,192,148158,128,0,148263:0:0:0:0:
36,192,148368,128,0,148578:0:0:0:0:
182,192,148368,128,0,148578:0:0:0:0:
402,192,148368,128,0,150046:0:0:0:0:
475,192,148368,128,0,148578:0:0:0:0:
109,192,148578,1,0,0:0:0:0:
256,192,148578,1,0,0:0:0:0:
36,192,148682,1,0,0:0:0:0:
329,192,148682,1,0,0:0:0:0:
109,192,148787,1,0,0:0:0:0:
256,192,148787,1,0,0:0:0:0:
36,192,148892,1,0,0:0:0:0:
329,192,148892,1,0,0:0:0:0:
109,192,148997,128,0,149207:0:0:0:0:
182,192,148997,128,0,149207:0:0:0:0:
475,192,148997,128,0,149207:0:0:0:0:
256,192,149207,1,0,0:0:0:0:
329,192,149207,1,0,0:0:0:0:
36,192,149312,1,0,0:0:0:0:
109,192,149312,1,0,0:0:0:0:
256,192,149417,1,0,0:0:0:0:
329,192,149417,1,0,0:0:0:0:
36,192,149522,1,0,0:0:0:0:
109,192,149522,1,0,0:0:0:0:
182,192,149627,128,0,149836:0:0:0:0:
256,192,149627,128,0,149836:0:0:0:0:
475,192,149627,128,0,149836:0:0:0:0:
109,192,149836,1,0,0:0:0:0:
329,192,149836,1,0,0:0:0:0:
182,192,149941,1,0,0:0:0:0:
256,192,149941,1,0,0:0:0:0:
36,192,150046,128,0,150256:0:0:0:0:
109,192,150046,128,0,151724:0:0:0:0:
329,192,150046,128,0,150256:0:0:0:0:
475,192,150046,128,0,150256:0:0:0:0:
256,192,150256,1,0,0:0:0:0:
402,192,150256,1,0,0:0:0:0:
182,192,150361,1,0,0:0:0:0:
475,192,150361,1,0,0:0:0:0:
256,192,150466,1,0,0:0:0:0:
402,192,150466,1,0,0:0:0:0:
182,192,150571,1,0,0:0:0:0:
475,192,150571,1,0,0:0:0:0:
36,192,150676,128,0,150885:0:0:0:0:
329,192,150676,128,0,150885:0:0:0:0:
402,192,150676,128,0,150885:0:0:0:0:
182,192,150885,1,0,0:0:0:0:
256,192,150885,1,0,0:0:0:0:
402,192,150990,1,0,0:0:0:0:
475,192,150990,1,0,0:0:0:0:
182,192,151095,1,0,0:0:0:0:
256,192,151095,1,0,0:0:0:0:
402,192,151200,1,0,0:0:0:0:
475,192,151200,1,0,0:0:0:0:
36,192,151305,128,0,151515:0:0:0:0:
256,192,151305,128,0,151515:0:0:0:0:
329,192,151305,128,0,151515:0:0:0:0:
182,192,151515,1,0,0:0:0:0:
402,192,151515,1,0,0:0:0:0:
329,192,151620,1,0,0:0:0:0:
475,192,151620,1,0,0:0:0:0:
36,192,151724,128,0,152354:0:0:0:0:
182,192,151724,1,0,0:0:0:0:
256,192,151724,128,0,152354:0:0:0:0:
402,192,151724,128,0,151829:0:0:0:0:
475,192,151829,128,0,151934:0:0:0:0:
402,192,151934,128,0,152039:0:0:0:0:
329,192,152039,128,0,152144:0:0:0:0:
109,192,152144,1,0,0:0:0:0:
182,192,152144,128,0,152354:0:0:0:0:
402,192,152144,1,0,0:0:0:0:
475,192,152144,1,0,0:0:0:0:
109,192,152354,128,0,152459:0:0:0:0:
402,192,152354,128,0,152564:0:0:0:0:
109,192,152564,128,0,152669:0:0:0:0:
256,192,152564,128,0,153193:0:0:0:0:
329,192,152564,1,0,0:0:0:0:
475,192,152564,128,0,153193:0:0:0:0:
36,192,152669,128,0,152773:0:0:0:0:
109,192,152773,128,0,152878:0:0:0:0:
182,192,152878,128,0,152983:0:0:0:0:
36,192,152983,1,0,0:0:0:0:
109,192,152983,1,0,0:0:0:0:
329,192,152983,128,0,153193:0:0:0:0:
402,192,152983,1,0,0:0:0:0:
402,192,153193,128,0,153403:0:0:0:0:
109,192,153193,128,0,153298:0:0:0:0:
36,192,153403,128,0,153508:0:0:0:0:
182,192,153403,1,0,0:0:0:0:
329,192,153403,1,0,0:0:0:0:
109,192,153508,128,0,153613:0:0:0:0:
256,192,153508,1,0,0:0:0:0:
329,192,153613,1,0,0:0:0:0:
475,192,153613,128,0,153717:0:0:0:0:
256,192,153717,1,0,0:0:0:0:
402,192,153717,128,0,153822:0:0:0:0:
36,192,153822,128,0,153927:0:0:0:0:
182,192,153822,1,0,0:0:0:0:
329,192,153822,1,0,0:0:0:0:
109,192,153927,128,0,154032:0:0:0:0:
256,192,153927,1,0,0:0:0:0:
329,192,154032,1,0,0:0:0:0:
475,192,154032,128,0,154137:0:0:0:0:
256,192,154137,1,0,0:0:0:0:
402,192,154137,128,0,154242:0:0:0:0:
36,192,154242,128,0,154347:0:0:0:0:
182,192,154242,1,0,0:0:0:0:
329,192,154242,1,0,0:0:0:0:
109,192,154347,128,0,154452:0:0:0:0:
256,192,154347,1,0,0:0:0:0:
475,192,154452,128,0,154557:0:0:0:0:
182,192,154452,1,0,0:0:0:0:
256,192,154557,1,0,0:0:0:0:
402,192,154557,128,0,154662:0:0:0:0:
36,192,154662,128,0,154766:0:0:0:0:
182,192,154662,1,0,0:0:0:0:
329,192,154662,1,0,0:0:0:0:
109,192,154766,128,0,154871:0:0:0:0:
256,192,154766,1,0,0:0:0:0:
475,192,154871,128,0,154976:0:0:0:0:
182,192,154871,1,0,0:0:0:0:
256,192,154976,1,0,0:0:0:0:
402,192,154976,128,0,155081:0:0:0:0:
36,192,155081,128,0,155186:0:0:0:0:
182,192,155081,1,0,0:0:0:0:
329,192,155081,1,0,0:0:0:0:
109,192,155186,128,0,155291:0:0:0:0:
256,192,155186,1,0,0:0:0:0:
402,192,155186,1,0,0:0:0:0:
329,192,155291,1,0,0:0:0:0:
475,192,155291,128,0,155396:0:0:0:0:
182,192,155291,1,0,0:0:0:0:
256,192,155396,1,0,0:0:0:0:
402,192,155396,128,0,155501:0:0:0:0:
109,192,155396,1,0,0:0:0:0:
36,192,155501,128,0,155606:0:0:0:0:
182,192,155501,1,0,0:0:0:0:
329,192,155501,1,0,0:0:0:0:
109,192,155606,128,0,155710:0:0:0:0:
256,192,155606,1,0,0:0:0:0:
402,192,155606,1,0,0:0:0:0:
329,192,155710,1,0,0:0:0:0:
475,192,155710,128,0,155815:0:0:0:0:
182,192,155710,1,0,0:0:0:0:
256,192,155815,1,0,0:0:0:0:
402,192,155815,128,0,155920:0:0:0:0:
109,192,155815,1,0,0:0:0:0:
329,192,155920,1,0,0:0:0:0:
36,192,155920,128,0,156025:0:0:0:0:
182,192,155920,1,0,0:0:0:0:
256,192,156025,1,0,0:0:0:0:
402,192,156025,1,0,0:0:0:0:
109,192,156025,128,0,156130:0:0:0:0:
329,192,156130,1,0,0:0:0:0:
475,192,156130,128,0,156235:0:0:0:0:
182,192,156130,1,0,0:0:0:0:
256,192,156235,1,0,0:0:0:0:
402,192,156235,128,0,156340:0:0:0:0:
36,192,156235,1,0,0:0:0:0:
182,192,156340,1,0,0:0:0:0:
109,192,156340,1,0,0:0:0:0:
256,192,156392,1,0,0:0:0:0:
329,192,156392,1,0,0:0:0:0:
475,192,156445,1,0,0:0:0:0:
402,192,156445,1,0,0:0:0:0:
109,192,156497,1,0,0:0:0:0:
36,192,156497,1,0,0:0:0:0:
182,192,156550,1,0,0:0:0:0:
329,192,156550,1,0,0:0:0:0:
402,192,156655,1,0,0:0:0:0:
475,192,156655,1,0,0:0:0:0:
36,192,156759,128,0,158018:0:0:0:0:
182,192,156759,1,0,0:0:0:0:
256,192,156759,1,0,0:0:0:0:
329,192,156759,1,0,0:0:0:0:
109,192,156864,1,0,0:0:0:0:
402,192,156864,1,0,0:0:0:0:
109,192,156969,1,0,0:0:0:0:
402,192,156969,1,0,0:0:0:0:
182,192,157179,1,0,0:0:0:0:
329,192,157179,1,0,0:0:0:0:
475,192,157179,1,0,0:0:0:0:
109,192,157389,1,0,0:0:0:0:
402,192,157389,1,0,0:0:0:0:
109,192,157494,1,0,0:0:0:0:
402,192,157494,1,0,0:0:0:0:
182,192,157599,1,0,0:0:0:0:
329,192,157599,1,0,0:0:0:0:
256,192,157599,1,0,0:0:0:0:
109,192,157808,1,0,0:0:0:0:
402,192,157808,1,0,0:0:0:0:
109,192,158018,1,0,0:0:0:0:
256,192,158018,128,0,158228:0:0:0:0:
402,192,158018,1,0,0:0:0:0:
36,192,158228,1,0,0:0:0:0:
329,192,158228,1,0,0:0:0:0:
475,192,158228,128,0,159277:0:0:0:0:
36,192,158333,1,0,0:0:0:0:
329,192,158333,1,0,0:0:0:0:
402,192,158438,1,0,0:0:0:0:
182,192,158438,1,0,0:0:0:0:
109,192,158438,1,0,0:0:0:0:
109,192,158648,1,0,0:0:0:0:
402,192,158648,1,0,0:0:0:0:
182,192,158857,1,0,0:0:0:0:
329,192,158857,1,0,0:0:0:0:
256,192,158857,1,0,0:0:0:0:
109,192,159067,1,0,0:0:0:0:
402,192,159067,1,0,0:0:0:0:
109,192,159172,1,0,0:0:0:0:
402,192,159172,1,0,0:0:0:0:
256,192,159277,1,0,0:0:0:0:
329,192,159277,128,0,159696:0:0:0:0:
182,192,159277,1,0,0:0:0:0:
36,192,159487,1,0,0:0:0:0:
109,192,159487,1,0,0:0:0:0:
182,192,159696,1,0,0:0:0:0:
256,192,159696,128,0,160011:0:0:0:0:
402,192,159696,1,0,0:0:0:0:
475,192,159696,1,0,0:0:0:0:
109,192,159906,1,0,0:0:0:0:
475,192,159906,1,0,0:0:0:0:
109,192,160011,1,0,0:0:0:0:
182,192,160011,128,0,160745:0:0:0:0:
475,192,160011,1,0,0:0:0:0:
402,192,160116,1,0,0:0:0:0:
329,192,160116,1,0,0:0:0:0:
36,192,160116,1,0,0:0:0:0:
475,192,160221,1,0,0:0:0:0:
256,192,160221,1,0,0:0:0:0:
109,192,160326,1,0,0:0:0:0:
329,192,160326,1,0,0:0:0:0:
109,192,160536,1,0,0:0:0:0:
256,192,160536,1,0,0:0:0:0:
402,192,160536,1,0,0:0:0:0:
36,192,160745,128,0,160850:0:0:0:0:
329,192,160745,128,0,160850:0:0:0:0:
109,192,160850,128,0,160955:0:0:0:0:
256,192,160850,128,0,160955:0:0:0:0:
329,192,160955,1,0,0:0:0:0:
182,192,160955,128,0,161060:0:0:0:0:
475,192,160955,128,0,161060:0:0:0:0:
256,192,161060,128,0,161165:0:0:0:0:
402,192,161060,128,0,161165:0:0:0:0:
109,192,161165,128,0,161270:0:0:0:0:
329,192,161165,128,0,161270:0:0:0:0:
36,192,161270,128,0,161375:0:0:0:0:
256,192,161270,128,0,161375:0:0:0:0:
182,192,161375,128,0,161480:0:0:0:0:
329,192,161375,128,0,161480:0:0:0:0:
475,192,161375,1,0,0:0:0:0:
109,192,161480,128,0,161585:0:0:0:0:
256,192,161480,128,0,161585:0:0:0:0:
182,192,161585,128,0,161689:0:0:0:0:
402,192,161585,128,0,161689:0:0:0:0:
256,192,161689,128,0,161794:0:0:0:0:
475,192,161689,128,0,161794:0:0:0:0:
36,192,161794,1,0,0:0:0:0:
109,192,161794,128,0,161899:0:0:0:0:
402,192,161794,128,0,161899:0:0:0:0:
256,192,161899,128,0,162004:0:0:0:0:
475,192,161899,128,0,162004:0:0:0:0:
36,192,162004,128,0,162109:0:0:0:0:
329,192,162004,128,0,162109:0:0:0:0:
109,192,162109,128,0,162214:0:0:0:0:
402,192,162109,128,0,162214:0:0:0:0:
256,192,162214,1,0,0:0:0:0:
182,192,162214,128,0,162319:0:0:0:0:
475,192,162214,128,0,162319:0:0:0:0:
36,192,162319,128,0,162424:0:0:0:0:
402,192,162319,128,0,162424:0:0:0:0:
109,192,162424,128,0,162529:0:0:0:0:
256,192,162424,128,0,162529:0:0:0:0:
182,192,162529,128,0,162634:0:0:0:0:
475,192,162529,128,0,162634:0:0:0:0:
36,192,162634,128,0,162738:0:0:0:0:
329,192,162634,128,0,162738:0:0:0:0:
402,192,162634,1,0,0:0:0:0:
109,192,162738,128,0,162843:0:0:0:0:
256,192,162738,128,0,162843:0:0:0:0:
182,192,162843,128,0,162948:0:0:0:0:
329,192,162843,128,0,162948:0:0:0:0:
256,192,162948,128,0,163053:0:0:0:0:
475,192,162948,128,0,163053:0:0:0:0:
36,192,163053,1,0,0:0:0:0:
329,192,163053,128,0,163158:0:0:0:0:
402,192,163053,128,0,163158:0:0:0:0:
182,192,163158,128,0,163263:0:0:0:0:
109,192,163158,128,0,163263:0:0:0:0:
402,192,163263,128,0,163368:0:0:0:0:
475,192,163263,128,0,163368:0:0:0:0:
256,192,163263,1,0,0:0:0:0:
182,192,163473,1,0,0:0:0:0:
329,192,163473,1,0,0:0:0:0:
36,192,163473,128,0,163682:0:0:0:0:
475,192,163473,128,0,163682:0:0:0:0:
109,192,163682,128,0,163787:0:0:0:0:
402,192,163682,128,0,163787:0:0:0:0:
182,192,163787,128,0,163892:0:0:0:0:
329,192,163787,128,0,163892:0:0:0:0:
36,192,163892,128,0,164102:0:0:0:0:
475,192,163892,128,0,164102:0:0:0:0:
256,192,163892,1,0,0:0:0:0:
182,192,164102,128,0,164312:0:0:0:0:
329,192,164102,128,0,164312:0:0:0:0:
36,192,164312,128,0,164417:0:0:0:0:
256,192,164312,128,0,164417:0:0:0:0:
475,192,164312,1,0,0:0:0:0:
109,192,164417,128,0,164522:0:0:0:0:
329,192,164417,128,0,164522:0:0:0:0:
256,192,164522,128,0,164627:0:0:0:0:
475,192,164522,128,0,164627:0:0:0:0:
182,192,164627,128,0,164731:0:0:0:0:
402,192,164627,128,0,164731:0:0:0:0:
36,192,164731,128,0,164836:0:0:0:0:
329,192,164731,128,0,165466:0:0:0:0:
256,192,164731,1,0,0:0:0:0:
109,192,164836,128,0,164941:0:0:0:0:
182,192,164836,128,0,164941:0:0:0:0:
256,192,164941,128,0,165046:0:0:0:0:
475,192,164941,128,0,165046:0:0:0:0:
36,192,165046,128,0,165151:0:0:0:0:
402,192,165046,128,0,165151:0:0:0:0:
475,192,165151,128,0,165361:0:0:0:0:
182,192,165151,128,0,165466:0:0:0:0:
109,192,165256,128,0,165361:0:0:0:0:
402,192,165256,128,0,165780:0:0:0:0:
36,192,165361,128,0,165571:0:0:0:0:
256,192,165361,128,0,165676:0:0:0:0:
109,192,165466,128,0,165780:0:0:0:0:
475,192,165466,128,0,165571:0:0:0:0:
182,192,165571,128,0,165990:0:0:0:0:
329,192,165571,128,0,165676:0:0:0:0:
36,192,165676,128,0,165885:0:0:0:0:
475,192,165676,128,0,165885:0:0:0:0:
256,192,165780,128,0,166095:0:0:0:0:
329,192,165780,128,0,165990:0:0:0:0:
109,192,165885,128,0,166095:0:0:0:0:
402,192,165885,128,0,166620:0:0:0:0:
36,192,165990,128,0,166200:0:0:0:0:
475,192,165990,128,0,166200:0:0:0:0:
182,192,166095,128,0,166305:0:0:0:0:
329,192,166095,128,0,166305:0:0:0:0:
109,192,166200,128,0,166620:0:0:0:0:
256,192,166200,128,0,166515:0:0:0:0:
36,192,166305,128,0,166410:0:0:0:0:
475,192,166305,128,0,166410:0:0:0:0:
329,192,166410,128,0,166829:0:0:0:0:
182,192,166410,128,0,166515:0:0:0:0:
36,192,166515,128,0,166724:0:0:0:0:
475,192,166515,128,0,166724:0:0:0:0:
182,192,166620,128,0,166829:0:0:0:0:
256,192,166620,128,0,166934:0:0:0:0:
109,192,166724,128,0,167144:0:0:0:0:
402,192,166724,128,0,166934:0:0:0:0:
475,192,166829,128,0,167039:0:0:0:0:
36,192,166829,128,0,167039:0:0:0:0:
182,192,166934,128,0,167249:0:0:0:0:
329,192,166934,128,0,167144:0:0:0:0:
256,192,167039,128,0,167354:0:0:0:0:
402,192,167039,128,0,167249:0:0:0:0:
36,192,167144,128,0,167459:0:0:0:0:
475,192,167144,128,0,167354:0:0:0:0:
109,192,167249,128,0,167669:0:0:0:0:
329,192,167249,128,0,167459:0:0:0:0:
182,192,167354,128,0,167564:0:0:0:0:
402,192,167354,128,0,167669:0:0:0:0:
256,192,167459,128,0,167878:0:0:0:0:
475,192,167459,128,0,167564:0:0:0:0:
36,192,167564,128,0,167773:0:0:0:0:
329,192,167564,128,0,167773:0:0:0:0:
475,192,167669,128,0,167878:0:0:0:0:
182,192,167669,128,0,167878:0:0:0:0:
109,192,167773,128,0,167983:0:0:0:0:
402,192,167773,128,0,168088:0:0:0:0:
36,192,167878,128,0,168193:0:0:0:0:
329,192,167878,128,0,168088:0:0:0:0:
256,192,167983,128,0,168298:0:0:0:0:
475,192,167983,128,0,168298:0:0:0:0:
182,192,167983,128,0,168403:0:0:0:0:
109,192,168088,128,0,168193:0:0:0:0:
329,192,168193,128,0,168508:0:0:0:0:
402,192,168193,128,0,168403:0:0:0:0:
36,192,168298,128,0,168508:0:0:0:0:
109,192,168298,128,0,168403:0:0:0:0:
256,192,168403,128,0,168927:0:0:0:0:
475,192,168403,128,0,168508:0:0:0:0:
109,192,168508,128,0,168927:0:0:0:0:
402,192,168508,128,0,168927:0:0:0:0:
475,192,169137,128,0,169347:0:0:0:0:
36,192,169137,128,0,169347:0:0:0:0:
256,192,169347,128,0,169557:0:0:0:0:
329,192,169557,128,0,169766:0:0:0:0:
182,192,169557,128,0,169766:0:0:0:0:
475,192,169557,128,0,169976:0:0:0:0:
109,192,169766,128,0,170186:0:0:0:0:
256,192,169766,128,0,169976:0:0:0:0:
36,192,169766,128,0,169976:0:0:0:0:
329,192,169976,128,0,170291:0:0:0:0:
402,192,169976,128,0,170186:0:0:0:0:
36,192,170186,128,0,170501:0:0:0:0:
182,192,170186,128,0,170291:0:0:0:0:
256,192,170186,128,0,170501:0:0:0:0:
475,192,170186,128,0,170501:0:0:0:0:
109,192,170291,128,0,170396:0:0:0:0:
402,192,170291,128,0,170396:0:0:0:0:
182,192,170396,128,0,171130:0:0:0:0:
329,192,170396,128,0,170815:0:0:0:0:
109,192,170501,128,0,170920:0:0:0:0:
402,192,170501,128,0,170920:0:0:0:0:
475,192,170606,128,0,170710:0:0:0:0:
256,192,170606,128,0,170920:0:0:0:0:
36,192,170606,128,0,170710:0:0:0:0:
36,192,170815,128,0,171025:0:0:0:0:
475,192,170815,128,0,171025:0:0:0:0:
329,192,170920,128,0,171130:0:0:0:0:
109,192,171025,128,0,171340:0:0:0:0:
256,192,171025,128,0,171130:0:0:0:0:
402,192,171025,128,0,171550:0:0:0:0:
36,192,171130,128,0,171235:0:0:0:0:
475,192,171130,128,0,171235:0:0:0:0:
182,192,171235,128,0,171340:0:0:0:0:
256,192,171235,128,0,171759:0:0:0:0:
329,192,171235,128,0,171340:0:0:0:0:
36,192,171340,128,0,172074:0:0:0:0:
475,192,171340,128,0,171759:0:0:0:0:
329,192,171445,128,0,171550:0:0:0:0:
109,192,171445,128,0,171759:0:0:0:0:
182,192,171445,128,0,171550:0:0:0:0:
329,192,171655,128,0,171759:0:0:0:0:
182,192,171655,128,0,171864:0:0:0:0:
402,192,171655,128,0,171864:0:0:0:0:
109,192,171864,128,0,171969:0:0:0:0:
256,192,171864,128,0,172179:0:0:0:0:
329,192,171864,128,0,171969:0:0:0:0:
475,192,171864,128,0,172389:0:0:0:0:
182,192,171969,128,0,172179:0:0:0:0:
402,192,171969,128,0,172074:0:0:0:0:
109,192,172074,128,0,172389:0:0:0:0:
329,192,172074,128,0,172179:0:0:0:0:
36,192,172179,128,0,172599:0:0:0:0:
402,192,172179,128,0,172913:0:0:0:0:
182,192,172284,128,0,172703:0:0:0:0:
256,192,172284,128,0,172599:0:0:0:0:
329,192,172284,128,0,172599:0:0:0:0:
109,192,172494,128,0,172599:0:0:0:0:
475,192,172494,128,0,172703:0:0:0:0:
36,192,172703,128,0,172808:0:0:0:0:
109,192,172703,128,0,173438:0:0:0:0:
256,192,172703,128,0,173018:0:0:0:0:
329,192,172703,128,0,172808:0:0:0:0:
182,192,172808,128,0,172913:0:0:0:0:
475,192,172808,128,0,172913:0:0:0:0:
36,192,172913,128,0,173018:0:0:0:0:
329,192,172913,128,0,173018:0:0:0:0:
182,192,173018,128,0,173228:0:0:0:0:
402,192,173018,128,0,173438:0:0:0:0:
475,192,173018,128,0,173228:0:0:0:0:
256,192,173123,128,0,173438:0:0:0:0:
329,192,173123,128,0,173228:0:0:0:0:
36,192,173123,128,0,173228:0:0:0:0:
36,192,173333,128,0,173752:0:0:0:0:
182,192,173333,128,0,174172:0:0:0:0:
329,192,173333,128,0,174172:0:0:0:0:
475,192,173333,128,0,173752:0:0:0:0:
109,192,173543,128,0,174067:0:0:0:0:
256,192,173543,128,0,173752:0:0:0:0:
402,192,173543,128,0,174067:0:0:0:0:
36,192,173857,128,0,174277:0:0:0:0:
256,192,173857,128,0,174592:0:0:0:0:
475,192,173857,128,0,174277:0:0:0:0:
109,192,174172,128,0,174382:0:0:0:0:
402,192,174172,128,0,174382:0:0:0:0:
182,192,174277,128,0,174487:0:0:0:0:
329,192,174277,128,0,174487:0:0:0:0:
36,192,174382,128,0,174592:0:0:0:0:
475,192,174382,128,0,174592:0:0:0:0:
109,192,174487,128,0,174801:0:0:0:0:
402,192,174487,128,0,174801:0:0:0:0:
182,192,174592,128,0,174696:0:0:0:0:
329,192,174592,128,0,174696:0:0:0:0:
36,192,174696,128,0,175431:0:0:0:0:
256,192,174696,128,0,174801:0:0:0:0:
475,192,174696,128,0,175116:0:0:0:0:
182,192,174801,128,0,174906:0:0:0:0:
329,192,174801,128,0,174906:0:0:0:0:
256,192,174906,128,0,175116:0:0:0:0:
109,192,174906,128,0,175011:0:0:0:0:
402,192,174906,128,0,175011:0:0:0:0:
182,192,175011,128,0,175116:0:0:0:0:
329,192,175011,128,0,175116:0:0:0:0:
109,192,175116,128,0,175221:0:0:0:0:
402,192,175116,128,0,175221:0:0:0:0:
182,192,175221,128,0,175326:0:0:0:0:
256,192,175221,128,0,175536:0:0:0:0:
329,192,175221,128,0,175326:0:0:0:0:
475,192,175221,128,0,175431:0:0:0:0:
109,192,175326,128,0,175431:0:0:0:0:
402,192,175326,128,0,175431:0:0:0:0:
182,192,175431,128,0,175536:0:0:0:0:
329,192,175431,128,0,175536:0:0:0:0:
36,192,175536,128,0,175955:0:0:0:0:
109,192,175536,128,0,175955:0:0:0:0:
402,192,175536,128,0,175745:0:0:0:0:
475,192,175536,128,0,175955:0:0:0:0:
256,192,175641,128,0,175955:0:0:0:0:
329,192,175641,128,0,175745:0:0:0:0:
182,192,175641,128,0,175745:0:0:0:0:
182,192,175850,128,0,176060:0:0:0:0:
329,192,175850,128,0,176060:0:0:0:0:
402,192,175850,128,0,176375:0:0:0:0:
36,192,176060,128,0,176165:0:0:0:0:
109,192,176060,128,0,176375:0:0:0:0:
256,192,176060,128,0,176375:0:0:0:0:
475,192,176060,128,0,176165:0:0:0:0:
182,192,176165,128,0,176270:0:0:0:0:
329,192,176165,128,0,176270:0:0:0:0:
36,192,176270,128,0,176899:0:0:0:0:
475,192,176270,128,0,176899:0:0:0:0:
182,192,176375,128,0,176794:0:0:0:0:
329,192,176375,128,0,176585:0:0:0:0:
256,192,176480,128,0,176794:0:0:0:0:
402,192,176480,128,0,177424:0:0:0:0:
109,192,176480,128,0,176585:0:0:0:0:
109,192,176689,128,0,177004:0:0:0:0:
329,192,176689,128,0,176794:0:0:0:0:
182,192,176899,128,0,177004:0:0:0:0:
256,192,176899,128,0,177214:0:0:0:0:
329,192,176899,128,0,177004:0:0:0:0:
36,192,177004,128,0,177109:0:0:0:0:
475,192,177004,128,0,177109:0:0:0:0:
109,192,177109,128,0,177738:0:0:0:0:
182,192,177109,128,0,177424:0:0:0:0:
329,192,177109,128,0,177738:0:0:0:0:
36,192,177214,128,0,177738:0:0:0:0:
475,192,177214,128,0,177634:0:0:0:0:
256,192,177319,128,0,177634:0:0:0:0:
182,192,177529,128,0,177738:0:0:0:0:
402,192,177529,128,0,177738:0:0:0:0:
256,192,177738,128,0,178158:0:0:0:0:
475,192,177738,128,0,178578:0:0:0:0:
182,192,177843,128,0,177948:0:0:0:0:
402,192,177843,128,0,177948:0:0:0:0:
109,192,177948,128,0,178053:0:0:0:0:
329,192,177948,128,0,178053:0:0:0:0:
182,192,178053,128,0,178473:0:0:0:0:
402,192,178053,128,0,178473:0:0:0:0:
109,192,178158,128,0,178263:0:0:0:0:
329,192,178158,128,0,178263:0:0:0:0:
36,192,178263,128,0,178368:0:0:0:0:
256,192,178263,128,0,178368:0:0:0:0:
109,192,178368,128,0,178787:0:0:0:0:
329,192,178368,128,0,178787:0:0:0:0:
36,192,178473,128,0,178892:0:0:0:0:
256,192,178473,128,0,178578:0:0:0:0:
182,192,178578,128,0,178682:0:0:0:0:
402,192,178578,128,0,178682:0:0:0:0:
256,192,178682,128,0,178892:0:0:0:0:
475,192,178682,128,0,179207:0:0:0:0:
182,192,178787,128,0,178997:0:0:0:0:
402,192,178787,128,0,178997:0:0:0:0:
109,192,178892,128,0,179102:0:0:0:0:
329,192,178892,128,0,179102:0:0:0:0:
36,192,178997,128,0,179522:0:0:0:0:
256,192,178997,128,0,179207:0:0:0:0:
182,192,179102,128,0,179417:0:0:0:0:
402,192,179102,128,0,179312:0:0:0:0:
109,192,179207,128,0,179312:0:0:0:0:
329,192,179207,128,0,179417:0:0:0:0:
256,192,179312,128,0,179522:0:0:0:0:
475,192,179312,128,0,179522:0:0:0:0:
109,192,179417,128,0,180046:0:0:0:0:
402,192,179417,128,0,180046:0:0:0:0:
182,192,179522,128,0,180046:0:0:0:0:
329,192,179522,128,0,180046:0:0:0:0:
36,192,179627,128,0,180046:0:0:0:0:
256,192,179627,128,0,180046:0:0:0:0:
475,192,179627,128,0,180046:0:0:0:0:
36,192,180256,128,0,180361:0:0:0:0:
182,192,180256,128,0,180361:0:0:0:0:
329,192,180256,128,0,180361:0:0:0:0:
475,192,180256,128,0,180361:0:0:0:0:
109,192,180361,128,0,180466:0:0:0:0:
256,192,180361,128,0,180466:0:0:0:0:
402,192,180361,128,0,180466:0:0:0:0:
36,192,180466,128,0,180676:0:0:0:0:
182,192,180466,128,0,180571:0:0:0:0:
329,192,180466,128,0,180571:0:0:0:0:
475,192,180466,128,0,180571:0:0:0:0:
109,192,180571,128,0,180676:0:0:0:0:
256,192,180571,128,0,180780:0:0:0:0:
402,192,180571,128,0,180676:0:0:0:0:
182,192,180676,128,0,180780:0:0:0:0:
329,192,180676,128,0,180780:0:0:0:0:
475,192,180676,128,0,180885:0:0:0:0:
36,192,180780,128,0,180990:0:0:0:0:
109,192,180780,128,0,180885:0:0:0:0:
402,192,180780,128,0,180885:0:0:0:0:
182,192,180885,128,0,180990:0:0:0:0:
256,192,180885,128,0,181200:0:0:0:0:
329,192,180885,128,0,180990:0:0:0:0:
109,192,180990,128,0,181095:0:0:0:0:
402,192,180990,128,0,181095:0:0:0:0:
475,192,180990,128,0,181095:0:0:0:0:
36,192,181095,128,0,181305:0:0:0:0:
182,192,181095,128,0,181200:0:0:0:0:
329,192,181095,128,0,181200:0:0:0:0:
109,192,181200,128,0,181305:0:0:0:0:
402,192,181200,128,0,181305:0:0:0:0:
475,192,181200,128,0,181410:0:0:0:0:
182,192,181305,128,0,181410:0:0:0:0:
256,192,181305,128,0,181410:0:0:0:0:
329,192,181305,128,0,181410:0:0:0:0:
36,192,181410,128,0,181620:0:0:0:0:
109,192,181410,128,0,181515:0:0:0:0:
402,192,181410,128,0,181515:0:0:0:0:
182,192,181515,128,0,181620:0:0:0:0:
256,192,181515,128,0,181724:0:0:0:0:
329,192,181515,128,0,181620:0:0:0:0:
109,192,181620,128,0,181829:0:0:0:0:
402,192,181620,128,0,181724:0:0:0:0:
475,192,181620,128,0,181724:0:0:0:0:
36,192,181724,128,0,182144:0:0:0:0:
182,192,181724,128,0,181829:0:0:0:0:
329,192,181724,128,0,181829:0:0:0:0:
256,192,181829,128,0,181934:0:0:0:0:
402,192,181829,128,0,181934:0:0:0:0:
475,192,181829,128,0,181934:0:0:0:0:
109,192,181934,128,0,182039:0:0:0:0:
182,192,181934,128,0,182039:0:0:0:0:
329,192,181934,128,0,182039:0:0:0:0:
256,192,182039,128,0,182249:0:0:0:0:
402,192,182039,128,0,182144:0:0:0:0:
475,192,182039,128,0,182144:0:0:0:0:
109,192,182144,128,0,182354:0:0:0:0:
182,192,182144,128,0,182249:0:0:0:0:
329,192,182144,128,0,182249:0:0:0:0:
36,192,182249,128,0,182354:0:0:0:0:
402,192,182249,128,0,182354:0:0:0:0:
475,192,182249,128,0,182459:0:0:0:0:
182,192,182354,128,0,182459:0:0:0:0:
256,192,182354,128,0,182564:0:0:0:0:
329,192,182354,128,0,182459:0:0:0:0:
36,192,182459,128,0,182564:0:0:0:0:
109,192,182459,128,0,182564:0:0:0:0:
402,192,182459,128,0,182669:0:0:0:0:
182,192,182564,128,0,182669:0:0:0:0:
329,192,182564,128,0,182669:0:0:0:0:
475,192,182564,128,0,182983:0:0:0:0:
36,192,182669,128,0,182773:0:0:0:0:
109,192,182669,128,0,182773:0:0:0:0:
256,192,182669,128,0,182773:0:0:0:0:
182,192,182773,128,0,182878:0:0:0:0:
329,192,182773,128,0,182878:0:0:0:0:
402,192,182773,128,0,182878:0:0:0:0:
36,192,182878,128,0,182983:0:0:0:0:
109,192,182878,128,0,182983:0:0:0:0:
256,192,182878,128,0,182983:0:0:0:0:
182,192,182983,128,0,183088:0:0:0:0:
329,192,182983,128,0,183088:0:0:0:0:
402,192,182983,128,0,183403:0:0:0:0:
36,192,183088,128,0,183403:0:0:0:0:
475,192,183088,128,0,183403:0:0:0:0:
109,192,183088,128,0,183403:0:0:0:0:
256,192,183193,128,0,183403:0:0:0:0:
182,192,183193,128,0,183403:0:0:0:0:
329,192,183193,128,0,183403:0:0:0:0:
109,192,185291,128,0,186969:0:0:0:0:
329,192,185291,1,0,0:0:0:0:
402,192,185291,128,0,186969:0:0:0:0:
475,192,185291,1,0,0:0:0:0:
36,192,185291,1,0,0:0:0:0:
256,192,185501,1,0,0:0:0:0:
182,192,185710,1,0,0:0:0:0:
256,192,185920,1,0,0:0:0:0:
329,192,186130,1,0,0:0:0:0:
256,192,186340,1,0,0:0:0:0:
182,192,186550,1,0,0:0:0:0:
256,192,186759,1,0,0:0:0:0:
36,192,186969,128,0,187808:0:0:0:0:
329,192,186969,1,0,0:0:0:0:
475,192,186969,128,0,187808:0:0:0:0:
256,192,187179,1,0,0:0:0:0:
182,192,187389,1,0,0:0:0:0:
256,192,187599,1,0,0:0:0:0:
109,192,187808,128,0,188648:0:0:0:0:
329,192,187808,1,0,0:0:0:0:
402,192,187808,128,0,188648:0:0:0:0:
256,192,188018,1,0,0:0:0:0:
182,192,188228,1,0,0:0:0:0:
256,192,188438,1,0,0:0:0:0:
182,192,188648,128,0,190326:0:0:0:0:
329,192,188648,128,0,190326:0:0:0:0:
475,192,188648,1,0,0:0:0:0:
256,192,188857,1,0,0:0:0:0:
36,192,189067,1,0,0:0:0:0:
256,192,189277,1,0,0:0:0:0:
475,192,189487,1,0,0:0:0:0:
256,192,189696,1,0,0:0:0:0:
36,192,189906,1,0,0:0:0:0:
256,192,190116,1,0,0:0:0:0:
109,192,190326,128,0,191165:0:0:0:0:
402,192,190326,128,0,191165:0:0:0:0:
475,192,190326,1,0,0:0:0:0:
256,192,190536,1,0,0:0:0:0:
36,192,190745,1,0,0:0:0:0:
256,192,190955,1,0,0:0:0:0:
182,192,191165,128,0,192004:0:0:0:0:
329,192,191165,128,0,192004:0:0:0:0:
475,192,191165,1,0,0:0:0:0:
256,192,191375,1,0,0:0:0:0:
109,192,191585,1,0,0:0:0:0:
256,192,191794,1,0,0:0:0:0:
36,192,192004,128,0,193682:0:0:0:0:
402,192,192004,1,0,0:0:0:0:
475,192,192004,128,0,193682:0:0:0:0:
256,192,192214,1,0,0:0:0:0:
109,192,192424,1,0,0:0:0:0:
256,192,192634,1,0,0:0:0:0:
402,192,192843,1,0,0:0:0:0:
256,192,193053,1,0,0:0:0:0:
109,192,193263,1,0,0:0:0:0:
256,192,193473,1,0,0:0:0:0:
182,192,193682,128,0,194522:0:0:0:0:
329,192,193682,128,0,194522:0:0:0:0:
402,192,193682,1,0,0:0:0:0:
256,192,193892,1,0,0:0:0:0:
36,192,194102,1,0,0:0:0:0:
256,192,194312,1,0,0:0:0:0:
109,192,194522,128,0,195361:0:0:0:0:
402,192,194522,128,0,195361:0:0:0:0:
475,192,194522,1,0,0:0:0:0:
256,192,194731,1,0,0:0:0:0:
36,192,194941,1,0,0:0:0:0:
256,192,195151,1,0,0:0:0:0:
36,192,195361,128,0,197039:0:0:0:0:
329,192,195361,1,0,0:0:0:0:
475,192,195361,128,0,197039:0:0:0:0:
256,192,195571,1,0,0:0:0:0:
182,192,195780,1,0,0:0:0:0:
256,192,195990,1,0,0:0:0:0:
329,192,196200,1,0,0:0:0:0:
256,192,196410,1,0,0:0:0:0:
182,192,196620,1,0,0:0:0:0:
256,192,196829,1,0,0:0:0:0:
109,192,197039,128,0,198717:0:0:0:0:
329,192,197039,1,0,0:0:0:0:
402,192,197039,128,0,198717:0:0:0:0:
182,192,197039,1,0,0:0:0:0:
256,192,197249,1,0,0:0:0:0:
329,192,197354,1,0,0:0:0:0:
182,192,197354,1,0,0:0:0:0:
256,192,197459,1,0,0:0:0:0:
182,192,197669,1,0,0:0:0:0:
256,192,197878,128,0,198717:0:0:0:0:
475,192,197878,1,0,0:0:0:0:
36,192,198088,1,0,0:0:0:0:
329,192,198193,1,0,0:0:0:0:
182,192,198193,1,0,0:0:0:0:
475,192,198298,1,0,0:0:0:0:
36,192,198508,1,0,0:0:0:0:
182,192,198717,1,0,0:0:0:0:
329,192,198717,1,0,0:0:0:0:
36,192,198822,1,0,0:0:0:0:
475,192,198822,1,0,0:0:0:0:
109,192,198927,1,0,0:0:0:0:
402,192,198927,1,0,0:0:0:0:
256,192,198927,1,0,0:0:0:0:
36,192,199032,128,0,199242:0:0:0:0:
475,192,199032,128,0,199242:0:0:0:0:
182,192,199347,128,0,199452:0:0:0:0:
329,192,199347,128,0,199452:0:0:0:0:
109,192,199557,1,0,0:0:0:0:
402,192,199557,1,0,0:0:0:0:
256,192,199557,1,0,0:0:0:0:
36,192,199662,1,0,0:0:0:0:
475,192,199662,1,0,0:0:0:0:
182,192,199766,1,0,0:0:0:0:
329,192,199766,1,0,0:0:0:0:
256,192,199766,1,0,0:0:0:0:
109,192,199871,128,0,200081:0:0:0:0:
402,192,199871,128,0,200081:0:0:0:0:
36,192,200186,128,0,200291:0:0:0:0:
475,192,200186,128,0,200291:0:0:0:0:
182,192,200396,1,0,0:0:0:0:
329,192,200396,1,0,0:0:0:0:
256,192,200396,1,0,0:0:0:0:
36,192,200501,1,0,0:0:0:0:
475,192,200501,1,0,0:0:0:0:
109,192,200606,1,0,0:0:0:0:
402,192,200606,1,0,0:0:0:0:
256,192,200606,1,0,0:0:0:0:
36,192,200710,128,0,200920:0:0:0:0:
475,192,200710,128,0,200920:0:0:0:0:
402,192,201025,128,0,201130:0:0:0:0:
109,192,201025,128,0,201130:0:0:0:0:
256,192,201025,1,0,0:0:0:0:
36,192,201235,1,0,0:0:0:0:
475,192,201235,1,0,0:0:0:0:
256,192,201235,1,0,0:0:0:0:
109,192,201340,1,0,0:0:0:0:
402,192,201340,1,0,0:0:0:0:
182,192,201445,1,0,0:0:0:0:
329,192,201445,1,0,0:0:0:0:
256,192,201445,1,0,0:0:0:0:
109,192,201550,128,0,201759:0:0:0:0:
402,192,201550,128,0,201759:0:0:0:0:
256,192,201655,1,0,0:0:0:0:
36,192,201864,128,0,201969:0:0:0:0:
475,192,201864,128,0,201969:0:0:0:0:
256,192,201864,1,0,0:0:0:0:
182,192,202074,1,0,0:0:0:0:
329,192,202074,1,0,0:0:0:0:
256,192,202074,1,0,0:0:0:0:
402,192,202074,1,0,0:0:0:0:
109,192,202074,1,0,0:0:0:0:
36,192,202179,1,0,0:0:0:0:
475,192,202179,1,0,0:0:0:0:
109,192,202284,1,0,0:0:0:0:
402,192,202284,1,0,0:0:0:0:
256,192,202284,1,0,0:0:0:0:
36,192,202389,128,0,202599:0:0:0:0:
475,192,202389,128,0,202599:0:0:0:0:
182,192,202703,128,0,202808:0:0:0:0:
329,192,202703,128,0,202808:0:0:0:0:
109,192,202913,1,0,0:0:0:0:
402,192,202913,1,0,0:0:0:0:
256,192,202913,1,0,0:0:0:0:
36,192,203018,1,0,0:0:0:0:
475,192,203018,1,0,0:0:0:0:
182,192,203123,1,0,0:0:0:0:
329,192,203123,1,0,0:0:0:0:
256,192,203123,1,0,0:0:0:0:
109,192,203228,128,0,203438:0:0:0:0:
402,192,203228,128,0,203438:0:0:0:0:
475,192,203543,128,0,203648:0:0:0:0:
36,192,203543,128,0,203648:0:0:0:0:
182,192,203752,1,0,0:0:0:0:
329,192,203752,1,0,0:0:0:0:
256,192,203752,1,0,0:0:0:0:
36,192,203857,1,0,0:0:0:0:
475,192,203857,1,0,0:0:0:0:
109,192,203962,1,0,0:0:0:0:
402,192,203962,1,0,0:0:0:0:
256,192,203962,1,0,0:0:0:0:
36,192,204067,128,0,204277:0:0:0:0:
475,192,204067,128,0,204277:0:0:0:0:
109,192,204382,128,0,204487:0:0:0:0:
402,192,204382,128,0,204487:0:0:0:0:
36,192,204592,1,0,0:0:0:0:
475,192,204592,1,0,0:0:0:0:
256,192,204592,1,0,0:0:0:0:
109,192,204696,1,0,0:0:0:0:
402,192,204696,1,0,0:0:0:0:
182,192,204801,1,0,0:0:0:0:
329,192,204801,1,0,0:0:0:0:
256,192,204801,1,0,0:0:0:0:
109,192,204906,128,0,205116:0:0:0:0:
402,192,204906,128,0,205116:0:0:0:0:
256,192,205011,1,0,0:0:0:0:
36,192,205221,128,0,205326:0:0:0:0:
475,192,205221,128,0,205326:0:0:0:0:
256,192,205221,1,0,0:0:0:0:
256,192,205431,1,0,0:0:0:0:
402,192,205431,1,0,0:0:0:0:
182,192,205431,1,0,0:0:0:0:
109,192,205431,1,0,0:0:0:0:
36,192,205536,1,0,0:0:0:0:
329,192,205536,1,0,0:0:0:0:
109,192,205641,1,0,0:0:0:0:
256,192,205641,1,0,0:0:0:0:
402,192,205641,1,0,0:0:0:0:
182,192,205745,1,0,0:0:0:0:
475,192,205745,1,0,0:0:0:0:
36,192,205745,1,0,0:0:0:0:
256,192,205850,1,0,0:0:0:0:
329,192,205850,1,0,0:0:0:0:
182,192,205955,1,0,0:0:0:0:
402,192,205955,1,0,0:0:0:0:
36,192,206060,1,0,0:0:0:0:
329,192,206060,1,0,0:0:0:0:
109,192,206060,1,0,0:0:0:0:
256,192,206165,1,0,0:0:0:0:
475,192,206165,1,0,0:0:0:0:
109,192,206270,1,0,0:0:0:0:
329,192,206270,1,0,0:0:0:0:
182,192,206375,1,0,0:0:0:0:
475,192,206375,1,0,0:0:0:0:
256,192,206480,1,0,0:0:0:0:
402,192,206480,1,0,0:0:0:0:
36,192,206480,1,0,0:0:0:0:
109,192,206585,1,0,0:0:0:0:
329,192,206585,1,0,0:0:0:0:
182,192,206585,1,0,0:0:0:0:
36,192,206689,1,0,0:0:0:0:
475,192,206689,1,0,0:0:0:0:
256,192,206794,1,0,0:0:0:0:
402,192,206794,1,0,0:0:0:0:
182,192,206899,1,0,0:0:0:0:
475,192,206899,1,0,0:0:0:0:
109,192,206899,1,0,0:0:0:0:
36,192,207004,1,0,0:0:0:0:
329,192,207004,1,0,0:0:0:0:
256,192,207109,1,0,0:0:0:0:
402,192,207109,1,0,0:0:0:0:
475,192,207109,1,0,0:0:0:0:
109,192,207214,1,0,0:0:0:0:
329,192,207214,1,0,0:0:0:0:
182,192,207319,1,0,0:0:0:0:
256,192,207319,1,0,0:0:0:0:
402,192,207319,1,0,0:0:0:0:
36,192,207424,1,0,0:0:0:0:
475,192,207424,1,0,0:0:0:0:
109,192,207424,1,0,0:0:0:0:
182,192,207529,1,0,0:0:0:0:
329,192,207529,1,0,0:0:0:0:
256,192,207634,1,0,0:0:0:0:
402,192,207634,1,0,0:0:0:0:
36,192,207738,1,0,0:0:0:0:
329,192,207738,1,0,0:0:0:0:
109,192,207738,1,0,0:0:0:0:
182,192,207843,1,0,0:0:0:0:
475,192,207843,1,0,0:0:0:0:
109,192,207948,1,0,0:0:0:0:
256,192,207948,1,0,0:0:0:0:
402,192,207948,1,0,0:0:0:0:
182,192,208053,1,0,0:0:0:0:
475,192,208053,1,0,0:0:0:0:
256,192,208158,1,0,0:0:0:0:
402,192,208158,1,0,0:0:0:0:
109,192,208158,1,0,0:0:0:0:
36,192,208263,1,0,0:0:0:0:
329,192,208263,1,0,0:0:0:0:
182,192,208368,1,0,0:0:0:0:
475,192,208368,1,0,0:0:0:0:
256,192,208368,1,0,0:0:0:0:
109,192,208473,1,0,0:0:0:0:
402,192,208473,1,0,0:0:0:0:
182,192,208578,1,0,0:0:0:0:
475,192,208578,1,0,0:0:0:0:
329,192,208578,1,0,0:0:0:0:
36,192,208682,1,0,0:0:0:0:
109,192,208682,1,0,0:0:0:0:
256,192,208787,1,0,0:0:0:0:
402,192,208787,1,0,0:0:0:0:
475,192,208787,1,0,0:0:0:0:
36,192,208892,1,0,0:0:0:0:
329,192,208892,1,0,0:0:0:0:
109,192,208997,1,0,0:0:0:0:
256,192,208997,1,0,0:0:0:0:
182,192,209102,1,0,0:0:0:0:
475,192,209102,1,0,0:0:0:0:
36,192,209207,1,0,0:0:0:0:
329,192,209207,1,0,0:0:0:0:
256,192,209207,1,0,0:0:0:0:
109,192,209312,1,0,0:0:0:0:
402,192,209312,1,0,0:0:0:0:
182,192,209312,1,0,0:0:0:0:
475,192,209312,1,0,0:0:0:0:
36,192,209417,1,0,0:0:0:0:
329,192,209417,1,0,0:0:0:0:
256,192,209417,1,0,0:0:0:0:
182,192,209522,1,0,0:0:0:0:
475,192,209522,1,0,0:0:0:0:
109,192,209627,1,0,0:0:0:0:
256,192,209627,1,0,0:0:0:0:
402,192,209627,1,0,0:0:0:0:
182,192,209731,1,0,0:0:0:0:
475,192,209731,1,0,0:0:0:0:
329,192,209836,1,0,0:0:0:0:
402,192,209836,1,0,0:0:0:0:
36,192,209836,1,0,0:0:0:0:
109,192,209941,1,0,0:0:0:0:
256,192,209941,1,0,0:0:0:0:
182,192,210046,1,0,0:0:0:0:
475,192,210046,1,0,0:0:0:0:
329,192,210046,1,0,0:0:0:0:
36,192,210046,1,0,0:0:0:0:
109,192,210151,1,0,0:0:0:0:
402,192,210151,1,0,0:0:0:0:
256,192,210151,1,0,0:0:0:0:
475,192,210256,1,0,0:0:0:0:
182,192,210256,1,0,0:0:0:0:
36,192,210256,1,0,0:0:0:0:
329,192,210256,1,0,0:0:0:0:
109,192,210361,1,0,0:0:0:0:
256,192,210361,1,0,0:0:0:0:
475,192,210466,1,0,0:0:0:0:
182,192,210466,1,0,0:0:0:0:
402,192,210466,1,0,0:0:0:0:
36,192,210571,1,0,0:0:0:0:
329,192,210571,1,0,0:0:0:0:
109,192,210676,1,0,0:0:0:0:
256,192,210676,1,0,0:0:0:0:
402,192,210676,1,0,0:0:0:0:
329,192,210780,1,0,0:0:0:0:
475,192,210780,1,0,0:0:0:0:
109,192,210885,1,0,0:0:0:0:
256,192,210885,1,0,0:0:0:0:
402,192,210885,1,0,0:0:0:0:
36,192,210990,1,0,0:0:0:0:
182,192,210990,1,0,0:0:0:0:
109,192,211095,1,0,0:0:0:0:
256,192,211095,1,0,0:0:0:0:
402,192,211095,1,0,0:0:0:0:
329,192,211200,1,0,0:0:0:0:
475,192,211200,1,0,0:0:0:0:
109,192,211305,1,0,0:0:0:0:
256,192,211305,1,0,0:0:0:0:
402,192,211305,1,0,0:0:0:0:
36,192,211410,1,0,0:0:0:0:
182,192,211410,1,0,0:0:0:0:
109,192,211515,1,0,0:0:0:0:
256,192,211515,1,0,0:0:0:0:
402,192,211515,1,0,0:0:0:0:
329,192,211620,1,0,0:0:0:0:
475,192,211620,1,0,0:0:0:0:
36,192,211724,1,0,0:0:0:0:
256,192,211724,1,0,0:0:0:0:
402,192,211724,1,0,0:0:0:0:
109,192,211829,1,0,0:0:0:0:
182,192,211829,1,0,0:0:0:0:
36,192,211934,1,0,0:0:0:0:
329,192,211934,1,0,0:0:0:0:
475,192,211934,1,0,0:0:0:0:
256,192,212039,1,0,0:0:0:0:
402,192,212039,1,0,0:0:0:0:
36,192,212144,128,0,213822:0:0:0:0:
109,192,212144,1,0,0:0:0:0:
182,192,212144,1,0,0:0:0:0:
329,192,212144,128,0,212249:0:0:0:0:
475,192,212144,128,0,212249:0:0:0:0:
256,192,212249,128,0,212354:0:0:0:0:
402,192,212249,128,0,212354:0:0:0:0:
182,192,212354,128,0,212459:0:0:0:0:
329,192,212354,128,0,212459:0:0:0:0:
109,192,212459,128,0,212564:0:0:0:0:
256,192,212459,128,0,212564:0:0:0:0:
182,192,212564,128,0,212773:0:0:0:0:
329,192,212564,128,0,212773:0:0:0:0:
402,192,212564,1,0,0:0:0:0:
475,192,212564,1,0,0:0:0:0:
256,192,212773,128,0,212983:0:0:0:0:
402,192,212773,128,0,212983:0:0:0:0:
109,192,212983,1,0,0:0:0:0:
182,192,212983,1,0,0:0:0:0:
329,192,212983,128,0,213088:0:0:0:0:
475,192,212983,128,0,213088:0:0:0:0:
256,192,213088,128,0,213193:0:0:0:0:
402,192,213088,128,0,213193:0:0:0:0:
182,192,213193,128,0,213298:0:0:0:0:
329,192,213193,128,0,213298:0:0:0:0:
109,192,213298,128,0,213403:0:0:0:0:
256,192,213298,128,0,213403:0:0:0:0:
182,192,213403,128,0,213613:0:0:0:0:
329,192,213403,128,0,213613:0:0:0:0:
402,192,213403,1,0,0:0:0:0:
475,192,213403,1,0,0:0:0:0:
256,192,213613,128,0,213822:0:0:0:0:
402,192,213613,128,0,213822:0:0:0:0:
109,192,213822,128,0,214662:0:0:0:0:
182,192,213822,1,0,0:0:0:0:
329,192,213822,128,0,213927:0:0:0:0:
475,192,213822,128,0,213927:0:0:0:0:
256,192,213927,128,0,214032:0:0:0:0:
402,192,213927,128,0,214032:0:0:0:0:
182,192,214032,128,0,214137:0:0:0:0:
329,192,214032,128,0,214137:0:0:0:0:
36,192,214137,128,0,214242:0:0:0:0:
256,192,214137,128,0,214242:0:0:0:0:
182,192,214242,128,0,214452:0:0:0:0:
329,192,214242,128,0,214452:0:0:0:0:
402,192,214242,1,0,0:0:0:0:
475,192,214242,1,0,0:0:0:0:
256,192,214452,128,0,214662:0:0:0:0:
402,192,214452,128,0,214662:0:0:0:0:
36,192,214662,128,0,215501:0:0:0:0:
182,192,214662,128,0,215501:0:0:0:0:
329,192,214662,128,0,214766:0:0:0:0:
475,192,214662,128,0,214766:0:0:0:0:
256,192,214766,128,0,214871:0:0:0:0:
402,192,214766,128,0,214871:0:0:0:0:
109,192,214871,128,0,214976:0:0:0:0:
475,192,214871,128,0,214976:0:0:0:0:
256,192,214976,128,0,215081:0:0:0:0:
402,192,214976,128,0,215081:0:0:0:0:
109,192,215081,128,0,215291:0:0:0:0:
329,192,215081,128,0,215291:0:0:0:0:
402,192,215291,128,0,215501:0:0:0:0:
475,192,215291,128,0,215501:0:0:0:0:
109,192,215501,128,0,215606:0:0:0:0:
256,192,215501,128,0,217179:0:0:0:0:
329,192,215501,128,0,215606:0:0:0:0:
36,192,215606,128,0,215710:0:0:0:0:
402,192,215606,128,0,215710:0:0:0:0:
182,192,215710,128,0,215815:0:0:0:0:
475,192,215710,128,0,215815:0:0:0:0:
109,192,215815,128,0,215920:0:0:0:0:
329,192,215815,128,0,215920:0:0:0:0:
36,192,215920,128,0,216130:0:0:0:0:
182,192,215920,1,0,0:0:0:0:
402,192,215920,1,0,0:0:0:0:
475,192,215920,128,0,216130:0:0:0:0:
182,192,216130,128,0,216340:0:0:0:0:
329,192,216130,128,0,216340:0:0:0:0:
109,192,216340,128,0,216445:0:0:0:0:
475,192,216340,128,0,216445:0:0:0:0:
36,192,216445,128,0,216550:0:0:0:0:
402,192,216445,128,0,216550:0:0:0:0:
182,192,216550,128,0,216655:0:0:0:0:
329,192,216550,128,0,216655:0:0:0:0:
109,192,216655,128,0,216759:0:0:0:0:
475,192,216655,128,0,216759:0:0:0:0:
36,192,216759,128,0,216969:0:0:0:0:
182,192,216759,1,0,0:0:0:0:
329,192,216759,128,0,216969:0:0:0:0:
402,192,216759,1,0,0:0:0:0:
109,192,216969,128,0,217179:0:0:0:0:
402,192,216969,128,0,217179:0:0:0:0:
36,192,217179,128,0,218018:0:0:0:0:
182,192,217179,1,0,0:0:0:0:
329,192,217179,128,0,217284:0:0:0:0:
475,192,217179,128,0,217284:0:0:0:0:
256,192,217284,128,0,217389:0:0:0:0:
402,192,217284,128,0,217389:0:0:0:0:
182,192,217389,128,0,217494:0:0:0:0:
329,192,217389,128,0,217494:0:0:0:0:
109,192,217494,128,0,217599:0:0:0:0:
256,192,217494,128,0,217599:0:0:0:0:
182,192,217599,128,0,217808:0:0:0:0:
329,192,217599,128,0,217808:0:0:0:0:
402,192,217599,1,0,0:0:0:0:
475,192,217599,1,0,0:0:0:0:
109,192,217808,128,0,218018:0:0:0:0:
402,192,217808,128,0,218018:0:0:0:0:
182,192,218018,1,0,0:0:0:0:
256,192,218018,128,0,218857:0:0:0:0:
329,192,218018,128,0,218123:0:0:0:0:
475,192,218018,128,0,218123:0:0:0:0:
109,192,218123,128,0,218228:0:0:0:0:
402,192,218123,128,0,218228:0:0:0:0:
182,192,218228,128,0,218333:0:0:0:0:
329,192,218228,128,0,218333:0:0:0:0:
109,192,218333,128,0,218438:0:0:0:0:
402,192,218333,128,0,218438:0:0:0:0:
36,192,218438,128,0,218648:0:0:0:0:
182,192,218438,1,0,0:0:0:0:
329,192,218438,1,0,0:0:0:0:
475,192,218438,128,0,218648:0:0:0:0:
109,192,218648,128,0,218857:0:0:0:0:
402,192,218648,128,0,218857:0:0:0:0:
36,192,218857,128,0,218962:0:0:0:0:
182,192,218857,128,0,218962:0:0:0:0:
329,192,218857,1,0,0:0:0:0:
475,192,218857,128,0,220536:0:0:0:0:
109,192,218962,128,0,219067:0:0:0:0:
256,192,218962,128,0,219067:0:0:0:0:
182,192,219067,128,0,219172:0:0:0:0:
329,192,219067,128,0,219172:0:0:0:0:
256,192,219172,128,0,219277:0:0:0:0:
402,192,219172,128,0,219277:0:0:0:0:
36,192,219277,1,0,0:0:0:0:
109,192,219277,1,0,0:0:0:0:
182,192,219277,128,0,219487:0:0:0:0:
329,192,219277,128,0,219487:0:0:0:0:
109,192,219487,128,0,219696:0:0:0:0:
256,192,219487,128,0,219696:0:0:0:0:
36,192,219696,128,0,219801:0:0:0:0:
182,192,219696,128,0,219801:0:0:0:0:
329,192,219696,1,0,0:0:0:0:
402,192,219696,1,0,0:0:0:0:
109,192,219801,128,0,219906:0:0:0:0:
256,192,219801,128,0,219906:0:0:0:0:
182,192,219906,128,0,220011:0:0:0:0:
329,192,219906,128,0,220011:0:0:0:0:
256,192,220011,128,0,220116:0:0:0:0:
402,192,220011,128,0,220116:0:0:0:0:
36,192,220116,1,0,0:0:0:0:
109,192,220116,1,0,0:0:0:0:
182,192,220116,128,0,220326:0:0:0:0:
329,192,220116,128,0,220326:0:0:0:0:
109,192,220326,128,0,220536:0:0:0:0:
256,192,220326,128,0,220536:0:0:0:0:
36,192,220536,128,0,220641:0:0:0:0:
182,192,220536,128,0,220641:0:0:0:0:
329,192,220536,1,0,0:0:0:0:
402,192,220536,128,0,221375:0:0:0:0:
109,192,220641,128,0,220745:0:0:0:0:
256,192,220641,128,0,220745:0:0:0:0:
182,192,220745,128,0,220850:0:0:0:0:
329,192,220745,128,0,220850:0:0:0:0:
256,192,220850,128,0,220955:0:0:0:0:
475,192,220850,128,0,220955:0:0:0:0:
36,192,220955,1,0,0:0:0:0:
109,192,220955,1,0,0:0:0:0:
182,192,220955,128,0,221165:0:0:0:0:
329,192,220955,128,0,221165:0:0:0:0:
109,192,221165,128,0,221375:0:0:0:0:
256,192,221165,128,0,221375:0:0:0:0:
36,192,221375,128,0,221480:0:0:0:0:
182,192,221375,128,0,221480:0:0:0:0:
329,192,221375,128,0,222214:0:0:0:0:
475,192,221375,1,0,0:0:0:0:
109,192,221480,128,0,221585:0:0:0:0:
256,192,221480,128,0,221585:0:0:0:0:
182,192,221585,128,0,221689:0:0:0:0:
402,192,221585,128,0,221689:0:0:0:0:
256,192,221689,128,0,221794:0:0:0:0:
475,192,221689,128,0,221794:0:0:0:0:
36,192,221794,1,0,0:0:0:0:
109,192,221794,1,0,0:0:0:0:
182,192,221794,128,0,222004:0:0:0:0:
402,192,221794,128,0,222004:0:0:0:0:
109,192,222004,128,0,222214:0:0:0:0:
256,192,222004,128,0,222214:0:0:0:0:
36,192,222214,128,0,222424:0:0:0:0:
182,192,222214,128,0,223892:0:0:0:0:
402,192,222214,128,0,222424:0:0:0:0:
475,192,222214,128,0,222424:0:0:0:0:
109,192,222424,1,0,0:0:0:0:
329,192,222424,1,0,0:0:0:0:
36,192,222529,1,0,0:0:0:0:
402,192,222529,1,0,0:0:0:0:
109,192,222634,1,0,0:0:0:0:
329,192,222634,1,0,0:0:0:0:
256,192,222738,1,0,0:0:0:0:
402,192,222738,1,0,0:0:0:0:
109,192,222843,128,0,223053:0:0:0:0:
475,192,222843,128,0,223053:0:0:0:0:
329,192,222843,128,0,223053:0:0:0:0:
402,192,223053,1,0,0:0:0:0:
256,192,223053,1,0,0:0:0:0:
36,192,223158,1,0,0:0:0:0:
329,192,223158,1,0,0:0:0:0:
256,192,223263,1,0,0:0:0:0:
402,192,223263,1,0,0:0:0:0:
109,192,223368,1,0,0:0:0:0:
475,192,223368,1,0,0:0:0:0:
36,192,223473,128,0,223682:0:0:0:0:
402,192,223473,128,0,223682:0:0:0:0:
256,192,223473,128,0,223682:0:0:0:0:
109,192,223682,1,0,0:0:0:0:
475,192,223682,1,0,0:0:0:0:
256,192,223787,1,0,0:0:0:0:
329,192,223787,1,0,0:0:0:0:
36,192,223892,128,0,223997:0:0:0:0:
402,192,223892,128,0,224312:0:0:0:0:
109,192,223997,128,0,224207:0:0:0:0:
475,192,223997,128,0,224102:0:0:0:0:
36,192,224102,128,0,224627:0:0:0:0:
329,192,224102,128,0,224207:0:0:0:0:
182,192,224207,128,0,224312:0:0:0:0:
475,192,224207,128,0,224522:0:0:0:0:
109,192,224312,128,0,224417:0:0:0:0:
329,192,224312,128,0,224627:0:0:0:0:
256,192,224312,128,0,224417:0:0:0:0:
182,192,224417,128,0,224522:0:0:0:0:
402,192,224417,128,0,224731:0:0:0:0:
109,192,224522,128,0,224731:0:0:0:0:
256,192,224522,128,0,225151:0:0:0:0:
182,192,224627,128,0,224941:0:0:0:0:
475,192,224627,128,0,225466:0:0:0:0:
36,192,224731,128,0,224836:0:0:0:0:
329,192,224731,128,0,224836:0:0:0:0:
109,192,224836,128,0,225046:0:0:0:0:
402,192,224836,128,0,224941:0:0:0:0:
36,192,224941,128,0,225466:0:0:0:0:
329,192,224941,128,0,225046:0:0:0:0:
182,192,225046,128,0,225361:0:0:0:0:
402,192,225046,128,0,225151:0:0:0:0:
109,192,225151,128,0,225256:0:0:0:0:
329,192,225151,128,0,225256:0:0:0:0:
256,192,225256,128,0,225571:0:0:0:0:
402,192,225256,128,0,225361:0:0:0:0:
109,192,225361,128,0,225466:0:0:0:0:
329,192,225361,128,0,225466:0:0:0:0:
182,192,225466,128,0,225571:0:0:0:0:
36,192,225571,128,0,227249:0:0:0:0:
109,192,225571,128,0,225676:0:0:0:0:
329,192,225571,128,0,225676:0:0:0:0:
402,192,225571,128,0,225885:0:0:0:0:
475,192,225571,128,0,225885:0:0:0:0:
182,192,225676,128,0,225780:0:0:0:0:
256,192,225780,128,0,225885:0:0:0:0:
109,192,225780,128,0,225885:0:0:0:0:
329,192,225885,128,0,225990:0:0:0:0:
109,192,225990,128,0,226200:0:0:0:0:
256,192,225990,128,0,226200:0:0:0:0:
402,192,225990,128,0,226305:0:0:0:0:
475,192,225990,128,0,226305:0:0:0:0:
182,192,226200,128,0,226305:0:0:0:0:
329,192,226200,128,0,226305:0:0:0:0:
182,192,226410,128,0,226515:0:0:0:0:
329,192,226410,128,0,226515:0:0:0:0:
402,192,226410,128,0,226724:0:0:0:0:
475,192,226410,128,0,226724:0:0:0:0:
109,192,226515,128,0,226620:0:0:0:0:
256,192,226620,128,0,226724:0:0:0:0:
182,192,226620,128,0,226724:0:0:0:0:
329,192,226724,128,0,226829:0:0:0:0:
109,192,226829,128,0,227039:0:0:0:0:
256,192,226829,128,0,227039:0:0:0:0:
402,192,226829,128,0,227144:0:0:0:0:
475,192,226829,128,0,227144:0:0:0:0:
182,192,227039,128,0,227144:0:0:0:0:
329,192,227039,128,0,227144:0:0:0:0:
109,192,227249,128,0,227564:0:0:0:0:
182,192,227249,128,0,227564:0:0:0:0:
256,192,227249,128,0,227354:0:0:0:0:
329,192,227249,128,0,228088:0:0:0:0:
475,192,227249,128,0,227354:0:0:0:0:
402,192,227354,128,0,227459:0:0:0:0:
475,192,227459,128,0,227564:0:0:0:0:
36,192,227459,128,0,227564:0:0:0:0:
256,192,227564,128,0,227669:0:0:0:0:
36,192,227669,128,0,227983:0:0:0:0:
109,192,227669,128,0,227983:0:0:0:0:
402,192,227669,128,0,227878:0:0:0:0:
475,192,227669,128,0,227878:0:0:0:0:
182,192,227878,128,0,227983:0:0:0:0:
256,192,227878,128,0,227983:0:0:0:0:
36,192,228088,128,0,228193:0:0:0:0:
182,192,228088,128,0,228927:0:0:0:0:
256,192,228088,128,0,228193:0:0:0:0:
402,192,228088,128,0,228403:0:0:0:0:
475,192,228088,128,0,228403:0:0:0:0:
109,192,228193,128,0,228298:0:0:0:0:
36,192,228298,128,0,228403:0:0:0:0:
329,192,228298,128,0,228403:0:0:0:0:
256,192,228403,128,0,228508:0:0:0:0:
36,192,228508,128,0,228717:0:0:0:0:
109,192,228508,128,0,228717:0:0:0:0:
329,192,228508,128,0,228822:0:0:0:0:
402,192,228508,128,0,228822:0:0:0:0:
256,192,228717,128,0,228822:0:0:0:0:
475,192,228717,128,0,228822:0:0:0:0:
36,192,228927,128,0,229242:0:0:0:0:
109,192,228927,128,0,229242:0:0:0:0:
256,192,228927,128,0,229032:0:0:0:0:
329,192,228927,128,0,229032:0:0:0:0:
475,192,228927,128,0,230606:0:0:0:0:
402,192,229032,128,0,229137:0:0:0:0:
182,192,229137,128,0,229242:0:0:0:0:
256,192,229137,128,0,229242:0:0:0:0:
329,192,229242,128,0,229347:0:0:0:0:
36,192,229347,128,0,229662:0:0:0:0:
109,192,229347,128,0,229662:0:0:0:0:
256,192,229347,128,0,229557:0:0:0:0:
402,192,229347,128,0,229557:0:0:0:0:
182,192,229557,128,0,229662:0:0:0:0:
329,192,229557,128,0,229662:0:0:0:0:
36,192,229766,128,0,230081:0:0:0:0:
109,192,229766,128,0,230081:0:0:0:0:
256,192,229766,128,0,229871:0:0:0:0:
329,192,229766,128,0,229871:0:0:0:0:
402,192,229871,128,0,229976:0:0:0:0:
182,192,229976,128,0,230081:0:0:0:0:
256,192,229976,128,0,230081:0:0:0:0:
329,192,230081,128,0,230186:0:0:0:0:
36,192,230186,128,0,230501:0:0:0:0:
109,192,230186,128,0,230501:0:0:0:0:
256,192,230186,128,0,230396:0:0:0:0:
402,192,230186,128,0,230396:0:0:0:0:
182,192,230396,128,0,230501:0:0:0:0:
329,192,230396,128,0,230501:0:0:0:0:
109,192,230606,128,0,230920:0:0:0:0:
182,192,230606,128,0,230920:0:0:0:0:
256,192,230606,128,0,230710:0:0:0:0:
329,192,230606,128,0,231445:0:0:0:0:
402,192,230606,128,0,230710:0:0:0:0:
475,192,230710,128,0,230815:0:0:0:0:
256,192,230815,128,0,230920:0:0:0:0:
36,192,230815,128,0,230920:0:0:0:0:
402,192,230920,128,0,231025:0:0:0:0:
36,192,231025,128,0,231340:0:0:0:0:
109,192,231025,128,0,231340:0:0:0:0:
182,192,231025,128,0,231235:0:0:0:0:
256,192,231025,128,0,231235:0:0:0:0:
402,192,231235,128,0,231340:0:0:0:0:
475,192,231235,128,0,231340:0:0:0:0:
109,192,231445,128,0,231550:0:0:0:0:
182,192,231445,128,0,232284:0:0:0:0:
256,192,231445,128,0,231550:0:0:0:0:
402,192,231445,128,0,231759:0:0:0:0:
475,192,231445,128,0,231759:0:0:0:0:
36,192,231550,128,0,231655:0:0:0:0:
256,192,231655,128,0,231759:0:0:0:0:
329,192,231655,128,0,231759:0:0:0:0:
109,192,231759,128,0,231864:0:0:0:0:
36,192,231864,128,0,232074:0:0:0:0:
256,192,231864,128,0,232074:0:0:0:0:
329,192,231864,128,0,232179:0:0:0:0:
402,192,231864,128,0,232179:0:0:0:0:
109,192,232074,128,0,232179:0:0:0:0:
475,192,232074,128,0,232179:0:0:0:0:
36,192,232284,128,0,233962:0:0:0:0:
256,192,232284,128,0,232389:0:0:0:0:
329,192,232284,128,0,232599:0:0:0:0:
402,192,232284,128,0,232599:0:0:0:0:
475,192,232284,128,0,232389:0:0:0:0:
109,192,232389,128,0,232494:0:0:0:0:
182,192,232494,128,0,232599:0:0:0:0:
475,192,232494,128,0,232599:0:0:0:0:
256,192,232599,128,0,232703:0:0:0:0:
109,192,232703,128,0,232913:0:0:0:0:
182,192,232703,128,0,232913:0:0:0:0:
329,192,232703,128,0,233018:0:0:0:0:
402,192,232703,128,0,233018:0:0:0:0:
256,192,232913,128,0,233018:0:0:0:0:
475,192,232913,128,0,233018:0:0:0:0:
256,192,233123,128,0,233228:0:0:0:0:
329,192,233123,128,0,233438:0:0:0:0:
402,192,233123,128,0,233438:0:0:0:0:
475,192,233123,128,0,233228:0:0:0:0:
109,192,233228,128,0,233333:0:0:0:0:
182,192,233333,128,0,233438:0:0:0:0:
475,192,233333,128,0,233438:0:0:0:0:
256,192,233438,128,0,233543:0:0:0:0:
109,192,233543,128,0,233752:0:0:0:0:
182,192,233543,128,0,233752:0:0:0:0:
329,192,233543,128,0,233857:0:0:0:0:
402,192,233543,128,0,233857:0:0:0:0:
256,192,233752,128,0,233857:0:0:0:0:
475,192,233752,128,0,233857:0:0:0:0:
182,192,233962,128,0,234067:0:0:0:0:
256,192,233962,128,0,234067:0:0:0:0:
329,192,233962,128,0,234277:0:0:0:0:
402,192,233962,128,0,234801:0:0:0:0:
475,192,233962,128,0,234277:0:0:0:0:
36,192,234067,128,0,234172:0:0:0:0:
182,192,234172,128,0,234277:0:0:0:0:
256,192,234172,128,0,234277:0:0:0:0:
109,192,234277,128,0,234382:0:0:0:0:
182,192,234382,128,0,234592:0:0:0:0:
256,192,234382,128,0,234592:0:0:0:0:
329,192,234382,128,0,234696:0:0:0:0:
475,192,234382,128,0,234696:0:0:0:0:
36,192,234592,128,0,234696:0:0:0:0:
109,192,234592,128,0,234696:0:0:0:0:
36,192,234801,128,0,235116:0:0:0:0:
109,192,234801,128,0,235641:0:0:0:0:
182,192,234801,128,0,235116:0:0:0:0:
256,192,234801,128,0,234906:0:0:0:0:
329,192,234801,128,0,234906:0:0:0:0:
475,192,234906,128,0,235011:0:0:0:0:
329,192,235011,128,0,235116:0:0:0:0:
256,192,235011,128,0,235116:0:0:0:0:
402,192,235116,128,0,235221:0:0:0:0:
36,192,235221,128,0,235536:0:0:0:0:
182,192,235221,128,0,235536:0:0:0:0:
256,192,235221,128,0,235641:0:0:0:0:
329,192,235221,128,0,235431:0:0:0:0:
402,192,235431,128,0,235536:0:0:0:0:
475,192,235431,128,0,235536:0:0:0:0:
36,192,235641,128,0,235850:0:0:0:0:
182,192,235641,128,0,235850:0:0:0:0:
402,192,235641,128,0,237319:0:0:0:0:
475,192,235641,128,0,235850:0:0:0:0:
329,192,235641,1,0,0:0:0:0:
109,192,235850,1,0,0:0:0:0:
256,192,235850,1,0,0:0:0:0:
36,192,235955,1,0,0:0:0:0:
329,192,235955,1,0,0:0:0:0:
109,192,236060,1,0,0:0:0:0:
256,192,236060,1,0,0:0:0:0:
182,192,236060,1,0,0:0:0:0:
36,192,236165,1,0,0:0:0:0:
329,192,236165,1,0,0:0:0:0:
109,192,236270,128,0,236480:0:0:0:0:
182,192,236270,128,0,236480:0:0:0:0:
475,192,236270,128,0,236480:0:0:0:0:
256,192,236480,1,0,0:0:0:0:
329,192,236480,1,0,0:0:0:0:
36,192,236585,1,0,0:0:0:0:
109,192,236585,1,0,0:0:0:0:
256,192,236689,1,0,0:0:0:0:
329,192,236689,1,0,0:0:0:0:
36,192,236794,1,0,0:0:0:0:
109,192,236794,1,0,0:0:0:0:
182,192,236899,128,0,237109:0:0:0:0:
256,192,236899,128,0,237109:0:0:0:0:
475,192,236899,128,0,237109:0:0:0:0:
329,192,236899,1,0,0:0:0:0:
109,192,237109,1,0,0:0:0:0:
36,192,237109,1,0,0:0:0:0:
182,192,237214,1,0,0:0:0:0:
256,192,237214,1,0,0:0:0:0:
36,192,237319,128,0,237529:0:0:0:0:
109,192,237319,128,0,238997:0:0:0:0:
329,192,237319,128,0,237529:0:0:0:0:
475,192,237319,128,0,237529:0:0:0:0:
256,192,237529,1,0,0:0:0:0:
402,192,237529,1,0,0:0:0:0:
182,192,237634,1,0,0:0:0:0:
475,192,237634,1,0,0:0:0:0:
256,192,237738,1,0,0:0:0:0:
402,192,237738,1,0,0:0:0:0:
329,192,237738,1,0,0:0:0:0:
182,192,237843,1,0,0:0:0:0:
475,192,237843,1,0,0:0:0:0:
36,192,237948,128,0,238158:0:0:0:0:
329,192,237948,128,0,238158:0:0:0:0:
402,192,237948,128,0,238158:0:0:0:0:
182,192,238158,1,0,0:0:0:0:
256,192,238158,1,0,0:0:0:0:
402,192,238263,1,0,0:0:0:0:
475,192,238263,1,0,0:0:0:0:
182,192,238368,1,0,0:0:0:0:
256,192,238368,1,0,0:0:0:0:
402,192,238473,1,0,0:0:0:0:
475,192,238473,1,0,0:0:0:0:
36,192,238578,128,0,238787:0:0:0:0:
182,192,238578,128,0,238787:0:0:0:0:
329,192,238578,128,0,238787:0:0:0:0:
256,192,238578,1,0,0:0:0:0:
256,192,238787,1,0,0:0:0:0:
402,192,238787,1,0,0:0:0:0:
182,192,238892,1,0,0:0:0:0:
475,192,238892,1,0,0:0:0:0:
36,192,238997,128,0,239836:0:0:0:0:
256,192,238997,128,0,239627:0:0:0:0:
329,192,238997,128,0,239102:0:0:0:0:
402,192,238997,128,0,239102:0:0:0:0:
182,192,239102,128,0,239207:0:0:0:0:
475,192,239102,128,0,239207:0:0:0:0:
109,192,239207,128,0,239312:0:0:0:0:
402,192,239207,128,0,239312:0:0:0:0:
329,192,239312,128,0,239417:0:0:0:0:
475,192,239312,128,0,239417:0:0:0:0:
109,192,239417,1,0,0:0:0:0:
182,192,239417,128,0,239627:0:0:0:0:
402,192,239417,128,0,239836:0:0:0:0:
475,192,239522,128,0,239627:0:0:0:0:
109,192,239627,128,0,239731:0:0:0:0:
329,192,239627,128,0,239836:0:0:0:0:
182,192,239731,128,0,239836:0:0:0:0:
109,192,239836,128,0,239941:0:0:0:0:
256,192,239836,128,0,240466:0:0:0:0:
475,192,239836,128,0,240676:0:0:0:0:
36,192,239941,128,0,240046:0:0:0:0:
329,192,239941,128,0,240046:0:0:0:0:
109,192,240046,128,0,240151:0:0:0:0:
402,192,240046,128,0,240151:0:0:0:0:
36,192,240151,128,0,240256:0:0:0:0:
182,192,240151,128,0,240256:0:0:0:0:
109,192,240256,128,0,240571:0:0:0:0:
329,192,240256,128,0,240466:0:0:0:0:
402,192,240256,1,0,0:0:0:0:
36,192,240361,128,0,240466:0:0:0:0:
182,192,240466,128,0,240571:0:0:0:0:
402,192,240466,128,0,240571:0:0:0:0:
256,192,240571,128,0,240676:0:0:0:0:
36,192,240676,128,0,240780:0:0:0:0:
182,192,240676,1,0,0:0:0:0:
329,192,240676,1,0,0:0:0:0:
109,192,240780,128,0,240885:0:0:0:0:
256,192,240780,1,0,0:0:0:0:
402,192,240780,1,0,0:0:0:0:
329,192,240885,1,0,0:0:0:0:
475,192,240885,128,0,240990:0:0:0:0:
109,192,240990,1,0,0:0:0:0:
256,192,240990,1,0,0:0:0:0:
402,192,240990,128,0,241095:0:0:0:0:
36,192,241095,128,0,241200:0:0:0:0:
182,192,241095,1,0,0:0:0:0:
329,192,241095,1,0,0:0:0:0:
109,192,241200,128,0,241305:0:0:0:0:
256,192,241200,1,0,0:0:0:0:
402,192,241200,1,0,0:0:0:0:
182,192,241305,1,0,0:0:0:0:
329,192,241305,1,0,0:0:0:0:
475,192,241305,128,0,241410:0:0:0:0:
109,192,241410,1,0,0:0:0:0:
256,192,241410,1,0,0:0:0:0:
402,192,241410,128,0,241515:0:0:0:0:
36,192,241515,128,0,241620:0:0:0:0:
182,192,241515,1,0,0:0:0:0:
329,192,241515,1,0,0:0:0:0:
109,192,241620,128,0,241724:0:0:0:0:
256,192,241620,1,0,0:0:0:0:
402,192,241620,1,0,0:0:0:0:
329,192,241724,1,0,0:0:0:0:
475,192,241724,128,0,241829:0:0:0:0:
109,192,241829,1,0,0:0:0:0:
256,192,241829,1,0,0:0:0:0:
402,192,241829,128,0,241934:0:0:0:0:
36,192,241934,128,0,242039:0:0:0:0:
182,192,241934,1,0,0:0:0:0:
329,192,241934,1,0,0:0:0:0:
109,192,242039,128,0,242144:0:0:0:0:
256,192,242039,1,0,0:0:0:0:
402,192,242039,1,0,0:0:0:0:
182,192,242144,1,0,0:0:0:0:
475,192,242144,128,0,242249:0:0:0:0:
109,192,242249,1,0,0:0:0:0:
256,192,242249,1,0,0:0:0:0:
402,192,242249,128,0,242354:0:0:0:0:
36,192,242354,128,0,242459:0:0:0:0:
182,192,242354,1,0,0:0:0:0:
329,192,242354,1,0,0:0:0:0:
109,192,242459,128,0,242564:0:0:0:0:
256,192,242459,1,0,0:0:0:0:
402,192,242459,1,0,0:0:0:0:
329,192,242564,1,0,0:0:0:0:
475,192,242564,128,0,242669:0:0:0:0:
109,192,242669,1,0,0:0:0:0:
256,192,242669,1,0,0:0:0:0:
402,192,242669,128,0,242773:0:0:0:0:
36,192,242773,128,0,242878:0:0:0:0:
182,192,242773,1,0,0:0:0:0:
475,192,242773,1,0,0:0:0:0:
329,192,242773,1,0,0:0:0:0:
109,192,242878,128,0,242983:0:0:0:0:
256,192,242878,1,0,0:0:0:0:
402,192,242878,1,0,0:0:0:0:
36,192,242983,1,0,0:0:0:0:
329,192,242983,1,0,0:0:0:0:
475,192,242983,128,0,243088:0:0:0:0:
182,192,242983,1,0,0:0:0:0:
109,192,243088,1,0,0:0:0:0:
256,192,243088,1,0,0:0:0:0:
402,192,243088,128,0,243193:0:0:0:0:
329,192,243193,128,0,243508:0:0:0:0:
182,192,243193,128,0,243508:0:0:0:0:
475,192,243193,128,0,243403:0:0:0:0:
36,192,243193,128,0,243403:0:0:0:0:
36,192,243508,1,0,0:0:0:0:
475,192,243508,1,0,0:0:0:0:
109,192,243508,128,0,243717:0:0:0:0:
256,192,243508,128,0,243717:0:0:0:0:
402,192,243508,128,0,243717:0:0:0:0:
36,192,243822,128,0,250641:0:0:0:0:
109,192,243822,128,0,250693:0:0:0:0:
182,192,243822,128,0,250745:0:0:0:0:
256,192,243822,128,0,250745:0:0:0:0:
329,192,243822,128,0,250745:0:0:0:0:
402,192,243822,128,0,250693:0:0:0:0:
475,192,243822,128,0,250641:0:0:0:0:
