osu file format v14

[General]
AudioFilename: audio.mp3
AudioLeadIn: 0
PreviewTime: 7066
Countdown: 0
SampleSet: Normal
StackLeniency: 0.7
Mode: 1
LetterboxInBreaks: 0
WidescreenStoryboard: 0

[Editor]
Bookmarks: 7800,14513,21226,27940,34653,56471,63184,69898,76611
DistanceSpacing: 1.2
BeatDivisor: 2
GridSize: 32
TimelineZoom: 2

[Metadata]
Title:only my railgun (TV Size)
TitleUnicode:only my railgun (TV Size)
Artist:fripSide
ArtistUnicode:fripSide
Creator:BlackBq
Version:Railgun Oni
Source:とある科学の超電磁砲
Tags:anime japanese j-pop jpop opening a certain scientific railgun toaru kagaku no rērugan rerugan reerugan 御坂美琴 佐藤利奈 misaka mikoto satō sato satou rina
BeatmapID:2944625
BeatmapSetID:1430409

[Difficulty]
HPDrainRate:6.5
CircleSize:2
OverallDifficulty:6
ApproachRate:10
SliderMultiplier:1.4
SliderTickRate:1

[Events]
//Background and Video events
0,0,"639712.jpg",0,20
Video,0,"hanade.mp4"
//Break Periods
//Storyboard Layer 0 (Background)
//Storyboard Layer 1 (Fail)
//Storyboard Layer 2 (Pass)
//Storyboard Layer 3 (Foreground)
//Storyboard Layer 4 (Overlay)
//Storyboard Sound Samples

[TimingPoints]
1087,419.58041958042,4,1,0,80,1,0
1087,-111.111111111111,4,1,0,80,0,0
2345,-109.19545877926,4,1,0,80,0,0
2450,-108.262132937238,4,1,0,80,0,0
2555,-107.344626703693,4,1,0,80,0,0
2765,-105.555602469157,4,1,0,80,0,0
2975,-103.825125265014,4,1,0,80,0,0
3184,-102.150576078174,4,1,0,80,0,0
3394,-100.529084572103,4,1,0,80,0,0
3499,-99.7374909238883,4,1,0,80,0,0
3709,-98.1912195447659,4,1,0,80,0,0
3814,-97.4358774490508,4,1,0,80,0,0
3919,-96.6920676728443,4,1,0,80,0,0
4024,-95.9596201918233,4,1,0,80,0,0
4233,-94.527339669816,4,1,0,80,0,0
4338,-93.8272021948059,4,1,0,85,0,0
4443,-93.1372731641712,4,1,0,85,0,0
4653,-91.7874130084793,4,1,0,85,0,0
4863,-90.4762034013624,4,1,0,85,0,0
4968,-89.8345068714414,4,1,0,85,0,0
5073,-89.2018486191108,4,1,0,85,0,0
5177,-88.5781174847004,4,1,0,85,0,0
5282,-87.9629711076825,4,1,0,85,0,0
5387,-87.3563097899343,4,1,0,85,0,0
5492,-86.7579591751747,4,1,0,85,0,0
5597,-86.1678239005416,4,1,0,85,0,0
5702,-85.5855894407923,4,1,0,85,0,0
5772,-85.2018090048088,4,1,0,85,0,0
5842,-84.8214550781333,4,1,0,85,0,0
5912,-84.4444106666802,4,1,0,85,0,0
6017,-83.8852282307347,4,1,0,85,0,0
6121,-83.3333333333333,4,1,0,85,0,0
6541,-100,4,1,0,90,0,0
7380,-96.7741935483871,4,1,0,90,0,0
7590,-93.7500000000586,4,1,0,90,0,0
7695,-93.75,4,1,0,95,0,0
7800,-90.9090909090909,4,1,0,95,0,1
21226,-85.1063829787234,4,1,0,95,0,1
21436,-90.9090909090909,4,1,0,95,0,1
22066,-85.1063829787234,4,1,0,95,0,1
22275,-90.9090909090909,4,1,0,95,0,1
22905,-85.1063829787234,4,1,0,95,0,1
23114,-90.9090909090909,4,1,0,95,0,1
24583,-90.9090909090909,4,1,0,95,0,1
24688,-90.0900900900901,4,1,0,95,0,1
24793,-89.2857142857143,4,1,0,95,0,1
24898,-88.495575221239,4,1,0,95,0,1
25003,-87.719298245614,4,1,0,95,0,1
25107,-86.9565217391304,4,1,0,95,0,1
25212,-86.2068965517241,4,1,0,95,0,1
25317,-85.4700854700855,4,1,0,95,0,1
25422,-84.7457627118644,4,1,0,95,0,1
25527,-84.0336134453782,4,1,0,95,0,1
25632,-83.3333333333333,4,1,0,95,0,1
25737,-82.6446280991736,4,1,0,95,0,1
25842,-81.9672131147541,4,1,0,95,0,1
25912,-81.5217169777943,4,1,0,95,0,1
25982,-81.0811029948927,4,1,0,95,0,1
26052,-80.6451612903226,4,1,0,95,0,1
26121,-80,4,1,0,90,0,1
26156,-80,4,1,0,95,0,1
26261,-85.7142857142857,4,1,0,95,0,0
26471,-100,4,1,0,75,0,0
27835,-111.111111111111,4,1,0,75,0,0
32975,-111.111111111111,4,1,0,75,0,0
33080,-110.344827586207,4,1,0,75,0,0
33184,-109.58904109589,4,1,0,75,0,0
33394,-108.108108108108,4,1,0,75,0,0
33499,-107.38255033557,4,1,0,75,0,0
33604,-106.666666666667,4,1,0,75,0,0
33709,-107.142857142857,4,1,0,80,0,0
33814,-105.263157894737,4,1,0,80,0,0
34233,-102.564102564103,4,1,0,80,0,0
34548,-100,4,1,0,85,0,0
34653,-100,4,1,0,75,0,0
38010,-93.0232558139535,4,1,0,85,0,0
38219,-100,4,1,0,85,0,0
38849,-93.0232558139535,4,1,0,85,0,0
39059,-100,4,1,0,85,0,0
39688,-93.0232558139535,4,1,0,85,0,0
39898,-100,4,1,0,85,0,0
40632,-99.3788819875776,4,1,0,85,0,0
40737,-98.7654320987654,4,1,0,85,0,0
40842,-98.159509202454,4,1,0,85,0,0
40947,-97.5609756097561,4,1,0,85,0,0
41052,-96.969696969697,4,1,0,85,0,0
41156,-96.3855421686747,4,1,0,85,0,0
41261,-95.8083832335329,4,1,0,85,0,0
41366,-95.2380952380952,4,1,0,85,0,0
51436,-93.0232558139535,4,1,0,85,0,0
51646,-92.3096805161957,4,1,0,85,0,0
51751,-91.9569825235755,4,1,0,85,0,0
51856,-91.6069694582364,4,1,0,85,0,0
52066,-90.9147937461532,4,1,0,85,0,0
52275,-90.2330810717163,4,1,0,85,0,0
52485,-89.5615157749176,4,1,0,85,0,0
52590,-89.2294678532996,4,1,0,85,0,0
52800,-88.572625567197,4,1,0,85,0,0
52905,-88.2478564595666,4,1,0,85,0,0
53114,-87.6054112110397,4,1,0,85,0,0
53324,-86.9722523726031,4,1,0,85,0,0
53429,-86.659092661968,4,1,0,85,0,0
53534,-86.3481800394093,4,1,0,85,0,0
53639,-86.0394163774308,4,1,0,85,0,0
53744,-85.7329265020194,4,1,0,85,0,0
53849,-85.4286124343054,4,1,0,85,0,0
53954,-85.1264510867668,4,1,0,85,0,0
54024,-84.9261948903306,4,1,0,85,0,0
54093,-84.7268786702625,4,1,0,85,0,0
54163,-84.5284958238697,4,1,0,85,0,0
54268,-84.2326573381806,4,1,0,85,0,0
54373,-83.9388824209317,4,1,0,85,0,0
54443,-83.744098134684,4,1,0,85,0,0
54513,-83.5502855748761,4,1,0,85,0,0
54583,-83.3573680411185,4,1,0,85,0,0
54688,-66.6666666666667,4,1,0,85,0,0
55737,-100,4,1,0,90,0,0
56052,-96.7741935483871,4,1,0,90,0,0
56261,-93.75,4,1,0,90,0,0
56366,-93.75,4,1,0,95,0,0
56471,-90.9090909090909,4,1,0,95,0,1
68219,-90.9090909090909,4,1,0,95,0,1
68289,-89.9414840704638,4,1,0,95,0,1
68359,-88.9941788907587,4,1,0,95,0,1
68429,-88.0666981945446,4,1,0,95,0,1
68534,-86.7111668374877,4,1,0,95,0,1
68639,-85.3966589411156,4,1,0,95,0,1
68744,-84.1214815138838,4,1,0,95,0,1
68849,-82.8837580158954,4,1,0,95,0,1
68954,-81.6819956545178,4,1,0,95,0,1
69059,-80.5145199885347,4,1,0,95,0,1
69128,-79.7546110128357,4,1,0,95,0,1
69198,-79.0089122052968,4,1,0,95,0,1
69268,-78.2769673937292,4,1,0,95,0,1
69373,-77.204219056163,4,1,0,95,0,1
69478,-76.1604182120885,4,1,0,95,0,1
69548,-75.4801291012128,4,1,0,95,0,1
69618,-74.8118855138754,4,1,0,95,0,1
69688,-74.1553153417707,4,1,0,95,0,1
69898,-90.9090909090909,4,1,0,95,0,1
83324,-85.1063829787234,4,1,0,95,0,1
83534,-90.9090909090909,4,1,0,95,0,1
84163,-85.1063829787234,4,1,0,95,0,1
84373,-90.9090909090909,4,1,0,95,0,1
85003,-85.1063829787234,4,1,0,95,0,1
85212,-90.9090909090909,4,1,0,95,0,1
86786,-89.8945896042301,4,1,0,95,0,1
86891,-88.9024810904423,4,1,0,95,0,1
86996,-87.9321093769922,4,1,0,95,0,1
87100,-86.9826165240877,4,1,0,95,0,1
87170,-86.3609316962755,4,1,0,95,0,1
87240,-85.7480704540446,4,1,0,95,0,1
87310,-85.1438462710827,4,1,0,95,0,1
87415,-84.2533092593544,4,1,0,95,0,1
87520,-83.3812775679349,4,1,0,95,0,1
87590,-82.8098371461743,4,1,0,95,0,1
87660,-82.2461759640485,4,1,0,95,0,1
87730,-81.6901362428092,4,1,0,95,0,1
87835,-80.8700321539248,4,1,0,95,0,1
87887,-100,4,1,0,90,0,1
87940,-80.0662307861063,4,1,0,90,0,1
88045,-80,4,1,0,85,0,1
88149,-71.4285714285714,4,1,0,85,0,0
88254,-66.6666666666667,4,1,0,85,0,0
88359,-66.6666666666667,4,1,0,75,0,0
88779,-66.6666666666667,4,1,0,65,0,0
89198,-66.6666666666667,4,1,0,55,0,0
89618,-66.6666666666667,4,1,0,45,0,0
90038,-71.4285714285714,4,1,0,35,0,0
90457,-71.4285714285714,4,1,0,25,0,0
90877,-71.4285714285714,4,1,0,15,0,0
91296,-71.4285714285714,4,1,0,5,0,0

[HitObjects]
256,256,1087,5,0,0:0:0:0:
256,256,1296,1,8,0:0:0:0:
256,256,1506,1,0,0:0:0:0:
256,256,1716,1,0,0:0:0:0:
256,256,1821,1,8,0:0:0:0:
256,256,2135,1,8,0:0:0:0:
256,256,2345,1,0,0:0:0:0:
256,256,2450,1,0,0:0:0:0:
256,256,2555,1,8,0:0:0:0:
256,256,2765,1,0,0:0:0:0:
256,256,2975,1,8,0:0:0:0:
256,256,3184,1,0,0:0:0:0:
256,256,3394,1,0,0:0:0:0:
256,256,3499,1,8,0:0:0:0:
256,256,3709,1,8,0:0:0:0:
256,256,3814,1,0,0:0:0:0:
256,256,3919,1,0,0:0:0:0:
256,256,4024,1,8,0:0:0:0:
256,256,4233,1,0,0:0:0:0:
256,256,4338,1,0,0:0:0:0:
256,256,4443,1,8,0:0:0:0:
256,256,4653,1,0,0:0:0:0:
256,256,4863,1,0,0:0:0:0:
256,256,4968,1,0,0:0:0:0:
256,256,5073,1,8,0:0:0:0:
256,256,5177,1,8,0:0:0:0:
256,256,5282,1,0,0:0:0:0:
256,256,5387,1,8,0:0:0:0:
256,256,5492,1,0,0:0:0:0:
256,256,5597,1,8,0:0:0:0:
256,256,5702,1,0,0:0:0:0:
256,256,5772,1,0,0:0:0:0:
256,256,5842,1,0,0:0:0:0:
256,256,5912,1,8,0:0:0:0:
256,256,6017,1,8,0:0:0:0:
256,256,6121,1,0,0:0:0:0:
256,256,7170,5,8,0:0:0:0:
256,256,7380,1,0,0:0:0:0:
256,256,7590,1,8,0:0:0:0:
192,128,7800,1,4,0:0:0:0:
256,256,8010,1,0,0:0:0:0:
256,256,8114,1,8,0:0:0:0:
256,256,8324,1,8,0:0:0:0:
256,256,8429,1,0,0:0:0:0:
256,256,8534,1,8,0:0:0:0:
256,256,8639,1,0,0:0:0:0:
256,256,8849,1,0,0:0:0:0:
256,256,8954,1,8,0:0:0:0:
256,256,9163,1,8,0:0:0:0:
256,256,9268,1,0,0:0:0:0:
256,256,9373,1,0,0:0:0:0:
256,256,9478,1,8,0:0:0:0:
256,256,9688,1,0,0:0:0:0:
256,256,9793,1,8,0:0:0:0:
256,256,10003,1,0,0:0:0:0:
256,256,10107,1,8,0:0:0:0:
256,256,10212,1,0,0:0:0:0:
256,256,10317,1,8,0:0:0:0:
256,256,10422,1,8,0:0:0:0:
256,256,10527,1,0,0:0:0:0:
256,256,10737,1,8,0:0:0:0:
256,256,10842,1,0,0:0:0:0:
256,256,10947,1,8,0:0:0:0:
256,256,11156,1,8,0:0:0:0:
256,256,11261,1,8,0:0:0:0:
256,256,11366,1,0,0:0:0:0:
256,256,11471,1,0,0:0:0:0:
256,256,11576,1,8,0:0:0:0:
256,256,11786,1,0,0:0:0:0:
256,256,11891,1,0,0:0:0:0:
256,256,11996,1,8,0:0:0:0:
256,256,12100,1,0,0:0:0:0:
256,256,12205,1,8,0:0:0:0:
256,256,12310,1,0,0:0:0:0:
256,256,12415,1,8,0:0:0:0:
256,256,12520,1,8,0:0:0:0:
256,256,12625,1,0,0:0:0:0:
256,256,12835,1,8,0:0:0:0:
256,256,12940,1,0,0:0:0:0:
256,256,13149,1,8,0:0:0:0:
256,256,13254,1,8,0:0:0:0:
256,256,13464,1,8,0:0:0:0:
256,256,13569,1,0,0:0:0:0:
256,256,13674,1,8,0:0:0:0:
256,256,13884,1,8,0:0:0:0:
256,256,13989,1,0,0:0:0:0:
256,256,14093,1,8,0:0:0:0:
256,256,14198,1,8,0:0:0:0:
256,256,14303,1,0,0:0:0:0:
192,128,14513,1,4,0:0:0:0:
256,256,14723,1,0,0:0:0:0:
256,256,14828,1,8,0:0:0:0:
256,256,15038,1,8,0:0:0:0:
256,256,15142,1,0,0:0:0:0:
256,256,15247,1,8,0:0:0:0:
256,256,15352,1,0,0:0:0:0:
256,256,15562,1,0,0:0:0:0:
256,256,15667,1,8,0:0:0:0:
256,256,15877,1,8,0:0:0:0:
256,256,15982,1,0,0:0:0:0:
256,256,16087,1,0,0:0:0:0:
256,256,16191,1,8,0:0:0:0:
256,256,16401,1,0,0:0:0:0:
256,256,16506,1,8,0:0:0:0:
256,256,16716,1,0,0:0:0:0:
256,256,16821,1,8,0:0:0:0:
256,256,16926,1,8,0:0:0:0:
256,256,17031,1,0,0:0:0:0:
256,256,17135,1,0,0:0:0:0:
256,256,17240,1,8,0:0:0:0:
256,256,17450,1,8,0:0:0:0:
256,256,17555,1,0,0:0:0:0:
256,256,17660,1,8,0:0:0:0:
192,128,17870,1,4,0:0:0:0:
256,256,18080,1,0,0:0:0:0:
256,256,18184,1,8,0:0:0:0:
256,256,18289,1,0,0:0:0:0:
256,256,18394,1,0,0:0:0:0:
256,256,18499,1,8,0:0:0:0:
256,256,18709,1,0,0:0:0:0:
256,256,18814,1,0,0:0:0:0:
256,256,18919,1,8,0:0:0:0:
256,256,19024,1,8,0:0:0:0:
256,256,19128,1,8,0:0:0:0:
256,256,19233,1,0,0:0:0:0:
256,256,19338,1,8,0:0:0:0:
192,128,19548,1,12,0:0:0:0:
256,256,19758,1,0,0:0:0:0:
256,256,19863,1,0,0:0:0:0:
256,256,19968,1,8,0:0:0:0:
256,256,20073,1,8,0:0:0:0:
256,256,20177,1,0,0:0:0:0:
256,256,20387,1,0,0:0:0:0:
256,256,20492,1,8,0:0:0:0:
256,256,20597,1,8,0:0:0:0:
256,256,20702,1,0,0:0:0:0:
256,256,20807,1,8,0:0:0:0:
256,256,20912,1,0,0:0:0:0:
256,256,21017,1,8,0:0:0:0:
192,128,21226,1,4,0:0:0:0:
256,256,21436,1,0,0:0:0:0:
256,256,21541,1,8,0:0:0:0:
256,256,21751,1,0,0:0:0:0:
256,256,21856,1,8,0:0:0:0:
192,128,22066,1,4,0:0:0:0:
256,256,22275,1,8,0:0:0:0:
256,256,22380,1,0,0:0:0:0:
256,256,22590,1,0,0:0:0:0:
256,256,22695,1,0,0:0:0:0:
192,128,22905,1,12,0:0:0:0:
256,256,23114,1,8,0:0:0:0:
256,256,23219,1,0,0:0:0:0:
256,256,23324,1,8,0:0:0:0:
256,256,23534,1,0,0:0:0:0:
256,256,23744,1,8,0:0:0:0:
256,256,23849,1,0,0:0:0:0:
256,256,23954,1,8,0:0:0:0:
256,256,24059,1,0,0:0:0:0:
256,256,24163,1,8,0:0:0:0:
256,256,24268,1,8,0:0:0:0:
256,256,24373,1,0,0:0:0:0:
256,256,24583,1,8,0:0:0:0:
256,256,24688,1,8,0:0:0:0:
256,256,24793,1,0,0:0:0:0:
256,256,24898,1,0,0:0:0:0:
256,256,25003,1,8,0:0:0:0:
256,256,25107,1,8,0:0:0:0:
256,256,25212,1,0,0:0:0:0:
256,256,25317,1,0,0:0:0:0:
256,256,25422,1,8,0:0:0:0:
256,256,25527,1,0,0:0:0:0:
256,256,25632,1,8,0:0:0:0:
256,256,25737,1,0,0:0:0:0:
256,256,25842,1,8,0:0:0:0:
256,256,25912,1,8,0:0:0:0:
256,256,25982,1,8,0:0:0:0:
256,256,26052,1,0,0:0:0:0:
256,256,26156,1,8,0:0:0:0:
256,192,26471,12,0,27730,0:0:0:0:
192,128,27940,5,4,0:0:0:0:
256,256,28149,1,0,0:0:0:0:
256,256,28359,1,8,0:0:0:0:
256,256,28779,1,0,0:0:0:0:
267,143,28989,1,0,0:0:0:0:
256,256,29198,1,8,0:0:0:0:
256,256,29408,1,0,0:0:0:0:
256,256,29618,1,8,0:0:0:0:
256,256,29828,1,0,0:0:0:0:
256,256,30038,1,0,0:0:0:0:
256,256,30457,1,8,0:0:0:0:
256,256,30667,1,0,0:0:0:0:
256,256,30877,1,8,0:0:0:0:
256,256,31087,1,0,0:0:0:0:
256,256,31296,1,8,0:0:0:0:
256,256,31506,1,8,0:0:0:0:
256,256,31716,1,0,0:0:0:0:
256,256,32135,1,8,0:0:0:0:
256,256,32345,1,8,0:0:0:0:
256,256,32555,1,0,0:0:0:0:
256,256,32765,1,8,0:0:0:0:
256,256,32975,1,0,0:0:0:0:
256,256,33080,1,0,0:0:0:0:
256,256,33184,1,8,0:0:0:0:
256,256,33394,1,8,0:0:0:0:
256,256,33499,1,8,0:0:0:0:
256,256,33604,1,8,0:0:0:0:
256,256,33814,1,0,0:0:0:0:
256,256,34233,5,8,0:0:0:0:
192,128,34653,1,4,0:0:0:0:
256,256,34863,1,0,0:0:0:0:
256,256,34968,1,8,0:0:0:0:
256,256,35177,1,8,0:0:0:0:
256,256,35282,1,8,0:0:0:0:
256,256,35492,1,8,0:0:0:0:
256,256,35702,1,0,0:0:0:0:
256,256,35912,1,8,0:0:0:0:
256,256,36017,1,0,0:0:0:0:
256,256,36121,1,8,0:0:0:0:
192,128,36331,1,4,0:0:0:0:
256,256,36541,1,0,0:0:0:0:
256,256,36646,1,8,0:0:0:0:
256,256,36856,1,8,0:0:0:0:
256,256,36961,1,0,0:0:0:0:
256,256,37170,1,8,0:0:0:0:
256,256,37275,1,0,0:0:0:0:
256,256,37380,1,0,0:0:0:0:
256,256,37485,1,0,0:0:0:0:
256,256,37590,1,8,0:0:0:0:
256,256,37800,1,0,0:0:0:0:
192,128,38010,1,12,0:0:0:0:
256,256,38219,1,0,0:0:0:0:
256,256,38324,1,8,0:0:0:0:
256,256,38429,1,0,0:0:0:0:
256,256,38639,1,0,0:0:0:0:
192,128,38849,1,12,0:0:0:0:
256,256,39059,1,0,0:0:0:0:
256,256,39268,1,8,0:0:0:0:
256,256,39373,1,0,0:0:0:0:
256,256,39478,1,0,0:0:0:0:
192,128,39688,1,4,0:0:0:0:
256,256,39898,1,8,0:0:0:0:
256,256,40003,1,0,0:0:0:0:
256,256,40107,1,8,0:0:0:0:
256,256,40317,1,0,0:0:0:0:
256,256,40527,1,0,0:0:0:0:
256,256,40632,1,0,0:0:0:0:
256,256,40737,1,8,0:0:0:0:
256,256,40842,1,8,0:0:0:0:
256,256,40947,1,0,0:0:0:0:
256,256,41052,1,8,0:0:0:0:
256,256,41156,1,8,0:0:0:0:
256,256,41261,1,8,0:0:0:0:
256,256,41366,1,0,0:0:0:0:
256,256,41576,1,8,0:0:0:0:
256,256,41681,1,0,0:0:0:0:
256,256,41786,1,8,0:0:0:0:
256,256,41891,1,8,0:0:0:0:
256,256,41996,1,8,0:0:0:0:
256,256,42205,1,0,0:0:0:0:
256,256,42310,1,0,0:0:0:0:
256,256,42415,1,8,0:0:0:0:
256,256,42625,1,8,0:0:0:0:
256,256,42835,1,0,0:0:0:0:
192,128,43045,1,4,0:0:0:0:
256,256,43254,1,0,0:0:0:0:
256,256,43359,1,0,0:0:0:0:
256,256,43464,1,8,0:0:0:0:
256,256,43674,1,8,0:0:0:0:
256,256,43779,1,8,0:0:0:0:
256,256,43989,1,0,0:0:0:0:
256,256,44093,1,8,0:0:0:0:
256,256,44198,1,8,0:0:0:0:
256,256,44303,1,0,0:0:0:0:
256,256,44408,1,0,0:0:0:0:
256,256,44513,1,8,0:0:0:0:
192,128,44723,1,12,0:0:0:0:
256,256,44933,1,0,0:0:0:0:
256,256,45142,1,8,0:0:0:0:
256,256,45247,1,8,0:0:0:0:
256,256,45352,1,0,0:0:0:0:
256,256,45562,1,0,0:0:0:0:
256,256,45667,1,8,0:0:0:0:
256,256,45877,1,8,0:0:0:0:
256,256,46087,1,8,0:0:0:0:
256,256,46191,1,0,0:0:0:0:
256,256,46401,1,0,0:0:0:0:
256,256,46611,1,8,0:0:0:0:
256,256,46716,1,0,0:0:0:0:
256,256,46821,1,8,0:0:0:0:
256,256,46926,1,8,0:0:0:0:
256,256,47031,1,8,0:0:0:0:
256,256,47135,1,0,0:0:0:0:
256,256,47240,1,8,0:0:0:0:
256,256,47450,1,0,0:0:0:0:
256,256,47555,1,0,0:0:0:0:
256,256,47660,1,8,0:0:0:0:
256,256,47870,1,8,0:0:0:0:
192,128,48080,1,4,0:0:0:0:
256,256,48289,1,8,0:0:0:0:
256,256,48394,1,0,0:0:0:0:
256,256,48604,1,0,0:0:0:0:
256,256,48709,1,8,0:0:0:0:
256,256,48919,1,0,0:0:0:0:
256,256,49024,1,0,0:0:0:0:
256,256,49128,1,8,0:0:0:0:
256,256,49233,1,0,0:0:0:0:
256,256,49338,1,8,0:0:0:0:
256,256,49548,1,0,0:0:0:0:
192,128,49758,1,12,0:0:0:0:
256,256,49968,1,0,0:0:0:0:
256,256,50073,1,8,0:0:0:0:
256,256,50177,1,8,0:0:0:0:
256,256,50387,1,0,0:0:0:0:
256,256,50492,1,8,0:0:0:0:
256,256,50702,1,8,0:0:0:0:
256,256,50807,1,8,0:0:0:0:
256,256,50912,1,0,0:0:0:0:
256,256,51017,1,8,0:0:0:0:
256,256,51226,1,0,0:0:0:0:
192,128,51436,1,4,0:0:0:0:
256,256,51646,1,0,0:0:0:0:
256,256,51751,1,0,0:0:0:0:
256,256,51856,1,8,0:0:0:0:
256,256,52066,1,0,0:0:0:0:
256,256,52275,1,8,0:0:0:0:
256,256,52485,1,0,0:0:0:0:
256,256,52590,1,8,0:0:0:0:
256,256,52800,1,0,0:0:0:0:
256,256,52905,1,8,0:0:0:0:
192,128,53114,1,4,0:0:0:0:
256,256,53324,1,0,0:0:0:0:
256,256,53429,1,0,0:0:0:0:
256,256,53534,1,8,0:0:0:0:
256,256,53639,1,0,0:0:0:0:
256,256,53744,1,8,0:0:0:0:
256,256,53849,1,8,0:0:0:0:
256,256,53954,1,0,0:0:0:0:
256,256,54024,1,0,0:0:0:0:
256,256,54093,1,0,0:0:0:0:
256,256,54163,1,8,0:0:0:0:
256,256,54268,1,8,0:0:0:0:
256,256,54373,1,0,0:0:0:0:
256,256,54443,1,8,0:0:0:0:
256,256,54513,1,8,0:0:0:0:
256,256,54583,1,8,0:0:0:0:
192,128,54793,5,4,0:0:0:0:
192,128,55107,1,12,0:0:0:0:
192,128,55422,1,12,0:0:0:0:
256,256,55842,1,8,0:0:0:0:
256,256,56052,1,8,0:0:0:0:
256,256,56261,1,0,0:0:0:0:
192,128,56471,1,4,0:0:0:0:
256,256,56681,1,0,0:0:0:0:
256,256,56786,1,8,0:0:0:0:
256,256,56996,1,8,0:0:0:0:
256,256,57100,1,0,0:0:0:0:
256,256,57205,1,8,0:0:0:0:
256,256,57310,1,0,0:0:0:0:
256,256,57520,1,0,0:0:0:0:
256,256,57625,1,8,0:0:0:0:
256,256,57835,1,8,0:0:0:0:
256,256,57940,1,0,0:0:0:0:
256,256,58149,1,8,0:0:0:0:
256,256,58254,1,0,0:0:0:0:
256,256,58359,1,0,0:0:0:0:
256,256,58464,1,8,0:0:0:0:
256,256,58674,1,8,0:0:0:0:
256,256,58779,1,0,0:0:0:0:
256,256,58884,1,8,0:0:0:0:
256,256,58989,1,8,0:0:0:0:
256,256,59093,1,0,0:0:0:0:
256,256,59198,1,8,0:0:0:0:
256,256,59408,1,0,0:0:0:0:
256,256,59513,1,8,0:0:0:0:
256,256,59618,1,8,0:0:0:0:
256,256,59828,1,8,0:0:0:0:
256,256,59933,1,8,0:0:0:0:
256,256,60038,1,0,0:0:0:0:
256,256,60142,1,8,0:0:0:0:
256,256,60247,1,0,0:0:0:0:
256,256,60457,1,0,0:0:0:0:
256,256,60562,1,0,0:0:0:0:
256,256,60667,1,8,0:0:0:0:
256,256,60772,1,8,0:0:0:0:
256,256,60877,1,0,0:0:0:0:
224,256,60982,1,0,0:0:0:0:
256,256,61087,1,8,0:0:0:0:
256,256,61191,1,0,0:0:0:0:
256,256,61296,1,8,0:0:0:0:
256,256,61506,1,8,0:0:0:0:
256,256,61611,1,0,0:0:0:0:
256,256,61821,1,8,0:0:0:0:
256,256,61926,1,8,0:0:0:0:
256,256,62135,1,8,0:0:0:0:
256,256,62240,1,0,0:0:0:0:
256,256,62345,1,8,0:0:0:0:
256,256,62555,1,8,0:0:0:0:
256,256,62660,1,0,0:0:0:0:
256,256,62765,1,8,0:0:0:0:
256,256,62870,1,8,0:0:0:0:
256,256,62975,1,0,0:0:0:0:
192,128,63184,1,4,0:0:0:0:
256,256,63394,1,0,0:0:0:0:
256,256,63499,1,8,0:0:0:0:
256,256,63709,1,8,0:0:0:0:
256,256,63814,1,0,0:0:0:0:
256,256,63919,1,8,0:0:0:0:
256,256,64024,1,0,0:0:0:0:
256,256,64233,1,0,0:0:0:0:
256,256,64338,1,8,0:0:0:0:
256,256,64548,1,8,0:0:0:0:
256,256,64653,1,0,0:0:0:0:
256,256,64758,1,0,0:0:0:0:
256,256,64863,1,8,0:0:0:0:
256,256,65073,1,0,0:0:0:0:
256,256,65177,1,8,0:0:0:0:
256,256,65387,1,8,0:0:0:0:
256,256,65492,1,0,0:0:0:0:
256,256,65597,1,0,0:0:0:0:
256,256,65702,1,8,0:0:0:0:
256,256,65807,1,8,0:0:0:0:
256,256,65912,1,0,0:0:0:0:
256,256,66121,1,8,0:0:0:0:
256,256,66226,1,0,0:0:0:0:
256,256,66331,1,8,0:0:0:0:
192,128,66541,1,4,0:0:0:0:
256,256,66751,1,0,0:0:0:0:
256,256,66856,1,8,0:0:0:0:
256,256,66961,1,0,0:0:0:0:
256,256,67066,1,0,0:0:0:0:
256,256,67170,1,8,0:0:0:0:
256,256,67380,1,0,0:0:0:0:
256,256,67485,1,8,0:0:0:0:
256,256,67590,1,8,0:0:0:0:
256,256,67695,1,0,0:0:0:0:
256,256,67800,1,8,0:0:0:0:
256,256,67905,1,0,0:0:0:0:
256,256,68010,1,8,0:0:0:0:
256,256,68219,1,0,0:0:0:0:
256,256,68289,1,0,0:0:0:0:
256,256,68359,1,0,0:0:0:0:
256,256,68429,1,8,0:0:0:0:
256,256,68534,1,0,0:0:0:0:
256,256,68639,1,8,0:0:0:0:
256,256,68744,1,0,0:0:0:0:
256,256,68849,1,8,0:0:0:0:
256,256,68954,1,8,0:0:0:0:
256,256,69059,1,0,0:0:0:0:
256,256,69128,1,0,0:0:0:0:
256,256,69198,1,0,0:0:0:0:
256,256,69268,1,8,0:0:0:0:
256,256,69373,1,0,0:0:0:0:
256,256,69478,1,8,0:0:0:0:
256,256,69548,1,8,0:0:0:0:
256,256,69618,1,8,0:0:0:0:
256,256,69688,1,8,0:0:0:0:
192,128,69898,1,4,0:0:0:0:
256,256,70107,1,0,0:0:0:0:
256,256,70212,1,8,0:0:0:0:
256,256,70422,1,8,0:0:0:0:
256,256,70527,1,0,0:0:0:0:
256,256,70632,1,8,0:0:0:0:
256,256,70737,1,0,0:0:0:0:
256,256,70947,1,0,0:0:0:0:
256,256,71052,1,8,0:0:0:0:
256,256,71261,1,8,0:0:0:0:
256,256,71366,1,0,0:0:0:0:
256,256,71471,1,0,0:0:0:0:
256,256,71576,1,8,0:0:0:0:
256,256,71786,1,0,0:0:0:0:
256,256,71891,1,8,0:0:0:0:
256,256,72100,1,8,0:0:0:0:
256,256,72205,1,0,0:0:0:0:
256,256,72310,1,0,0:0:0:0:
256,256,72415,1,8,0:0:0:0:
256,256,72520,1,0,0:0:0:0:
256,256,72625,1,8,0:0:0:0:
256,256,72835,1,8,0:0:0:0:
256,256,72940,1,0,0:0:0:0:
256,256,73045,1,8,0:0:0:0:
256,256,73254,1,8,0:0:0:0:
256,256,73359,1,8,0:0:0:0:
256,256,73464,1,0,0:0:0:0:
256,256,73569,1,0,0:0:0:0:
256,256,73674,1,8,0:0:0:0:
256,256,73884,1,0,0:0:0:0:
256,256,73989,1,0,0:0:0:0:
256,256,74093,1,8,0:0:0:0:
256,256,74198,1,0,0:0:0:0:
256,256,74303,1,8,0:0:0:0:
256,256,74408,1,8,0:0:0:0:
256,256,74513,1,0,0:0:0:0:
256,256,74618,1,0,0:0:0:0:
256,256,74723,1,8,0:0:0:0:
256,256,74933,1,8,0:0:0:0:
256,256,75038,1,0,0:0:0:0:
256,256,75247,1,8,0:0:0:0:
256,256,75352,1,8,0:0:0:0:
256,256,75562,1,8,0:0:0:0:
256,256,75667,1,0,0:0:0:0:
256,256,75772,1,8,0:0:0:0:
256,256,75982,1,0,0:0:0:0:
256,256,76087,1,8,0:0:0:0:
256,256,76191,1,8,0:0:0:0:
256,256,76296,1,0,0:0:0:0:
256,256,76401,1,8,0:0:0:0:
192,128,76611,1,4,0:0:0:0:
256,256,76821,1,0,0:0:0:0:
256,256,76926,1,8,0:0:0:0:
256,256,77135,1,0,0:0:0:0:
256,256,77240,1,8,0:0:0:0:
256,256,77345,1,8,0:0:0:0:
256,256,77450,1,0,0:0:0:0:
256,256,77660,1,0,0:0:0:0:
256,256,77765,1,8,0:0:0:0:
256,256,77975,1,8,0:0:0:0:
256,256,78080,1,0,0:0:0:0:
256,256,78184,1,8,0:0:0:0:
256,256,78289,1,8,0:0:0:0:
256,256,78499,1,0,0:0:0:0:
256,256,78604,1,8,0:0:0:0:
256,256,78814,1,0,0:0:0:0:
256,256,78919,1,0,0:0:0:0:
256,256,79024,1,8,0:0:0:0:
256,256,79128,1,8,0:0:0:0:
256,256,79233,1,0,0:0:0:0:
256,256,79338,1,8,0:0:0:0:
256,256,79548,1,0,0:0:0:0:
256,256,79653,1,8,0:0:0:0:
256,256,79758,1,8,0:0:0:0:
192,128,79968,1,4,0:0:0:0:
256,256,80177,1,0,0:0:0:0:
256,256,80282,1,8,0:0:0:0:
256,256,80387,1,0,0:0:0:0:
256,256,80492,1,0,0:0:0:0:
256,256,80597,1,8,0:0:0:0:
256,256,80702,1,0,0:0:0:0:
256,256,80807,1,8,0:0:0:0:
256,256,81017,1,0,0:0:0:0:
256,256,81121,1,0,0:0:0:0:
256,256,81226,1,8,0:0:0:0:
256,256,81331,1,0,0:0:0:0:
256,256,81436,1,8,0:0:0:0:
192,128,81646,1,12,0:0:0:0:
256,256,81856,1,0,0:0:0:0:
256,256,81961,1,0,0:0:0:0:
256,256,82066,1,8,0:0:0:0:
256,256,82170,1,8,0:0:0:0:
256,256,82275,1,0,0:0:0:0:
256,256,82485,1,0,0:0:0:0:
256,256,82590,1,8,0:0:0:0:
256,256,82695,1,0,0:0:0:0:
256,256,82800,1,0,0:0:0:0:
256,256,82905,1,8,0:0:0:0:
256,256,83010,1,8,0:0:0:0:
256,256,83114,1,0,0:0:0:0:
192,128,83324,1,4,0:0:0:0:
256,256,83534,1,0,0:0:0:0:
256,256,83639,1,8,0:0:0:0:
256,256,83849,1,8,0:0:0:0:
256,256,83954,1,8,0:0:0:0:
192,128,84163,1,12,0:0:0:0:
256,256,84373,1,0,0:0:0:0:
256,256,84478,1,0,0:0:0:0:
256,256,84688,1,8,0:0:0:0:
256,256,84793,1,0,0:0:0:0:
192,128,85003,1,12,0:0:0:0:
256,256,85212,1,0,0:0:0:0:
256,256,85317,1,8,0:0:0:0:
256,256,85422,1,0,0:0:0:0:
256,256,85632,1,8,0:0:0:0:
256,256,85842,1,0,0:0:0:0:
256,256,85947,1,8,0:0:0:0:
256,256,86052,1,0,0:0:0:0:
256,256,86156,1,8,0:0:0:0:
256,256,86261,1,8,0:0:0:0:
256,256,86366,1,0,0:0:0:0:
256,256,86471,1,8,0:0:0:0:
256,256,86681,1,0,0:0:0:0:
256,256,86786,1,0,0:0:0:0:
256,256,86891,1,8,0:0:0:0:
256,256,86996,1,8,0:0:0:0:
256,256,87100,1,0,0:0:0:0:
256,256,87170,1,0,0:0:0:0:
256,256,87240,1,0,0:0:0:0:
256,256,87310,1,8,0:0:0:0:
256,256,87415,1,0,0:0:0:0:
256,256,87520,1,8,0:0:0:0:
256,256,87590,1,8,0:0:0:0:
256,256,87660,1,8,0:0:0:0:
256,256,87730,1,0,0:0:0:0:
256,256,87835,1,8,0:0:0:0:
256,256,87940,1,0,0:0:0:0:
192,128,88149,1,4,0:0:0:0:
256,192,88254,12,0,91506,0:0:0:0:
